  0
SECTION
  2
HEADER
  9
$ACADVER
  1
AC1027
  9
$ACADMAINTVER
 70
   125
  9
$DWGCODEPAGE
  3
ANSI_1252
  9
$LASTSAVEDBY
  1
fleminab
  9
$REQUIREDVERSIONS
160
                 0
  9
$INSBASE
 10
0.0
 20
0.0
 30
0.0
  9
$EXTMIN
 10
895.098765346519
 20
158.8164210927093
 30
-0.0015258207003583
  9
$EXTMAX
 10
2281.008733319717
 20
1224.79189429229
 30
0.0000000349246037
  9
$LIMMIN
 10
0.0
 20
0.0
  9
$LIMMAX
 10
420.0
 20
297.0
  9
$ORTHOMODE
 70
     0
  9
$REGENMODE
 70
     1
  9
$FILLMODE
 70
     1
  9
$QTEXTMODE
 70
     0
  9
$MIRRTEXT
 70
     0
  9
$LTSCALE
 40
1.0
  9
$ATTMODE
 70
     1
  9
$TEXTSIZE
 40
2.5
  9
$TRACEWID
 40
1.0
  9
$TEXTSTYLE
  7
Standard
  9
$CLAYER
  8
0
  9
$CELTYPE
  6
ByLayer
  9
$CECOLOR
 62
   256
  9
$CELTSCALE
 40
1.0
  9
$DISPSILH
 70
     0
  9
$DIMSCALE
 40
1.0
  9
$DIMASZ
 40
2.5
  9
$DIMEXO
 40
0.625
  9
$DIMDLI
 40
3.75
  9
$DIMRND
 40
0.0
  9
$DIMDLE
 40
0.0
  9
$DIMEXE
 40
1.25
  9
$DIMTP
 40
0.0
  9
$DIMTM
 40
0.0
  9
$DIMTXT
 40
2.5
  9
$DIMCEN
 40
2.5
  9
$DIMTSZ
 40
0.0
  9
$DIMTOL
 70
     0
  9
$DIMLIM
 70
     0
  9
$DIMTIH
 70
     0
  9
$DIMTOH
 70
     0
  9
$DIMSE1
 70
     0
  9
$DIMSE2
 70
     0
  9
$DIMTAD
 70
     1
  9
$DIMZIN
 70
     8
  9
$DIMBLK
  1

  9
$DIMASO
 70
     1
  9
$DIMSHO
 70
     1
  9
$DIMPOST
  1

  9
$DIMAPOST
  1

  9
$DIMALT
 70
     0
  9
$DIMALTD
 70
     3
  9
$DIMALTF
 40
0.03937007874016
  9
$DIMLFAC
 40
1.0
  9
$DIMTOFL
 70
     1
  9
$DIMTVP
 40
0.0
  9
$DIMTIX
 70
     0
  9
$DIMSOXD
 70
     0
  9
$DIMSAH
 70
     0
  9
$DIMBLK1
  1

  9
$DIMBLK2
  1

  9
$DIMSTYLE
  2
ISO-25
  9
$DIMCLRD
 70
     0
  9
$DIMCLRE
 70
     0
  9
$DIMCLRT
 70
     0
  9
$DIMTFAC
 40
1.0
  9
$DIMGAP
 40
0.625
  9
$DIMJUST
 70
     0
  9
$DIMSD1
 70
     0
  9
$DIMSD2
 70
     0
  9
$DIMTOLJ
 70
     0
  9
$DIMTZIN
 70
     8
  9
$DIMALTZ
 70
     0
  9
$DIMALTTZ
 70
     0
  9
$DIMUPT
 70
     0
  9
$DIMDEC
 70
     2
  9
$DIMTDEC
 70
     2
  9
$DIMALTU
 70
     2
  9
$DIMALTTD
 70
     3
  9
$DIMTXSTY
  7
Standard
  9
$DIMAUNIT
 70
     0
  9
$DIMADEC
 70
     0
  9
$DIMALTRND
 40
0.0
  9
$DIMAZIN
 70
     0
  9
$DIMDSEP
 70
    44
  9
$DIMATFIT
 70
     3
  9
$DIMFRAC
 70
     0
  9
$DIMLDRBLK
  1

  9
$DIMLUNIT
 70
     2
  9
$DIMLWD
 70
    -2
  9
$DIMLWE
 70
    -2
  9
$DIMTMOVE
 70
     0
  9
$DIMFXL
 40
1.0
  9
$DIMFXLON
 70
     0
  9
$DIMJOGANG
 40
0.7853981633974483
  9
$DIMTFILL
 70
     0
  9
$DIMTFILLCLR
 70
     0
  9
$DIMARCSYM
 70
     0
  9
$DIMLTYPE
  6

  9
$DIMLTEX1
  6

  9
$DIMLTEX2
  6

  9
$DIMTXTDIRECTION
 70
     0
  9
$LUNITS
 70
     2
  9
$LUPREC
 70
     4
  9
$SKETCHINC
 40
1.0
  9
$FILLETRAD
 40
0.0
  9
$AUNITS
 70
     0
  9
$AUPREC
 70
     0
  9
$MENU
  1
.
  9
$ELEVATION
 40
0.0
  9
$PELEVATION
 40
0.0
  9
$THICKNESS
 40
0.0
  9
$LIMCHECK
 70
     0
  9
$CHAMFERA
 40
0.0
  9
$CHAMFERB
 40
0.0
  9
$CHAMFERC
 40
0.0
  9
$CHAMFERD
 40
0.0
  9
$SKPOLY
 70
     0
  9
$TDCREATE
 40
2457498.422986111
  9
$TDUCREATE
 40
2457498.006320544
  9
$TDUPDATE
 40
2458137.412175926
  9
$TDUUPDATE
 40
2458136.953842593
  9
$TDINDWG
 40
0.0007816204
  9
$TDUSRTIMER
 40
0.0007814352
  9
$USRTIMER
 70
     1
  9
$ANGBASE
 50
0.0
  9
$ANGDIR
 70
     0
  9
$PDMODE
 70
     0
  9
$PDSIZE
 40
0.0
  9
$PLINEWID
 40
0.0
  9
$SPLFRAME
 70
     0
  9
$SPLINETYPE
 70
     6
  9
$SPLINESEGS
 70
     8
  9
$HANDSEED
  5
4D8
  9
$SURFTAB1
 70
     6
  9
$SURFTAB2
 70
     6
  9
$SURFTYPE
 70
     6
  9
$SURFU
 70
     6
  9
$SURFV
 70
     6
  9
$UCSBASE
  2

  9
$UCSNAME
  2

  9
$UCSORG
 10
0.0
 20
0.0
 30
0.0
  9
$UCSXDIR
 10
1.0
 20
0.0
 30
0.0
  9
$UCSYDIR
 10
0.0
 20
1.0
 30
0.0
  9
$UCSORTHOREF
  2

  9
$UCSORTHOVIEW
 70
     0
  9
$UCSORGTOP
 10
0.0
 20
0.0
 30
0.0
  9
$UCSORGBOTTOM
 10
0.0
 20
0.0
 30
0.0
  9
$UCSORGLEFT
 10
0.0
 20
0.0
 30
0.0
  9
$UCSORGRIGHT
 10
0.0
 20
0.0
 30
0.0
  9
$UCSORGFRONT
 10
0.0
 20
0.0
 30
0.0
  9
$UCSORGBACK
 10
0.0
 20
0.0
 30
0.0
  9
$PUCSBASE
  2

  9
$PUCSNAME
  2

  9
$PUCSORG
 10
0.0
 20
0.0
 30
0.0
  9
$PUCSXDIR
 10
1.0
 20
0.0
 30
0.0
  9
$PUCSYDIR
 10
0.0
 20
1.0
 30
0.0
  9
$PUCSORTHOREF
  2

  9
$PUCSORTHOVIEW
 70
     0
  9
$PUCSORGTOP
 10
0.0
 20
0.0
 30
0.0
  9
$PUCSORGBOTTOM
 10
0.0
 20
0.0
 30
0.0
  9
$PUCSORGLEFT
 10
0.0
 20
0.0
 30
0.0
  9
$PUCSORGRIGHT
 10
0.0
 20
0.0
 30
0.0
  9
$PUCSORGFRONT
 10
0.0
 20
0.0
 30
0.0
  9
$PUCSORGBACK
 10
0.0
 20
0.0
 30
0.0
  9
$USERI1
 70
     0
  9
$USERI2
 70
     0
  9
$USERI3
 70
     0
  9
$USERI4
 70
     0
  9
$USERI5
 70
     0
  9
$USERR1
 40
0.0
  9
$USERR2
 40
0.0
  9
$USERR3
 40
0.0
  9
$USERR4
 40
0.0
  9
$USERR5
 40
0.0
  9
$WORLDVIEW
 70
     1
  9
$SHADEDGE
 70
     3
  9
$SHADEDIF
 70
    70
  9
$TILEMODE
 70
     1
  9
$MAXACTVP
 70
    64
  9
$PINSBASE
 10
0.0
 20
0.0
 30
0.0
  9
$PLIMCHECK
 70
     0
  9
$PEXTMIN
 10
0.0
 20
0.0
 30
0.0
  9
$PEXTMAX
 10
0.0
 20
0.0
 30
0.0
  9
$PLIMMIN
 10
0.0
 20
0.0
  9
$PLIMMAX
 10
12.0
 20
9.0
  9
$UNITMODE
 70
     0
  9
$VISRETAIN
 70
     1
  9
$PLINEGEN
 70
     0
  9
$PSLTSCALE
 70
     1
  9
$TREEDEPTH
 70
  3020
  9
$CMLSTYLE
  2
Standard
  9
$CMLJUST
 70
     0
  9
$CMLSCALE
 40
20.0
  9
$PROXYGRAPHICS
 70
     1
  9
$MEASUREMENT
 70
     1
  9
$CELWEIGHT
370
    -1
  9
$ENDCAPS
280
     0
  9
$JOINSTYLE
280
     0
  9
$LWDISPLAY
290
     0
  9
$INSUNITS
 70
     4
  9
$HYPERLINKBASE
  1

  9
$STYLESHEET
  1

  9
$XEDIT
290
     1
  9
$CEPSNTYPE
380
     0
  9
$PSTYLEMODE
290
     1
  9
$FINGERPRINTGUID
  2
{2CB04704-2F0F-4A77-9B6C-A59E70C2BBA9}
  9
$VERSIONGUID
  2
{5C4E924E-4A3A-8D43-8CF0-2C7173C680C4}
  9
$EXTNAMES
290
     1
  9
$PSVPSCALE
 40
0.0
  9
$OLESTARTUP
290
     0
  9
$SORTENTS
280
   127
  9
$INDEXCTL
280
     0
  9
$HIDETEXT
280
     1
  9
$XCLIPFRAME
280
     0
  9
$HALOGAP
280
     0
  9
$OBSCOLOR
 70
   257
  9
$OBSLTYPE
280
     0
  9
$INTERSECTIONDISPLAY
280
     0
  9
$INTERSECTIONCOLOR
 70
   257
  9
$DIMASSOC
280
     2
  9
$PROJECTNAME
  1

  9
$CAMERADISPLAY
290
     0
  9
$LENSLENGTH
 40
50.0
  9
$CAMERAHEIGHT
 40
0.0
  9
$STEPSPERSEC
 40
2.0
  9
$STEPSIZE
 40
6.0
  9
$3DDWFPREC
 40
2.0
  9
$PSOLWIDTH
 40
5.0
  9
$PSOLHEIGHT
 40
80.0
  9
$LOFTANG1
 40
1.570796326794896
  9
$LOFTANG2
 40
1.570796326794896
  9
$LOFTMAG1
 40
0.0
  9
$LOFTMAG2
 40
0.0
  9
$LOFTPARAM
 70
     7
  9
$LOFTNORMALS
280
     1
  9
$LATITUDE
 40
37.795
  9
$LONGITUDE
 40
-122.394
  9
$NORTHDIRECTION
 40
0.0
  9
$TIMEZONE
 70
 -8000
  9
$LIGHTGLYPHDISPLAY
280
     1
  9
$TILEMODELIGHTSYNCH
280
     1
  9
$CMATERIAL
347
ED
  9
$SOLIDHIST
280
     1
  9
$SHOWHIST
280
     1
  9
$DWFFRAME
280
     2
  9
$DGNFRAME
280
     0
  9
$REALWORLDSCALE
290
     1
  9
$INTERFERECOLOR
 62
     1
  9
$INTERFEREOBJVS
345
FA
  9
$INTERFEREVPVS
346
48F
  9
$CSHADOW
280
     0
  9
$SHADOWPLANELOCATION
 40
0.0
  0
ENDSEC
  0
SECTION
  2
CLASSES
  0
CLASS
  1
ACDBDICTIONARYWDFLT
  2
AcDbDictionaryWithDefault
  3
ObjectDBX Classes
 90
        0
 91
        1
280
     0
281
     0
  0
CLASS
  1
DICTIONARYVAR
  2
AcDbDictionaryVar
  3
ObjectDBX Classes
 90
        0
 91
       19
280
     0
281
     0
  0
CLASS
  1
TABLESTYLE
  2
AcDbTableStyle
  3
ObjectDBX Classes
 90
     4095
 91
        1
280
     0
281
     0
  0
CLASS
  1
MATERIAL
  2
AcDbMaterial
  3
ObjectDBX Classes
 90
     1153
 91
        3
280
     0
281
     0
  0
CLASS
  1
VISUALSTYLE
  2
AcDbVisualStyle
  3
ObjectDBX Classes
 90
     4095
 91
       26
280
     0
281
     0
  0
CLASS
  1
DIMASSOC
  2
AcDbDimAssoc
  3
"AcDbDimAssoc|Product Desc:     AcDim ARX App For Dimension|Company:          Autodesk, Inc.|WEB Address:      www.autodesk.com"
 90
        0
 91
       16
280
     0
281
     0
  0
CLASS
  1
SORTENTSTABLE
  2
AcDbSortentsTable
  3
ObjectDBX Classes
 90
        0
 91
        0
280
     0
281
     0
  0
CLASS
  1
SCALE
  2
AcDbScale
  3
ObjectDBX Classes
 90
     1153
 91
       17
280
     0
281
     0
  0
CLASS
  1
MLEADERSTYLE
  2
AcDbMLeaderStyle
  3
ACDB_MLEADERSTYLE_CLASS
 90
     4095
 91
        1
280
     0
281
     0
  0
CLASS
  1
ACDBSECTIONVIEWSTYLE
  2
AcDbSectionViewStyle
  3
ObjectDBX Classes
 90
     1025
 91
        1
280
     0
281
     0
  0
CLASS
  1
ACDBDETAILVIEWSTYLE
  2
AcDbDetailViewStyle
  3
ObjectDBX Classes
 90
     1025
 91
        1
280
     0
281
     0
  0
CLASS
  1
CELLSTYLEMAP
  2
AcDbCellStyleMap
  3
ObjectDBX Classes
 90
     1152
 91
        1
280
     0
281
     0
  0
ENDSEC
  0
SECTION
  2
TABLES
  0
TABLE
  2
VPORT
  5
8
330
0
100
AcDbSymbolTable
 70
     1
1001
ACAD
1000
DbSaveVer
1071
        5
  0
VPORT
  5
EB
330
8
100
AcDbSymbolTableRecord
100
AcDbViewportTableRecord
  2
*Active
 70
     0
 10
0.0
 20
0.0
 11
1.0
 21
1.0
 12
1588.053749333118
 22
691.8041576924998
 13
0.0
 23
0.0
 14
10.0
 24
10.0
 15
10.0
 25
10.0
 16
0.0
 26
0.0
 36
1.0
 17
0.0
 27
0.0
 37
0.0
 40
1073.607755823921
 41
2.292712066905615
 42
50.0
 43
0.0
 44
0.0
 50
0.0
 51
0.0
 71
     0
 72
  1000
 73
     1
 74
     3
 75
     0
 76
     0
 77
     0
 78
     0
281
     0
 65
     1
110
0.0
120
0.0
130
0.0
111
1.0
121
0.0
131
0.0
112
0.0
122
1.0
132
0.0
 79
     0
146
0.0
348
F6
 60
     2
 61
     5
292
     1
282
     1
141
0.0
142
0.0
 63
   250
421
  3355443
1001
ACAD_NAV_VCDISPLAY
1070
     3
  0
ENDTAB
  0
TABLE
  2
LTYPE
  5
5
330
0
100
AcDbSymbolTable
 70
     2
  0
LTYPE
  5
14
330
5
100
AcDbSymbolTableRecord
100
AcDbLinetypeTableRecord
  2
ByBlock
 70
     0
  3

 72
    65
 73
     0
 40
0.0
  0
LTYPE
  5
15
330
5
100
AcDbSymbolTableRecord
100
AcDbLinetypeTableRecord
  2
ByLayer
 70
     0
  3

 72
    65
 73
     0
 40
0.0
  0
LTYPE
  5
16
330
5
100
AcDbSymbolTableRecord
100
AcDbLinetypeTableRecord
  2
Continuous
 70
     0
  3
Solid line
 72
    65
 73
     0
 40
0.0
  0
LTYPE
  5
208
330
5
100
AcDbSymbolTableRecord
100
AcDbLinetypeTableRecord
  2
DIVIDE
 70
     0
  3
Divide ____ . . ____ . . ____ . . ____ . . ____
 72
    65
 73
     6
 40
31.75
 49
12.7
 74
     0
 49
-6.349999999999999
 74
     0
 49
0.0
 74
     0
 49
-6.349999999999999
 74
     0
 49
0.0
 74
     0
 49
-6.349999999999999
 74
     0
  0
ENDTAB
  0
TABLE
  2
LAYER
  5
2
102
{ACAD_XDICTIONARY
360
211
102
}
330
0
100
AcDbSymbolTable
 70
     2
  0
LAYER
  5
10
102
{ACAD_XDICTIONARY
360
4B9
102
}
330
2
100
AcDbSymbolTableRecord
100
AcDbLayerTableRecord
  2
0
 70
     0
 62
     7
  6
Continuous
370
    -3
390
F
347
EF
348
0
  0
LAYER
  5
209
330
2
100
AcDbSymbolTableRecord
100
AcDbLayerTableRecord
  2
Defpoints
 70
     0
 62
     7
  6
Continuous
290
     0
370
    -3
390
F
347
EF
348
0
  0
ENDTAB
  0
TABLE
  2
STYLE
  5
3
330
0
100
AcDbSymbolTable
 70
     2
  0
STYLE
  5
11
330
3
100
AcDbSymbolTableRecord
100
AcDbTextStyleTableRecord
  2
Standard
 70
     0
 40
0.0
 41
1.0
 50
0.0
 71
     0
 42
2.5
  3
txt
  4
gbcbig.shx
  0
STYLE
  5
20A
330
3
100
AcDbSymbolTableRecord
100
AcDbTextStyleTableRecord
  2
ADESK2
 70
     0
 40
0.0
 41
1.0
 50
0.0
 71
     0
 42
0.065
  3

  4

1001
ACAD
1000
SimSun
1071
    34306
  0
ENDTAB
  0
TABLE
  2
VIEW
  5
6
330
0
100
AcDbSymbolTable
 70
     0
  0
ENDTAB
  0
TABLE
  2
UCS
  5
7
330
0
100
AcDbSymbolTable
 70
     0
  0
ENDTAB
  0
TABLE
  2
APPID
  5
9
330
0
100
AcDbSymbolTable
 70
     4
  0
APPID
  5
12
330
9
100
AcDbSymbolTableRecord
100
AcDbRegAppTableRecord
  2
ACAD
 70
     0
  0
APPID
  5
9E
330
9
100
AcDbSymbolTableRecord
100
AcDbRegAppTableRecord
  2
ACAD_PSEXT
 70
     0
  0
APPID
  5
4B1
330
9
100
AcDbSymbolTableRecord
100
AcDbRegAppTableRecord
  2
AcadStringInfo
 70
     0
  0
APPID
  5
4BB
330
9
100
AcDbSymbolTableRecord
100
AcDbRegAppTableRecord
  2
ACAD_NAV_VCDISPLAY
 70
     0
  0
ENDTAB
  0
TABLE
  2
DIMSTYLE
  5
A
330
0
100
AcDbSymbolTable
 70
     7
100
AcDbDimStyleTable
 71
     1
340
27
  0
DIMSTYLE
105
27
330
A
100
AcDbSymbolTableRecord
100
AcDbDimStyleTableRecord
  2
ISO-25
 70
     0
 41
2.5
 42
0.625
 43
3.75
 44
1.25
 73
     0
 74
     0
 77
     1
 78
     8
140
2.5
141
2.5
143
0.03937007874016
147
0.625
171
     3
172
     1
271
     2
272
     2
274
     3
278
    44
283
     0
284
     8
340
11
  0
DIMSTYLE
105
20B
102
{ACAD_REACTORS
330
2F0
330
2F3
330
2F6
330
2F9
330
356
330
359
330
35E
102
}
330
A
100
AcDbSymbolTableRecord
100
AcDbDimStyleTableRecord
  2
N3.5
 70
     0
 41
1.5
 42
0.5
 43
3.0
 44
0.5
 73
     0
 74
     0
 77
     1
 78
     8
 79
     2
140
3.0
141
0.0
147
0.5
172
     1
179
     3
271
     3
272
     3
288
     1
340
20A
  0
DIMSTYLE
105
20C
102
{ACAD_REACTORS
330
2E1
330
2E4
102
}
330
A
100
AcDbSymbolTableRecord
100
AcDbDimStyleTableRecord
  2
N915iso
 70
     0
 41
20.0
 42
2.0
 43
10.0
 44
2.0
 73
     0
 77
     1
 78
     8
140
15.0
141
10.0
147
2.0
172
     1
179
     1
271
     2
272
     2
288
     1
340
11
  0
DIMSTYLE
105
20D
330
A
100
AcDbSymbolTableRecord
100
AcDbDimStyleTableRecord
  2
11
 70
     0
 41
8.0
 47
0.01
 48
0.01
 73
     0
 74
     0
 77
     1
 78
     8
140
16.0
271
     2
272
     2
284
     8
340
11
  0
DIMSTYLE
105
20E
330
A
100
AcDbSymbolTableRecord
100
AcDbDimStyleTableRecord
  2
N912_ISO
 70
     0
  3
mm
 41
10.0
 42
2.0
 43
10.0
 44
2.0
 73
     0
 77
     1
140
12.0
141
0.1
147
2.0
172
     1
179
     1
271
     1
272
     1
340
11
  0
DIMSTYLE
105
20F
102
{ACAD_REACTORS
330
2DF
330
2E0
330
2E9
330
338
330
33D
330
341
330
346
330
349
330
34A
330
34D
102
}
330
A
100
AcDbSymbolTableRecord
100
AcDbDimStyleTableRecord
  2
N915
 70
     0
  4
mm
 41
20.0
 42
2.0
 43
10.0
 44
2.0
 73
     0
 74
     0
 77
     1
 78
     8
140
15.0
141
10.0
147
2.0
172
     1
179
     1
271
     2
272
     2
288
     1
340
11
  0
DIMSTYLE
105
210
330
A
100
AcDbSymbolTableRecord
100
AcDbDimStyleTableRecord
  2
N9
 70
     0
  3
mm
 41
4.5
 42
1.5
 43
6.0
 44
1.5
 73
     0
 74
     0
140
9.0
141
7.0
147
1.5
172
     1
179
     2
271
     2
272
     2
288
     1
340
11
  0
ENDTAB
  0
TABLE
  2
BLOCK_RECORD
  5
1
330
0
100
AcDbSymbolTable
 70
    39
  0
BLOCK_RECORD
  5
1F
330
1
100
AcDbSymbolTableRecord
100
AcDbBlockTableRecord
  2
*Model_Space
340
22
 70
     0
280
     1
281
     0
  0
BLOCK_RECORD
  5
D2
330
1
100
AcDbSymbolTableRecord
100
AcDbBlockTableRecord
  2
*Paper_Space
340
D3
 70
     0
280
     1
281
     0
  0
BLOCK_RECORD
  5
D6
330
1
100
AcDbSymbolTableRecord
100
AcDbBlockTableRecord
  2
*Paper_Space0
340
D7
 70
     0
280
     1
281
     0
  0
BLOCK_RECORD
  5
361
330
1
100
AcDbSymbolTableRecord
100
AcDbBlockTableRecord
  2
*D20
340
0
 70
     0
280
     1
281
     0
  0
BLOCK_RECORD
  5
36D
330
1
100
AcDbSymbolTableRecord
100
AcDbBlockTableRecord
  2
*D21
340
0
 70
     0
280
     1
281
     0
  0
BLOCK_RECORD
  5
379
330
1
100
AcDbSymbolTableRecord
100
AcDbBlockTableRecord
  2
*D22
340
0
 70
     0
280
     1
281
     0
  0
BLOCK_RECORD
  5
399
330
1
100
AcDbSymbolTableRecord
100
AcDbBlockTableRecord
  2
*D23
340
0
 70
     0
280
     1
281
     0
  0
BLOCK_RECORD
  5
3A5
330
1
100
AcDbSymbolTableRecord
100
AcDbBlockTableRecord
  2
*D24
340
0
 70
     0
280
     1
281
     0
  0
BLOCK_RECORD
  5
3B1
330
1
100
AcDbSymbolTableRecord
100
AcDbBlockTableRecord
  2
*D25
340
0
 70
     0
280
     1
281
     0
  0
BLOCK_RECORD
  5
3BA
330
1
100
AcDbSymbolTableRecord
100
AcDbBlockTableRecord
  2
*D26
340
0
 70
     0
280
     1
281
     0
  0
BLOCK_RECORD
  5
3C6
330
1
100
AcDbSymbolTableRecord
100
AcDbBlockTableRecord
  2
*D27
340
0
 70
     0
280
     1
281
     0
  0
BLOCK_RECORD
  5
3D2
330
1
100
AcDbSymbolTableRecord
100
AcDbBlockTableRecord
  2
*D28
340
0
 70
     0
280
     1
281
     0
  0
BLOCK_RECORD
  5
3DE
330
1
100
AcDbSymbolTableRecord
100
AcDbBlockTableRecord
  2
*D29
340
0
 70
     0
280
     1
281
     0
  0
BLOCK_RECORD
  5
3EA
330
1
100
AcDbSymbolTableRecord
100
AcDbBlockTableRecord
  2
*D30
340
0
 70
     0
280
     1
281
     0
  0
BLOCK_RECORD
  5
3F8
330
1
100
AcDbSymbolTableRecord
100
AcDbBlockTableRecord
  2
*D31
340
0
 70
     0
280
     1
281
     0
  0
BLOCK_RECORD
  5
406
330
1
100
AcDbSymbolTableRecord
100
AcDbBlockTableRecord
  2
*D32
340
0
 70
     0
280
     1
281
     0
  0
BLOCK_RECORD
  5
414
330
1
100
AcDbSymbolTableRecord
100
AcDbBlockTableRecord
  2
*D33
340
0
 70
     0
280
     1
281
     0
  0
BLOCK_RECORD
  5
42D
330
1
100
AcDbSymbolTableRecord
100
AcDbBlockTableRecord
  2
*D34
340
0
 70
     0
280
     1
281
     0
  0
BLOCK_RECORD
  5
435
330
1
100
AcDbSymbolTableRecord
100
AcDbBlockTableRecord
  2
*D35
340
0
 70
     0
280
     1
281
     0
  0
BLOCK_RECORD
  5
43D
330
1
100
AcDbSymbolTableRecord
100
AcDbBlockTableRecord
  2
*D36
340
0
 70
     0
280
     1
281
     0
  0
BLOCK_RECORD
  5
449
330
1
100
AcDbSymbolTableRecord
100
AcDbBlockTableRecord
  2
*D37
340
0
 70
     0
280
     1
281
     0
  0
BLOCK_RECORD
  5
457
330
1
100
AcDbSymbolTableRecord
100
AcDbBlockTableRecord
  2
*D38
340
0
 70
     0
280
     1
281
     0
  0
ENDTAB
  0
ENDSEC
  0
SECTION
  2
BLOCKS
  0
BLOCK
  5
20
330
1F
100
AcDbEntity
  8
0
100
AcDbBlockBegin
  2
*Model_Space
 70
     0
 10
0.0
 20
0.0
 30
0.0
  3
*Model_Space
  1

  0
ENDBLK
  5
21
330
1F
100
AcDbEntity
  8
0
100
AcDbBlockEnd
  0
BLOCK
  5
D4
330
D2
100
AcDbEntity
 67
     1
  8
0
100
AcDbBlockBegin
  2
*Paper_Space
 70
     0
 10
0.0
 20
0.0
 30
0.0
  3
*Paper_Space
  1

  0
ENDBLK
  5
D5
330
D2
100
AcDbEntity
 67
     1
  8
0
100
AcDbBlockEnd
  0
BLOCK
  5
D8
330
D6
100
AcDbEntity
 67
     1
  8
0
100
AcDbBlockBegin
  2
*Paper_Space0
 70
     0
 10
0.0
 20
0.0
 30
0.0
  3
*Paper_Space0
  1

  0
ENDBLK
  5
D9
330
D6
100
AcDbEntity
 67
     1
  8
0
100
AcDbBlockEnd
  0
BLOCK
  5
36B
330
361
100
AcDbEntity
  8
0
100
AcDbBlockBegin
  2
*D20
 70
     1
 10
0.0
 20
0.0
 30
0.0
  3
*D20
  1

  0
LINE
  5
387
330
361
100
AcDbEntity
  8
0
 62
     0
440
 16777216
370
    -2
100
AcDbLine
 10
2158.807666347614
 20
718.7514511513982
 30
0.0
 11
2158.807666347614
 21
623.9855395792219
 31
0.0
  0
LINE
  5
388
330
361
100
AcDbEntity
  8
0
 62
     0
440
 16777216
370
    -2
100
AcDbLine
 10
950.807666347614
 20
718.7514511513982
 30
0.0
 11
950.807666347614
 21
623.9855395792219
 31
0.0
  0
LINE
  5
389
330
361
100
AcDbEntity
  8
0
 62
     0
440
 16777216
370
    -2
100
AcDbLine
 10
2138.807666347614
 20
625.9855395792219
 30
0.0
 11
970.8076663476139
 21
625.9855395792219
 31
0.0
  0
SOLID
  5
38A
330
361
100
AcDbEntity
  8
0
 62
     0
440
 16777216
100
AcDbTrace
 10
2138.807666347614
 20
629.3188729125553
 30
0.0
 11
2138.807666347614
 21
622.6522062458886
 31
0.0
 12
2158.807666347614
 22
625.9855395792219
 32
0.0
 13
2158.807666347614
 23
625.9855395792219
 33
0.0
  0
SOLID
  5
38B
330
361
100
AcDbEntity
  8
0
 62
     0
440
 16777216
100
AcDbTrace
 10
970.8076663476139
 20
629.3188729125553
 30
0.0
 11
970.8076663476139
 21
622.6522062458886
 31
0.0
 12
950.807666347614
 22
625.9855395792219
 32
0.0
 13
950.807666347614
 23
625.9855395792219
 33
0.0
  0
MTEXT
  5
38C
330
361
100
AcDbEntity
  8
0
 62
     0
440
 16777216
100
AcDbMText
 10
1589.530905508455
 20
635.485539579222
 30
0.0
 40
15.0
 41
0.0
 46
0.0
 71
     5
 72
     1
  1
\A1;1208
 73
     1
 44
1.0
  0
POINT
  5
38D
330
361
100
AcDbEntity
  8
Defpoints
 62
     0
440
 16777216
100
AcDbPoint
 10
2158.807666347614
 20
720.7514511513982
 30
0.0
  0
POINT
  5
38E
330
361
100
AcDbEntity
  8
Defpoints
 62
     0
440
 16777216
100
AcDbPoint
 10
950.807666347614
 20
720.7514511513982
 30
0.0
  0
POINT
  5
38F
330
361
100
AcDbEntity
  8
Defpoints
 62
     0
440
 16777216
100
AcDbPoint
 10
950.807666347614
 20
625.9855395792219
 30
0.0
  0
ENDBLK
  5
36C
330
361
100
AcDbEntity
  8
0
100
AcDbBlockEnd
  0
BLOCK
  5
377
330
36D
100
AcDbEntity
  8
0
100
AcDbBlockBegin
  2
*D21
 70
     1
 10
0.0
 20
0.0
 30
0.0
  3
*D21
  1

  0
LINE
  5
390
330
36D
100
AcDbEntity
  8
0
 62
     0
440
 16777216
370
    -2
100
AcDbLine
 10
2109.807666347614
 20
1144.751451151398
 30
0.0
 11
2207.930628942055
 21
1144.751451151398
 31
0.0
  0
LINE
  5
391
330
36D
100
AcDbEntity
  8
0
 62
     0
440
 16777216
370
    -2
100
AcDbLine
 10
2109.807666347614
 20
746.7514511513982
 30
0.0
 11
2207.930628942054
 21
746.7514511513982
 31
0.0
  0
LINE
  5
392
330
36D
100
AcDbEntity
  8
0
 62
     0
440
 16777216
370
    -2
100
AcDbLine
 10
2205.930628942054
 20
1124.751451151398
 30
0.0
 11
2205.930628942054
 21
766.7514511513982
 31
0.0
  0
SOLID
  5
393
330
36D
100
AcDbEntity
  8
0
 62
     0
440
 16777216
100
AcDbTrace
 10
2202.597295608721
 20
1124.751451151398
 30
0.0
 11
2209.263962275388
 21
1124.751451151398
 31
0.0
 12
2205.930628942054
 22
1144.751451151398
 32
0.0
 13
2205.930628942054
 23
1144.751451151398
 33
0.0
  0
SOLID
  5
394
330
36D
100
AcDbEntity
  8
0
 62
     0
440
 16777216
100
AcDbTrace
 10
2202.59729560872
 20
766.7514511513982
 30
0.0
 11
2209.263962275387
 21
766.7514511513982
 31
0.0
 12
2205.930628942054
 22
746.7514511513982
 32
0.0
 13
2205.930628942054
 23
746.7514511513982
 33
0.0
  0
MTEXT
  5
395
330
36D
100
AcDbEntity
  8
0
 62
     0
440
 16777216
100
AcDbMText
 10
2196.430628942054
 20
945.7514511513982
 30
0.0
 40
15.0
 41
0.0
 46
0.0
 71
     5
 72
     1
  1
\A1;398
 11
0.0000000000000001
 21
1.0
 31
0.0
 73
     1
 44
1.0
  0
POINT
  5
396
330
36D
100
AcDbEntity
  8
Defpoints
 62
     0
440
 16777216
100
AcDbPoint
 10
2107.807666347614
 20
1144.751451151398
 30
0.0
  0
POINT
  5
397
330
36D
100
AcDbEntity
  8
Defpoints
 62
     0
440
 16777216
100
AcDbPoint
 10
2107.807666347614
 20
746.7514511513982
 30
0.0
  0
POINT
  5
398
330
36D
100
AcDbEntity
  8
Defpoints
 62
     0
440
 16777216
100
AcDbPoint
 10
2205.930628942054
 20
746.7514511513982
 30
0.0
  0
ENDBLK
  5
378
330
36D
100
AcDbEntity
  8
0
100
AcDbBlockEnd
  0
BLOCK
  5
385
330
379
100
AcDbEntity
  8
0
100
AcDbBlockBegin
  2
*D22
 70
     1
 10
0.0
 20
0.0
 30
0.0
  3
*D22
  1

  0
LINE
  5
422
330
379
100
AcDbEntity
  8
0
 62
     0
440
 16777216
370
    -2
100
AcDbLine
 10
1430.566728472954
 20
396.359794215572
 30
0.0
 11
1430.566728472954
 21
160.1557166769326
 31
0.0
  0
LINE
  5
423
330
379
100
AcDbEntity
  8
0
 62
     0
440
 16777216
370
    -2
100
AcDbLine
 10
1434.279037180056
 20
236.3492685581878
 30
0.0
 11
1434.279037180056
 21
160.1557166769326
 31
0.0
  0
LINE
  5
424
330
379
100
AcDbEntity
  8
0
 62
     0
440
 16777216
370
    -2
100
AcDbLine
 10
1410.566728472954
 20
162.1557166769326
 30
0.0
 11
1390.566728472954
 21
162.1557166769326
 31
0.0
  0
LINE
  5
425
330
379
100
AcDbEntity
  8
0
 62
     0
440
 16777216
370
    -2
100
AcDbLine
 10
1454.279037180056
 20
162.1557166769326
 30
0.0
 11
1555.839729290853
 21
162.1557166769326
 31
0.0
  0
LINE
  5
426
330
379
100
AcDbEntity
  8
0
 62
     0
440
 16777216
370
    -2
100
AcDbLine
 10
1430.566728472954
 20
162.1557166769326
 30
0.0
 11
1434.279037180056
 21
162.1557166769326
 31
0.0
  0
SOLID
  5
427
330
379
100
AcDbEntity
  8
0
 62
     0
440
 16777216
100
AcDbTrace
 10
1410.566728472954
 20
165.4890500102659
 30
0.0
 11
1410.566728472954
 21
158.8223833435992
 31
0.0
 12
1430.566728472954
 22
162.1557166769326
 32
0.0
 13
1430.566728472954
 23
162.1557166769326
 33
0.0
  0
SOLID
  5
428
330
379
100
AcDbEntity
  8
0
 62
     0
440
 16777216
100
AcDbTrace
 10
1454.279037180056
 20
165.4890500102659
 30
0.0
 11
1454.279037180056
 21
158.8223833435992
 31
0.0
 12
1434.279037180056
 22
162.1557166769326
 32
0.0
 13
1434.279037180056
 23
162.1557166769326
 33
0.0
  0
MTEXT
  5
429
330
379
100
AcDbEntity
  8
0
 62
     0
440
 16777216
100
AcDbMText
 10
1548.839729290853
 20
171.6557166769326
 30
0.0
 40
15.0
 41
0.0
 46
0.0
 71
     5
 72
     1
  1
\A1;5
 73
     1
 44
1.0
  0
POINT
  5
42A
330
379
100
AcDbEntity
  8
Defpoints
 62
     0
440
 16777216
100
AcDbPoint
 10
1430.566728472954
 20
398.3597942155721
 30
0.0
  0
POINT
  5
42B
330
379
100
AcDbEntity
  8
Defpoints
 62
     0
440
 16777216
100
AcDbPoint
 10
1434.279037180056
 20
238.3492685581877
 30
0.0
  0
POINT
  5
42C
330
379
100
AcDbEntity
  8
Defpoints
 62
     0
440
 16777216
100
AcDbPoint
 10
1434.279037180056
 20
162.1557166769326
 30
0.0
  0
ENDBLK
  5
386
330
379
100
AcDbEntity
  8
0
100
AcDbBlockEnd
  0
BLOCK
  5
3A3
330
399
100
AcDbEntity
  8
0
100
AcDbBlockBegin
  2
*D23
 70
     1
 10
0.0
 20
0.0
 30
0.0
  3
*D23
  1

  0
LINE
  5
472
330
399
100
AcDbEntity
  8
0
 62
     0
440
 16777216
370
    -2
100
AcDbLine
 10
2100.252445420289
 20
1005.239394634133
 30
0.0
 11
2060.752445420289
 21
1005.239394634133
 31
0.0
  0
LINE
  5
473
330
399
100
AcDbEntity
  8
0
 62
     0
440
 16777216
370
    -2
100
AcDbLine
 10
2060.752445420289
 20
1005.239394634133
 30
0.0
 11
2018.55336196402
 21
1001.49556980857
 31
0.0
  0
LINE
  5
474
330
399
100
AcDbEntity
  8
0
 62
     0
440
 16777216
370
    -2
100
AcDbLine
 10
1889.061970731211
 20
990.0073324942116
 30
0.0
 11
1869.140218233855
 21
988.2399113689254
 31
0.0
  0
MTEXT
  5
475
330
399
100
AcDbEntity
  8
0
 62
     0
440
 16777216
100
AcDbMText
 10
2081.502445420289
 20
1014.739394634133
 30
0.0
 40
15.0
 41
0.0
 46
0.0
 71
     5
 72
     1
  1
\A1;\U+220590
 73
     1
 44
1.0
  0
LINE
  5
476
330
399
100
AcDbEntity
  8
0
 62
     0
440
 16777216
370
    -2
100
AcDbLine
 10
1908.983723228567
 20
991.7747536194976
 30
0.0
 11
1998.631609466664
 21
999.7281486832845
 31
0.0
  0
SOLID
  5
477
330
399
100
AcDbEntity
  8
0
 62
     0
440
 16777216
100
AcDbTrace
 10
1888.767400543663
 20
993.3276245771041
 30
0.0
 11
1889.356540918759
 21
986.6870404113189
 31
0.0
 12
1908.983723228567
 22
991.7747536194976
 32
0.0
 13
1908.983723228567
 23
991.7747536194976
 33
0.0
  0
SOLID
  5
478
330
399
100
AcDbEntity
  8
0
 62
     0
440
 16777216
100
AcDbTrace
 10
2018.258791776472
 20
1004.815861891463
 30
0.0
 11
2018.847932151567
 21
998.175277725678
 31
0.0
 12
1998.631609466664
 22
999.7281486832845
 32
0.0
 13
1998.631609466664
 23
999.7281486832845
 33
0.0
  0
POINT
  5
479
330
399
100
AcDbEntity
  8
Defpoints
 62
     0
440
 16777216
100
AcDbPoint
 10
1998.631609466664
 20
999.7281486832845
 30
0.0
  0
POINT
  5
47A
330
399
100
AcDbEntity
  8
Defpoints
 62
     0
440
 16777216
100
AcDbPoint
 10
1908.983723228567
 20
991.7747536194976
 30
0.0
  0
ENDBLK
  5
3A4
330
399
100
AcDbEntity
  8
0
100
AcDbBlockEnd
  0
BLOCK
  5
3AF
330
3A5
100
AcDbEntity
  8
0
100
AcDbBlockBegin
  2
*D24
 70
     1
 10
0.0
 20
0.0
 30
0.0
  3
*D24
  1

  0
LINE
  5
47B
330
3A5
100
AcDbEntity
  8
0
 62
     0
440
 16777216
370
    -2
100
AcDbLine
 10
1712.425050221812
 20
1022.152138111335
 30
0.0
 11
1668.625334312628
 21
1022.152138111335
 31
0.0
  0
LINE
  5
47C
330
3A5
100
AcDbEntity
  8
0
 62
     0
440
 16777216
370
    -2
100
AcDbLine
 10
1668.625334312628
 20
1022.152138111335
 30
0.0
 11
1633.562184365783
 21
1012.68870205899
 31
0.0
  0
LINE
  5
47D
330
3A5
100
AcDbEntity
  8
0
 62
     0
440
 16777216
370
    -2
100
AcDbLine
 10
1508.053148329411
 20
978.8142002437689
 30
0.0
 11
1488.744065862282
 21
973.602738426044
 31
0.0
  0
MTEXT
  5
47E
330
3A5
100
AcDbEntity
  8
0
 62
     0
440
 16777216
100
AcDbMText
 10
1693.675050221812
 20
1031.652138111335
 30
0.0
 40
15.0
 41
0.0
 46
0.0
 71
     5
 72
     1
  1
\A1;\U+220590
 73
     1
 44
1.0
  0
LINE
  5
47F
330
3A5
100
AcDbEntity
  8
0
 62
     0
440
 16777216
370
    -2
100
AcDbLine
 10
1527.362230796541
 20
984.0256620614937
 30
0.0
 11
1614.253101898654
 21
1007.477240241265
 31
0.0
  0
SOLID
  5
480
330
3A5
100
AcDbEntity
  8
0
 62
     0
440
 16777216
100
AcDbTrace
 10
1507.184571359791
 20
982.032380654957
 30
0.0
 11
1508.921725299032
 21
975.5960198325807
 31
0.0
 12
1527.362230796541
 22
984.0256620614937
 32
0.0
 13
1527.362230796541
 23
984.0256620614937
 33
0.0
  0
SOLID
  5
481
330
3A5
100
AcDbEntity
  8
0
 62
     0
440
 16777216
100
AcDbTrace
 10
1632.693607396163
 20
1015.906882470178
 30
0.0
 11
1634.430761335404
 21
1009.470521647801
 31
0.0
 12
1614.253101898654
 22
1007.477240241265
 32
0.0
 13
1614.253101898654
 23
1007.477240241265
 33
0.0
  0
POINT
  5
482
330
3A5
100
AcDbEntity
  8
Defpoints
 62
     0
440
 16777216
100
AcDbPoint
 10
1614.253101898654
 20
1007.477240241265
 30
0.0
  0
POINT
  5
483
330
3A5
100
AcDbEntity
  8
Defpoints
 62
     0
440
 16777216
100
AcDbPoint
 10
1527.362230796541
 20
984.0256620614937
 30
0.0
  0
ENDBLK
  5
3B0
330
3A5
100
AcDbEntity
  8
0
100
AcDbBlockEnd
  0
BLOCK
  5
3B8
330
3B1
100
AcDbEntity
  8
0
100
AcDbBlockBegin
  2
*D25
 70
     1
 10
0.0
 20
0.0
 30
0.0
  3
*D25
  1

  0
LINE
  5
46C
330
3B1
100
AcDbEntity
  8
0
 62
     0
440
 16777216
370
    -2
100
AcDbLine
 10
2252.887811059499
 20
660.5698769047519
 30
0.0
 11
2145.820455702336
 21
740.7685144511465
 31
0.0
  0
MTEXT
  5
46D
330
3B1
100
AcDbEntity
  8
0
 62
     0
440
 16777216
100
AcDbMText
 10
2242.97605409479
 20
679.8638416054691
 30
0.0
 40
15.0
 41
0.0
 46
0.0
 71
     5
 72
     1
  1
\A1;R15
 11
0.8003654101352879
 21
-0.5995124771503697
 31
0.0
 73
     1
 44
1.0
  0
LINE
  5
46E
330
3B1
100
AcDbEntity
  8
0
 62
     0
440
 16777216
370
    -2
100
AcDbLine
 10
2117.807666347614
 20
761.7514511514
 30
0.0
 11
2129.813147499631
 21
752.7587639941539
 31
0.0
  0
SOLID
  5
46F
330
3B1
100
AcDbEntity
  8
0
 62
     0
440
 16777216
100
AcDbTrace
 10
2147.818830626171
 20
743.4363991515974
 30
0.0
 11
2143.822080778502
 21
738.1006297506956
 31
0.0
 12
2129.813147499631
 22
752.7587639941539
 32
0.0
 13
2129.813147499631
 23
752.7587639941539
 33
0.0
  0
POINT
  5
470
330
3B1
100
AcDbEntity
  8
Defpoints
 62
     0
440
 16777216
100
AcDbPoint
 10
2129.813147499631
 20
752.7587639941539
 30
0.0
  0
POINT
  5
471
330
3B1
100
AcDbEntity
  8
Defpoints
 62
     0
440
 16777216
100
AcDbPoint
 10
2117.807666347614
 20
761.7514511514
 30
0.0
  0
ENDBLK
  5
3B9
330
3B1
100
AcDbEntity
  8
0
100
AcDbBlockEnd
  0
BLOCK
  5
3C4
330
3BA
100
AcDbEntity
  8
0
100
AcDbBlockBegin
  2
*D26
 70
     1
 10
0.0
 20
0.0
 30
0.0
  3
*D26
  1

  0
LINE
  5
463
330
3BA
100
AcDbEntity
  8
0
 62
     0
440
 16777216
370
    -2
100
AcDbLine
 10
2132.427315742997
 20
1224.751451151398
 30
0.0
 11
2277.939119271139
 21
1224.751451151398
 31
0.0
  0
LINE
  5
464
330
3BA
100
AcDbEntity
  8
0
 62
     0
440
 16777216
370
    -2
100
AcDbLine
 10
2132.427315742997
 20
720.7514511514
 30
0.0
 11
2277.939119271138
 21
720.7514511514
 31
0.0
  0
LINE
  5
465
330
3BA
100
AcDbEntity
  8
0
 62
     0
440
 16777216
370
    -2
100
AcDbLine
 10
2277.439119271139
 20
1214.751451151398
 30
0.0
 11
2277.439119271138
 21
730.7514511514
 31
0.0
  0
SOLID
  5
466
330
3BA
100
AcDbEntity
  8
0
 62
     0
440
 16777216
100
AcDbTrace
 10
2275.772452604472
 20
1214.751451151398
 30
0.0
 11
2279.105785937805
 21
1214.751451151398
 31
0.0
 12
2277.439119271139
 22
1224.751451151398
 32
0.0
 13
2277.439119271139
 23
1224.751451151398
 33
0.0
  0
SOLID
  5
467
330
3BA
100
AcDbEntity
  8
0
 62
     0
440
 16777216
100
AcDbTrace
 10
2275.772452604472
 20
730.7514511514
 30
0.0
 11
2279.105785937804
 21
730.7514511514
 31
0.0
 12
2277.439119271138
 22
720.7514511514
 32
0.0
 13
2277.439119271138
 23
720.7514511514
 33
0.0
  0
MTEXT
  5
468
330
3BA
100
AcDbEntity
  8
0
 62
     0
440
 16777216
100
AcDbMText
 10
2266.939119271139
 20
956.4580394863424
 30
0.0
 40
20.0
 41
0.0
 46
0.0
 71
     5
 72
     1
  1
\A1;504
  7
ADESK2
 11
0.0000000000000001
 21
1.0
 31
0.0
 73
     1
 44
1.0
  0
POINT
  5
469
330
3BA
100
AcDbEntity
  8
Defpoints
 62
     0
440
 16777216
100
AcDbPoint
 10
2131.927315742997
 20
1224.751451151398
 30
0.0
  0
POINT
  5
46A
330
3BA
100
AcDbEntity
  8
Defpoints
 62
     0
440
 16777216
100
AcDbPoint
 10
2131.927315742997
 20
720.7514511514
 30
0.0
  0
POINT
  5
46B
330
3BA
100
AcDbEntity
  8
Defpoints
 62
     0
440
 16777216
100
AcDbPoint
 10
2277.439119271138
 20
720.7514511514
 30
0.0
  0
ENDBLK
  5
3C5
330
3BA
100
AcDbEntity
  8
0
100
AcDbBlockEnd
  0
BLOCK
  5
3D0
330
3C6
100
AcDbEntity
  8
0
100
AcDbBlockBegin
  2
*D27
 70
     1
 10
0.0
 20
0.0
 30
0.0
  3
*D27
  1

  0
LINE
  5
3C7
330
3C6
100
AcDbEntity
  8
0
 62
     0
440
 16777216
370
    -2
100
AcDbLine
 10
1939.627894266062
 20
1224.751451151398
 30
0.0
 11
1866.676612440341
 21
1224.751451151398
 31
0.0
  0
LINE
  5
3C8
330
3C6
100
AcDbEntity
  8
0
 62
     0
440
 16777216
370
    -2
100
AcDbLine
 10
1939.627894266062
 20
1144.751451151396
 30
0.0
 11
1866.676612440341
 21
1144.751451151396
 31
0.0
  0
LINE
  5
3C9
330
3C6
100
AcDbEntity
  8
0
 62
     0
440
 16777216
370
    -2
100
AcDbLine
 10
1867.176612440341
 20
1214.751451151398
 30
0.0
 11
1867.176612440341
 21
1154.751451151396
 31
0.0
  0
SOLID
  5
3CA
330
3C6
100
AcDbEntity
  8
0
 62
     0
440
 16777216
100
AcDbTrace
 10
1865.509945773674
 20
1214.751451151398
 30
0.0
 11
1868.843279107008
 21
1214.751451151398
 31
0.0
 12
1867.176612440341
 22
1224.751451151398
 32
0.0
 13
1867.176612440341
 23
1224.751451151398
 33
0.0
  0
SOLID
  5
3CB
330
3C6
100
AcDbEntity
  8
0
 62
     0
440
 16777216
100
AcDbTrace
 10
1865.509945773674
 20
1154.751451151396
 30
0.0
 11
1868.843279107008
 21
1154.751451151396
 31
0.0
 12
1867.176612440341
 22
1144.751451151396
 32
0.0
 13
1867.176612440341
 23
1144.751451151396
 33
0.0
  0
MTEXT
  5
3CC
330
3C6
100
AcDbEntity
  8
0
 62
     0
440
 16777216
100
AcDbMText
 10
1856.676612440341
 20
1179.171917579104
 30
0.0
 40
20.0
 41
0.0
 46
0.0
 71
     5
 72
     1
  1
\A1;80
  7
ADESK2
 11
0.0000000000000001
 21
1.0
 31
0.0
 73
     1
 44
1.0
  0
POINT
  5
3CD
330
3C6
100
AcDbEntity
  8
Defpoints
 62
     0
440
 16777216
100
AcDbPoint
 10
1940.127894266062
 20
1224.751451151398
 30
0.0
  0
POINT
  5
3CE
330
3C6
100
AcDbEntity
  8
Defpoints
 62
     0
440
 16777216
100
AcDbPoint
 10
1940.127894266062
 20
1144.751451151396
 30
0.0
  0
POINT
  5
3CF
330
3C6
100
AcDbEntity
  8
Defpoints
 62
     0
440
 16777216
100
AcDbPoint
 10
1867.176612440341
 20
1144.751451151396
 30
0.0
  0
ENDBLK
  5
3D1
330
3C6
100
AcDbEntity
  8
0
100
AcDbBlockEnd
  0
BLOCK
  5
3DC
330
3D2
100
AcDbEntity
  8
0
100
AcDbBlockBegin
  2
*D28
 70
     1
 10
0.0
 20
0.0
 30
0.0
  3
*D28
  1

  0
LINE
  5
3D3
330
3D2
100
AcDbEntity
  8
0
 62
     0
440
 16777216
370
    -2
100
AcDbLine
 10
1391.807666347614
 20
761.2514511513891
 30
0.0
 11
1391.807666347614
 21
685.1619403237382
 31
0.0
  0
LINE
  5
3D4
330
3D2
100
AcDbEntity
  8
0
 62
     0
440
 16777216
370
    -2
100
AcDbLine
 10
1749.807666347614
 20
761.2514511513891
 30
0.0
 11
1749.807666347614
 21
685.1619403237382
 31
0.0
  0
LINE
  5
3D5
330
3D2
100
AcDbEntity
  8
0
 62
     0
440
 16777216
370
    -2
100
AcDbLine
 10
1401.807666347614
 20
685.6619403237382
 30
0.0
 11
1739.807666347614
 21
685.6619403237382
 31
0.0
  0
SOLID
  5
3D6
330
3D2
100
AcDbEntity
  8
0
 62
     0
440
 16777216
100
AcDbTrace
 10
1401.807666347614
 20
687.3286069904049
 30
0.0
 11
1401.807666347614
 21
683.9952736570715
 31
0.0
 12
1391.807666347614
 22
685.6619403237382
 32
0.0
 13
1391.807666347614
 23
685.6619403237382
 33
0.0
  0
SOLID
  5
3D7
330
3D2
100
AcDbEntity
  8
0
 62
     0
440
 16777216
100
AcDbTrace
 10
1739.807666347614
 20
687.3286069904049
 30
0.0
 11
1739.807666347614
 21
683.9952736570715
 31
0.0
 12
1749.807666347614
 22
685.6619403237382
 32
0.0
 13
1749.807666347614
 23
685.6619403237382
 33
0.0
  0
MTEXT
  5
3D8
330
3D2
100
AcDbEntity
  8
0
 62
     0
440
 16777216
100
AcDbMText
 10
1568.620398083837
 20
696.1619403237382
 30
0.0
 40
20.0
 41
0.0
 46
0.0
 71
     5
 72
     1
  1
\A1;358
  7
ADESK2
 73
     1
 44
1.0
  0
POINT
  5
3D9
330
3D2
100
AcDbEntity
  8
Defpoints
 62
     0
440
 16777216
100
AcDbPoint
 10
1391.807666347614
 20
761.7514511513891
 30
0.0
  0
POINT
  5
3DA
330
3D2
100
AcDbEntity
  8
Defpoints
 62
     0
440
 16777216
100
AcDbPoint
 10
1749.807666347614
 20
761.7514511513891
 30
0.0
  0
POINT
  5
3DB
330
3D2
100
AcDbEntity
  8
Defpoints
 62
     0
440
 16777216
100
AcDbPoint
 10
1749.807666347614
 20
685.6619403237382
 30
0.0
  0
ENDBLK
  5
3DD
330
3D2
100
AcDbEntity
  8
0
100
AcDbBlockEnd
  0
BLOCK
  5
3E8
330
3DE
100
AcDbEntity
  8
0
100
AcDbBlockBegin
  2
*D29
 70
     1
 10
0.0
 20
0.0
 30
0.0
  3
*D29
  1

  0
LINE
  5
3DF
330
3DE
100
AcDbEntity
  8
0
 62
     0
440
 16777216
370
    -2
100
AcDbLine
 10
1774.807666347614
 20
761.2514511513891
 30
0.0
 11
1774.807666347614
 21
685.1912792836047
 31
0.0
  0
LINE
  5
3E0
330
3DE
100
AcDbEntity
  8
0
 62
     0
440
 16777216
370
    -2
100
AcDbLine
 10
2132.807666347614
 20
761.2514511513836
 30
0.0
 11
2132.807666347614
 21
685.1912792836047
 31
0.0
  0
LINE
  5
3E1
330
3DE
100
AcDbEntity
  8
0
 62
     0
440
 16777216
370
    -2
100
AcDbLine
 10
1784.807666347614
 20
685.6912792836046
 30
0.0
 11
2122.807666347614
 21
685.6912792836046
 31
0.0
  0
SOLID
  5
3E2
330
3DE
100
AcDbEntity
  8
0
 62
     0
440
 16777216
100
AcDbTrace
 10
1784.807666347614
 20
687.3579459502713
 30
0.0
 11
1784.807666347614
 21
684.024612616938
 31
0.0
 12
1774.807666347614
 22
685.6912792836046
 32
0.0
 13
1774.807666347614
 23
685.6912792836046
 33
0.0
  0
SOLID
  5
3E3
330
3DE
100
AcDbEntity
  8
0
 62
     0
440
 16777216
100
AcDbTrace
 10
2122.807666347614
 20
687.3579459502713
 30
0.0
 11
2122.807666347614
 21
684.024612616938
 31
0.0
 12
2132.807666347614
 22
685.6912792836046
 32
0.0
 13
2132.807666347614
 23
685.6912792836046
 33
0.0
  0
MTEXT
  5
3E4
330
3DE
100
AcDbEntity
  8
0
 62
     0
440
 16777216
100
AcDbMText
 10
1953.807666347614
 20
696.1912792836046
 30
0.0
 40
20.0
 41
0.0
 46
0.0
 71
     5
 72
     1
  1
\A1;358
  7
ADESK2
 73
     1
 44
1.0
  0
POINT
  5
3E5
330
3DE
100
AcDbEntity
  8
Defpoints
 62
     0
440
 16777216
100
AcDbPoint
 10
1774.807666347614
 20
761.7514511513891
 30
0.0
  0
POINT
  5
3E6
330
3DE
100
AcDbEntity
  8
Defpoints
 62
     0
440
 16777216
100
AcDbPoint
 10
2132.807666347614
 20
761.7514511513836
 30
0.0
  0
POINT
  5
3E7
330
3DE
100
AcDbEntity
  8
Defpoints
 62
     0
440
 16777216
100
AcDbPoint
 10
2132.807666347614
 20
685.6912792836046
 30
0.0
  0
ENDBLK
  5
3E9
330
3DE
100
AcDbEntity
  8
0
100
AcDbBlockEnd
  0
BLOCK
  5
3F6
330
3EA
100
AcDbEntity
  8
0
100
AcDbBlockBegin
  2
*D30
 70
     1
 10
0.0
 20
0.0
 30
0.0
  3
*D30
  1

  0
LINE
  5
3EB
330
3EA
100
AcDbEntity
  8
0
 62
     0
440
 16777216
370
    -2
100
AcDbLine
 10
1428.566728472954
 20
398.3597942155721
 30
0.0
 11
1001.467790328327
 21
398.3597942155721
 31
0.0
  0
LINE
  5
3EC
330
3EA
100
AcDbEntity
  8
0
 62
     0
440
 16777216
370
    -2
100
AcDbLine
 10
992.2211460644076
 20
423.3597942156065
 30
0.0
 11
1005.467790328327
 21
423.3597942156065
 31
0.0
  0
LINE
  5
3ED
330
3EA
100
AcDbEntity
  8
0
 62
     0
440
 16777216
370
    -2
100
AcDbLine
 10
1003.467790328327
 20
443.3597942156065
 30
0.0
 11
1003.467790328327
 21
463.3597942156066
 31
0.0
  0
LINE
  5
3EE
330
3EA
100
AcDbEntity
  8
0
 62
     0
440
 16777216
370
    -2
100
AcDbLine
 10
1003.467790328327
 20
378.3597942155722
 30
0.0
 11
1003.467790328327
 21
314.3597942155973
 31
0.0
  0
LINE
  5
3EF
330
3EA
100
AcDbEntity
  8
0
 62
     0
440
 16777216
370
    -2
100
AcDbLine
 10
1003.467790328327
 20
423.3597942156065
 30
0.0
 11
1003.467790328327
 21
398.3597942155721
 31
0.0
  0
SOLID
  5
3F0
330
3EA
100
AcDbEntity
  8
0
 62
     0
440
 16777216
100
AcDbTrace
 10
1000.134456994994
 20
443.3597942156065
 30
0.0
 11
1006.80112366166
 21
443.3597942156065
 31
0.0
 12
1003.467790328327
 22
423.3597942156065
 32
0.0
 13
1003.467790328327
 23
423.3597942156065
 33
0.0
  0
SOLID
  5
3F1
330
3EA
100
AcDbEntity
  8
0
 62
     0
440
 16777216
100
AcDbTrace
 10
1000.134456994994
 20
378.3597942155722
 30
0.0
 11
1006.80112366166
 21
378.3597942155722
 31
0.0
 12
1003.467790328327
 22
398.3597942155721
 32
0.0
 13
1003.467790328327
 23
398.3597942155721
 33
0.0
  0
MTEXT
  5
3F2
330
3EA
100
AcDbEntity
  8
0
 62
     0
440
 16777216
100
AcDbMText
 10
993.9677903283273
 20
328.8597942155975
 30
0.0
 40
15.0
 41
0.0
 46
0.0
 71
     5
 72
     1
  1
\A1;25
 11
0.0000000000000001
 21
1.0
 31
0.0
 73
     1
 44
1.0
  0
POINT
  5
3F3
330
3EA
100
AcDbEntity
  8
Defpoints
 62
     0
440
 16777216
100
AcDbPoint
 10
1430.566728472954
 20
398.3597942155721
 30
0.0
  0
POINT
  5
3F4
330
3EA
100
AcDbEntity
  8
Defpoints
 62
     0
440
 16777216
100
AcDbPoint
 10
990.2211460644075
 20
423.3597942156065
 30
0.0
  0
POINT
  5
3F5
330
3EA
100
AcDbEntity
  8
Defpoints
 62
     0
440
 16777216
100
AcDbPoint
 10
1003.467790328327
 20
423.3597942156065
 30
0.0
  0
ENDBLK
  5
3F7
330
3EA
100
AcDbEntity
  8
0
100
AcDbBlockEnd
  0
BLOCK
  5
404
330
3F8
100
AcDbEntity
  8
0
100
AcDbBlockBegin
  2
*D31
 70
     1
 10
0.0
 20
0.0
 30
0.0
  3
*D31
  1

  0
LINE
  5
3F9
330
3F8
100
AcDbEntity
  8
0
 62
     0
440
 16777216
370
    -2
100
AcDbLine
 10
2168.349162488468
 20
238.4506470317301
 30
0.0
 11
2185.499928781673
 21
238.4506470317301
 31
0.0
  0
LINE
  5
3FA
330
3F8
100
AcDbEntity
  8
0
 62
     0
440
 16777216
370
    -2
100
AcDbLine
 10
2043.691399883643
 20
223.3597942155411
 30
0.0
 11
2185.499928781673
 21
223.3597942155411
 31
0.0
  0
LINE
  5
3FB
330
3F8
100
AcDbEntity
  8
0
 62
     0
440
 16777216
370
    -2
100
AcDbLine
 10
2183.499928781673
 20
203.3597942155411
 30
0.0
 11
2183.499928781673
 21
183.3597942155411
 31
0.0
  0
LINE
  5
3FC
330
3F8
100
AcDbEntity
  8
0
 62
     0
440
 16777216
370
    -2
100
AcDbLine
 10
2183.499928781673
 20
258.45064703173
 30
0.0
 11
2183.499928781673
 21
305.638147031737
 31
0.0
  0
LINE
  5
3FD
330
3F8
100
AcDbEntity
  8
0
 62
     0
440
 16777216
370
    -2
100
AcDbLine
 10
2183.499928781673
 20
223.3597942155411
 30
0.0
 11
2183.499928781673
 21
238.4506470317301
 31
0.0
  0
SOLID
  5
3FE
330
3F8
100
AcDbEntity
  8
0
 62
     0
440
 16777216
100
AcDbTrace
 10
2180.166595448339
 20
203.3597942155411
 30
0.0
 11
2186.833262115007
 21
203.3597942155411
 31
0.0
 12
2183.499928781673
 22
223.3597942155411
 32
0.0
 13
2183.499928781673
 23
223.3597942155411
 33
0.0
  0
SOLID
  5
3FF
330
3F8
100
AcDbEntity
  8
0
 62
     0
440
 16777216
100
AcDbTrace
 10
2180.166595448339
 20
258.45064703173
 30
0.0
 11
2186.833262115007
 21
258.45064703173
 31
0.0
 12
2183.499928781673
 22
238.4506470317301
 32
0.0
 13
2183.499928781673
 23
238.4506470317301
 33
0.0
  0
MTEXT
  5
400
330
3F8
100
AcDbEntity
  8
0
 62
     0
440
 16777216
100
AcDbMText
 10
2173.999928781673
 20
293.6381470317374
 30
0.0
 40
15.0
 41
0.0
 46
0.0
 71
     5
 72
     1
  1
\A1;15
 11
0.0000000000000001
 21
1.0
 31
0.0
 73
     1
 44
1.0
  0
POINT
  5
401
330
3F8
100
AcDbEntity
  8
Defpoints
 62
     0
440
 16777216
100
AcDbPoint
 10
2166.349162488467
 20
238.4506470317301
 30
0.0
  0
POINT
  5
402
330
3F8
100
AcDbEntity
  8
Defpoints
 62
     0
440
 16777216
100
AcDbPoint
 10
2041.691399883644
 20
223.3597942155411
 30
0.0
  0
POINT
  5
403
330
3F8
100
AcDbEntity
  8
Defpoints
 62
     0
440
 16777216
100
AcDbPoint
 10
2183.499928781673
 20
223.3597942155411
 30
0.0
  0
ENDBLK
  5
405
330
3F8
100
AcDbEntity
  8
0
100
AcDbBlockEnd
  0
BLOCK
  5
412
330
406
100
AcDbEntity
  8
0
100
AcDbBlockBegin
  2
*D32
 70
     1
 10
0.0
 20
0.0
 30
0.0
  3
*D32
  1

  0
LINE
  5
407
330
406
100
AcDbEntity
  8
0
 62
     0
440
 16777216
370
    -2
100
AcDbLine
 10
2171.422595875029
 20
421.3597942155338
 30
0.0
 11
2171.422595875029
 21
171.0453095480679
 31
0.0
  0
LINE
  5
408
330
406
100
AcDbEntity
  8
0
 62
     0
440
 16777216
370
    -2
100
AcDbLine
 10
2166.349162488467
 20
236.4506470317301
 30
0.0
 11
2166.349162488467
 21
171.0453095480679
 31
0.0
  0
LINE
  5
409
330
406
100
AcDbEntity
  8
0
 62
     0
440
 16777216
370
    -2
100
AcDbLine
 10
2191.422595875029
 20
173.0453095480679
 30
0.0
 11
2211.422595875029
 21
173.0453095480679
 31
0.0
  0
LINE
  5
40A
330
406
100
AcDbEntity
  8
0
 62
     0
440
 16777216
370
    -2
100
AcDbLine
 10
2146.349162488467
 20
173.0453095480679
 30
0.0
 11
2096.09916248846
 21
173.0453095480679
 31
0.0
  0
LINE
  5
40B
330
406
100
AcDbEntity
  8
0
 62
     0
440
 16777216
370
    -2
100
AcDbLine
 10
2171.422595875029
 20
173.0453095480679
 30
0.0
 11
2166.349162488467
 21
173.0453095480679
 31
0.0
  0
SOLID
  5
40C
330
406
100
AcDbEntity
  8
0
 62
     0
440
 16777216
100
AcDbTrace
 10
2191.422595875029
 20
176.3786428814013
 30
0.0
 11
2191.422595875029
 21
169.7119762147346
 31
0.0
 12
2171.422595875029
 22
173.0453095480679
 32
0.0
 13
2171.422595875029
 23
173.0453095480679
 33
0.0
  0
SOLID
  5
40D
330
406
100
AcDbEntity
  8
0
 62
     0
440
 16777216
100
AcDbTrace
 10
2146.349162488467
 20
176.3786428814013
 30
0.0
 11
2146.349162488467
 21
169.7119762147346
 31
0.0
 12
2166.349162488467
 22
173.0453095480679
 32
0.0
 13
2166.349162488467
 23
173.0453095480679
 33
0.0
  0
MTEXT
  5
40E
330
406
100
AcDbEntity
  8
0
 62
     0
440
 16777216
100
AcDbMText
 10
2103.09916248846
 20
182.5453095480679
 30
0.0
 40
15.0
 41
0.0
 46
0.0
 71
     5
 72
     1
  1
\A1;5
 73
     1
 44
1.0
  0
POINT
  5
40F
330
406
100
AcDbEntity
  8
Defpoints
 62
     0
440
 16777216
100
AcDbPoint
 10
2171.422595875029
 20
423.3597942155338
 30
0.0
  0
POINT
  5
410
330
406
100
AcDbEntity
  8
Defpoints
 62
     0
440
 16777216
100
AcDbPoint
 10
2166.349162488467
 20
238.4506470317301
 30
0.0
  0
POINT
  5
411
330
406
100
AcDbEntity
  8
Defpoints
 62
     0
440
 16777216
100
AcDbPoint
 10
2166.349162488467
 20
173.0453095480679
 30
0.0
  0
ENDBLK
  5
413
330
406
100
AcDbEntity
  8
0
100
AcDbBlockEnd
  0
BLOCK
  5
420
330
414
100
AcDbEntity
  8
0
100
AcDbBlockBegin
  2
*D33
 70
     1
 10
0.0
 20
0.0
 30
0.0
  3
*D33
  1

  0
LINE
  5
415
330
414
100
AcDbEntity
  8
0
 62
     0
440
 16777216
370
    -2
100
AcDbLine
 10
1432.279037180055
 20
238.3492685581877
 30
0.0
 11
1405.24077466899
 21
238.3492685581877
 31
0.0
  0
LINE
  5
416
330
414
100
AcDbEntity
  8
0
 62
     0
440
 16777216
370
    -2
100
AcDbLine
 10
1556.2211460644
 20
223.3597942155721
 30
0.0
 11
1405.24077466899
 21
223.3597942155721
 31
0.0
  0
LINE
  5
417
330
414
100
AcDbEntity
  8
0
 62
     0
440
 16777216
370
    -2
100
AcDbLine
 10
1407.24077466899
 20
203.3597942155721
 30
0.0
 11
1407.24077466899
 21
183.359794215572
 31
0.0
  0
LINE
  5
418
330
414
100
AcDbEntity
  8
0
 62
     0
440
 16777216
370
    -2
100
AcDbLine
 10
1407.24077466899
 20
258.3492685581878
 30
0.0
 11
1407.24077466899
 21
305.5367685581967
 31
0.0
  0
LINE
  5
419
330
414
100
AcDbEntity
  8
0
 62
     0
440
 16777216
370
    -2
100
AcDbLine
 10
1407.24077466899
 20
223.3597942155721
 30
0.0
 11
1407.24077466899
 21
238.3492685581877
 31
0.0
  0
SOLID
  5
41A
330
414
100
AcDbEntity
  8
0
 62
     0
440
 16777216
100
AcDbTrace
 10
1403.907441335657
 20
203.3597942155721
 30
0.0
 11
1410.574108002324
 21
203.3597942155721
 31
0.0
 12
1407.24077466899
 22
223.3597942155721
 32
0.0
 13
1407.24077466899
 23
223.3597942155721
 33
0.0
  0
SOLID
  5
41B
330
414
100
AcDbEntity
  8
0
 62
     0
440
 16777216
100
AcDbTrace
 10
1403.907441335657
 20
258.3492685581878
 30
0.0
 11
1410.574108002324
 21
258.3492685581878
 31
0.0
 12
1407.24077466899
 22
238.3492685581877
 32
0.0
 13
1407.24077466899
 23
238.3492685581877
 33
0.0
  0
MTEXT
  5
41C
330
414
100
AcDbEntity
  8
0
 62
     0
440
 16777216
100
AcDbMText
 10
1397.74077466899
 20
293.5367685581969
 30
0.0
 40
15.0
 41
0.0
 46
0.0
 71
     5
 72
     1
  1
\A1;15
 11
0.0000000000000001
 21
1.0
 31
0.0
 73
     1
 44
1.0
  0
POINT
  5
41D
330
414
100
AcDbEntity
  8
Defpoints
 62
     0
440
 16777216
100
AcDbPoint
 10
1434.279037180056
 20
238.3492685581877
 30
0.0
  0
POINT
  5
41E
330
414
100
AcDbEntity
  8
Defpoints
 62
     0
440
 16777216
100
AcDbPoint
 10
1558.2211460644
 20
223.3597942155721
 30
0.0
  0
POINT
  5
41F
330
414
100
AcDbEntity
  8
Defpoints
 62
     0
440
 16777216
100
AcDbPoint
 10
1407.24077466899
 20
223.3597942155721
 30
0.0
  0
ENDBLK
  5
421
330
414
100
AcDbEntity
  8
0
100
AcDbBlockEnd
  0
BLOCK
  5
433
330
42D
100
AcDbEntity
  8
0
100
AcDbBlockBegin
  2
*D34
 70
     1
 10
0.0
 20
0.0
 30
0.0
  3
*D34
  1

  0
LINE
  5
489
330
42D
100
AcDbEntity
  8
0
 62
     0
440
 16777216
370
    -2
100
AcDbLine
 10
1694.866697723151
 20
285.5017147260814
 30
0.0
 11
1761.859615174803
 21
254.0700585286566
 31
0.0
  0
MTEXT
  5
48A
330
42D
100
AcDbEntity
  8
0
 62
     0
440
 16777216
100
AcDbMText
 10
1716.555381833735
 20
285.819490671229
 30
0.0
 40
15.0
 41
0.0
 46
0.0
 71
     5
 72
     1
  1
\A1;R15
 11
0.9053096952928457
 21
-0.4247521107761264
 31
0.0
 73
     1
 44
1.0
  0
SOLID
  5
48B
330
42D
100
AcDbEntity
  8
0
 62
     0
440
 16777216
100
AcDbTrace
 10
1763.275455544057
 20
257.0877575129661
 30
0.0
 11
1760.44377480555
 21
251.0523595443471
 31
0.0
 12
1779.96580908066
 22
245.5750163131341
 32
0.0
 13
1779.96580908066
 23
245.5750163131341
 33
0.0
  0
POINT
  5
48C
330
42D
100
AcDbEntity
  8
Defpoints
 62
     0
440
 16777216
100
AcDbPoint
 10
1779.96580908066
 20
245.5750163131341
 30
0.0
  0
POINT
  5
48D
330
42D
100
AcDbEntity
  8
Defpoints
 62
     0
440
 16777216
100
AcDbPoint
 10
1766.386163651293
 20
251.9462979747642
 30
0.0
  0
ENDBLK
  5
434
330
42D
100
AcDbEntity
  8
0
100
AcDbBlockEnd
  0
BLOCK
  5
43B
330
435
100
AcDbEntity
  8
0
100
AcDbBlockBegin
  2
*D35
 70
     1
 10
0.0
 20
0.0
 30
0.0
  3
*D35
  1

  0
LINE
  5
484
330
435
100
AcDbEntity
  8
0
 62
     0
440
 16777216
370
    -2
100
AcDbLine
 10
1906.065162735624
 20
280.5605409281406
 30
0.0
 11
1836.584264697276
 21
255.0967468710173
 31
0.0
  0
MTEXT
  5
485
330
435
100
AcDbEntity
  8
0
 62
     0
440
 16777216
100
AcDbMText
 10
1884.487006583048
 20
282.7703321072002
 30
0.0
 40
15.0
 41
0.0
 46
0.0
 71
     5
 72
     1
  1
\A1;R15
 11
0.9389310545723635
 21
0.3441053250962985
 31
0.0
 73
     1
 44
1.0
  0
SOLID
  5
486
330
435
100
AcDbEntity
  8
0
 62
     0
440
 16777216
100
AcDbTrace
 10
1835.437246946956
 20
258.2265170529252
 30
0.0
 11
1837.731282447598
 21
251.9669766891095
 31
0.0
 12
1817.805643605829
 22
248.2146403690914
 32
0.0
 13
1817.805643605829
 23
248.2146403690914
 33
0.0
  0
POINT
  5
487
330
435
100
AcDbEntity
  8
Defpoints
 62
     0
440
 16777216
100
AcDbPoint
 10
1817.805643605829
 20
248.2146403690914
 30
0.0
  0
POINT
  5
488
330
435
100
AcDbEntity
  8
Defpoints
 62
     0
440
 16777216
100
AcDbPoint
 10
1831.889609424402
 20
253.3762202455311
 30
0.0
  0
ENDBLK
  5
43C
330
435
100
AcDbEntity
  8
0
100
AcDbBlockEnd
  0
BLOCK
  5
447
330
43D
100
AcDbEntity
  8
0
100
AcDbBlockBegin
  2
*D36
 70
     1
 10
0.0
 20
0.0
 30
0.0
  3
*D36
  1

  0
LINE
  5
43E
330
43D
100
AcDbEntity
  8
0
 62
     0
440
 16777216
370
    -2
100
AcDbLine
 10
984.0211460644031
 20
423.3597942156065
 30
0.0
 11
919.6950513136881
 21
423.3597942156065
 31
0.0
  0
LINE
  5
43F
330
43D
100
AcDbEntity
  8
0
 62
     0
440
 16777216
370
    -2
100
AcDbLine
 10
1557.7211460644
 20
223.3597942155721
 30
0.0
 11
919.6950513136881
 21
223.3597942155722
 31
0.0
  0
LINE
  5
440
330
43D
100
AcDbEntity
  8
0
 62
     0
440
 16777216
370
    -2
100
AcDbLine
 10
920.1950513136882
 20
413.3597942156066
 30
0.0
 11
920.195051313688
 21
233.3597942155722
 31
0.0
  0
SOLID
  5
441
330
43D
100
AcDbEntity
  8
0
 62
     0
440
 16777216
100
AcDbTrace
 10
918.5283846470214
 20
413.3597942156066
 30
0.0
 11
921.8617179803548
 21
413.3597942156066
 31
0.0
 12
920.1950513136882
 22
423.3597942156065
 32
0.0
 13
920.1950513136882
 23
423.3597942156065
 33
0.0
  0
SOLID
  5
442
330
43D
100
AcDbEntity
  8
0
 62
     0
440
 16777216
100
AcDbTrace
 10
918.5283846470214
 20
233.3597942155722
 30
0.0
 11
921.8617179803546
 21
233.3597942155722
 31
0.0
 12
920.195051313688
 22
223.3597942155722
 32
0.0
 13
920.195051313688
 23
223.3597942155722
 33
0.0
  0
MTEXT
  5
443
330
43D
100
AcDbEntity
  8
0
 62
     0
440
 16777216
100
AcDbMText
 10
909.695051313688
 20
293.6112539724036
 30
0.0
 40
20.0
 41
0.0
 46
0.0
 71
     5
 72
     1
  1
\A1;200
  7
ADESK2
 11
0.0000000000000001
 21
1.0
 31
0.0
 73
     1
 44
1.0
  0
POINT
  5
444
330
43D
100
AcDbEntity
  8
Defpoints
 62
     0
440
 16777216
100
AcDbPoint
 10
984.5211460644032
 20
423.3597942156065
 30
0.0
  0
POINT
  5
445
330
43D
100
AcDbEntity
  8
Defpoints
 62
     0
440
 16777216
100
AcDbPoint
 10
1558.2211460644
 20
223.3597942155721
 30
0.0
  0
POINT
  5
446
330
43D
100
AcDbEntity
  8
Defpoints
 62
     0
440
 16777216
100
AcDbPoint
 10
920.195051313688
 20
223.3597942155722
 30
0.0
  0
ENDBLK
  5
448
330
43D
100
AcDbEntity
  8
0
100
AcDbBlockEnd
  0
BLOCK
  5
455
330
449
100
AcDbEntity
  8
0
100
AcDbBlockBegin
  2
*D37
 70
     1
 10
0.0
 20
0.0
 30
0.0
  3
*D37
  1

  0
LINE
  5
44A
330
449
100
AcDbEntity
  8
0
 62
     0
440
 16777216
370
    -2
100
AcDbLine
 10
1011.721146064407
 20
411.0406306175209
 30
0.0
 11
936.4128466575321
 21
411.0406306175209
 31
0.0
  0
LINE
  5
44B
330
449
100
AcDbEntity
  8
0
 62
     0
440
 16777216
370
    -2
100
AcDbLine
 10
984.0211460644031
 20
423.3597942156065
 30
0.0
 11
936.4128466575321
 21
423.3597942156065
 31
0.0
  0
LINE
  5
44C
330
449
100
AcDbEntity
  8
0
 62
     0
440
 16777216
370
    -2
100
AcDbLine
 10
936.9128466575322
 20
433.3597942156066
 30
0.0
 11
936.9128466575322
 21
443.3597942156065
 31
0.0
  0
LINE
  5
44D
330
449
100
AcDbEntity
  8
0
 62
     0
440
 16777216
370
    -2
100
AcDbLine
 10
936.9128466575322
 20
401.0406306175209
 30
0.0
 11
936.9128466575322
 21
309.4850750619654
 31
0.0
  0
LINE
  5
44E
330
449
100
AcDbEntity
  8
0
 62
     0
440
 16777216
370
    -2
100
AcDbLine
 10
936.9128466575322
 20
423.3597942156065
 30
0.0
 11
936.9128466575322
 21
411.0406306175209
 31
0.0
  0
SOLID
  5
44F
330
449
100
AcDbEntity
  8
0
 62
     0
440
 16777216
100
AcDbTrace
 10
935.2461799908656
 20
433.3597942156066
 30
0.0
 11
938.5795133241987
 21
433.3597942156066
 31
0.0
 12
936.9128466575322
 22
423.3597942156065
 32
0.0
 13
936.9128466575322
 23
423.3597942156065
 33
0.0
  0
SOLID
  5
450
330
449
100
AcDbEntity
  8
0
 62
     0
440
 16777216
100
AcDbTrace
 10
935.2461799908656
 20
401.0406306175209
 30
0.0
 11
938.5795133241987
 21
401.0406306175209
 31
0.0
 12
936.9128466575322
 22
411.0406306175209
 32
0.0
 13
936.9128466575322
 23
411.0406306175209
 33
0.0
  0
MTEXT
  5
451
330
449
100
AcDbEntity
  8
0
 62
     0
440
 16777216
100
AcDbMText
 10
926.4128466575321
 20
350.2628528397433
 30
0.0
 40
20.0
 41
0.0
 46
0.0
 71
     5
 72
     1
  1
\A1;12.319
  7
ADESK2
 11
0.0000000000000001
 21
1.0
 31
0.0
 73
     1
 44
1.0
  0
POINT
  5
452
330
449
100
AcDbEntity
  8
Defpoints
 62
     0
440
 16777216
100
AcDbPoint
 10
1012.221146064407
 20
411.0406306175209
 30
0.0
  0
POINT
  5
453
330
449
100
AcDbEntity
  8
Defpoints
 62
     0
440
 16777216
100
AcDbPoint
 10
984.5211460644032
 20
423.3597942156065
 30
0.0
  0
POINT
  5
454
330
449
100
AcDbEntity
  8
Defpoints
 62
     0
440
 16777216
100
AcDbPoint
 10
936.9128466575322
 20
423.3597942156065
 30
0.0
  0
ENDBLK
  5
456
330
449
100
AcDbEntity
  8
0
100
AcDbBlockEnd
  0
BLOCK
  5
461
330
457
100
AcDbEntity
  8
0
100
AcDbBlockBegin
  2
*D38
 70
     1
 10
0.0
 20
0.0
 30
0.0
  3
*D38
  1

  0
LINE
  5
458
330
457
100
AcDbEntity
  8
0
 62
     0
440
 16777216
370
    -2
100
AcDbLine
 10
2037.191399883644
 20
223.3597942155429
 30
0.0
 11
2239.753951056538
 21
223.3597942155429
 31
0.0
  0
LINE
  5
459
330
457
100
AcDbEntity
  8
0
 62
     0
440
 16777216
370
    -2
100
AcDbLine
 10
2199.1544914054
 20
423.3597942155301
 30
0.0
 11
2239.753951056538
 21
423.3597942155301
 31
0.0
  0
LINE
  5
45A
330
457
100
AcDbEntity
  8
0
 62
     0
440
 16777216
370
    -2
100
AcDbLine
 10
2239.253951056538
 20
233.3597942155429
 30
0.0
 11
2239.253951056538
 21
413.3597942155302
 31
0.0
  0
SOLID
  5
45B
330
457
100
AcDbEntity
  8
0
 62
     0
440
 16777216
100
AcDbTrace
 10
2237.587284389871
 20
233.3597942155429
 30
0.0
 11
2240.920617723204
 21
233.3597942155429
 31
0.0
 12
2239.253951056538
 22
223.3597942155429
 32
0.0
 13
2239.253951056538
 23
223.3597942155429
 33
0.0
  0
SOLID
  5
45C
330
457
100
AcDbEntity
  8
0
 62
     0
440
 16777216
100
AcDbTrace
 10
2237.587284389871
 20
413.3597942155302
 30
0.0
 11
2240.920617723204
 21
413.3597942155302
 31
0.0
 12
2239.253951056538
 22
423.3597942155301
 32
0.0
 13
2239.253951056538
 23
423.3597942155301
 33
0.0
  0
MTEXT
  5
45D
330
457
100
AcDbEntity
  8
0
 62
     0
440
 16777216
100
AcDbMText
 10
2228.753951056538
 20
317.1769399983877
 30
0.0
 40
20.0
 41
0.0
 46
0.0
 71
     5
 72
     1
  1
\A1;200
  7
ADESK2
 11
0.0000000000000001
 21
1.0
 31
0.0
 73
     1
 44
1.0
  0
POINT
  5
45E
330
457
100
AcDbEntity
  8
Defpoints
 62
     0
440
 16777216
100
AcDbPoint
 10
2036.691399883643
 20
223.3597942155429
 30
0.0
  0
POINT
  5
45F
330
457
100
AcDbEntity
  8
Defpoints
 62
     0
440
 16777216
100
AcDbPoint
 10
2198.654491405401
 20
423.3597942155301
 30
0.0
  0
POINT
  5
460
330
457
100
AcDbEntity
  8
Defpoints
 62
     0
440
 16777216
100
AcDbPoint
 10
2239.253951056538
 20
423.3597942155301
 30
0.0
  0
ENDBLK
  5
462
330
457
100
AcDbEntity
  8
0
100
AcDbBlockEnd
  0
ENDSEC
  0
SECTION
  2
ENTITIES
  0
LINE
  5
2BE
102
{ACAD_REACTORS
330
2F2
102
}
330
1F
100
AcDbEntity
  8
0
100
AcDbLine
 10
950.807666347614
 20
720.7514511513982
 30
0.0
 11
2158.807666347614
 21
720.7514511513982
 31
0.0
  0
LINE
  5
2BF
330
1F
100
AcDbEntity
  8
0
100
AcDbLine
 10
1416.807666347614
 20
1144.751451151396
 30
0.0
 11
991.807666347614
 21
1144.751451151396
 31
0.0
  0
LINE
  5
2C0
330
1F
100
AcDbEntity
  8
0
100
AcDbLine
 10
1789.807666347621
 20
1144.751451151403
 30
0.0
 11
1406.807666347614
 21
1144.751451151392
 31
0.0
  0
LINE
  5
2C1
102
{ACAD_REACTORS
330
2F5
102
}
330
1F
100
AcDbEntity
  8
0
100
AcDbLine
 10
2117.807666347621
 20
1144.751451151396
 30
0.0
 11
1789.807666347621
 21
1144.751451151396
 31
0.0
  0
ARC
  5
2C2
330
1F
100
AcDbEntity
  8
0
100
AcDbCircle
 10
2117.807666347621
 20
1129.751451151396
 30
0.0
 40
15.0
100
AcDbArc
 50
0.0
 51
90.0
  0
LINE
  5
2C3
330
1F
100
AcDbEntity
  8
0
100
AcDbLine
 10
2158.807666347614
 20
720.7514511513982
 30
0.0
 11
2158.807666347614
 21
1224.751451151398
 31
0.0
  0
LINE
  5
2C4
330
1F
100
AcDbEntity
  8
0
100
AcDbLine
 10
976.807666347614
 20
1129.751451151396
 30
0.0
 11
976.807666347614
 21
761.7514511513964
 31
0.0
  0
ARC
  5
2C5
330
1F
100
AcDbEntity
  8
0
100
AcDbCircle
 10
991.807666347614
 20
1129.751451151396
 30
0.0
 40
15.0
100
AcDbArc
 50
90.0
 51
180.0
  0
LINE
  5
2C6
330
1F
100
AcDbEntity
  8
0
100
AcDbLine
 10
991.807666347614
 20
746.7514511513964
 30
0.0
 11
1416.807666347614
 21
746.7514511513964
 31
0.0
  0
LINE
  5
2C7
102
{ACAD_REACTORS
330
2F2
330
2F5
102
}
330
1F
100
AcDbEntity
  8
0
100
AcDbLine
 10
2158.807666347614
 20
1224.751451151398
 30
0.0
 11
950.807666347614
 21
1224.751451151398
 31
0.0
  0
ARC
  5
2C8
330
1F
100
AcDbEntity
  8
0
100
AcDbCircle
 10
991.807666347614
 20
761.7514511513964
 30
0.0
 40
15.0
100
AcDbArc
 50
180.0
 51
270.0
  0
LINE
  5
2C9
330
1F
100
AcDbEntity
  8
0
100
AcDbLine
 10
1406.807666347614
 20
746.7514511513891
 30
0.0
 11
1799.807666347614
 21
746.7514511513927
 31
0.0
  0
ARC
  5
2CA
330
1F
100
AcDbEntity
  8
0
100
AcDbCircle
 10
1406.807666347614
 20
761.7514511513891
 30
0.0
 40
15.0
100
AcDbArc
 50
180.0
 51
270.0
  0
LINE
  5
2CB
330
1F
100
AcDbEntity
  8
0
100
AcDbLine
 10
950.807666347614
 20
1224.751451151398
 30
0.0
 11
950.807666347614
 21
720.7514511513982
 31
0.0
  0
LINE
  5
2CC
102
{ACAD_REACTORS
330
2FB
102
}
330
1F
100
AcDbEntity
  8
0
100
AcDbLine
 10
2132.807666347614
 20
761.7514511514
 30
0.0
 11
2132.807666347622
 21
1129.751451151396
 31
0.0
  0
ARC
  5
2CD
102
{ACAD_REACTORS
330
2EB
102
}
330
1F
100
AcDbEntity
  8
0
100
AcDbCircle
 10
2117.807666347614
 20
761.7514511514
 30
0.0
 40
15.0
100
AcDbArc
 50
270.0
 51
0.0
  0
LINE
  5
2CE
330
1F
100
AcDbEntity
  8
0
100
AcDbLine
 10
1774.807666347614
 20
761.7514511513891
 30
0.0
 11
1774.807666347621
 21
1129.751451151396
 31
0.0
  0
ARC
  5
2CF
330
1F
100
AcDbEntity
  8
0
100
AcDbCircle
 10
1789.807666347621
 20
1129.751451151396
 30
0.0
 40
15.0
100
AcDbArc
 50
90.0
 51
180.0
  0
LINE
  5
2D0
330
1F
100
AcDbEntity
  8
0
100
AcDbLine
 10
1749.807666347614
 20
761.7514511513891
 30
0.0
 11
1749.807666347614
 21
1129.7514511514
 31
0.0
  0
LINE
  5
2D1
102
{ACAD_REACTORS
330
2F8
102
}
330
1F
100
AcDbEntity
  8
0
100
AcDbLine
 10
1391.807666347614
 20
761.7514511513891
 30
0.0
 11
1391.807666347614
 21
1129.751451151393
 31
0.0
  0
ARC
  5
2D2
330
1F
100
AcDbEntity
  8
0
100
AcDbCircle
 10
1406.807666347614
 20
1129.751451151393
 30
0.0
 40
15.0
100
AcDbArc
 50
90.0
 51
180.0
  0
CIRCLE
  5
2D3
102
{ACAD_REACTORS
330
2E3
102
}
330
1F
100
AcDbEntity
  8
0
100
AcDbCircle
 10
1953.807666347614
 20
995.751451151391
 30
0.0
 40
45.0
  0
CIRCLE
  5
2D4
330
1F
100
AcDbEntity
  8
0
100
AcDbCircle
 10
1953.807666347614
 20
995.751451151391
 30
0.0
 40
55.0
  0
LINE
  5
2D5
330
1F
100
AcDbEntity
  8
0
100
AcDbLine
 10
2117.807666347614
 20
1129.751451151398
 30
0.0
 11
1996.646680239447
 21
1030.245202596765
 31
0.0
  0
LINE
  5
2D6
330
1F
100
AcDbEntity
  8
0
100
AcDbLine
 10
1910.968652455774
 20
1030.245202596761
 30
0.0
 11
1789.807666347614
 21
1129.751451151387
 31
0.0
  0
LINE
  5
2D7
330
1F
100
AcDbEntity
  8
0
100
AcDbLine
 10
1984.966751606404
 20
950.4291453204242
 30
0.0
 11
2117.807666347607
 21
761.7514511513909
 31
0.0
  0
LINE
  5
2D8
330
1F
100
AcDbEntity
  8
0
100
AcDbLine
 10
1922.648581088823
 20
950.4291453204242
 30
0.0
 11
1789.807666347607
 21
761.7514511513909
 31
0.0
  0
LINE
  5
2D9
330
1F
100
AcDbEntity
  8
0
100
AcDbLine
 10
1789.807666347614
 20
746.7514511513891
 30
0.0
 11
2117.807666347614
 21
746.7514511514
 31
0.0
  0
ARC
  5
2DA
102
{ACAD_REACTORS
330
2FB
102
}
330
1F
100
AcDbEntity
  8
0
100
AcDbCircle
 10
1789.807666347614
 20
761.7514511513891
 30
0.0
 40
15.0
100
AcDbArc
 50
180.0
 51
270.0
  0
LINE
  5
2DB
330
1F
100
AcDbEntity
  8
0
100
AcDbLine
 10
991.807666347614
 20
1129.751451151396
 30
0.0
 11
1391.807666347614
 21
970.7514511513927
 31
0.0
  0
LINE
  5
2DC
330
1F
100
AcDbEntity
  8
0
100
AcDbLine
 10
1391.807666347614
 20
920.7514511513927
 30
0.0
 11
991.807666347614
 21
761.7514511513964
 31
0.0
  0
CIRCLE
  5
2DD
102
{ACAD_REACTORS
330
2E6
102
}
330
1F
100
AcDbEntity
  8
0
100
AcDbCircle
 10
1570.807666347614
 20
995.7514511513837
 30
0.0
 40
45.0
  0
CIRCLE
  5
2DE
330
1F
100
AcDbEntity
  8
0
100
AcDbCircle
 10
1570.807666347614
 20
995.7514511513837
 30
0.0
 40
55.0
  0
DIMENSION
  5
2DF
330
1F
100
AcDbEntity
  8
0
100
AcDbDimension
280
     0
  2
*D20
 10
950.807666347614
 20
625.9855395792219
 30
0.0
 11
1589.530905508455
 21
625.9855395792219
 31
0.0
 70
   160
 71
     5
 42
1208.0
 73
     0
 74
     0
 75
     0
  3
N915
100
AcDbAlignedDimension
 13
2158.807666347614
 23
720.7514511513982
 33
0.0
 14
950.807666347614
 24
720.7514511513982
 34
0.0
100
AcDbRotatedDimension
  0
DIMENSION
  5
2E0
330
1F
100
AcDbEntity
  8
0
100
AcDbDimension
280
     0
  2
*D21
 10
2205.930628942054
 20
746.7514511513982
 30
0.0
 11
2205.930628942054
 21
945.7514511513982
 31
0.0
 70
   160
 71
     5
 42
398.0
 73
     0
 74
     0
 75
     0
  3
N915
100
AcDbAlignedDimension
 13
2107.807666347614
 23
1144.751451151398
 33
0.0
 14
2107.807666347614
 24
746.7514511513982
 34
0.0
 50
90.0
100
AcDbRotatedDimension
  0
DIMENSION
  5
2E1
102
{ACAD_XDICTIONARY
360
2E2
102
}
102
{ACAD_REACTORS
330
2E3
102
}
330
1F
100
AcDbEntity
  8
0
100
AcDbDimension
280
     0
  2
*D23
 10
1908.983723228567
 20
991.7747536194976
 30
0.0
 11
2060.752445420289
 21
1005.239394634133
 31
0.0
 70
   163
 71
     5
 42
89.99999999999728
 73
     0
 74
     0
 75
     0
  3
N915iso
100
AcDbDiametricDimension
 15
1998.631609466664
 25
999.7281486832845
 35
0.0
 40
0.0
1001
ACAD
1000
DSTYLE
1002
{
1070
   271
1070
     1
1002
}
  0
DIMENSION
  5
2E4
102
{ACAD_XDICTIONARY
360
2E5
102
}
102
{ACAD_REACTORS
330
2E6
102
}
330
1F
100
AcDbEntity
  8
0
100
AcDbDimension
280
     0
  2
*D24
 10
1527.362230796541
 20
984.0256620614937
 30
0.0
 11
1693.675050221812
 21
1022.152138111335
 31
0.0
 70
   163
 71
     5
 42
90.00000000003387
 73
     0
 74
     0
 75
     0
  3
N915iso
100
AcDbDiametricDimension
 15
1614.253101898654
 25
1007.477240241265
 35
0.0
 40
0.0
1001
ACAD
1000
DSTYLE
1002
{
1070
   271
1070
     1
1002
}
  0
ARC
  5
2E7
102
{ACAD_REACTORS
330
2F8
102
}
330
1F
100
AcDbEntity
  8
0
100
AcDbCircle
 10
1734.807666347614
 20
761.7514511513891
 30
0.0
 40
15.0
100
AcDbArc
 50
270.0
 51
0.0
  0
ARC
  5
2E8
330
1F
100
AcDbEntity
  8
0
100
AcDbCircle
 10
1734.807666347614
 20
1129.7514511514
 30
0.0
 40
15.0
100
AcDbArc
 50
0.0
 51
90.0
  0
DIMENSION
  5
2E9
102
{ACAD_XDICTIONARY
360
2EA
102
}
102
{ACAD_REACTORS
330
2EB
102
}
330
1F
100
AcDbEntity
  8
0
100
AcDbDimension
280
     0
  2
*D25
 10
2117.807666347614
 20
761.7514511514
 30
0.0
 11
2237.280685561861
 21
672.260370209184
 31
0.0
 70
   164
 71
     5
 42
14.99999999998431
 73
     0
 74
     0
 75
     0
  3
N915
100
AcDbRadialDimension
 15
2129.813147499631
 25
752.7587639941539
 35
0.0
 40
0.0
1001
ACAD
1000
DSTYLE
1002
{
1070
   279
1070
     1
1002
}
  0
LINE
  5
2EC
330
1F
100
AcDbEntity
  8
0
100
AcDbLine
 10
1613.398449982332
 20
1030.55123777976
 30
0.0
 11
1734.807666347614
 21
1129.751451151391
 31
0.0
  0
LINE
  5
2ED
330
1F
100
AcDbEntity
  8
0
100
AcDbLine
 10
1406.807666347614
 20
1129.751451151391
 30
0.0
 11
1528.216882712889
 21
1030.551237779749
 31
0.0
  0
LINE
  5
2EE
330
1F
100
AcDbEntity
  8
0
100
AcDbLine
 10
1539.241406727768
 20
950.7117880352744
 30
0.0
 11
1406.807666347614
 21
761.75145115138
 31
0.0
  0
LINE
  5
2EF
330
1F
100
AcDbEntity
  8
0
100
AcDbLine
 10
1602.373925967459
 20
950.7117880352744
 30
0.0
 11
1734.807666347614
 21
761.7514511513872
 31
0.0
  0
DIMENSION
  5
2F0
102
{ACAD_XDICTIONARY
360
2F1
102
}
102
{ACAD_REACTORS
330
2F2
102
}
330
1F
100
AcDbEntity
  8
0
100
AcDbDimension
280
     0
  2
*D26
 10
2277.439119271138
 20
720.7514511514
 30
0.0
 11
2277.439119271138
 21
956.4580394863424
 31
0.0
 70
   160
 71
     5
 42
503.9999999999982
 73
     0
 74
     0
 75
     0
  3
N3.5
100
AcDbAlignedDimension
 13
2131.927315742997
 23
1224.751451151398
 33
0.0
 14
2131.927315742997
 24
720.7514511514
 34
0.0
 50
90.0
100
AcDbRotatedDimension
1001
ACAD
1000
DSTYLE
1002
{
1070
    41
1040
10.0
1070
    49
1040
1.25
1070
    50
1040
1.570796326794896
1070
   140
1040
20.0
1002
}
  0
DIMENSION
  5
2F3
102
{ACAD_XDICTIONARY
360
2F4
102
}
102
{ACAD_REACTORS
330
2F5
102
}
330
1F
100
AcDbEntity
  8
0
100
AcDbDimension
280
     0
  2
*D27
 10
1867.176612440341
 20
1144.751451151396
 30
0.0
 11
1867.176612440341
 21
1179.171917579104
 31
0.0
 70
   160
 71
     5
 42
80.00000000000182
 73
     0
 74
     0
 75
     0
  3
N3.5
100
AcDbAlignedDimension
 13
1940.127894266062
 23
1224.751451151398
 33
0.0
 14
1940.127894266062
 24
1144.751451151396
 34
0.0
 50
90.0
100
AcDbRotatedDimension
1001
ACAD
1000
DSTYLE
1002
{
1070
    41
1040
10.0
1070
    49
1040
1.25
1070
    50
1040
1.570796326794896
1070
   140
1040
20.0
1002
}
  0
DIMENSION
  5
2F6
102
{ACAD_XDICTIONARY
360
2F7
102
}
102
{ACAD_REACTORS
330
2F8
102
}
330
1F
100
AcDbEntity
  8
0
100
AcDbDimension
280
     0
  2
*D28
 10
1749.807666347614
 20
685.6619403237382
 30
0.0
 11
1568.620398083837
 21
685.6619403237382
 31
0.0
 70
   160
 71
     5
 42
358.0
 73
     0
 74
     0
 75
     0
  3
N3.5
100
AcDbAlignedDimension
 13
1391.807666347614
 23
761.7514511513891
 33
0.0
 14
1749.807666347614
 24
761.7514511513891
 34
0.0
100
AcDbRotatedDimension
1001
ACAD
1000
DSTYLE
1002
{
1070
    41
1040
10.0
1070
    49
1040
1.25
1070
    50
1040
1.570796326794896
1070
   140
1040
20.0
1002
}
  0
DIMENSION
  5
2F9
102
{ACAD_XDICTIONARY
360
2FA
102
}
102
{ACAD_REACTORS
330
2FB
102
}
330
1F
100
AcDbEntity
  8
0
100
AcDbDimension
280
     0
  2
*D29
 10
2132.807666347614
 20
685.6912792836046
 30
0.0
 11
1953.807666347614
 21
685.6912792836046
 31
0.0
 70
   160
 71
     5
 42
358.0
 73
     0
 74
     0
 75
     0
  3
N3.5
100
AcDbAlignedDimension
 13
1774.807666347614
 23
761.7514511513891
 33
0.0
 14
2132.807666347614
 24
761.7514511513836
 34
0.0
100
AcDbRotatedDimension
1001
ACAD
1000
DSTYLE
1002
{
1070
    41
1040
10.0
1070
    49
1040
1.25
1070
    50
1040
1.570796326794896
1070
   140
1040
20.0
1002
}
  0
LINE
  5
2FD
330
1F
100
AcDbEntity
  8
0
100
AcDbLine
 10
1012.221146064407
 20
411.3288222003611
 30
0.0
 11
1012.221146064407
 21
421.659794215604
 31
0.0
  0
ARC
  5
2FE
330
1F
100
AcDbEntity
  8
0
100
AcDbCircle
 10
1012.721146064407
 20
411.3288222003611
 30
0.0
 40
0.5
100
AcDbArc
 50
180.0
 51
267.4579424027921
  0
LINE
  5
2FF
330
1F
100
AcDbEntity
  8
0
100
AcDbLine
 10
1011.021146064403
 20
411.3288222003648
 30
0.0
 11
1011.021146064403
 21
421.6597942156004
 31
0.0
  0
ARC
  5
300
330
1F
100
AcDbEntity
  8
0
100
AcDbCircle
 10
1012.7211460644
 20
411.3288222003648
 30
0.0
 40
1.7
100
AcDbArc
 50
180.0
 51
267.4579424027921
  0
ARC
  5
301
330
1F
100
AcDbEntity
  8
0
100
AcDbCircle
 10
1010.521146064403
 20
421.6597942156004
 30
0.0
 40
0.5
100
AcDbArc
 50
0.0
 51
90.0
  0
ARC
  5
302
330
1F
100
AcDbEntity
  8
0
100
AcDbCircle
 10
1010.52114606441
 20
421.659794215604
 30
0.0
 40
1.7
100
AcDbArc
 50
0.0
 51
90.0
  0
LINE
  5
303
330
1F
100
AcDbEntity
  8
0
100
AcDbLine
 10
1935.928631378844
 20
229.5507450397217
 30
0.0
 11
1941.2211460644
 21
224.5597942155491
 31
0.0
  0
LINE
  5
304
330
1F
100
AcDbEntity
  8
0
100
AcDbLine
 10
1935.410223926058
 20
228.390197506933
 30
0.0
 11
1940.744574880785
 21
223.3597942155484
 31
0.0
  0
LINE
  5
305
330
1F
100
AcDbEntity
  8
0
100
AcDbLine
 10
1941.2211460644
 20
224.5597942155491
 30
0.0
 11
2041.2211460644
 21
224.5597942155382
 31
0.0
  0
LINE
  5
306
330
1F
100
AcDbEntity
  8
0
100
AcDbLine
 10
1940.744574880785
 20
223.3597942155484
 30
0.0
 11
2041.691399883644
 21
223.3597942155411
 31
0.0
  0
LINE
  5
307
330
1F
100
AcDbEntity
  8
0
100
AcDbLine
 10
2041.2211460644
 20
224.5597942155419
 30
0.0
 11
2046.620984121762
 21
229.5597942155455
 31
0.0
  0
LINE
  5
308
330
1F
100
AcDbEntity
  8
0
100
AcDbLine
 10
2041.691399883644
 20
223.3597942155411
 30
0.0
 11
2047.133289693292
 21
228.398732190939
 31
0.0
  0
LINE
  5
309
330
1F
100
AcDbEntity
  8
0
100
AcDbLine
 10
2165.547040030459
 20
252.9648221679181
 30
0.0
 11
2170.155403980714
 21
420.9273371189028
 31
0.0
  0
ARC
  5
30A
330
1F
100
AcDbEntity
  8
0
100
AcDbCircle
 10
2150.552682704399
 20
253.3762202455146
 30
0.0
 40
15.0
100
AcDbArc
 50
274.8196036489385
 51
358.4283780218424
  0
ARC
  5
30B
330
1F
100
AcDbEntity
  8
0
100
AcDbCircle
 10
2150.552682704399
 20
253.3762202455146
 30
0.0
 40
16.2
100
AcDbArc
 50
274.8196036489385
 51
358.4283780218424
  0
LINE
  5
30C
330
1F
100
AcDbEntity
  8
0
100
AcDbLine
 10
2166.7449509794
 20
252.8757723358376
 30
0.0
 11
2171.354965944568
 21
420.894916525287
 31
0.0
  0
LINE
  5
30D
330
1F
100
AcDbEntity
  8
0
100
AcDbLine
 10
2198.654491405401
 20
423.3597942155301
 30
0.0
 11
984.5211460644032
 21
423.3597942156065
 31
0.0
  0
LINE
  5
30E
330
1F
100
AcDbEntity
  8
0
100
AcDbLine
 10
1807.160865592069
 20
422.1597942155549
 30
0.0
 11
1791.068843811689
 21
422.1597942155567
 31
0.0
  0
ARC
  5
30F
330
1F
100
AcDbEntity
  8
0
100
AcDbCircle
 10
2172.6544914054
 20
420.8597942155338
 30
0.0
 40
2.5
100
AcDbArc
 50
90.0
 51
178.4518423009945
  0
ARC
  5
310
330
1F
100
AcDbEntity
  8
0
100
AcDbCircle
 10
2172.6544914054
 20
420.8597942155338
 30
0.0
 40
1.3
100
AcDbArc
 50
90.0
 51
178.4518423009945
  0
LINE
  5
311
330
1F
100
AcDbEntity
  8
0
100
AcDbLine
 10
1653.2211460644
 20
224.5597942155673
 30
0.0
 11
1653.2211460644
 21
223.3597942155666
 31
0.0
  0
LINE
  5
312
330
1F
100
AcDbEntity
  8
0
100
AcDbLine
 10
1563.2211460644
 20
224.5597942155764
 30
0.0
 11
1563.2211460644
 21
223.3597942155721
 31
0.0
  0
LINE
  5
313
330
1F
100
AcDbEntity
  8
0
100
AcDbLine
 10
1429.448467946812
 20
396.0102475811909
 30
0.0
 11
1433.8215641256
 21
251.3862804530508
 31
0.0
  0
ARC
  5
314
330
1F
100
AcDbEntity
  8
0
100
AcDbCircle
 10
1450.011599543523
 20
251.9543941445972
 30
0.0
 40
16.2
100
AcDbArc
 50
182.0097032326956
 51
259.6951535310651
  0
LINE
  5
315
330
1F
100
AcDbEntity
  8
0
100
AcDbLine
 10
1430.647678457125
 20
396.0523103445666
 30
0.0
 11
1435.019660817318
 21
251.4287062420881
 31
0.0
  0
ARC
  5
316
330
1F
100
AcDbEntity
  8
0
100
AcDbCircle
 10
1450.010438993745
 20
251.9546051536508
 30
0.0
 40
15.0
100
AcDbArc
 50
182.00919763264
 51
259.6951535310651
  0
LINE
  5
317
330
1F
100
AcDbEntity
  8
0
100
AcDbLine
 10
1447.113655444683
 20
236.015701600978
 30
0.0
 11
1553.2211460644
 21
228.359794215572
 31
0.0
  0
LINE
  5
318
330
1F
100
AcDbEntity
  8
0
100
AcDbLine
 10
1447.327157420751
 20
237.196556502151
 30
0.0
 11
1553.804613970879
 21
229.4733825839394
 31
0.0
  0
LINE
  5
319
330
1F
100
AcDbEntity
  8
0
100
AcDbLine
 10
1553.221146064407
 20
228.359794215572
 30
0.0
 11
1558.2211460644
 21
223.3597942155721
 31
0.0
  0
LINE
  5
31A
330
1F
100
AcDbEntity
  8
0
100
AcDbLine
 10
1553.804613970879
 20
229.4733825839394
 30
0.0
 11
1558.71820233925
 21
224.5597942155764
 31
0.0
  0
LINE
  5
31B
330
1F
100
AcDbEntity
  8
0
100
AcDbLine
 10
1558.2211460644
 20
223.3597942155721
 30
0.0
 11
1658.221146064393
 21
223.3597942155648
 31
0.0
  0
LINE
  5
31C
330
1F
100
AcDbEntity
  8
0
100
AcDbLine
 10
1558.71820233925
 20
224.5597942155764
 30
0.0
 11
1657.724089789543
 21
224.5597942155618
 31
0.0
  0
LINE
  5
31D
330
1F
100
AcDbEntity
  8
0
100
AcDbLine
 10
1653.221146064393
 20
224.5597942155709
 30
0.0
 11
1653.221146064393
 21
223.3597942155666
 31
0.0
  0
LINE
  5
31E
330
1F
100
AcDbEntity
  8
0
100
AcDbLine
 10
1769.284246910681
 20
236.0076307330692
 30
0.0
 11
1663.221146064393
 21
228.3597942155648
 31
0.0
  0
LINE
  5
31F
330
1F
100
AcDbEntity
  8
0
100
AcDbLine
 10
1769.069445224294
 20
237.1882493232642
 30
0.0
 11
1662.637678157914
 21
229.4733825839321
 31
0.0
  0
LINE
  5
320
330
1F
100
AcDbEntity
  8
0
100
AcDbLine
 10
1663.221146064393
 20
228.3597942155648
 30
0.0
 11
1658.221146064393
 21
223.3597942155648
 31
0.0
  0
LINE
  5
321
330
1F
100
AcDbEntity
  8
0
100
AcDbLine
 10
1662.637678157906
 20
229.4733825839321
 30
0.0
 11
1657.724089789543
 21
224.5597942155691
 31
0.0
  0
LINE
  5
322
330
1F
100
AcDbEntity
  8
0
100
AcDbLine
 10
2046.620984121754
 20
229.5597942155382
 30
0.0
 11
2151.812964504662
 21
238.4292576850494
 31
0.0
  0
LINE
  5
323
330
1F
100
AcDbEntity
  8
0
100
AcDbLine
 10
2047.133289693292
 20
228.398732190939
 30
0.0
 11
2151.913787048679
 21
237.2335006802168
 31
0.0
  0
LINE
  5
324
330
1F
100
AcDbEntity
  8
0
100
AcDbLine
 10
1816.895252098334
 20
252.9648221679363
 30
0.0
 11
1812.359020429166
 21
418.2983087982665
 31
0.0
  0
ARC
  5
325
102
{ACAD_REACTORS
330
34F
102
}
330
1F
100
AcDbEntity
  8
0
100
AcDbCircle
 10
1831.889609424402
 20
253.3762202455309
 30
0.0
 40
15.0
100
AcDbArc
 50
181.5716219781576
 51
265.1803963510615
  0
ARC
  5
326
330
1F
100
AcDbEntity
  8
0
100
AcDbCircle
 10
1831.889609424402
 20
253.3762202455309
 30
0.0
 40
16.2
100
AcDbArc
 50
181.5716219781576
 51
265.1803963510615
  0
LINE
  5
327
330
1F
100
AcDbEntity
  8
0
100
AcDbLine
 10
1815.697341149372
 20
252.8757723366816
 30
0.0
 11
1811.159360815542
 21
418.2695026830461
 31
0.0
  0
LINE
  5
328
330
1F
100
AcDbEntity
  8
0
100
AcDbLine
 10
1935.928631378837
 20
229.5507450397217
 30
0.0
 11
1830.629327624139
 21
238.4292576850658
 31
0.0
  0
LINE
  5
329
330
1F
100
AcDbEntity
  8
0
100
AcDbLine
 10
1935.410223926051
 20
228.3901975069402
 30
0.0
 11
1830.528505080122
 21
237.2335006802368
 31
0.0
  0
LINE
  5
32A
102
{ACAD_REACTORS
330
360
102
}
330
1F
100
AcDbEntity
  8
0
100
AcDbLine
 10
2036.691399883643
 20
224.55979421554
 30
0.0
 11
2036.691399883643
 21
223.3597942155429
 31
0.0
  0
LINE
  5
32B
330
1F
100
AcDbEntity
  8
0
100
AcDbLine
 10
1945.744574880785
 20
224.5597942155491
 30
0.0
 11
1945.744574880785
 21
223.3597942155484
 31
0.0
  0
LINE
  5
32C
330
1F
100
AcDbEntity
  8
0
100
AcDbLine
 10
1782.578727144912
 20
251.450950469909
 30
0.0
 11
1787.070714346727
 21
418.2821084888346
 31
0.0
  0
ARC
  5
32D
330
1F
100
AcDbEntity
  8
0
100
AcDbCircle
 10
1766.38630281184
 20
251.9463232766884
 30
0.0
 40
16.2
100
AcDbArc
 50
280.304846468935
 51
358.2477039389566
  0
LINE
  5
32E
330
1F
100
AcDbEntity
  8
0
100
AcDbLine
 10
1781.379141210714
 20
251.4873601765357
 30
0.0
 11
1785.868843920417
 21
418.1608576199578
 31
0.0
  0
ARC
  5
32F
102
{ACAD_REACTORS
330
34C
102
}
330
1F
100
AcDbEntity
  8
0
100
AcDbCircle
 10
1766.386163651293
 20
251.9462979747641
 30
0.0
 40
15.0
100
AcDbArc
 50
280.304846468935
 51
358.2467131237794
  0
LINE
  5
330
330
1F
100
AcDbEntity
  8
0
  6
DIVIDE
 62
     2
 48
0.01
100
AcDbLine
 10
1012.407449369141
 20
410.8458246435693
 30
0.0
 11
1012.221146064407
 21
410.8505278873635
 31
0.0
  0
LINE
  5
331
102
{ACAD_REACTORS
330
35B
102
}
330
1F
100
AcDbEntity
  8
0
  6
DIVIDE
 62
     2
 48
0.01
100
AcDbLine
 10
1012.221146064407
 20
410.8505278873635
 30
0.0
 11
1012.221146064407
 21
411.0406306175209
 31
0.0
  0
LINE
  5
332
330
1F
100
AcDbEntity
  8
0
100
AcDbLine
 10
1428.260097228825
 20
398.4622003607256
 30
0.0
 11
1012.698969704183
 21
410.8293142334114
 31
0.0
  0
ARC
  5
333
330
1F
100
AcDbEntity
  8
0
100
AcDbCircle
 10
1428.149215427719
 20
395.9646605259732
 30
0.0
 40
2.5
100
AcDbArc
 50
2.009197632640102
 51
87.45794240279211
  0
LINE
  5
334
330
1F
100
AcDbEntity
  8
0
100
AcDbLine
 10
1428.206926110343
 20
397.2633789249558
 30
0.0
 11
1012.645746439649
 21
409.6304951127312
 31
0.0
  0
ARC
  5
335
330
1F
100
AcDbEntity
  8
0
100
AcDbCircle
 10
1428.149267573773
 20
395.9646582108799
 30
0.0
 40
1.3
100
AcDbArc
 50
2.009703232695647
 51
87.45794240279211
  0
LINE
  5
336
330
1F
100
AcDbEntity
  8
0
  6
DIVIDE
 62
     2
 48
0.01
100
AcDbLine
 10
1430.598298966736
 20
397.4598755058796
 30
0.0
 11
1430.566728472954
 21
398.3597942155721
 31
0.0
  0
LINE
  5
337
102
{ACAD_REACTORS
330
33A
102
}
330
1F
100
AcDbEntity
  8
0
  6
DIVIDE
 62
     2
 48
0.01
100
AcDbLine
 10
1430.566728472954
 20
398.3597942155721
 30
0.0
 11
1429.667142287745
 21
398.3997326122299
 31
0.0
  0
DIMENSION
  5
338
102
{ACAD_XDICTIONARY
360
339
102
}
102
{ACAD_REACTORS
330
33A
102
}
330
1F
100
AcDbEntity
  8
0
100
AcDbDimension
280
     0
  2
*D30
 10
1003.467790328327
 20
423.3597942156065
 30
0.0
 11
1003.467790328327
 21
328.8597942155975
 31
0.0
 70
   160
 71
     5
 42
25.00000000003445
 73
     0
 74
     0
 75
     0
  3
N915
100
AcDbAlignedDimension
 13
1430.566728472954
 23
398.3597942155721
 33
0.0
 14
990.2211460644075
 24
423.3597942156065
 34
0.0
 50
90.0
100
AcDbRotatedDimension
  0
LINE
  5
33B
330
1F
100
AcDbEntity
  8
0
  6
DIVIDE
 62
     2
 48
0.01
100
AcDbLine
 10
2157.070361440795
 20
237.6682871345911
 30
0.0
 11
2166.349162488467
 21
238.4506470317301
 31
0.0
  0
LINE
  5
33C
102
{ACAD_REACTORS
330
33F
102
}
330
1F
100
AcDbEntity
  8
0
  6
DIVIDE
 62
     2
 48
0.01
100
AcDbLine
 10
2166.349162488467
 20
238.4506470317301
 30
0.0
 11
2166.604615095906
 21
247.7610134329425
 31
0.0
  0
DIMENSION
  5
33D
102
{ACAD_XDICTIONARY
360
33E
102
}
102
{ACAD_REACTORS
330
33F
102
}
330
1F
100
AcDbEntity
  8
0
100
AcDbDimension
280
     0
  2
*D31
 10
2183.499928781673
 20
223.3597942155411
 30
0.0
 11
2183.499928781673
 21
293.6381470317374
 31
0.0
 70
   160
 71
     5
 42
15.09085281618903
 73
     0
 74
     0
 75
     0
  3
N915
100
AcDbAlignedDimension
 13
2166.349162488467
 23
238.4506470317301
 33
0.0
 14
2041.691399883644
 24
223.3597942155411
 34
0.0
 50
90.0
100
AcDbRotatedDimension
1001
ACAD
1000
DSTYLE
1002
{
1070
   271
1070
     0
1002
}
  0
LINE
  5
340
102
{ACAD_REACTORS
330
343
102
}
330
1F
100
AcDbEntity
  8
0
  6
DIVIDE
 62
     2
 48
0.01
100
AcDbLine
 10
2171.422595875029
 20
423.3597942155338
 30
0.0
 11
2171.396220202119
 21
422.3984919163394
 31
0.0
  0
DIMENSION
  5
341
102
{ACAD_XDICTIONARY
360
342
102
}
102
{ACAD_REACTORS
330
343
102
}
330
1F
100
AcDbEntity
  8
0
100
AcDbDimension
280
     0
  2
*D32
 10
2166.349162488467
 20
173.0453095480679
 30
0.0
 11
2103.09916248846
 21
173.0453095480679
 31
0.0
 70
   160
 71
     5
 42
5.073433386562101
 73
     0
 74
     0
 75
     0
  3
N915
100
AcDbAlignedDimension
 13
2171.422595875029
 23
423.3597942155338
 33
0.0
 14
2166.349162488467
 24
238.4506470317301
 34
0.0
 50
180.0
100
AcDbRotatedDimension
1001
ACAD
1000
DSTYLE
1002
{
1070
   271
1070
     0
1002
}
  0
LINE
  5
344
330
1F
100
AcDbEntity
  8
0
  6
DIVIDE
 62
     2
 48
0.01
100
AcDbLine
 10
1442.528807307241
 20
236.84931035306
 30
0.0
 11
1434.279037180056
 21
238.3492685581877
 31
0.0
  0
LINE
  5
345
102
{ACAD_REACTORS
330
348
102
}
330
1F
100
AcDbEntity
  8
0
  6
DIVIDE
 62
     2
 48
0.01
100
AcDbLine
 10
1434.279037180056
 20
238.3492685581877
 30
0.0
 11
1433.984009662509
 21
246.7569271579669
 31
0.0
  0
DIMENSION
  5
346
102
{ACAD_XDICTIONARY
360
347
102
}
102
{ACAD_REACTORS
330
348
102
}
330
1F
100
AcDbEntity
  8
0
100
AcDbDimension
280
     0
  2
*D33
 10
1407.24077466899
 20
223.3597942155721
 30
0.0
 11
1407.24077466899
 21
293.5367685581969
 31
0.0
 70
   160
 71
     5
 42
14.98947434261569
 73
     0
 74
     0
 75
     0
  3
N915
100
AcDbAlignedDimension
 13
1434.279037180056
 23
238.3492685581877
 33
0.0
 14
1558.2211460644
 24
223.3597942155721
 34
0.0
 50
90.0
100
AcDbRotatedDimension
1001
ACAD
1000
DSTYLE
1002
{
1070
   271
1070
     0
1002
}
  0
DIMENSION
  5
349
330
1F
100
AcDbEntity
  8
0
100
AcDbDimension
280
     0
  2
*D22
 10
1434.279037180056
 20
162.1557166769326
 30
0.0
 11
1548.839729290853
 21
162.1557166769326
 31
0.0
 70
   160
  1
5
 71
     5
 42
3.712308707101328
 73
     0
 74
     0
 75
     0
  3
N915
100
AcDbAlignedDimension
 13
1430.566728472954
 23
398.3597942155721
 33
0.0
 14
1434.279037180056
 24
238.3492685581877
 34
0.0
 50
180.0
100
AcDbRotatedDimension
1001
ACAD
1000
DSTYLE
1002
{
1070
   271
1070
     0
1002
}
  0
DIMENSION
  5
34A
102
{ACAD_XDICTIONARY
360
34B
102
}
102
{ACAD_REACTORS
330
34C
102
}
330
1F
100
AcDbEntity
  8
0
100
AcDbDimension
280
     0
  2
*D34
 10
1766.386163651293
 20
251.9462979747642
 30
0.0
 11
1712.520236781362
 21
277.219048565947
 31
0.0
 70
   164
 71
     5
 42
14.99999999997203
 73
     0
 74
     0
 75
     0
  3
N915
100
AcDbRadialDimension
 15
1779.96580908066
 25
245.5750163131341
 35
0.0
 40
0.0
1001
ACAD
1000
DSTYLE
1002
{
1070
   279
1070
     1
1002
}
  0
DIMENSION
  5
34D
102
{ACAD_XDICTIONARY
360
34E
102
}
102
{ACAD_REACTORS
330
34F
102
}
330
1F
100
AcDbEntity
  8
0
100
AcDbDimension
280
     0
  2
*D35
 10
1831.889609424402
 20
253.3762202455311
 30
0.0
 11
1887.756007171463
 21
273.8504870887627
 31
0.0
 70
   164
 71
     5
 42
14.9999999999859
 73
     0
 74
     0
 75
     0
  3
N915
100
AcDbRadialDimension
 15
1817.805643605829
 25
248.2146403690914
 35
0.0
 40
0.0
  0
ARC
  5
350
330
1F
100
AcDbEntity
  8
0
100
AcDbCircle
 10
1807.160865592069
 20
418.1597942155549
 30
0.0
 40
4.0
100
AcDbArc
 50
1.571655128551835
 51
90.0
  0
ARC
  5
351
330
1F
100
AcDbEntity
  8
0
100
AcDbCircle
 10
1807.160865592069
 20
418.1597942155549
 30
0.0
 40
5.2
100
AcDbArc
 50
1.526392253125393
 51
90.0
  0
ARC
  5
352
330
1F
100
AcDbEntity
  8
0
100
AcDbCircle
 10
1791.068843811689
 20
418.1597942155567
 30
0.0
 40
4.0
100
AcDbArc
 50
90.0
 51
178.2477039389566
  0
ARC
  5
353
330
1F
100
AcDbEntity
  8
0
100
AcDbCircle
 10
1791.068843811689
 20
418.1597942155567
 30
0.0
 40
5.2
100
AcDbArc
 50
90.0
 51
179.9882829644349
  0
LINE
  5
354
330
1F
100
AcDbEntity
  8
0
100
AcDbLine
 10
1010.521146064403
 20
422.1597942156003
 30
0.0
 11
984.5211460644032
 21
422.1597942156022
 31
0.0
  0
LINE
  5
355
102
{ACAD_REACTORS
330
358
102
}
330
1F
100
AcDbEntity
  8
0
100
AcDbLine
 10
984.5211460644032
 20
422.1597942156022
 30
0.0
 11
984.5211460644032
 21
423.3597942156065
 31
0.0
  0
DIMENSION
  5
356
102
{ACAD_XDICTIONARY
360
357
102
}
102
{ACAD_REACTORS
330
358
102
}
330
1F
100
AcDbEntity
  8
0
100
AcDbDimension
280
     0
  2
*D36
 10
920.195051313688
 20
223.3597942155722
 30
0.0
 11
920.195051313688
 21
293.6112539724036
 31
0.0
 70
   160
 71
     5
 42
200.0000000000345
 73
     0
 74
     0
 75
     0
  3
N3.5
100
AcDbAlignedDimension
 13
984.5211460644032
 23
423.3597942156065
 33
0.0
 14
1558.2211460644
 24
223.3597942155721
 34
0.0
 50
90.0
100
AcDbRotatedDimension
1001
ACAD
1000
DSTYLE
1002
{
1070
    41
1040
10.0
1070
    49
1040
1.25
1070
    50
1040
1.570796326794896
1070
   140
1040
20.0
1002
}
  0
DIMENSION
  5
359
102
{ACAD_XDICTIONARY
360
35A
102
}
102
{ACAD_REACTORS
330
35B
102
}
330
1F
100
AcDbEntity
  8
0
100
AcDbDimension
280
     0
  2
*D37
 10
936.9128466575322
 20
423.3597942156065
 30
0.0
 11
936.912846657532
 21
350.2628528397433
 31
0.0
 70
   160
 71
     5
 42
12.31916359808565
 73
     0
 74
     0
 75
     0
  3
N3.5
100
AcDbAlignedDimension
 13
1012.221146064407
 23
411.0406306175209
 33
0.0
 14
984.5211460644032
 24
423.3597942156065
 34
0.0
 50
90.0
100
AcDbRotatedDimension
1001
ACAD
1000
DSTYLE
1002
{
1070
    41
1040
10.0
1070
    49
1040
1.25
1070
    50
1040
1.570796326794896
1070
   140
1040
20.0
1002
}
  0
LINE
  5
35C
330
1F
100
AcDbEntity
  8
0
100
AcDbLine
 10
2172.6544914054
 20
422.1597942155331
 30
0.0
 11
2198.654491405401
 21
422.1597942155312
 31
0.0
  0
LINE
  5
35D
102
{ACAD_REACTORS
330
360
102
}
330
1F
100
AcDbEntity
  8
0
100
AcDbLine
 10
2198.654491405401
 20
422.1597942155312
 30
0.0
 11
2198.654491405401
 21
423.3597942155301
 31
0.0
  0
DIMENSION
  5
35E
102
{ACAD_XDICTIONARY
360
35F
102
}
102
{ACAD_REACTORS
330
360
102
}
330
1F
100
AcDbEntity
  8
0
100
AcDbDimension
280
     0
  2
*D38
 10
2239.253951056538
 20
423.3597942155301
 30
0.0
 11
2239.253951056538
 21
317.1769399983877
 31
0.0
 70
   160
 71
     5
 42
199.9999999999873
 73
     0
 74
     0
 75
     0
  3
N3.5
100
AcDbAlignedDimension
 13
2036.691399883643
 23
223.3597942155429
 33
0.0
 14
2198.654491405401
 24
423.3597942155301
 34
0.0
 50
90.0
100
AcDbRotatedDimension
1001
ACAD
1000
DSTYLE
1002
{
1070
    41
1040
10.0
1070
    49
1040
1.25
1070
    50
1040
1.570796326794896
1070
   140
1040
20.0
1002
}
  0
ENDSEC
  0
SECTION
  2
OBJECTS
  0
DICTIONARY
  5
C
330
0
100
AcDbDictionary
281
     1
  3
ACAD_CIP_PREVIOUS_PRODUCT_INFO
350
4B8
  3
ACAD_COLOR
350
6B
  3
ACAD_DETAILVIEWSTYLE
350
4AF
  3
ACAD_GROUP
350
D
  3
ACAD_LAYOUT
350
1A
  3
ACAD_MATERIAL
350
6A
  3
ACAD_MLEADERSTYLE
350
4AB
  3
ACAD_MLINESTYLE
350
17
  3
ACAD_PLOTSETTINGS
350
19
  3
ACAD_PLOTSTYLENAME
350
E
  3
ACAD_SCALELIST
350
499
  3
ACAD_SECTIONVIEWSTYLE
350
4AD
  3
ACAD_TABLESTYLE
350
7E
  3
ACAD_VISUALSTYLE
350
F0
  3
ACDB_RECOMPOSE_DATA
350
4D7
  3
AcDbVariableDictionary
350
5E
  0
DICTIONARY
  5
211
330
2
100
AcDbDictionary
280
     1
281
     1
  3
ACAD_LAYERSTATES
360
212
  0
DICTIONARY
  5
4B9
330
10
100
AcDbDictionary
280
     1
281
     1
  3
ADSK_XREC_LAYER_RECONCILED
360
4BA
  0
DICTIONARY
  5
2E2
330
2E1
100
AcDbDictionary
280
     1
281
     1
  3
ACAD_DIMASSOC
360
2E3
  0
DICTIONARY
  5
2E5
330
2E4
100
AcDbDictionary
280
     1
281
     1
  3
ACAD_DIMASSOC
360
2E6
  0
DICTIONARY
  5
2EA
330
2E9
100
AcDbDictionary
280
     1
281
     1
  3
ACAD_DIMASSOC
360
2EB
  0
DICTIONARY
  5
2F1
330
2F0
100
AcDbDictionary
280
     1
281
     1
  3
ACAD_DIMASSOC
360
2F2
  0
DICTIONARY
  5
2F4
330
2F3
100
AcDbDictionary
280
     1
281
     1
  3
ACAD_DIMASSOC
360
2F5
  0
DICTIONARY
  5
2F7
330
2F6
100
AcDbDictionary
280
     1
281
     1
  3
ACAD_DIMASSOC
360
2F8
  0
DICTIONARY
  5
2FA
330
2F9
100
AcDbDictionary
280
     1
281
     1
  3
ACAD_DIMASSOC
360
2FB
  0
DICTIONARY
  5
339
330
338
100
AcDbDictionary
280
     1
281
     1
  3
ACAD_DIMASSOC
360
33A
  0
DICTIONARY
  5
33E
330
33D
100
AcDbDictionary
280
     1
281
     1
  3
ACAD_DIMASSOC
360
33F
  0
DICTIONARY
  5
342
330
341
100
AcDbDictionary
280
     1
281
     1
  3
ACAD_DIMASSOC
360
343
  0
DICTIONARY
  5
347
330
346
100
AcDbDictionary
280
     1
281
     1
  3
ACAD_DIMASSOC
360
348
  0
DICTIONARY
  5
34B
330
34A
100
AcDbDictionary
280
     1
281
     1
  3
ACAD_DIMASSOC
360
34C
  0
DICTIONARY
  5
34E
330
34D
100
AcDbDictionary
280
     1
281
     1
  3
ACAD_DIMASSOC
360
34F
  0
DICTIONARY
  5
357
330
356
100
AcDbDictionary
280
     1
281
     1
  3
ACAD_DIMASSOC
360
358
  0
DICTIONARY
  5
35A
330
359
100
AcDbDictionary
280
     1
281
     1
  3
ACAD_DIMASSOC
360
35B
  0
DICTIONARY
  5
35F
330
35E
100
AcDbDictionary
280
     1
281
     1
  3
ACAD_DIMASSOC
360
360
  0
XRECORD
  5
4B8
102
{ACAD_REACTORS
330
C
102
}
330
C
100
AcDbXrecord
280
     1
300
ACD
300
2017
300
ACD_F_S
  0
DICTIONARY
  5
6B
102
{ACAD_REACTORS
330
C
102
}
330
C
100
AcDbDictionary
281
     1
  0
DICTIONARY
  5
4AF
102
{ACAD_REACTORS
330
C
102
}
330
C
100
AcDbDictionary
281
     1
  3
Metric50
350
4B0
  0
DICTIONARY
  5
D
102
{ACAD_REACTORS
330
C
102
}
330
C
100
AcDbDictionary
281
     1
  0
DICTIONARY
  5
1A
102
{ACAD_REACTORS
330
C
102
}
330
C
100
AcDbDictionary
281
     1
  3
Model
350
22
  3
布局1
350
D3
  3
布局2
350
D7
1001
AcadStringInfo
1000
MIFCodePage
1070
     5
  0
DICTIONARY
  5
6A
102
{ACAD_REACTORS
330
C
102
}
330
C
100
AcDbDictionary
281
     1
  3
ByBlock
350
EE
  3
ByLayer
350
ED
  3
Global
350
EF
  0
DICTIONARY
  5
4AB
102
{ACAD_REACTORS
330
C
102
}
330
C
100
AcDbDictionary
281
     1
  3
Standard
350
4AC
  0
DICTIONARY
  5
17
102
{ACAD_REACTORS
330
C
102
}
330
C
100
AcDbDictionary
281
     1
  3
Standard
350
18
  0
DICTIONARY
  5
19
102
{ACAD_REACTORS
330
C
102
}
330
C
100
AcDbDictionary
281
     1
  0
ACDBDICTIONARYWDFLT
  5
E
102
{ACAD_REACTORS
330
C
102
}
330
C
100
AcDbDictionary
281
     1
  3
Normal
350
F
100
AcDbDictionaryWithDefault
340
F
  0
DICTIONARY
  5
499
102
{ACAD_REACTORS
330
C
102
}
330
C
100
AcDbDictionary
281
     1
  3
A0
350
49A
  3
A1
350
49B
  3
A2
350
49C
  3
A3
350
49D
  3
A4
350
49E
  3
A5
350
49F
  3
A6
350
4A0
  3
A7
350
4A1
  3
A8
350
4A2
  3
A9
350
4A3
  3
B0
350
4A4
  3
B1
350
4A5
  3
B2
350
4A6
  3
B3
350
4A7
  3
B4
350
4A8
  3
B5
350
4A9
  3
B6
350
4AA
  0
DICTIONARY
  5
4AD
102
{ACAD_REACTORS
330
C
102
}
330
C
100
AcDbDictionary
281
     1
  3
Metric50
350
4AE
  0
DICTIONARY
  5
7E
102
{ACAD_REACTORS
330
C
102
}
330
C
100
AcDbDictionary
281
     1
  3
Standard
350
7F
  0
DICTIONARY
  5
F0
102
{ACAD_REACTORS
330
C
102
}
330
C
100
AcDbDictionary
281
     1
  3
2dWireframe
350
F6
  3
3D Hidden
350
F8
  3
3dWireframe
350
F7
  3
Basic
350
F5
  3
Brighten
350
FC
  3
ColorChange
350
100
  3
Conceptual
350
F9
  3
Dim
350
FB
  3
EdgeColorOff
350
498
  3
Facepattern
350
FF
  3
Flat
350
F1
  3
FlatWithEdges
350
F2
  3
Gouraud
350
F3
  3
GouraudWithEdges
350
F4
  3
Hidden
350
490
  3
JitterOff
350
496
  3
Linepattern
350
FE
  3
OverhangOff
350
497
  3
Realistic
350
FA
  3
Shaded
350
495
  3
Shaded with edges
350
494
  3
Shades of Gray
350
491
  3
Sketchy
350
492
  3
Thicken
350
FD
  3
Wireframe
350
48F
  3
X-Ray
350
493
  0
XRECORD
  5
4D7
102
{ACAD_REACTORS
330
C
102
}
330
C
100
AcDbXrecord
280
     1
 90
        1
330
7F
330
4AE
330
4B0
  0
DICTIONARY
  5
5E
102
{ACAD_REACTORS
330
C
102
}
330
C
100
AcDbDictionary
281
     1
  3
CANNOSCALE
350
4CD
  3
CMLEADERSTYLE
350
4C9
  3
CTABLESTYLE
350
84
  3
CVIEWDETAILSTYLE
350
4CA
  3
CVIEWSECTIONSTYLE
350
4CB
  3
DIMASSOC
350
5F
  3
HIDETEXT
350
63
  3
LAYEREVAL
350
4CF
  3
LAYERNOTIFY
350
4D0
  3
LIGHTINGUNITS
350
4CE
  3
MSLTSCALE
350
4CC
  0
DICTIONARY
  5
212
102
{ACAD_REACTORS
330
211
102
}
330
211
100
AcDbDictionary
281
     1
  0
XRECORD
  5
4BA
102
{ACAD_REACTORS
330
4B9
102
}
330
4B9
100
AcDbXrecord
280
     1
290
     1
  0
DIMASSOC
  5
2E3
102
{ACAD_REACTORS
330
2E2
102
}
330
2E2
100
AcDbDimAssoc
330
2E1
 90
        2
 70
     0
 71
     0
  1
AcDbOsnapPointRef
 72
     3
331
2D3
 73
     2
 91
        0
 40
0.0
 10
0.0
 20
0.0
 30
0.0
 75
     0
  0
DIMASSOC
  5
2E6
102
{ACAD_REACTORS
330
2E5
102
}
330
2E5
100
AcDbDimAssoc
330
2E4
 90
        2
 70
     0
 71
     0
  1
AcDbOsnapPointRef
 72
     3
331
2DD
 73
     2
 91
        0
 40
0.0
 10
0.0
 20
0.0
 30
0.0
 75
     0
  0
DIMASSOC
  5
2EB
102
{ACAD_REACTORS
330
2EA
102
}
330
2EA
100
AcDbDimAssoc
330
2E9
 90
        2
 70
     0
 71
     0
  1
AcDbOsnapPointRef
 72
     3
331
2CD
 73
     2
 91
        0
 40
0.0
 10
0.0
 20
0.0
 30
0.0
 75
     0
  0
DIMASSOC
  5
2F2
102
{ACAD_REACTORS
330
2F1
102
}
330
2F1
100
AcDbDimAssoc
330
2F0
 90
        3
 70
     0
 71
     0
  1
AcDbOsnapPointRef
 72
    10
331
2C7
 73
     2
 91
        0
 40
0.0222519458647492
 10
0.0
 20
0.0
 30
0.0
 75
     0
  1
AcDbOsnapPointRef
 72
     8
331
2BE
 73
     2
 91
        0
 40
0.9777480541352508
 10
0.0
 20
0.0
 30
0.0
 75
     1
  1
AcDbOsnapPointRef
 72
    10
331
2C7
 73
     2
 91
        0
 40
0.0222519458647492
 10
0.0
 20
0.0
 30
0.0
 75
     0
  0
DIMASSOC
  5
2F5
102
{ACAD_REACTORS
330
2F4
102
}
330
2F4
100
AcDbDimAssoc
330
2F3
 90
        3
 70
     0
 71
     0
  1
AcDbOsnapPointRef
 72
    10
331
2C7
 73
     2
 91
        0
 40
0.1810263013920133
 10
0.0
 20
0.0
 30
0.0
 75
     0
  1
AcDbOsnapPointRef
 72
     8
331
2C1
 73
     2
 91
        0
 40
0.5417066221998761
 10
0.0
 20
0.0
 30
0.0
 75
     1
  1
AcDbOsnapPointRef
 72
    10
331
2C7
 73
     2
 91
        0
 40
0.1810263013920133
 10
0.0
 20
0.0
 30
0.0
 75
     0
  0
DIMASSOC
  5
2F8
102
{ACAD_REACTORS
330
2F7
102
}
330
2F7
100
AcDbDimAssoc
330
2F6
 90
        3
 70
     0
 71
     0
  1
AcDbOsnapPointRef
 72
    13
331
2D1
 73
     2
 91
        0
 40
0.0
 10
0.0
 20
0.0
 30
2.000000000000000E+50
 75
     0
  1
AcDbOsnapPointRef
 72
     1
331
2E7
 73
     2
 91
        0
 40
6.283185307179586
 10
0.0
 20
0.0
 30
2.000000000000000E+50
 75
     0
  0
DIMASSOC
  5
2FB
102
{ACAD_REACTORS
330
2FA
102
}
330
2FA
100
AcDbDimAssoc
330
2F9
 90
        3
 70
     0
 71
     0
  1
AcDbOsnapPointRef
 72
    13
331
2DA
 73
     2
 91
        0
 40
3.141592653589793
 10
0.0
 20
0.0
 30
2.000000000000000E+50
 75
     0
  1
AcDbOsnapPointRef
 72
     8
331
2CC
 73
     2
 91
        0
 40
0.0
 10
0.0
 20
0.0
 30
0.0
 75
     1
  1
AcDbOsnapPointRef
 72
    13
331
2DA
 73
     2
 91
        0
 40
3.141592653589793
 10
0.0
 20
0.0
 30
2.000000000000000E+50
 75
     0
  0
DIMASSOC
  5
33A
102
{ACAD_REACTORS
330
339
102
}
330
339
100
AcDbDimAssoc
330
338
 90
        1
 70
     0
 71
     0
  1
AcDbOsnapPointRef
 72
    13
331
337
 73
     2
 91
        0
 40
0.0
 10
0.0
 20
0.0
 30
2.000000000000000E+50
 75
     0
  0
DIMASSOC
  5
33F
102
{ACAD_REACTORS
330
33E
102
}
330
33E
100
AcDbDimAssoc
330
33D
 90
        1
 70
     0
 71
     0
  1
AcDbOsnapPointRef
 72
    13
331
33C
 73
     2
 91
        0
 40
0.0
 10
0.0
 20
0.0
 30
2.000000000000000E+50
 75
     0
  0
DIMASSOC
  5
343
102
{ACAD_REACTORS
330
342
102
}
330
342
100
AcDbDimAssoc
330
341
 90
        1
 70
     0
 71
     0
  1
AcDbOsnapPointRef
 72
    13
331
340
 73
     2
 91
        0
 40
0.0
 10
0.0
 20
0.0
 30
2.000000000000000E+50
 75
     0
  0
DIMASSOC
  5
348
102
{ACAD_REACTORS
330
347
102
}
330
347
100
AcDbDimAssoc
330
346
 90
        1
 70
     0
 71
     0
  1
AcDbOsnapPointRef
 72
    13
331
345
 73
     2
 91
        0
 40
0.0
 10
0.0
 20
0.0
 30
2.000000000000000E+50
 75
     0
  0
DIMASSOC
  5
34C
102
{ACAD_REACTORS
330
34B
102
}
330
34B
100
AcDbDimAssoc
330
34A
 90
        2
 70
     0
 71
     0
  1
AcDbOsnapPointRef
 72
     3
331
32F
 73
     2
 91
        0
 40
0.0
 10
0.0
 20
0.0
 30
0.0
 75
     0
  0
DIMASSOC
  5
34F
102
{ACAD_REACTORS
330
34E
102
}
330
34E
100
AcDbDimAssoc
330
34D
 90
        2
 70
     0
 71
     0
  1
AcDbOsnapPointRef
 72
     3
331
325
 73
     2
 91
        0
 40
0.0
 10
0.0
 20
0.0
 30
0.0
 75
     0
  0
DIMASSOC
  5
358
102
{ACAD_REACTORS
330
357
102
}
330
357
100
AcDbDimAssoc
330
356
 90
        1
 70
     0
 71
     0
  1
AcDbOsnapPointRef
 72
     1
331
355
 73
     2
 91
        0
 40
1.0
 10
0.0
 20
0.0
 30
2.000000000000000E+50
 75
     0
  0
DIMASSOC
  5
35B
102
{ACAD_REACTORS
330
35A
102
}
330
35A
100
AcDbDimAssoc
330
359
 90
        1
 70
     0
 71
     0
  1
AcDbOsnapPointRef
 72
     1
331
331
 73
     2
 91
        0
 40
1.0
 10
0.0
 20
0.0
 30
2.000000000000000E+50
 75
     0
  0
DIMASSOC
  5
360
102
{ACAD_REACTORS
330
35F
102
}
330
35F
100
AcDbDimAssoc
330
35E
 90
        3
 70
     0
 71
     0
  1
AcDbOsnapPointRef
 72
     1
331
32A
 73
     2
 91
        0
 40
1.0
 10
0.0
 20
0.0
 30
2.000000000000000E+50
 75
     0
  1
AcDbOsnapPointRef
 72
     1
331
35D
 73
     2
 91
        0
 40
1.0
 10
0.0
 20
0.0
 30
2.000000000000000E+50
 75
     0
  0
ACDBDETAILVIEWSTYLE
  5
4B0
102
{ACAD_XDICTIONARY
360
4D5
102
}
102
{ACAD_REACTORS
330
4AF
102
}
330
4AF
100
AcDbModelDocViewStyle
 70
     0
  3
Metric50
290
     0
100
AcDbDetailViewStyle
 70
     0
 71
     0
 90
        3
 71
     1
340
11
 62
   256
 40
5.0
340
0
 62
   256
 40
5.0
300

 40
0.0
280
     1
 71
     2
340
16
 90
       25
 62
   256
 71
     3
340
11
 62
   256
 40
5.0
 90
        0
 40
15.0
 90
        1
300
%<\AcVar ViewDetailId>% (%<\AcVar ViewScale \f "%sn">%)
 71
     4
340
16
 90
       25
 62
   256
340
16
 90
       25
 62
   256
280
     0
  0
LAYOUT
  5
22
102
{ACAD_REACTORS
330
1A
102
}
330
1A
100
AcDbPlotSettings
  1

  2
none_device
  4
ISO_A4_(210.00_x_297.00_MM)
  6

 40
7.5
 41
20.0
 42
7.5
 43
20.0
 44
210.0
 45
297.0
 46
11.54999923706054
 47
-13.65000009536743
 48
0.0
 49
0.0
140
0.0
141
0.0
142
1.0
143
8.704084754739808
 70
 11952
 72
     1
 73
     0
 74
     0
  7

 75
     0
147
0.1148885871608098
 76
     0
 77
     2
 78
   300
148
0.0
149
0.0
100
AcDbLayout
  1
Model
 70
     1
 71
     0
 10
0.0
 20
0.0
 11
12.0
 21
9.0
 12
0.0
 22
0.0
 32
0.0
 14
0.0
 24
0.0
 34
0.0
 15
0.0
 25
0.0
 35
0.0
146
0.0
 13
0.0
 23
0.0
 33
0.0
 16
1.0
 26
0.0
 36
0.0
 17
0.0
 27
1.0
 37
0.0
 76
     0
330
1F
331
EB
1001
ACAD_PSEXT
1000
None
1000
None
1000
Not applicable
1000
The layout will not be plotted unless a new plotter configuration name is selected.
1070
     0
  0
LAYOUT
  5
D3
102
{ACAD_REACTORS
330
1A
102
}
330
1A
100
AcDbPlotSettings
  1

  2
C:\Documents and Settings\basas\Application Data\Autodesk\AutoCAD 2005\R16.1\enu\plotters\Default Windows System Printer.pc3
  4

  6

 40
0.0
 41
0.0
 42
0.0
 43
0.0
 44
0.0
 45
0.0
 46
0.0
 47
0.0
 48
0.0
 49
0.0
140
0.0
141
0.0
142
1.0
143
1.0
 70
   688
 72
     0
 73
     0
 74
     5
  7

 75
    16
147
1.0
 76
     0
 77
     2
 78
   300
148
0.0
149
0.0
100
AcDbLayout
  1
布局1
 70
     1
 71
     1
 10
0.0
 20
0.0
 11
12.0
 21
9.0
 12
0.0
 22
0.0
 32
0.0
 14
0.0
 24
0.0
 34
0.0
 15
0.0
 25
0.0
 35
0.0
146
0.0
 13
0.0
 23
0.0
 33
0.0
 16
1.0
 26
0.0
 36
0.0
 17
0.0
 27
1.0
 37
0.0
 76
     0
330
D2
1001
AcadStringInfo
1000
MIFCodePage
1070
     5
  0
LAYOUT
  5
D7
102
{ACAD_REACTORS
330
1A
102
}
330
1A
100
AcDbPlotSettings
  1

  2
C:\Documents and Settings\basas\Application Data\Autodesk\AutoCAD 2005\R16.1\enu\plotters\Default Windows System Printer.pc3
  4

  6

 40
0.0
 41
0.0
 42
0.0
 43
0.0
 44
0.0
 45
0.0
 46
0.0
 47
0.0
 48
0.0
 49
0.0
140
0.0
141
0.0
142
1.0
143
1.0
 70
   688
 72
     0
 73
     0
 74
     5
  7

 75
    16
147
1.0
 76
     0
 77
     2
 78
   300
148
0.0
149
0.0
100
AcDbLayout
  1
布局2
 70
     1
 71
     2
 10
0.0
 20
0.0
 11
12.0
 21
9.0
 12
0.0
 22
0.0
 32
0.0
 14
0.0
 24
0.0
 34
0.0
 15
0.0
 25
0.0
 35
0.0
146
0.0
 13
0.0
 23
0.0
 33
0.0
 16
1.0
 26
0.0
 36
0.0
 17
0.0
 27
1.0
 37
0.0
 76
     0
330
D6
1001
AcadStringInfo
1000
MIFCodePage
1070
     5
  0
MATERIAL
  5
EE
102
{ACAD_REACTORS
330
6A
102
}
330
6A
100
AcDbMaterial
  1
ByBlock
 73
     1
 78
     1
172
     1
176
     1
270
     1
274
     1
 94
       63
  0
MATERIAL
  5
ED
102
{ACAD_REACTORS
330
6A
102
}
330
6A
100
AcDbMaterial
  1
ByLayer
 73
     1
 78
     1
172
     1
176
     1
270
     1
274
     1
 94
       63
  0
MATERIAL
  5
EF
102
{ACAD_REACTORS
330
6A
102
}
330
6A
100
AcDbMaterial
  1
Global
 73
     1
 78
     1
172
     1
176
     1
270
     1
274
     1
 94
       63
  0
MLEADERSTYLE
  5
4AC
102
{ACAD_REACTORS
330
4AB
102
}
330
4AB
100
AcDbMLeaderStyle
179
     2
170
     2
171
     1
172
     0
 90
        2
 40
0.0
 41
0.0
173
     1
 91
-1056964608
340
14
 92
       -2
290
     1
 42
2.0
291
     1
 43
0.36
  3
Standard
 44
4.0
300

342
11
174
     1
178
     6
175
     1
176
     0
 93
-1056964608
 45
4.0
292
     0
297
     0
 46
4.0
 94
-1056964608
 47
1.0
 49
1.0
140
1.0
293
     1
141
0.0
294
     1
177
     0
142
1.0
295
     1
296
     0
143
0.125
271
     0
272
     9
273
     9
298
     1
  0
MLINESTYLE
  5
18
102
{ACAD_REACTORS
330
17
102
}
330
17
100
AcDbMlineStyle
  2
STANDARD
 70
     0
  3

 62
   256
 51
90.0
 52
90.0
 71
     2
 49
0.5
 62
   256
  6
BYLAYER
 49
-0.5
 62
   256
  6
BYLAYER
  0
ACDBPLACEHOLDER
  5
F
102
{ACAD_REACTORS
330
E
102
}
330
E
  0
SCALE
  5
49A
102
{ACAD_REACTORS
330
499
102
}
330
499
100
AcDbScale
 70
     0
300
1:1
140
1.0
141
1.0
290
     1
  0
SCALE
  5
49B
102
{ACAD_REACTORS
330
499
102
}
330
499
100
AcDbScale
 70
     0
300
1:2
140
1.0
141
2.0
290
     0
  0
SCALE
  5
49C
102
{ACAD_REACTORS
330
499
102
}
330
499
100
AcDbScale
 70
     0
300
1:4
140
1.0
141
4.0
290
     0
  0
SCALE
  5
49D
102
{ACAD_REACTORS
330
499
102
}
330
499
100
AcDbScale
 70
     0
300
1:5
140
1.0
141
5.0
290
     0
  0
SCALE
  5
49E
102
{ACAD_REACTORS
330
499
102
}
330
499
100
AcDbScale
 70
     0
300
1:8
140
1.0
141
8.0
290
     0
  0
SCALE
  5
49F
102
{ACAD_REACTORS
330
499
102
}
330
499
100
AcDbScale
 70
     0
300
1:10
140
1.0
141
10.0
290
     0
  0
SCALE
  5
4A0
102
{ACAD_REACTORS
330
499
102
}
330
499
100
AcDbScale
 70
     0
300
1:16
140
1.0
141
16.0
290
     0
  0
SCALE
  5
4A1
102
{ACAD_REACTORS
330
499
102
}
330
499
100
AcDbScale
 70
     0
300
1:20
140
1.0
141
20.0
290
     0
  0
SCALE
  5
4A2
102
{ACAD_REACTORS
330
499
102
}
330
499
100
AcDbScale
 70
     0
300
1:30
140
1.0
141
30.0
290
     0
  0
SCALE
  5
4A3
102
{ACAD_REACTORS
330
499
102
}
330
499
100
AcDbScale
 70
     0
300
1:40
140
1.0
141
40.0
290
     0
  0
SCALE
  5
4A4
102
{ACAD_REACTORS
330
499
102
}
330
499
100
AcDbScale
 70
     0
300
1:50
140
1.0
141
50.0
290
     0
  0
SCALE
  5
4A5
102
{ACAD_REACTORS
330
499
102
}
330
499
100
AcDbScale
 70
     0
300
1:100
140
1.0
141
100.0
290
     0
  0
SCALE
  5
4A6
102
{ACAD_REACTORS
330
499
102
}
330
499
100
AcDbScale
 70
     0
300
2:1
140
2.0
141
1.0
290
     0
  0
SCALE
  5
4A7
102
{ACAD_REACTORS
330
499
102
}
330
499
100
AcDbScale
 70
     0
300
4:1
140
4.0
141
1.0
290
     0
  0
SCALE
  5
4A8
102
{ACAD_REACTORS
330
499
102
}
330
499
100
AcDbScale
 70
     0
300
8:1
140
8.0
141
1.0
290
     0
  0
SCALE
  5
4A9
102
{ACAD_REACTORS
330
499
102
}
330
499
100
AcDbScale
 70
     0
300
10:1
140
10.0
141
1.0
290
     0
  0
SCALE
  5
4AA
102
{ACAD_REACTORS
330
499
102
}
330
499
100
AcDbScale
 70
     0
300
100:1
140
100.0
141
1.0
290
     0
  0
ACDBSECTIONVIEWSTYLE
  5
4AE
102
{ACAD_XDICTIONARY
360
4D3
102
}
102
{ACAD_REACTORS
330
4AD
102
}
330
4AD
100
AcDbModelDocViewStyle
 70
     0
  3
Metric50
290
     0
100
AcDbSectionViewStyle
 70
     0
 71
     0
 90
      102
 71
     1
340
11
 62
   256
 40
5.0
340
0
340
0
 62
   256
 40
5.0
300
I, O, Q, S, X, Z
 40
10.0
 90
        0
 40
2.5
 90
        0
 71
     2
340
16
 90
       25
 62
   256
340
16
 90
       50
 62
   256
 40
5.0
 40
2.5
 40
5.0
 71
     3
340
11
 62
   256
 40
5.0
 90
        0
 40
15.0
 90
        1
300
%<\AcVar ViewSectionStartId>%-%<\AcVar ViewSectionEndId>% (%<\AcVar ViewScale \f "%sn">%)
 71
     4
 62
   256
 62
   257
300
ANSI31
 40
1.0
 90
        0
290
     0
290
     0
 90
        6
 40
0.0
 40
1.570796326794896
 40
0.2617993877991494
 40
1.308996938995747
 40
-0.2617993877991494
 40
1.832595714594046
  0
TABLESTYLE
  5
7F
102
{ACAD_XDICTIONARY
360
4D1
102
}
102
{ACAD_REACTORS
330
7E
102
}
330
7E
100
AcDbTableStyle
280
     0
  3
Standard
 70
     0
 71
     0
 40
1.5
 41
1.5
280
     0
281
     0
  7
Standard
140
4.5
170
     2
 62
     0
 63
     7
283
     0
 90
      512
 91
        0
  1

274
    -2
284
     1
 64
     0
275
    -2
285
     1
 65
     0
276
    -2
286
     1
 66
     0
277
    -2
287
     1
 67
     0
278
    -2
288
     1
 68
     0
279
    -2
289
     1
 69
     0
  7
Standard
140
6.0
170
     5
 62
     0
 63
     7
283
     0
 90
      512
 91
        0
  1

274
    -2
284
     1
 64
     0
275
    -2
285
     1
 65
     0
276
    -2
286
     1
 66
     0
277
    -2
287
     1
 67
     0
278
    -2
288
     1
 68
     0
279
    -2
289
     1
 69
     0
  7
Standard
140
4.5
170
     5
 62
     0
 63
     7
283
     0
 90
      512
 91
        0
  1

274
    -2
284
     1
 64
     0
275
    -2
285
     1
 65
     0
276
    -2
286
     1
 66
     0
277
    -2
287
     1
 67
     0
278
    -2
288
     1
 68
     0
279
    -2
289
     1
 69
     0
  0
VISUALSTYLE
  5
F6
102
{ACAD_REACTORS
330
F0
102
}
330
F0
100
AcDbVisualStyle
  2
2dWireframe
 70
     4
177
     3
291
     0
 70
    58
 90
        0
176
     1
 90
        2
176
     1
 90
        1
176
     1
 90
        0
176
     1
 40
0.6
176
     1
 40
30.0
176
     1
 62
     7
420
 16777215
176
     1
 90
        1
176
     1
 90
        4
176
     1
 62
     7
176
     1
 62
   257
176
     1
 90
        1
176
     1
 90
        1
176
     1
 40
1.0
176
     1
 90
        0
176
     1
 62
   257
176
     1
 40
1.0
176
     1
 90
        1
176
     1
 90
        6
176
     1
 90
        2
176
     1
 62
     7
176
     1
 90
        5
176
     1
 90
        0
176
     1
 90
        0
176
     1
290
     0
176
     1
 90
        1
176
     1
 40
0.0
176
     1
 90
        0
176
     1
290
     1
176
     1
290
     1
176
     1
290
     0
176
     1
290
     0
176
     1
290
     0
176
     1
290
     0
176
     1
290
     0
176
     1
290
     0
176
     1
290
     0
176
     1
 90
       50
176
     1
 40
0.0
176
     1
 40
1.0
176
     1
 90
        0
176
     1
 62
    18
420
        0
176
     1
 90
       50
176
     1
 90
        3
176
     1
 62
     5
420
      255
176
     1
290
     0
176
     1
 90
       50
176
     1
 90
       50
176
     1
 90
       50
176
     1
290
     0
176
     1
 90
       50
176
     1
 62
   256
176
     0
 40
1.0
176
     0
 90
        2
176
     1
  1
strokes_ogs.tif
176
     1
290
     0
176
     1
 40
1.0
176
     1
 40
1.0
176
     1
  0
VISUALSTYLE
  5
F8
102
{ACAD_REACTORS
330
F0
102
}
330
F0
100
AcDbVisualStyle
  2
3D Hidden
 70
     6
177
     3
291
     0
 70
    58
 90
        1
176
     1
 90
        2
176
     1
 90
        2
176
     1
 90
        0
176
     1
 40
0.6
176
     1
 40
30.0
176
     1
 62
     7
420
 16777215
176
     1
 90
        2
176
     1
 90
        2
176
     1
 62
     7
176
     1
 62
   257
176
     1
 90
        2
176
     1
 90
        1
176
     1
 40
40.0
176
     1
 90
        0
176
     1
 62
   257
176
     1
 40
1.0
176
     1
 90
        1
176
     1
 90
        6
176
     1
 90
        2
176
     1
 62
     7
176
     1
 90
        3
176
     1
 90
        0
176
     1
 90
        0
176
     1
290
     0
176
     1
 90
        1
176
     1
 40
0.0
176
     1
 90
        0
176
     1
290
     0
176
     1
290
     1
176
     1
290
     1
176
     1
290
     0
176
     1
290
     0
176
     1
290
     0
176
     1
290
     0
176
     1
290
     0
176
     1
290
     0
176
     1
 90
       50
176
     1
 40
0.0
176
     1
 40
1.0
176
     1
 90
        0
176
     1
 62
    18
420
        0
176
     1
 90
       50
176
     1
 90
        3
176
     1
 62
     5
420
      255
176
     1
290
     0
176
     1
 90
       50
176
     1
 90
       50
176
     1
 90
       50
176
     1
290
     0
176
     1
 90
       50
176
     1
 62
   256
176
     0
 40
1.0
176
     0
 90
        2
176
     1
  1
strokes_ogs.tif
176
     1
290
     0
176
     1
 40
1.0
176
     1
 40
1.0
176
     1
  0
VISUALSTYLE
  5
F7
102
{ACAD_REACTORS
330
F0
102
}
330
F0
100
AcDbVisualStyle
  2
3dWireframe
 70
     5
177
     3
291
     0
 70
    58
 90
        0
176
     1
 90
        2
176
     1
 90
        1
176
     1
 90
        0
176
     1
 40
0.6
176
     1
 40
30.0
176
     1
 62
     7
420
 16777215
176
     1
 90
        1
176
     1
 90
        4
176
     1
 62
     7
176
     1
 62
   257
176
     1
 90
        1
176
     1
 90
        1
176
     1
 40
1.0
176
     1
 90
        0
176
     1
 62
   257
176
     1
 40
1.0
176
     1
 90
        1
176
     1
 90
        6
176
     1
 90
        2
176
     1
 62
     7
176
     1
 90
        5
176
     1
 90
        0
176
     1
 90
        0
176
     1
290
     0
176
     1
 90
        1
176
     1
 40
0.0
176
     1
 90
        0
176
     1
290
     0
176
     1
290
     1
176
     1
290
     1
176
     1
290
     0
176
     1
290
     0
176
     1
290
     0
176
     1
290
     0
176
     1
290
     0
176
     1
290
     0
176
     1
 90
       50
176
     1
 40
0.0
176
     1
 40
1.0
176
     1
 90
        0
176
     1
 62
    18
420
        0
176
     1
 90
       50
176
     1
 90
        3
176
     1
 62
     5
420
      255
176
     1
290
     0
176
     1
 90
       50
176
     1
 90
       50
176
     1
 90
       50
176
     1
290
     0
176
     1
 90
       50
176
     1
 62
   256
176
     0
 40
1.0
176
     0
 90
        2
176
     1
  1
strokes_ogs.tif
176
     1
290
     0
176
     1
 40
1.0
176
     1
 40
1.0
176
     1
  0
VISUALSTYLE
  5
F5
102
{ACAD_REACTORS
330
F0
102
}
330
F0
100
AcDbVisualStyle
  2
Basic
 70
     7
177
     3
291
     1
 70
    58
 90
        1
176
     1
 90
        0
176
     1
 90
        1
176
     1
 90
        0
176
     1
 40
0.6
176
     1
 40
30.0
176
     1
 62
     7
420
 16777215
176
     1
 90
        0
176
     1
 90
        4
176
     1
 62
     7
176
     1
 62
   257
176
     1
 90
        1
176
     1
 90
        1
176
     1
 40
1.0
176
     1
 90
        8
176
     1
 62
     7
176
     1
 40
1.0
176
     1
 90
        1
176
     1
 90
        6
176
     1
 90
        2
176
     1
 62
     7
176
     1
 90
        5
176
     1
 90
        0
176
     1
 90
        0
176
     1
290
     0
176
     1
 90
        1
176
     1
 40
0.0
176
     1
 90
        0
176
     1
290
     0
176
     1
290
     1
176
     1
290
     1
176
     1
290
     0
176
     1
290
     0
176
     1
290
     0
176
     1
290
     0
176
     1
290
     0
176
     1
290
     0
176
     1
 90
       50
176
     1
 40
0.0
176
     1
 40
1.0
176
     1
 90
        0
176
     1
 62
    18
420
        0
176
     1
 90
       50
176
     1
 90
        3
176
     1
 62
     5
420
      255
176
     1
290
     0
176
     1
 90
       50
176
     1
 90
       50
176
     1
 90
       50
176
     1
290
     0
176
     1
 90
       50
176
     1
 62
   256
176
     0
 40
1.0
176
     0
 90
        2
176
     1
  1
strokes_ogs.tif
176
     1
290
     0
176
     1
 40
1.0
176
     1
 40
1.0
176
     1
  0
VISUALSTYLE
  5
FC
102
{ACAD_REACTORS
330
F0
102
}
330
F0
100
AcDbVisualStyle
  2
Brighten
 70
    12
177
     3
291
     1
 70
    58
 90
        2
176
     1
 90
        2
176
     1
 90
        1
176
     1
 90
        0
176
     1
 40
0.6
176
     1
 40
30.0
176
     1
 62
     7
420
 16777215
176
     1
 90
        1
176
     1
 90
        4
176
     1
 62
     7
176
     1
 62
   257
176
     1
 90
        1
176
     1
 90
        1
176
     1
 40
1.0
176
     1
 90
        8
176
     1
 62
     7
176
     1
 40
1.0
176
     1
 90
        1
176
     1
 90
        6
176
     1
 90
        2
176
     1
 62
     7
176
     1
 90
        5
176
     1
 90
        0
176
     1
 90
        0
176
     1
290
     0
176
     1
 90
        1
176
     1
 40
50.0
176
     1
 90
        0
176
     1
290
     0
176
     1
290
     1
176
     1
290
     1
176
     1
290
     0
176
     1
290
     0
176
     1
290
     0
176
     1
290
     0
176
     1
290
     0
176
     1
290
     0
176
     1
 90
       50
176
     1
 40
0.0
176
     1
 40
1.0
176
     1
 90
        0
176
     1
 62
    18
420
        0
176
     1
 90
       50
176
     1
 90
        3
176
     1
 62
     5
420
      255
176
     1
290
     0
176
     1
 90
       50
176
     1
 90
       50
176
     1
 90
       50
176
     1
290
     0
176
     1
 90
       50
176
     1
 62
   256
176
     0
 40
1.0
176
     0
 90
        2
176
     1
  1
strokes_ogs.tif
176
     1
290
     0
176
     1
 40
1.0
176
     1
 40
1.0
176
     1
  0
VISUALSTYLE
  5
100
102
{ACAD_REACTORS
330
F0
102
}
330
F0
100
AcDbVisualStyle
  2
ColorChange
 70
    16
177
     3
291
     1
 70
    58
 90
        2
176
     1
 90
        2
176
     1
 90
        3
176
     1
 90
        0
176
     1
 40
0.6
176
     1
 40
30.0
176
     1
 62
     8
420
  8421504
176
     1
 90
        1
176
     1
 90
        4
176
     1
 62
     7
176
     1
 62
   257
176
     1
 90
        1
176
     1
 90
        1
176
     1
 40
1.0
176
     1
 90
        8
176
     1
 62
     8
420
  8421504
176
     1
 40
1.0
176
     1
 90
        1
176
     1
 90
        6
176
     1
 90
        2
176
     1
 62
     7
176
     1
 90
        5
176
     1
 90
        0
176
     1
 90
        0
176
     1
290
     0
176
     1
 90
        1
176
     1
 40
0.0
176
     1
 90
        0
176
     1
290
     0
176
     1
290
     1
176
     1
290
     1
176
     1
290
     0
176
     1
290
     0
176
     1
290
     0
176
     1
290
     0
176
     1
290
     0
176
     1
290
     0
176
     1
 90
       50
176
     1
 40
0.0
176
     1
 40
1.0
176
     1
 90
        0
176
     1
 62
    18
420
        0
176
     1
 90
       50
176
     1
 90
        3
176
     1
 62
     5
420
      255
176
     1
290
     0
176
     1
 90
       50
176
     1
 90
       50
176
     1
 90
       50
176
     1
290
     0
176
     1
 90
       50
176
     1
 62
   256
176
     0
 40
1.0
176
     0
 90
        2
176
     1
  1
strokes_ogs.tif
176
     1
290
     0
176
     1
 40
1.0
176
     1
 40
1.0
176
     1
  0
VISUALSTYLE
  5
F9
102
{ACAD_REACTORS
330
F0
102
}
330
F0
100
AcDbVisualStyle
  2
Conceptual
 70
     9
177
     3
291
     0
 70
    58
 90
        3
176
     1
 90
        2
176
     1
 90
        1
176
     1
 90
        0
176
     1
 40
0.6
176
     1
 40
30.0
176
     1
 62
     7
420
 16777215
176
     1
 90
        2
176
     1
 90
        2
176
     1
 62
     7
176
     1
 62
   257
176
     1
 90
        1
176
     1
 90
        1
176
     1
 40
40.0
176
     1
 90
        8
176
     1
 62
     7
176
     1
 40
1.0
176
     1
 90
        1
176
     1
 90
        6
176
     1
 90
        2
176
     1
 62
     7
176
     1
 90
        3
176
     1
 90
        0
176
     1
 90
        0
176
     1
290
     0
176
     1
 90
        1
176
     1
 40
0.0
176
     1
 90
        0
176
     1
290
     0
176
     1
290
     1
176
     1
290
     1
176
     1
290
     0
176
     1
290
     0
176
     1
290
     0
176
     1
290
     0
176
     1
290
     0
176
     1
290
     0
176
     1
 90
       50
176
     1
 40
0.0
176
     1
 40
1.0
176
     1
 90
        0
176
     1
 62
    18
420
        0
176
     1
 90
       50
176
     1
 90
        3
176
     1
 62
     5
420
      255
176
     1
290
     0
176
     1
 90
       50
176
     1
 90
       50
176
     1
 90
       50
176
     1
290
     0
176
     1
 90
       50
176
     1
 62
   256
176
     0
 40
1.0
176
     0
 90
        2
176
     1
  1
strokes_ogs.tif
176
     1
290
     0
176
     1
 40
1.0
176
     1
 40
1.0
176
     1
  0
VISUALSTYLE
  5
FB
102
{ACAD_REACTORS
330
F0
102
}
330
F0
100
AcDbVisualStyle
  2
Dim
 70
    11
177
     3
291
     1
 70
    58
 90
        2
176
     1
 90
        2
176
     1
 90
        1
176
     1
 90
        0
176
     1
 40
0.6
176
     1
 40
30.0
176
     1
 62
     7
420
 16777215
176
     1
 90
        1
176
     1
 90
        4
176
     1
 62
     7
176
     1
 62
   257
176
     1
 90
        1
176
     1
 90
        1
176
     1
 40
1.0
176
     1
 90
        8
176
     1
 62
     7
176
     1
 40
1.0
176
     1
 90
        1
176
     1
 90
        6
176
     1
 90
        2
176
     1
 62
     7
176
     1
 90
        5
176
     1
 90
        0
176
     1
 90
        0
176
     1
290
     0
176
     1
 90
        1
176
     1
 40
-50.0
176
     1
 90
        0
176
     1
290
     0
176
     1
290
     1
176
     1
290
     1
176
     1
290
     0
176
     1
290
     0
176
     1
290
     0
176
     1
290
     0
176
     1
290
     0
176
     1
290
     0
176
     1
 90
       50
176
     1
 40
0.0
176
     1
 40
1.0
176
     1
 90
        0
176
     1
 62
    18
420
        0
176
     1
 90
       50
176
     1
 90
        3
176
     1
 62
     5
420
      255
176
     1
290
     0
176
     1
 90
       50
176
     1
 90
       50
176
     1
 90
       50
176
     1
290
     0
176
     1
 90
       50
176
     1
 62
   256
176
     0
 40
1.0
176
     0
 90
        2
176
     1
  1
strokes_ogs.tif
176
     1
290
     0
176
     1
 40
1.0
176
     1
 40
1.0
176
     1
  0
VISUALSTYLE
  5
498
102
{ACAD_REACTORS
330
F0
102
}
330
F0
100
AcDbVisualStyle
  2
EdgeColorOff
 70
    22
177
     3
291
     1
 70
    58
 90
        2
176
     0
 90
        2
176
     0
 90
        0
176
     0
 90
        0
176
     0
 40
0.6
176
     0
 40
30.0
176
     0
 62
     7
420
 16777215
176
     0
 90
        1
176
     0
 90
        4
176
     0
 62
     7
176
     0
 62
   257
176
     0
 90
        1
176
     0
 90
        1
176
     0
 40
1.0
176
     0
 90
        8
176
     2
 62
     7
176
     0
 40
1.0
176
     0
 90
        1
176
     0
 90
        6
176
     0
 90
        2
176
     0
 62
     7
176
     0
 90
        5
176
     0
 90
        0
176
     0
 90
        0
176
     0
290
     0
176
     0
 90
        1
176
     0
 40
0.0
176
     0
 90
        0
176
     0
290
     0
176
     0
290
     1
176
     0
290
     1
176
     0
290
     0
176
     0
290
     0
176
     0
290
     0
176
     0
290
     0
176
     0
290
     0
176
     0
290
     0
176
     0
 90
       50
176
     0
 40
0.0
176
     0
 40
1.0
176
     0
 90
        0
176
     0
 62
    18
420
        0
176
     0
 90
       50
176
     0
 90
        3
176
     0
 62
     5
420
      255
176
     0
290
     0
176
     0
 90
       50
176
     0
 90
       50
176
     0
 90
       50
176
     0
290
     0
176
     0
 90
       50
176
     0
 62
   256
176
     0
 40
1.0
176
     0
 90
        2
176
     0
  1
strokes_ogs.tif
176
     0
290
     0
176
     0
 40
1.0
176
     0
 40
1.0
176
     0
  0
VISUALSTYLE
  5
FF
102
{ACAD_REACTORS
330
F0
102
}
330
F0
100
AcDbVisualStyle
  2
Facepattern
 70
    15
177
     3
291
     1
 70
    58
 90
        2
176
     1
 90
        2
176
     1
 90
        1
176
     1
 90
        0
176
     1
 40
0.6
176
     1
 40
30.0
176
     1
 62
     7
420
 16777215
176
     1
 90
        1
176
     1
 90
        4
176
     1
 62
     7
176
     1
 62
   257
176
     1
 90
        1
176
     1
 90
        1
176
     1
 40
1.0
176
     1
 90
        8
176
     1
 62
     7
176
     1
 40
1.0
176
     1
 90
        1
176
     1
 90
        6
176
     1
 90
        2
176
     1
 62
     7
176
     1
 90
        5
176
     1
 90
        0
176
     1
 90
        0
176
     1
290
     0
176
     1
 90
        1
176
     1
 40
0.0
176
     1
 90
        0
176
     1
290
     0
176
     1
290
     1
176
     1
290
     1
176
     1
290
     0
176
     1
290
     0
176
     1
290
     0
176
     1
290
     0
176
     1
290
     0
176
     1
290
     0
176
     1
 90
       50
176
     1
 40
0.0
176
     1
 40
1.0
176
     1
 90
        0
176
     1
 62
    18
420
        0
176
     1
 90
       50
176
     1
 90
        3
176
     1
 62
     5
420
      255
176
     1
290
     0
176
     1
 90
       50
176
     1
 90
       50
176
     1
 90
       50
176
     1
290
     0
176
     1
 90
       50
176
     1
 62
   256
176
     0
 40
1.0
176
     0
 90
        2
176
     1
  1
strokes_ogs.tif
176
     1
290
     0
176
     1
 40
1.0
176
     1
 40
1.0
176
     1
  0
VISUALSTYLE
  5
F1
102
{ACAD_REACTORS
330
F0
102
}
330
F0
100
AcDbVisualStyle
  2
Flat
 70
     0
177
     3
291
     1
 70
    58
 90
        2
176
     1
 90
        1
176
     1
 90
        1
176
     1
 90
        2
176
     1
 40
0.6
176
     1
 40
30.0
176
     1
 62
     7
420
 16777215
176
     1
 90
        0
176
     1
 90
        4
176
     1
 62
     7
176
     1
 62
   257
176
     1
 90
        1
176
     1
 90
        1
176
     1
 40
1.0
176
     1
 90
        8
176
     1
 62
     7
176
     1
 40
1.0
176
     1
 90
        1
176
     1
 90
        6
176
     1
 90
        2
176
     1
 62
     7
176
     1
 90
        5
176
     1
 90
        0
176
     1
 90
        0
176
     1
290
     0
176
     1
 90
        1
176
     1
 40
0.0
176
     1
 90
        0
176
     1
290
     0
176
     1
290
     1
176
     1
290
     1
176
     1
290
     0
176
     1
290
     0
176
     1
290
     0
176
     1
290
     0
176
     1
290
     0
176
     1
290
     0
176
     1
 90
       50
176
     1
 40
0.0
176
     1
 40
1.0
176
     1
 90
        0
176
     1
 62
    18
420
        0
176
     1
 90
       50
176
     1
 90
        3
176
     1
 62
     5
420
      255
176
     1
290
     0
176
     1
 90
       50
176
     1
 90
       50
176
     1
 90
       50
176
     1
290
     0
176
     1
 90
       50
176
     1
 62
   256
176
     0
 40
1.0
176
     0
 90
        2
176
     1
  1
strokes_ogs.tif
176
     1
290
     0
176
     1
 40
1.0
176
     1
 40
1.0
176
     1
  0
VISUALSTYLE
  5
F2
102
{ACAD_REACTORS
330
F0
102
}
330
F0
100
AcDbVisualStyle
  2
FlatWithEdges
 70
     1
177
     3
291
     1
 70
    58
 90
        2
176
     1
 90
        1
176
     1
 90
        1
176
     1
 90
        2
176
     1
 40
0.6
176
     1
 40
30.0
176
     1
 62
     7
420
 16777215
176
     1
 90
        1
176
     1
 90
        4
176
     1
 62
     7
176
     1
 62
   257
176
     1
 90
        1
176
     1
 90
        1
176
     1
 40
1.0
176
     1
 90
        0
176
     1
 62
   257
176
     1
 40
1.0
176
     1
 90
        1
176
     1
 90
        6
176
     1
 90
        2
176
     1
 62
     7
176
     1
 90
        5
176
     1
 90
        0
176
     1
 90
        0
176
     1
290
     0
176
     1
 90
        1
176
     1
 40
0.0
176
     1
 90
        0
176
     1
290
     0
176
     1
290
     1
176
     1
290
     1
176
     1
290
     0
176
     1
290
     0
176
     1
290
     0
176
     1
290
     0
176
     1
290
     0
176
     1
290
     0
176
     1
 90
       50
176
     1
 40
0.0
176
     1
 40
1.0
176
     1
 90
        0
176
     1
 62
    18
420
        0
176
     1
 90
       50
176
     1
 90
        3
176
     1
 62
     5
420
      255
176
     1
290
     0
176
     1
 90
       50
176
     1
 90
       50
176
     1
 90
       50
176
     1
290
     0
176
     1
 90
       50
176
     1
 62
   256
176
     0
 40
1.0
176
     0
 90
        2
176
     1
  1
strokes_ogs.tif
176
     1
290
     0
176
     1
 40
1.0
176
     1
 40
1.0
176
     1
  0
VISUALSTYLE
  5
F3
102
{ACAD_REACTORS
330
F0
102
}
330
F0
100
AcDbVisualStyle
  2
Gouraud
 70
     2
177
     3
291
     1
 70
    58
 90
        2
176
     1
 90
        2
176
     1
 90
        1
176
     1
 90
        2
176
     1
 40
0.6
176
     1
 40
30.0
176
     1
 62
     7
420
 16777215
176
     1
 90
        0
176
     1
 90
        4
176
     1
 62
     7
176
     1
 62
   257
176
     1
 90
        1
176
     1
 90
        1
176
     1
 40
1.0
176
     1
 90
        0
176
     1
 62
     7
176
     1
 40
1.0
176
     1
 90
        1
176
     1
 90
        6
176
     1
 90
        2
176
     1
 62
     7
176
     1
 90
        5
176
     1
 90
        0
176
     1
 90
        0
176
     1
290
     0
176
     1
 90
        1
176
     1
 40
0.0
176
     1
 90
        0
176
     1
290
     0
176
     1
290
     1
176
     1
290
     1
176
     1
290
     0
176
     1
290
     0
176
     1
290
     0
176
     1
290
     0
176
     1
290
     0
176
     1
290
     0
176
     1
 90
       50
176
     1
 40
0.0
176
     1
 40
1.0
176
     1
 90
        0
176
     1
 62
    18
420
        0
176
     1
 90
       50
176
     1
 90
        3
176
     1
 62
     5
420
      255
176
     1
290
     0
176
     1
 90
       50
176
     1
 90
       50
176
     1
 90
       50
176
     1
290
     0
176
     1
 90
       50
176
     1
 62
   256
176
     0
 40
1.0
176
     0
 90
        2
176
     1
  1
strokes_ogs.tif
176
     1
290
     0
176
     1
 40
1.0
176
     1
 40
1.0
176
     1
  0
VISUALSTYLE
  5
F4
102
{ACAD_REACTORS
330
F0
102
}
330
F0
100
AcDbVisualStyle
  2
GouraudWithEdges
 70
     3
177
     3
291
     1
 70
    58
 90
        2
176
     1
 90
        2
176
     1
 90
        1
176
     1
 90
        2
176
     1
 40
0.6
176
     1
 40
30.0
176
     1
 62
     7
420
 16777215
176
     1
 90
        1
176
     1
 90
        4
176
     1
 62
     7
176
     1
 62
   257
176
     1
 90
        1
176
     1
 90
        1
176
     1
 40
1.0
176
     1
 90
        0
176
     1
 62
   257
176
     1
 40
1.0
176
     1
 90
        1
176
     1
 90
        6
176
     1
 90
        2
176
     1
 62
     7
176
     1
 90
        5
176
     1
 90
        0
176
     1
 90
        0
176
     1
290
     0
176
     1
 90
        1
176
     1
 40
0.0
176
     1
 90
        0
176
     1
290
     0
176
     1
290
     1
176
     1
290
     1
176
     1
290
     0
176
     1
290
     0
176
     1
290
     0
176
     1
290
     0
176
     1
290
     0
176
     1
290
     0
176
     1
 90
       50
176
     1
 40
0.0
176
     1
 40
1.0
176
     1
 90
        0
176
     1
 62
    18
420
        0
176
     1
 90
       50
176
     1
 90
        3
176
     1
 62
     5
420
      255
176
     1
290
     0
176
     1
 90
       50
176
     1
 90
       50
176
     1
 90
       50
176
     1
290
     0
176
     1
 90
       50
176
     1
 62
   256
176
     0
 40
1.0
176
     0
 90
        2
176
     1
  1
strokes_ogs.tif
176
     1
290
     0
176
     1
 40
1.0
176
     1
 40
1.0
176
     1
  0
VISUALSTYLE
  5
490
102
{ACAD_REACTORS
330
F0
102
}
330
F0
100
AcDbVisualStyle
  2
Hidden
 70
     6
177
     3
291
     0
 70
    58
 90
        1
176
     1
 90
        2
176
     1
 90
        2
176
     1
 90
        0
176
     1
 40
0.6
176
     1
 40
30.0
176
     1
 62
     7
420
 16777215
176
     1
 90
        2
176
     1
 90
        2
176
     1
 62
     7
176
     1
 62
   257
176
     1
 90
        2
176
     1
 90
        1
176
     1
 40
40.0
176
     1
 90
        0
176
     1
 62
   257
176
     1
 40
1.0
176
     1
 90
        1
176
     1
 90
        6
176
     1
 90
        2
176
     1
 62
     7
176
     1
 90
        3
176
     1
 90
        0
176
     1
 90
        0
176
     1
290
     0
176
     1
 90
        1
176
     1
 40
0.0
176
     1
 90
        0
176
     1
290
     0
176
     1
290
     1
176
     1
290
     1
176
     1
290
     0
176
     1
290
     0
176
     1
290
     0
176
     1
290
     0
176
     1
290
     0
176
     1
290
     0
176
     1
 90
       50
176
     1
 40
0.0
176
     1
 40
1.0
176
     1
 90
        0
176
     1
 62
    18
420
        0
176
     1
 90
       50
176
     1
 90
        3
176
     1
 62
     5
420
      255
176
     1
290
     0
176
     1
 90
       50
176
     1
 90
       50
176
     1
 90
       50
176
     1
290
     0
176
     1
 90
       50
176
     1
 62
   256
176
     0
 40
1.0
176
     0
 90
        2
176
     1
  1
strokes_ogs.tif
176
     1
290
     0
176
     1
 40
1.0
176
     1
 40
1.0
176
     1
  0
VISUALSTYLE
  5
496
102
{ACAD_REACTORS
330
F0
102
}
330
F0
100
AcDbVisualStyle
  2
JitterOff
 70
    20
177
     3
291
     1
 70
    58
 90
        2
176
     0
 90
        2
176
     0
 90
        0
176
     0
 90
        0
176
     0
 40
0.6
176
     0
 40
30.0
176
     0
 62
     7
420
 16777215
176
     0
 90
        1
176
     0
 90
        4
176
     0
 62
     7
176
     0
 62
   257
176
     0
 90
        1
176
     0
 90
        1
176
     0
 40
1.0
176
     0
 90
       10
176
     2
 62
     7
176
     0
 40
1.0
176
     0
 90
        1
176
     0
 90
        6
176
     0
 90
        2
176
     0
 62
     7
176
     0
 90
        5
176
     0
 90
        0
176
     0
 90
        0
176
     0
290
     0
176
     0
 90
        1
176
     0
 40
0.0
176
     0
 90
        0
176
     0
290
     0
176
     0
290
     1
176
     0
290
     1
176
     0
290
     0
176
     0
290
     0
176
     0
290
     0
176
     0
290
     0
176
     0
290
     0
176
     0
290
     0
176
     0
 90
       50
176
     0
 40
0.0
176
     0
 40
1.0
176
     0
 90
        0
176
     0
 62
    18
420
        0
176
     0
 90
       50
176
     0
 90
        3
176
     0
 62
     5
420
      255
176
     0
290
     0
176
     0
 90
       50
176
     0
 90
       50
176
     0
 90
       50
176
     0
290
     0
176
     0
 90
       50
176
     0
 62
   256
176
     0
 40
1.0
176
     0
 90
        2
176
     0
  1
strokes_ogs.tif
176
     0
290
     0
176
     0
 40
1.0
176
     0
 40
1.0
176
     0
  0
VISUALSTYLE
  5
FE
102
{ACAD_REACTORS
330
F0
102
}
330
F0
100
AcDbVisualStyle
  2
Linepattern
 70
    14
177
     3
291
     1
 70
    58
 90
        2
176
     1
 90
        2
176
     1
 90
        1
176
     1
 90
        0
176
     1
 40
0.6
176
     1
 40
30.0
176
     1
 62
     7
420
 16777215
176
     1
 90
        1
176
     1
 90
        4
176
     1
 62
     7
176
     1
 62
   257
176
     1
 90
        7
176
     1
 90
        7
176
     1
 40
1.0
176
     1
 90
        8
176
     1
 62
     7
176
     1
 40
1.0
176
     1
 90
        1
176
     1
 90
        6
176
     1
 90
        2
176
     1
 62
     7
176
     1
 90
        5
176
     1
 90
        0
176
     1
 90
        0
176
     1
290
     0
176
     1
 90
        1
176
     1
 40
0.0
176
     1
 90
        0
176
     1
290
     0
176
     1
290
     1
176
     1
290
     1
176
     1
290
     0
176
     1
290
     0
176
     1
290
     0
176
     1
290
     0
176
     1
290
     0
176
     1
290
     0
176
     1
 90
       50
176
     1
 40
0.0
176
     1
 40
1.0
176
     1
 90
        0
176
     1
 62
    18
420
        0
176
     1
 90
       50
176
     1
 90
        3
176
     1
 62
     5
420
      255
176
     1
290
     0
176
     1
 90
       50
176
     1
 90
       50
176
     1
 90
       50
176
     1
290
     0
176
     1
 90
       50
176
     1
 62
   256
176
     0
 40
1.0
176
     0
 90
        2
176
     1
  1
strokes_ogs.tif
176
     1
290
     0
176
     1
 40
1.0
176
     1
 40
1.0
176
     1
  0
VISUALSTYLE
  5
497
102
{ACAD_REACTORS
330
F0
102
}
330
F0
100
AcDbVisualStyle
  2
OverhangOff
 70
    21
177
     3
291
     1
 70
    58
 90
        2
176
     0
 90
        2
176
     0
 90
        0
176
     0
 90
        0
176
     0
 40
0.6
176
     0
 40
30.0
176
     0
 62
     7
420
 16777215
176
     0
 90
        1
176
     0
 90
        4
176
     0
 62
     7
176
     0
 62
   257
176
     0
 90
        1
176
     0
 90
        1
176
     0
 40
1.0
176
     0
 90
        9
176
     2
 62
     7
176
     0
 40
1.0
176
     0
 90
        1
176
     0
 90
        6
176
     0
 90
        2
176
     0
 62
     7
176
     0
 90
        5
176
     0
 90
        0
176
     0
 90
        0
176
     0
290
     0
176
     0
 90
        1
176
     0
 40
0.0
176
     0
 90
        0
176
     0
290
     0
176
     0
290
     1
176
     0
290
     1
176
     0
290
     0
176
     0
290
     0
176
     0
290
     0
176
     0
290
     0
176
     0
290
     0
176
     0
290
     0
176
     0
 90
       50
176
     0
 40
0.0
176
     0
 40
1.0
176
     0
 90
        0
176
     0
 62
    18
420
        0
176
     0
 90
       50
176
     0
 90
        3
176
     0
 62
     5
420
      255
176
     0
290
     0
176
     0
 90
       50
176
     0
 90
       50
176
     0
 90
       50
176
     0
290
     0
176
     0
 90
       50
176
     0
 62
   256
176
     0
 40
1.0
176
     0
 90
        2
176
     0
  1
strokes_ogs.tif
176
     0
290
     0
176
     0
 40
1.0
176
     0
 40
1.0
176
     0
  0
VISUALSTYLE
  5
FA
102
{ACAD_REACTORS
330
F0
102
}
330
F0
100
AcDbVisualStyle
  2
Realistic
 70
     8
177
     3
291
     0
 70
    58
 90
        2
176
     1
 90
        2
176
     1
 90
        1
176
     1
 90
        0
176
     1
 40
0.6
176
     1
 40
30.0
176
     1
 62
     7
420
 16777215
176
     1
 90
        1
176
     1
 90
        0
176
     1
 62
     7
176
     1
 62
   257
176
     1
 90
        1
176
     1
 90
        1
176
     1
 40
1.0
176
     1
 90
        8
176
     1
 62
     8
420
  7895160
176
     1
 40
1.0
176
     1
 90
        1
176
     1
 90
        6
176
     1
 90
        2
176
     1
 62
     7
176
     1
 90
        5
176
     1
 90
        0
176
     1
 90
        0
176
     1
290
     0
176
     1
 90
       13
176
     1
 40
0.0
176
     1
 90
        0
176
     1
290
     0
176
     1
290
     1
176
     1
290
     1
176
     1
290
     0
176
     1
290
     0
176
     1
290
     0
176
     1
290
     0
176
     1
290
     0
176
     1
290
     0
176
     1
 90
       50
176
     1
 40
0.0
176
     1
 40
1.0
176
     1
 90
        0
176
     1
 62
    18
420
        0
176
     1
 90
       50
176
     1
 90
        3
176
     1
 62
     5
420
      255
176
     1
290
     0
176
     1
 90
       50
176
     1
 90
       50
176
     1
 90
       50
176
     1
290
     0
176
     1
 90
       50
176
     1
 62
   256
176
     0
 40
1.0
176
     0
 90
        2
176
     1
  1
strokes_ogs.tif
176
     1
290
     0
176
     1
 40
1.0
176
     1
 40
1.0
176
     1
  0
VISUALSTYLE
  5
495
102
{ACAD_REACTORS
330
F0
102
}
330
F0
100
AcDbVisualStyle
  2
Shaded
 70
    27
177
     3
291
     0
 70
    58
 90
        2
176
     1
 90
        2
176
     1
 90
        1
176
     1
 90
        2
176
     1
 40
0.6
176
     1
 40
30.0
176
     1
 62
     7
420
 16777215
176
     1
 90
        0
176
     1
 90
        4
176
     1
 62
     7
176
     1
 62
   257
176
     1
 90
        1
176
     1
 90
        1
176
     1
 40
1.0
176
     1
 90
        8
176
     1
 62
   257
176
     1
 40
1.0
176
     1
 90
        1
176
     1
 90
        6
176
     1
 90
        2
176
     1
 62
     8
420
  7895160
176
     1
 90
        3
176
     1
 90
        0
176
     1
 90
        0
176
     1
290
     0
176
     1
 90
        5
176
     1
 40
0.0
176
     1
 90
        0
176
     1
290
     0
176
     1
290
     1
176
     1
290
     1
176
     1
290
     0
176
     1
290
     0
176
     1
290
     0
176
     1
290
     0
176
     1
290
     0
176
     1
290
     0
176
     1
 90
       50
176
     1
 40
0.0
176
     1
 40
1.0
176
     1
 90
        0
176
     1
 62
    18
420
        0
176
     1
 90
       50
176
     1
 90
        3
176
     1
 62
     5
420
      255
176
     1
290
     0
176
     1
 90
       50
176
     1
 90
       50
176
     1
 90
       50
176
     1
290
     0
176
     1
 90
       50
176
     1
 62
   256
176
     0
 40
1.0
176
     0
 90
        2
176
     1
  1
strokes_ogs.tif
176
     1
290
     0
176
     1
 40
1.0
176
     1
 40
1.0
176
     1
  0
VISUALSTYLE
  5
494
102
{ACAD_REACTORS
330
F0
102
}
330
F0
100
AcDbVisualStyle
  2
Shaded with edges
 70
    26
177
     3
291
     0
 70
    58
 90
        2
176
     1
 90
        2
176
     1
 90
        1
176
     1
 90
        2
176
     1
 40
0.6
176
     1
 40
30.0
176
     1
 62
     7
420
 16777215
176
     1
 90
        1
176
     1
 90
        2
176
     1
 62
     7
176
     1
 62
   257
176
     1
 90
        2
176
     1
 90
        1
176
     1
 40
1.0
176
     1
 90
        8
176
     1
 62
   257
176
     1
 40
1.0
176
     1
 90
        1
176
     1
 90
        6
176
     1
 90
        2
176
     1
 62
     7
176
     1
 90
        3
176
     1
 90
        0
176
     1
 90
        0
176
     1
290
     0
176
     1
 90
        5
176
     1
 40
0.0
176
     1
 90
        0
176
     1
290
     0
176
     1
290
     1
176
     1
290
     1
176
     1
290
     0
176
     1
290
     0
176
     1
290
     0
176
     1
290
     0
176
     1
290
     0
176
     1
290
     0
176
     1
 90
       50
176
     1
 40
0.0
176
     1
 40
1.0
176
     1
 90
        0
176
     1
 62
    18
420
        0
176
     1
 90
       50
176
     1
 90
        3
176
     1
 62
     5
420
      255
176
     1
290
     0
176
     1
 90
       50
176
     1
 90
       50
176
     1
 90
       50
176
     1
290
     0
176
     1
 90
       50
176
     1
 62
   256
176
     0
 40
1.0
176
     0
 90
        2
176
     1
  1
strokes_ogs.tif
176
     1
290
     0
176
     1
 40
1.0
176
     1
 40
1.0
176
     1
  0
VISUALSTYLE
  5
491
102
{ACAD_REACTORS
330
F0
102
}
330
F0
100
AcDbVisualStyle
  2
Shades of Gray
 70
    23
177
     3
291
     0
 70
    58
 90
        2
176
     1
 90
        2
176
     1
 90
        3
176
     1
 90
        0
176
     1
 40
0.6
176
     1
 40
30.0
176
     1
 62
     7
420
 16777215
176
     1
 90
        2
176
     1
 90
        2
176
     1
 62
     7
176
     1
 62
     7
176
     1
 90
        1
176
     1
 90
        1
176
     1
 40
40.0
176
     1
 90
        8
176
     1
 62
     7
176
     1
 40
1.0
176
     1
 90
        1
176
     1
 90
        6
176
     1
 90
        2
176
     1
 62
     7
176
     1
 90
        3
176
     1
 90
        0
176
     1
 90
        0
176
     1
290
     0
176
     1
 90
        1
176
     1
 40
0.0
176
     1
 90
        0
176
     1
290
     0
176
     1
290
     1
176
     1
290
     1
176
     1
290
     0
176
     1
290
     0
176
     1
290
     0
176
     1
290
     0
176
     1
290
     0
176
     1
290
     0
176
     1
 90
       50
176
     1
 40
0.0
176
     1
 40
1.0
176
     1
 90
        0
176
     1
 62
    18
420
        0
176
     1
 90
       50
176
     1
 90
        3
176
     1
 62
     5
420
      255
176
     1
290
     0
176
     1
 90
       50
176
     1
 90
       50
176
     1
 90
       50
176
     1
290
     0
176
     1
 90
       50
176
     1
 62
   256
176
     0
 40
1.0
176
     0
 90
        2
176
     1
  1
strokes_ogs.tif
176
     1
290
     0
176
     1
 40
1.0
176
     1
 40
1.0
176
     1
  0
VISUALSTYLE
  5
492
102
{ACAD_REACTORS
330
F0
102
}
330
F0
100
AcDbVisualStyle
  2
Sketchy
 70
    24
177
     3
291
     0
 70
    58
 90
        1
176
     1
 90
        2
176
     1
 90
        2
176
     1
 90
        0
176
     1
 40
0.6
176
     1
 40
30.0
176
     1
 62
     7
420
 16777215
176
     1
 90
        2
176
     1
 90
        2
176
     1
 62
     7
176
     1
 62
     7
176
     1
 90
        1
176
     1
 90
        1
176
     1
 40
40.0
176
     1
 90
       11
176
     1
 62
     7
176
     1
 40
1.0
176
     1
 90
        1
176
     1
 90
        6
176
     1
 90
        2
176
     1
 62
     7
176
     1
 90
        6
176
     1
 90
        0
176
     1
 90
        0
176
     1
290
     0
176
     1
 90
        1
176
     1
 40
0.0
176
     1
 90
        0
176
     1
290
     0
176
     1
290
     1
176
     1
290
     1
176
     1
290
     0
176
     1
290
     0
176
     1
290
     0
176
     1
290
     0
176
     1
290
     0
176
     1
290
     0
176
     1
 90
       50
176
     1
 40
0.0
176
     1
 40
1.0
176
     1
 90
        0
176
     1
 62
    18
420
        0
176
     1
 90
       50
176
     1
 90
        3
176
     1
 62
     5
420
      255
176
     1
290
     0
176
     1
 90
       50
176
     1
 90
       50
176
     1
 90
       50
176
     1
290
     0
176
     1
 90
       50
176
     1
 62
   256
176
     0
 40
1.0
176
     0
 90
        2
176
     1
  1
strokes_ogs.tif
176
     1
290
     0
176
     1
 40
1.0
176
     1
 40
1.0
176
     1
  0
VISUALSTYLE
  5
FD
102
{ACAD_REACTORS
330
F0
102
}
330
F0
100
AcDbVisualStyle
  2
Thicken
 70
    13
177
     3
291
     1
 70
    58
 90
        2
176
     1
 90
        2
176
     1
 90
        1
176
     1
 90
        0
176
     1
 40
0.6
176
     1
 40
30.0
176
     1
 62
     7
420
 16777215
176
     1
 90
        1
176
     1
 90
        4
176
     1
 62
     7
176
     1
 62
   257
176
     1
 90
        1
176
     1
 90
        1
176
     1
 40
1.0
176
     1
 90
       12
176
     1
 62
     7
176
     1
 40
1.0
176
     1
 90
        1
176
     1
 90
        6
176
     1
 90
        2
176
     1
 62
     7
176
     1
 90
        5
176
     1
 90
        0
176
     1
 90
        0
176
     1
290
     0
176
     1
 90
        1
176
     1
 40
0.0
176
     1
 90
        0
176
     1
290
     0
176
     1
290
     1
176
     1
290
     1
176
     1
290
     0
176
     1
290
     0
176
     1
290
     0
176
     1
290
     0
176
     1
290
     0
176
     1
290
     0
176
     1
 90
       50
176
     1
 40
0.0
176
     1
 40
1.0
176
     1
 90
        0
176
     1
 62
    18
420
        0
176
     1
 90
       50
176
     1
 90
        3
176
     1
 62
     5
420
      255
176
     1
290
     0
176
     1
 90
       50
176
     1
 90
       50
176
     1
 90
       50
176
     1
290
     0
176
     1
 90
       50
176
     1
 62
   256
176
     0
 40
1.0
176
     0
 90
        2
176
     1
  1
strokes_ogs.tif
176
     1
290
     0
176
     1
 40
1.0
176
     1
 40
1.0
176
     1
  0
VISUALSTYLE
  5
48F
102
{ACAD_REACTORS
330
F0
102
}
330
F0
100
AcDbVisualStyle
  2
Wireframe
 70
     5
177
     3
291
     0
 70
    58
 90
        0
176
     1
 90
        2
176
     1
 90
        0
176
     1
 90
        0
176
     1
 40
0.6
176
     1
 40
30.0
176
     1
 62
     7
420
 16777215
176
     1
 90
        1
176
     1
 90
        4
176
     1
 62
     7
176
     1
 62
   257
176
     1
 90
        1
176
     1
 90
        1
176
     1
 40
1.0
176
     1
 90
        0
176
     1
 62
   257
176
     1
 40
1.0
176
     1
 90
        1
176
     1
 90
        6
176
     1
 90
        2
176
     1
 62
     7
176
     1
 90
        3
176
     1
 90
        0
176
     1
 90
        0
176
     1
290
     0
176
     1
 90
        1
176
     1
 40
0.0
176
     1
 90
        0
176
     1
290
     0
176
     1
290
     1
176
     1
290
     1
176
     1
290
     0
176
     1
290
     0
176
     1
290
     0
176
     1
290
     0
176
     1
290
     0
176
     1
290
     0
176
     1
 90
       50
176
     1
 40
0.0
176
     1
 40
1.0
176
     1
 90
        0
176
     1
 62
    18
420
        0
176
     1
 90
       50
176
     1
 90
        3
176
     1
 62
     5
420
      255
176
     1
290
     0
176
     1
 90
       50
176
     1
 90
       50
176
     1
 90
       50
176
     1
290
     0
176
     1
 90
       50
176
     1
 62
   256
176
     0
 40
1.0
176
     0
 90
        2
176
     1
  1
strokes_ogs.tif
176
     1
290
     0
176
     1
 40
1.0
176
     1
 40
1.0
176
     1
  0
VISUALSTYLE
  5
493
102
{ACAD_REACTORS
330
F0
102
}
330
F0
100
AcDbVisualStyle
  2
X-Ray
 70
    25
177
     3
291
     0
 70
    58
 90
        2
176
     1
 90
        2
176
     1
 90
        1
176
     1
 90
        1
176
     1
 40
0.5
176
     1
 40
30.0
176
     1
 62
     7
420
 16777215
176
     1
 90
        1
176
     1
 90
        0
176
     1
 62
     7
176
     1
 62
   257
176
     1
 90
        1
176
     1
 90
        1
176
     1
 40
1.0
176
     1
 90
        8
176
     1
 62
     7
176
     1
 40
1.0
176
     1
 90
        1
176
     1
 90
        6
176
     1
 90
        2
176
     1
 62
     7
176
     1
 90
        3
176
     1
 90
        0
176
     1
 90
        0
176
     1
290
     0
176
     1
 90
       13
176
     1
 40
0.0
176
     1
 90
        0
176
     1
290
     0
176
     1
290
     1
176
     1
290
     1
176
     1
290
     0
176
     1
290
     0
176
     1
290
     0
176
     1
290
     0
176
     1
290
     0
176
     1
290
     0
176
     1
 90
       50
176
     1
 40
0.0
176
     1
 40
1.0
176
     1
 90
        0
176
     1
 62
    18
420
        0
176
     1
 90
       50
176
     1
 90
        3
176
     1
 62
     5
420
      255
176
     1
290
     0
176
     1
 90
       50
176
     1
 90
       50
176
     1
 90
       50
176
     1
290
     0
176
     1
 90
       50
176
     1
 62
   256
176
     0
 40
1.0
176
     0
 90
        2
176
     1
  1
strokes_ogs.tif
176
     1
290
     0
176
     1
 40
1.0
176
     1
 40
1.0
176
     1
  0
DICTIONARYVAR
  5
4CD
102
{ACAD_REACTORS
330
5E
102
}
330
5E
100
DictionaryVariables
280
     0
  1
1:1
  0
DICTIONARYVAR
  5
4C9
102
{ACAD_REACTORS
330
5E
102
}
330
5E
100
DictionaryVariables
280
     0
  1
STANDARD
  0
DICTIONARYVAR
  5
84
102
{ACAD_REACTORS
330
5E
102
}
330
5E
100
DictionaryVariables
280
     0
  1
STANDARD
  0
DICTIONARYVAR
  5
4CA
102
{ACAD_REACTORS
330
5E
102
}
330
5E
100
DictionaryVariables
280
     0
  1
Metric50
  0
DICTIONARYVAR
  5
4CB
102
{ACAD_REACTORS
330
5E
102
}
330
5E
100
DictionaryVariables
280
     0
  1
Metric50
  0
DICTIONARYVAR
  5
5F
102
{ACAD_REACTORS
330
5E
102
}
330
5E
100
DictionaryVariables
280
     0
  1
2
  0
DICTIONARYVAR
  5
63
102
{ACAD_REACTORS
330
5E
102
}
330
5E
100
DictionaryVariables
280
     0
  1
1
  0
DICTIONARYVAR
  5
4CF
102
{ACAD_REACTORS
330
5E
102
}
330
5E
100
DictionaryVariables
280
     0
  1
1
  0
DICTIONARYVAR
  5
4D0
102
{ACAD_REACTORS
330
5E
102
}
330
5E
100
DictionaryVariables
280
     0
  1
15
  0
DICTIONARYVAR
  5
4CE
102
{ACAD_REACTORS
330
5E
102
}
330
5E
100
DictionaryVariables
280
     0
  1
0
  0
DICTIONARYVAR
  5
4CC
102
{ACAD_REACTORS
330
5E
102
}
330
5E
100
DictionaryVariables
280
     0
  1
0
  0
DICTIONARY
  5
4D5
330
4B0
100
AcDbDictionary
280
     1
281
     1
  3
ACAD_XREC_ROUNDTRIP
360
4D6
  0
DICTIONARY
  5
4D3
330
4AE
100
AcDbDictionary
280
     1
281
     1
  3
ACAD_XREC_ROUNDTRIP
360
4D4
  0
DICTIONARY
  5
4D1
330
7F
100
AcDbDictionary
280
     1
281
     1
  3
ACAD_ROUNDTRIP_2008_TABLESTYLE_CELLSTYLEMAP
360
4D2
  0
XRECORD
  5
4D6
102
{ACAD_REACTORS
330
4D5
102
}
330
4D5
100
AcDbXrecord
280
     1
102
DISPLAYNAME
  1
Metric50
102
FLAGS
 90
        0
  0
XRECORD
  5
4D4
102
{ACAD_REACTORS
330
4D3
102
}
330
4D3
100
AcDbXrecord
280
     1
102
DISPLAYNAME
  1
Metric50
102
FLAGS
 90
        0
  0
CELLSTYLEMAP
  5
4D2
102
{ACAD_REACTORS
330
4D1
102
}
330
4D1
100
AcDbCellStyleMap
 90
        3
300
CELLSTYLE
  1
TABLEFORMAT_BEGIN
 90
        5
170
     1
 91
        0
 92
    32768
 62
   257
 93
        1
300
CONTENTFORMAT
  1
CONTENTFORMAT_BEGIN
 90
        0
 91
        0
 92
      512
 93
        0
300

 40
0.0
140
1.0
 94
        5
 62
     0
340
11
144
6.0
309
CONTENTFORMAT_END
171
     1
301
MARGIN
  1
CELLMARGIN_BEGIN
 40
1.5
 40
1.5
 40
1.5
 40
1.5
 40
0.18
 40
0.18
309
CELLMARGIN_END
 94
        6
 95
        1
302
GRIDFORMAT
  1
GRIDFORMAT_BEGIN
 90
        0
 91
        1
 62
     0
 92
       -2
340
0
 93
        0
 40
0.045
309
GRIDFORMAT_END
 95
        2
302
GRIDFORMAT
  1
GRIDFORMAT_BEGIN
 90
        0
 91
        1
 62
     0
 92
       -2
340
0
 93
        0
 40
0.045
309
GRIDFORMAT_END
 95
        4
302
GRIDFORMAT
  1
GRIDFORMAT_BEGIN
 90
        0
 91
        1
 62
     0
 92
       -2
340
0
 93
        0
 40
0.045
309
GRIDFORMAT_END
 95
        8
302
GRIDFORMAT
  1
GRIDFORMAT_BEGIN
 90
        0
 91
        1
 62
     0
 92
       -2
340
0
 93
        0
 40
0.045
309
GRIDFORMAT_END
 95
       16
302
GRIDFORMAT
  1
GRIDFORMAT_BEGIN
 90
        0
 91
        1
 62
     0
 92
       -2
340
0
 93
        0
 40
0.045
309
GRIDFORMAT_END
 95
       32
302
GRIDFORMAT
  1
GRIDFORMAT_BEGIN
 90
        0
 91
        1
 62
     0
 92
       -2
340
0
 93
        0
 40
0.045
309
GRIDFORMAT_END
309
TABLEFORMAT_END
  1
CELLSTYLE_BEGIN
 90
        1
 91
        1
300
_TITLE
309
CELLSTYLE_END
300
CELLSTYLE
  1
TABLEFORMAT_BEGIN
 90
        5
170
     1
 91
        0
 92
        0
 62
   257
 93
        1
300
CONTENTFORMAT
  1
CONTENTFORMAT_BEGIN
 90
        0
 91
        0
 92
      512
 93
        0
300

 40
0.0
140
1.0
 94
        5
 62
     0
340
11
144
4.5
309
CONTENTFORMAT_END
171
     1
301
MARGIN
  1
CELLMARGIN_BEGIN
 40
1.5
 40
1.5
 40
1.5
 40
1.5
 40
0.18
 40
0.18
309
CELLMARGIN_END
 94
        6
 95
        1
302
GRIDFORMAT
  1
GRIDFORMAT_BEGIN
 90
        0
 91
        1
 62
     0
 92
       -2
340
0
 93
        0
 40
0.045
309
GRIDFORMAT_END
 95
        2
302
GRIDFORMAT
  1
GRIDFORMAT_BEGIN
 90
        0
 91
        1
 62
     0
 92
       -2
340
0
 93
        0
 40
0.045
309
GRIDFORMAT_END
 95
        4
302
GRIDFORMAT
  1
GRIDFORMAT_BEGIN
 90
        0
 91
        1
 62
     0
 92
       -2
340
0
 93
        0
 40
0.045
309
GRIDFORMAT_END
 95
        8
302
GRIDFORMAT
  1
GRIDFORMAT_BEGIN
 90
        0
 91
        1
 62
     0
 92
       -2
340
0
 93
        0
 40
0.045
309
GRIDFORMAT_END
 95
       16
302
GRIDFORMAT
  1
GRIDFORMAT_BEGIN
 90
        0
 91
        1
 62
     0
 92
       -2
340
0
 93
        0
 40
0.045
309
GRIDFORMAT_END
 95
       32
302
GRIDFORMAT
  1
GRIDFORMAT_BEGIN
 90
        0
 91
        1
 62
     0
 92
       -2
340
0
 93
        0
 40
0.045
309
GRIDFORMAT_END
309
TABLEFORMAT_END
  1
CELLSTYLE_BEGIN
 90
        2
 91
        1
300
_HEADER
309
CELLSTYLE_END
300
CELLSTYLE
  1
TABLEFORMAT_BEGIN
 90
        5
170
     1
 91
        0
 92
        0
 62
   257
 93
        1
300
CONTENTFORMAT
  1
CONTENTFORMAT_BEGIN
 90
        0
 91
        0
 92
      512
 93
        0
300

 40
0.0
140
1.0
 94
        2
 62
     0
340
11
144
4.5
309
CONTENTFORMAT_END
171
     1
301
MARGIN
  1
CELLMARGIN_BEGIN
 40
1.5
 40
1.5
 40
1.5
 40
1.5
 40
0.18
 40
0.18
309
CELLMARGIN_END
 94
        6
 95
        1
302
GRIDFORMAT
  1
GRIDFORMAT_BEGIN
 90
        0
 91
        1
 62
     0
 92
       -2
340
0
 93
        0
 40
0.045
309
GRIDFORMAT_END
 95
        2
302
GRIDFORMAT
  1
GRIDFORMAT_BEGIN
 90
        0
 91
        1
 62
     0
 92
       -2
340
0
 93
        0
 40
0.045
309
GRIDFORMAT_END
 95
        4
302
GRIDFORMAT
  1
GRIDFORMAT_BEGIN
 90
        0
 91
        1
 62
     0
 92
       -2
340
0
 93
        0
 40
0.045
309
GRIDFORMAT_END
 95
        8
302
GRIDFORMAT
  1
GRIDFORMAT_BEGIN
 90
        0
 91
        1
 62
     0
 92
       -2
340
0
 93
        0
 40
0.045
309
GRIDFORMAT_END
 95
       16
302
GRIDFORMAT
  1
GRIDFORMAT_BEGIN
 90
        0
 91
        1
 62
     0
 92
       -2
340
0
 93
        0
 40
0.045
309
GRIDFORMAT_END
 95
       32
302
GRIDFORMAT
  1
GRIDFORMAT_BEGIN
 90
        0
 91
        1
 62
     0
 92
       -2
340
0
 93
        0
 40
0.045
309
GRIDFORMAT_END
309
TABLEFORMAT_END
  1
CELLSTYLE_BEGIN
 90
        3
 91
        2
300
_DATA
309
CELLSTYLE_END
  0
ENDSEC
  0
EOF
