  0
SECTION
  2
HEADER
  9
$ACADVER
  1
AC1027
  9
$ACADMAINTVER
 70
   125
  9
$DWGCODEPAGE
  3
ANSI_1252
  9
$LASTSAVEDBY
  1
fleminab
  9
$REQUIREDVERSIONS
160
                 0
  9
$INSBASE
 10
0.0
 20
0.0
 30
0.0
  9
$EXTMIN
 10
7495.438094721307
 20
338.9488723801496
 30
-0.0015258207003583
  9
$EXTMAX
 10
7969.964281058128
 20
1221.341032160426
 30
0.0000000349246037
  9
$LIMMIN
 10
0.0
 20
0.0
  9
$LIMMAX
 10
420.0
 20
297.0
  9
$ORTHOMODE
 70
     0
  9
$REGENMODE
 70
     1
  9
$FILLMODE
 70
     1
  9
$QTEXTMODE
 70
     0
  9
$MIRRTEXT
 70
     0
  9
$LTSCALE
 40
1.0
  9
$ATTMODE
 70
     1
  9
$TEXTSIZE
 40
2.5
  9
$TRACEWID
 40
1.0
  9
$TEXTSTYLE
  7
Standard
  9
$CLAYER
  8
0
  9
$CELTYPE
  6
ByLayer
  9
$CECOLOR
 62
   256
  9
$CELTSCALE
 40
1.0
  9
$DISPSILH
 70
     0
  9
$DIMSCALE
 40
1.0
  9
$DIMASZ
 40
20.0
  9
$DIMEXO
 40
2.0
  9
$DIMDLI
 40
10.0
  9
$DIMRND
 40
0.0
  9
$DIMDLE
 40
0.0
  9
$DIMEXE
 40
2.0
  9
$DIMTP
 40
0.0
  9
$DIMTM
 40
0.0
  9
$DIMTXT
 40
15.0
  9
$DIMCEN
 40
10.0
  9
$DIMTSZ
 40
0.0
  9
$DIMTOL
 70
     0
  9
$DIMLIM
 70
     0
  9
$DIMTIH
 70
     0
  9
$DIMTOH
 70
     0
  9
$DIMSE1
 70
     0
  9
$DIMSE2
 70
     0
  9
$DIMTAD
 70
     1
  9
$DIMZIN
 70
     8
  9
$DIMBLK
  1

  9
$DIMASO
 70
     1
  9
$DIMSHO
 70
     1
  9
$DIMPOST
  1

  9
$DIMAPOST
  1
mm
  9
$DIMALT
 70
     0
  9
$DIMALTD
 70
     2
  9
$DIMALTF
 40
25.4
  9
$DIMLFAC
 40
1.0
  9
$DIMTOFL
 70
     1
  9
$DIMTVP
 40
0.0
  9
$DIMTIX
 70
     0
  9
$DIMSOXD
 70
     0
  9
$DIMSAH
 70
     0
  9
$DIMBLK1
  1

  9
$DIMBLK2
  1

  9
$DIMSTYLE
  2
N915
  9
$DIMCLRD
 70
     0
  9
$DIMCLRE
 70
     0
  9
$DIMCLRT
 70
     0
  9
$DIMTFAC
 40
1.0
  9
$DIMGAP
 40
2.0
  9
$DIMJUST
 70
     0
  9
$DIMSD1
 70
     0
  9
$DIMSD2
 70
     0
  9
$DIMTOLJ
 70
     1
  9
$DIMTZIN
 70
     0
  9
$DIMALTZ
 70
     0
  9
$DIMALTTZ
 70
     0
  9
$DIMUPT
 70
     1
  9
$DIMDEC
 70
     2
  9
$DIMTDEC
 70
     2
  9
$DIMALTU
 70
     2
  9
$DIMALTTD
 70
     2
  9
$DIMTXSTY
  7
Standard
  9
$DIMAUNIT
 70
     0
  9
$DIMADEC
 70
     1
  9
$DIMALTRND
 40
0.0
  9
$DIMAZIN
 70
     0
  9
$DIMDSEP
 70
    46
  9
$DIMATFIT
 70
     3
  9
$DIMFRAC
 70
     0
  9
$DIMLDRBLK
  1

  9
$DIMLUNIT
 70
     2
  9
$DIMLWD
 70
    -2
  9
$DIMLWE
 70
    -2
  9
$DIMTMOVE
 70
     0
  9
$DIMFXL
 40
1.0
  9
$DIMFXLON
 70
     0
  9
$DIMJOGANG
 40
0.7853981633974483
  9
$DIMTFILL
 70
     0
  9
$DIMTFILLCLR
 70
     0
  9
$DIMARCSYM
 70
     0
  9
$DIMLTYPE
  6

  9
$DIMLTEX1
  6

  9
$DIMLTEX2
  6

  9
$DIMTXTDIRECTION
 70
     0
  9
$LUNITS
 70
     2
  9
$LUPREC
 70
     4
  9
$SKETCHINC
 40
1.0
  9
$FILLETRAD
 40
15.0
  9
$AUNITS
 70
     0
  9
$AUPREC
 70
     0
  9
$MENU
  1
.
  9
$ELEVATION
 40
0.0
  9
$PELEVATION
 40
0.0
  9
$THICKNESS
 40
0.0
  9
$LIMCHECK
 70
     0
  9
$CHAMFERA
 40
0.0
  9
$CHAMFERB
 40
0.0
  9
$CHAMFERC
 40
0.0
  9
$CHAMFERD
 40
0.0
  9
$SKPOLY
 70
     0
  9
$TDCREATE
 40
2455146.636087963
  9
$TDUCREATE
 40
2455146.177762939
  9
$TDUPDATE
 40
2458015.543194445
  9
$TDUUPDATE
 40
2458015.126527778
  9
$TDINDWG
 40
0.0465102431
  9
$TDUSRTIMER
 40
0.0465102431
  9
$USRTIMER
 70
     1
  9
$ANGBASE
 50
0.0
  9
$ANGDIR
 70
     0
  9
$PDMODE
 70
     0
  9
$PDSIZE
 40
0.0
  9
$PLINEWID
 40
0.0
  9
$SPLFRAME
 70
     0
  9
$SPLINETYPE
 70
     6
  9
$SPLINESEGS
 70
     8
  9
$HANDSEED
  5
4921
  9
$SURFTAB1
 70
     6
  9
$SURFTAB2
 70
     6
  9
$SURFTYPE
 70
     6
  9
$SURFU
 70
     6
  9
$SURFV
 70
     6
  9
$UCSBASE
  2

  9
$UCSNAME
  2

  9
$UCSORG
 10
0.0
 20
0.0
 30
0.0
  9
$UCSXDIR
 10
1.0
 20
0.0
 30
0.0
  9
$UCSYDIR
 10
0.0
 20
1.0
 30
0.0
  9
$UCSORTHOREF
  2

  9
$UCSORTHOVIEW
 70
     0
  9
$UCSORGTOP
 10
0.0
 20
0.0
 30
0.0
  9
$UCSORGBOTTOM
 10
0.0
 20
0.0
 30
0.0
  9
$UCSORGLEFT
 10
0.0
 20
0.0
 30
0.0
  9
$UCSORGRIGHT
 10
0.0
 20
0.0
 30
0.0
  9
$UCSORGFRONT
 10
0.0
 20
0.0
 30
0.0
  9
$UCSORGBACK
 10
0.0
 20
0.0
 30
0.0
  9
$PUCSBASE
  2

  9
$PUCSNAME
  2

  9
$PUCSORG
 10
0.0
 20
0.0
 30
0.0
  9
$PUCSXDIR
 10
1.0
 20
0.0
 30
0.0
  9
$PUCSYDIR
 10
0.0
 20
1.0
 30
0.0
  9
$PUCSORTHOREF
  2

  9
$PUCSORTHOVIEW
 70
     0
  9
$PUCSORGTOP
 10
0.0
 20
0.0
 30
0.0
  9
$PUCSORGBOTTOM
 10
0.0
 20
0.0
 30
0.0
  9
$PUCSORGLEFT
 10
0.0
 20
0.0
 30
0.0
  9
$PUCSORGRIGHT
 10
0.0
 20
0.0
 30
0.0
  9
$PUCSORGFRONT
 10
0.0
 20
0.0
 30
0.0
  9
$PUCSORGBACK
 10
0.0
 20
0.0
 30
0.0
  9
$USERI1
 70
     0
  9
$USERI2
 70
     0
  9
$USERI3
 70
     0
  9
$USERI4
 70
     0
  9
$USERI5
 70
     0
  9
$USERR1
 40
0.0
  9
$USERR2
 40
0.0
  9
$USERR3
 40
0.0
  9
$USERR4
 40
0.0
  9
$USERR5
 40
2.5
  9
$WORLDVIEW
 70
     1
  9
$SHADEDGE
 70
     3
  9
$SHADEDIF
 70
    70
  9
$TILEMODE
 70
     1
  9
$MAXACTVP
 70
    64
  9
$PINSBASE
 10
0.0
 20
0.0
 30
0.0
  9
$PLIMCHECK
 70
     0
  9
$PEXTMIN
 10
4.97734458046716
 20
55.97694212324916
 30
-0.0015258207003583
  9
$PEXTMAX
 10
185.0043130582636
 20
287.0072081488981
 30
0.0000000349246037
  9
$PLIMMIN
 10
-127.4182497939359
 20
-10.82665186583117
  9
$PLIMMAX
 10
307.2197102571284
 20
296.663184041771
  9
$UNITMODE
 70
     0
  9
$VISRETAIN
 70
     1
  9
$PLINEGEN
 70
     0
  9
$PSLTSCALE
 70
     1
  9
$TREEDEPTH
 70
  3020
  9
$CMLSTYLE
  2
Standard
  9
$CMLJUST
 70
     0
  9
$CMLSCALE
 40
20.0
  9
$PROXYGRAPHICS
 70
     1
  9
$MEASUREMENT
 70
     1
  9
$CELWEIGHT
370
    -1
  9
$ENDCAPS
280
     0
  9
$JOINSTYLE
280
     0
  9
$LWDISPLAY
290
     0
  9
$INSUNITS
 70
     4
  9
$HYPERLINKBASE
  1

  9
$STYLESHEET
  1

  9
$XEDIT
290
     1
  9
$CEPSNTYPE
380
     0
  9
$PSTYLEMODE
290
     1
  9
$FINGERPRINTGUID
  2
{2F5B2D13-79D4-450D-8442-A0C3616ECF58}
  9
$VERSIONGUID
  2
{86B04237-E2F0-1644-8A66-B3DED1E73DBA}
  9
$EXTNAMES
290
     1
  9
$PSVPSCALE
 40
0.0
  9
$OLESTARTUP
290
     0
  9
$SORTENTS
280
   127
  9
$INDEXCTL
280
     0
  9
$HIDETEXT
280
     1
  9
$XCLIPFRAME
280
     0
  9
$HALOGAP
280
     0
  9
$OBSCOLOR
 70
   257
  9
$OBSLTYPE
280
     0
  9
$INTERSECTIONDISPLAY
280
     0
  9
$INTERSECTIONCOLOR
 70
   257
  9
$DIMASSOC
280
     2
  9
$PROJECTNAME
  1

  9
$CAMERADISPLAY
290
     0
  9
$LENSLENGTH
 40
50.0
  9
$CAMERAHEIGHT
 40
0.0
  9
$STEPSPERSEC
 40
2.0
  9
$STEPSIZE
 40
6.0
  9
$3DDWFPREC
 40
2.0
  9
$PSOLWIDTH
 40
5.0
  9
$PSOLHEIGHT
 40
80.0
  9
$LOFTANG1
 40
1.570796326794896
  9
$LOFTANG2
 40
1.570796326794896
  9
$LOFTMAG1
 40
0.0
  9
$LOFTMAG2
 40
0.0
  9
$LOFTPARAM
 70
     7
  9
$LOFTNORMALS
280
     1
  9
$LATITUDE
 40
37.795
  9
$LONGITUDE
 40
-122.394
  9
$NORTHDIRECTION
 40
0.0
  9
$TIMEZONE
 70
 -8000
  9
$LIGHTGLYPHDISPLAY
280
     1
  9
$TILEMODELIGHTSYNCH
280
     1
  9
$CMATERIAL
347
2A9
  9
$SOLIDHIST
280
     1
  9
$SHOWHIST
280
     1
  9
$DWFFRAME
280
     2
  9
$DGNFRAME
280
     0
  9
$REALWORLDSCALE
290
     1
  9
$INTERFERECOLOR
 62
     1
  9
$INTERFEREOBJVS
345
2B6
  9
$INTERFEREVPVS
346
48C5
  9
$CSHADOW
280
     0
  9
$SHADOWPLANELOCATION
 40
0.0
  0
ENDSEC
  0
SECTION
  2
CLASSES
  0
CLASS
  1
ACDBDICTIONARYWDFLT
  2
AcDbDictionaryWithDefault
  3
ObjectDBX Classes
 90
        0
 91
        1
280
     0
281
     0
  0
CLASS
  1
DICTIONARYVAR
  2
AcDbDictionaryVar
  3
ObjectDBX Classes
 90
        0
 91
       19
280
     0
281
     0
  0
CLASS
  1
TABLESTYLE
  2
AcDbTableStyle
  3
ObjectDBX Classes
 90
     4095
 91
        1
280
     0
281
     0
  0
CLASS
  1
MATERIAL
  2
AcDbMaterial
  3
ObjectDBX Classes
 90
     1153
 91
        3
280
     0
281
     0
  0
CLASS
  1
VISUALSTYLE
  2
AcDbVisualStyle
  3
ObjectDBX Classes
 90
     4095
 91
       26
280
     0
281
     0
  0
CLASS
  1
VLO-VL
  2
vlo_VL
  3
VL|AutoLISP based application
 90
      129
 91
        1
280
     0
281
     0
  0
CLASS
  1
DIMASSOC
  2
AcDbDimAssoc
  3
"AcDbDimAssoc|Product Desc:     AcDim ARX App For Dimension|Company:          Autodesk, Inc.|WEB Address:      www.autodesk.com"
 90
        0
 91
       10
280
     0
281
     0
  0
CLASS
  1
SORTENTSTABLE
  2
AcDbSortentsTable
  3
ObjectDBX Classes
 90
        0
 91
        1
280
     0
281
     0
  0
CLASS
  1
SCALE
  2
AcDbScale
  3
ObjectDBX Classes
 90
     1153
 91
       17
280
     0
281
     0
  0
CLASS
  1
MLEADERSTYLE
  2
AcDbMLeaderStyle
  3
ACDB_MLEADERSTYLE_CLASS
 90
     4095
 91
        1
280
     0
281
     0
  0
CLASS
  1
ACDBSECTIONVIEWSTYLE
  2
AcDbSectionViewStyle
  3
ObjectDBX Classes
 90
     1025
 91
        1
280
     0
281
     0
  0
CLASS
  1
ACDBDETAILVIEWSTYLE
  2
AcDbDetailViewStyle
  3
ObjectDBX Classes
 90
     1025
 91
        1
280
     0
281
     0
  0
CLASS
  1
CELLSTYLEMAP
  2
AcDbCellStyleMap
  3
ObjectDBX Classes
 90
     1152
 91
        1
280
     0
281
     0
  0
ENDSEC
  0
SECTION
  2
TABLES
  0
TABLE
  2
VPORT
  5
8
330
0
100
AcDbSymbolTable
 70
     1
1001
ACAD
1000
DbSaveVer
1071
        5
  0
VPORT
  5
28F
330
8
100
AcDbSymbolTableRecord
100
AcDbViewportTableRecord
  2
*Active
 70
     0
 10
0.0
 20
0.0
 11
1.0
 21
1.0
 12
7732.701187889718
 22
780.1449522702878
 13
0.0
 23
0.0
 14
10.0
 24
10.0
 15
10.0
 25
10.0
 16
0.0
 26
0.0
 36
1.0
 17
0.0
 27
0.0
 37
0.0
 40
888.7100034063882
 41
2.292712066905615
 42
50.0
 43
0.0
 44
0.0
 50
0.0
 51
0.0
 71
     0
 72
  1000
 73
     1
 74
     3
 75
     0
 76
     0
 77
     0
 78
     0
281
     0
 65
     1
110
0.0
120
0.0
130
0.0
111
1.0
121
0.0
131
0.0
112
0.0
122
1.0
132
0.0
 79
     0
146
0.0
348
2B2
 60
     3
 61
     5
292
     1
282
     1
141
0.0
142
0.0
 63
   250
421
  3355443
1001
ACAD_NAV_VCDISPLAY
1070
     3
  0
ENDTAB
  0
TABLE
  2
LTYPE
  5
5
330
0
100
AcDbSymbolTable
 70
     4
  0
LTYPE
  5
14
330
5
100
AcDbSymbolTableRecord
100
AcDbLinetypeTableRecord
  2
ByBlock
 70
     0
  3

 72
    65
 73
     0
 40
0.0
  0
LTYPE
  5
15
330
5
100
AcDbSymbolTableRecord
100
AcDbLinetypeTableRecord
  2
ByLayer
 70
     0
  3

 72
    65
 73
     0
 40
0.0
  0
LTYPE
  5
16
330
5
100
AcDbSymbolTableRecord
100
AcDbLinetypeTableRecord
  2
Continuous
 70
     0
  3
Solid line
 72
    65
 73
     0
 40
0.0
  0
LTYPE
  5
644
330
5
100
AcDbSymbolTableRecord
100
AcDbLinetypeTableRecord
  2
CENTER
 70
     0
  3
____ _ ____ _ ____ _ ____ _ ____ _ ____ _ ____
 72
    65
 73
     4
 40
0.6
 49
0.375
 74
     0
 49
-0.075
 74
     0
 49
0.075
 74
     0
 49
-0.075
 74
     0
  0
LTYPE
  5
645
330
5
100
AcDbSymbolTableRecord
100
AcDbLinetypeTableRecord
  2
DIVIDE
 70
     0
  3
Divide ____ . . ____ . . ____ . . ____ . . ____
 72
    65
 73
     6
 40
31.75
 49
12.7
 74
     0
 49
-6.349999999999999
 74
     0
 49
0.0
 74
     0
 49
-6.349999999999999
 74
     0
 49
0.0
 74
     0
 49
-6.349999999999999
 74
     0
  0
LTYPE
  5
1663
330
5
100
AcDbSymbolTableRecord
100
AcDbLinetypeTableRecord
  2
PHANTOM
 70
     0
  3
Phantom ______  __  __  ______  __  __  ______
 72
    65
 73
     6
 40
63.5
 49
31.75
 74
     0
 49
-6.349999999999999
 74
     0
 49
6.349999999999999
 74
     0
 49
-6.349999999999999
 74
     0
 49
6.349999999999999
 74
     0
 49
-6.349999999999999
 74
     0
  0
ENDTAB
  0
TABLE
  2
LAYER
  5
2
102
{ACAD_XDICTIONARY
360
289
102
}
330
0
100
AcDbSymbolTable
 70
     8
  0
LAYER
  5
10
102
{ACAD_XDICTIONARY
360
48F6
102
}
330
2
100
AcDbSymbolTableRecord
100
AcDbLayerTableRecord
  2
0
 70
     0
 62
     7
  6
Continuous
370
    -3
390
F
347
2AB
348
0
  0
LAYER
  5
194
102
{ACAD_XDICTIONARY
360
48F8
102
}
330
2
100
AcDbSymbolTableRecord
100
AcDbLayerTableRecord
  2
图框_标题栏文字
 70
     0
 62
     6
  6
Continuous
370
    -3
390
F
347
2AB
348
0
1001
AcadStringInfo
1000
MIFCodePage
1070
     5
  0
LAYER
  5
195
102
{ACAD_XDICTIONARY
360
48FA
102
}
330
2
100
AcDbSymbolTableRecord
100
AcDbLayerTableRecord
  2
图框_标题栏属性
 70
     0
 62
     1
  6
Continuous
370
    -3
390
F
347
2AB
348
0
1001
AcadStringInfo
1000
MIFCodePage
1070
     5
  0
LAYER
  5
196
102
{ACAD_XDICTIONARY
360
48FC
102
}
330
2
100
AcDbSymbolTableRecord
100
AcDbLayerTableRecord
  2
图框_角线
 70
     0
 62
     5
  6
Continuous
370
   200
390
F
347
2AB
348
0
1001
AcadStringInfo
1000
MIFCodePage
1070
     5
  0
LAYER
  5
197
102
{ACAD_XDICTIONARY
360
48FE
102
}
330
2
100
AcDbSymbolTableRecord
100
AcDbLayerTableRecord
  2
图框_内框线
 70
     0
 62
     5
  6
Continuous
370
    50
390
F
347
2AB
348
0
1001
AcadStringInfo
1000
MIFCodePage
1070
     5
  0
LAYER
  5
198
102
{ACAD_XDICTIONARY
360
4900
102
}
330
2
100
AcDbSymbolTableRecord
100
AcDbLayerTableRecord
  2
图框_视口
 70
     4
 62
     7
  6
Continuous
370
    -3
390
F
347
2AB
348
0
1001
AcadStringInfo
1000
MIFCodePage
1070
     5
  0
LAYER
  5
199
102
{ACAD_XDICTIONARY
360
4902
102
}
330
2
100
AcDbSymbolTableRecord
100
AcDbLayerTableRecord
  2
图框_外框线
 70
     0
 62
     7
  6
Continuous
370
    -3
390
F
347
2AB
348
0
1001
AcadStringInfo
1000
MIFCodePage
1070
     5
  0
LAYER
  5
646
330
2
100
AcDbSymbolTableRecord
100
AcDbLayerTableRecord
  2
Defpoints
 70
     0
 62
     7
  6
Continuous
290
     0
370
    -3
390
F
347
2AB
348
0
  0
ENDTAB
  0
TABLE
  2
STYLE
  5
3
330
0
100
AcDbSymbolTable
 70
     5
  0
STYLE
  5
11
330
3
100
AcDbSymbolTableRecord
100
AcDbTextStyleTableRecord
  2
Standard
 70
     0
 40
0.0
 41
1.0
 50
0.0
 71
     0
 42
2.5
  3
txt.shx
  4
gbcbig.shx
  0
STYLE
  5
6B
330
3
100
AcDbSymbolTableRecord
100
AcDbTextStyleTableRecord
  2
工程字
 70
     0
 40
0.0
 41
1.0
 50
0.0
 71
     0
 42
5.0
  3
gbenor.shx
  4
gbcbig.shx
1001
AcadStringInfo
1000
MIFCodePage
1070
     5
  0
STYLE
  5
647
330
3
100
AcDbSymbolTableRecord
100
AcDbTextStyleTableRecord
  2
ROMANS
 70
     0
 40
0.0
 41
1.0
 50
10.0
 71
     0
 42
2.25
  3
romans
  4

  0
STYLE
  5
648
330
3
100
AcDbSymbolTableRecord
100
AcDbTextStyleTableRecord
  2
xs
 70
     0
 40
0.0
 41
0.6700000000000001
 50
0.0
 71
     0
 42
0.2
  3
NSimSun.ttf
  4

1001
ACAD
1000
NSimSun
1071
    34353
  0
STYLE
  5
649
330
3
100
AcDbSymbolTableRecord
100
AcDbTextStyleTableRecord
  2
ADESK2
 70
     0
 40
0.0
 41
1.0
 50
0.0
 71
     0
 42
0.065
  3
SimSun.ttf
  4

1001
ACAD
1000
SimSun
1071
    34306
  0
ENDTAB
  0
TABLE
  2
VIEW
  5
6
330
0
100
AcDbSymbolTable
 70
     0
  0
ENDTAB
  0
TABLE
  2
UCS
  5
7
330
0
100
AcDbSymbolTable
 70
     0
  0
ENDTAB
  0
TABLE
  2
APPID
  5
9
330
0
100
AcDbSymbolTable
 70
     6
  0
APPID
  5
12
330
9
100
AcDbSymbolTableRecord
100
AcDbRegAppTableRecord
  2
ACAD
 70
     0
  0
APPID
  5
82
330
9
100
AcDbSymbolTableRecord
100
AcDbRegAppTableRecord
  2
DCO15
 70
     0
  0
APPID
  5
64F
330
9
100
AcDbSymbolTableRecord
100
AcDbRegAppTableRecord
  2
ACAD_PSEXT
 70
     0
  0
APPID
  5
FB5
330
9
100
AcDbSymbolTableRecord
100
AcDbRegAppTableRecord
  2
ACAD_EXEMPT_FROM_CAD_STANDARDS
 70
     0
  0
APPID
  5
48E4
330
9
100
AcDbSymbolTableRecord
100
AcDbRegAppTableRecord
  2
AcadStringInfo
 70
     0
  0
APPID
  5
4904
330
9
100
AcDbSymbolTableRecord
100
AcDbRegAppTableRecord
  2
ACAD_NAV_VCDISPLAY
 70
     0
  0
ENDTAB
  0
TABLE
  2
DIMSTYLE
  5
A
330
0
100
AcDbSymbolTable
 70
     9
100
AcDbDimStyleTable
 71
     3
340
64D
340
64B
340
19A
  0
DIMSTYLE
105
19A
330
A
100
AcDbSymbolTableRecord
100
AcDbDimStyleTableRecord
  2
GB-35
 70
     0
 41
3.5
 42
0.875
 43
5.25
 44
1.75
 73
     0
 74
     0
 77
     1
 78
     8
140
3.5
141
3.5
143
0.0394
146
0.7
147
0.875
171
     4
172
     1
271
     2
272
     2
273
     8
274
     4
283
     0
340
6B
  0
DIMSTYLE
105
64A
330
A
100
AcDbSymbolTableRecord
100
AcDbDimStyleTableRecord
  2
N6_iso
 70
     0
 41
5.0
 42
1.0
 43
10.0
 44
1.0
 73
     0
140
6.0
141
3.0
147
1.0
179
     1
271
     2
272
     2
340
11
  0
DIMSTYLE
105
64B
102
{ACAD_REACTORS
330
1C63
330
1C66
330
1C69
330
1C6C
330
1C6F
330
1C76
330
1C7A
102
}
330
A
100
AcDbSymbolTableRecord
100
AcDbDimStyleTableRecord
  2
N915iso
 70
     0
 41
20.0
 42
2.0
 43
10.0
 44
2.0
 73
     0
 77
     1
 78
     8
140
15.0
141
10.0
147
2.0
172
     1
179
     1
271
     2
272
     2
288
     1
340
11
  0
DIMSTYLE
105
64C
330
A
100
AcDbSymbolTableRecord
100
AcDbDimStyleTableRecord
  2
ISO-25
 70
     0
  3
mm
 41
25.0
 42
5.0
 43
3.75
 44
5.0
 73
     0
 77
     1
 78
     8
140
20.0
141
2.5
143
0.03937007874016
147
5.0
171
     3
172
     1
271
     2
272
     2
274
     3
278
    44
283
     0
284
     8
340
11
  0
DIMSTYLE
105
64D
102
{ACAD_REACTORS
330
1C8B
330
1C8E
330
1C91
330
1C94
330
1C95
102
}
330
A
100
AcDbSymbolTableRecord
100
AcDbDimStyleTableRecord
  2
N915
 70
     0
  4
mm
 41
20.0
 42
2.0
 43
10.0
 44
2.0
 73
     0
 74
     0
 77
     1
 78
     8
140
15.0
141
10.0
147
2.0
172
     1
179
     1
271
     2
272
     2
288
     1
340
11
  0
DIMSTYLE
105
64E
330
A
100
AcDbSymbolTableRecord
100
AcDbDimStyleTableRecord
  2
-25
 70
     0
  3
M<>
 41
13.0
 42
0.625
 43
3.75
 44
1.25
 49
1.25
 50
90.0
 73
     0
 74
     0
 77
     1
 78
     8
140
30.0
141
2.5
143
0.03937007874016
147
1.0
171
     3
172
     1
179
     2
271
     2
272
     2
274
     3
278
    44
283
     0
284
     8
340
11
  0
DIMSTYLE
105
1664
330
A
100
AcDbSymbolTableRecord
100
AcDbDimStyleTableRecord
  2
ISO-25-iso
 70
     0
 41
25.0
 42
0.625
 43
3.75
 44
1.25
 49
1.25
 50
90.0
 73
     0
 77
     1
 78
     8
140
20.0
141
2.5
143
0.03937007874016
147
1.0
171
     3
172
     1
179
     2
271
     2
272
     2
274
     3
278
    44
283
     0
284
     8
340
648
  0
DIMSTYLE
105
1665
330
A
100
AcDbSymbolTableRecord
100
AcDbDimStyleTableRecord
  2
isoN912
 70
     0
  3
mm
 41
10.0
 42
2.0
 43
10.0
 44
2.0
 73
     0
140
12.0
141
0.0
147
2.0
179
     1
271
     2
272
     2
340
11
  0
DIMSTYLE
105
1666
330
A
100
AcDbSymbolTableRecord
100
AcDbDimStyleTableRecord
  2
ISO-25-1
 70
     0
  3
mm
 41
25.0
 42
5.0
 43
3.75
 44
5.0
 73
     0
 74
     0
 77
     1
 78
     8
140
20.0
141
2.5
143
0.03937007874016
147
5.0
171
     3
172
     1
271
     2
272
     2
274
     3
278
    44
283
     0
284
     8
340
11
  0
ENDTAB
  0
TABLE
  2
BLOCK_RECORD
  5
1
330
0
100
AcDbSymbolTable
 70
   122
  0
BLOCK_RECORD
  5
1F
102
{ACAD_XDICTIONARY
360
F99
102
}
330
1
100
AcDbSymbolTableRecord
100
AcDbBlockTableRecord
  2
*Model_Space
340
22
 70
     0
280
     1
281
     0
  0
BLOCK_RECORD
  5
72
330
1
100
AcDbSymbolTableRecord
100
AcDbBlockTableRecord
  2
*Paper_Space
340
71
 70
     0
280
     1
281
     0
  0
BLOCK_RECORD
  5
145
330
1
100
AcDbSymbolTableRecord
100
AcDbBlockTableRecord
  2
GB_A4 title block
340
0
310
2800000020000000200000000100080000000000000400000000000000000000000000000000000000000000000080000080000000808000800000008000800080800000C0C0C000C0DCC000F0CAA6000020400000206000002080000020A0000020C0000020E00000400000004020000040400000406000004080000040A0
310
000040C0000040E00000600000006020000060400000606000006080000060A0000060C0000060E00000800000008020000080400000806000008080000080A0000080C0000080E00000A0000000A0200000A0400000A0600000A0800000A0A00000A0C00000A0E00000C0000000C0200000C0400000C0600000C0800000C0
310
A00000C0C00000C0E00000E0000000E0200000E0400000E0600000E0800000E0A00000E0C00000E0E00040000000400020004000400040006000400080004000A0004000C0004000E00040200000402020004020400040206000402080004020A0004020C0004020E000404000004040200040404000404060004040800040
310
40A0004040C0004040E00040600000406020004060400040606000406080004060A0004060C0004060E00040800000408020004080400040806000408080004080A0004080C0004080E00040A0000040A0200040A0400040A0600040A0800040A0A00040A0C00040A0E00040C0000040C0200040C0400040C0600040C08000
310
40C0A00040C0C00040C0E00040E0000040E0200040E0400040E0600040E0800040E0A00040E0C00040E0E00080000000800020008000400080006000800080008000A0008000C0008000E00080200000802020008020400080206000802080008020A0008020C0008020E00080400000804020008040400080406000804080
310
008040A0008040C0008040E00080600000806020008060400080606000806080008060A0008060C0008060E00080800000808020008080400080806000808080008080A0008080C0008080E00080A0000080A0200080A0400080A0600080A0800080A0A00080A0C00080A0E00080C0000080C0200080C0400080C0600080C0
310
800080C0A00080C0C00080C0E00080E0000080E0200080E0400080E0600080E0800080E0A00080E0C00080E0E000C0000000C0002000C0004000C0006000C0008000C000A000C000C000C000E000C0200000C0202000C0204000C0206000C0208000C020A000C020C000C020E000C0400000C0402000C0404000C0406000C0
310
408000C040A000C040C000C040E000C0600000C0602000C0604000C0606000C0608000C060A000C060C000C060E000C0800000C0802000C0804000C0806000C0808000C080A000C080C000C080E000C0A00000C0A02000C0A04000C0A06000C0A08000C0A0A000C0A0C000C0A0E000C0C00000C0C02000C0C04000C0C06000
310
C0C08000C0C0A000F0FBFF00A4A0A000808080000000FF0000FF000000FFFF00FF000000FF00FF00FFFF0000FFFFFF00FFFFFFFFFFFFFFFFFFFFFFFFFFFFFFFFFFFFFFFFFFFFFFFFFFFFFFFFFFFFFFFFFFFFFFFFFFFF0000000000000000000000000000000000000000FFFFFFFFFFFFFFFFFFFFFFFF00FFFDFD0000FD0000
310
00F9F9F9F9F900F9F90000FFFFFFFFFFFFFFFFFFFFFFFF00FFFDFD0000000000000000F9F9F9FFF9F9FF00FFFFFFFFFFFFFFFFFFFFFFFF00FFFDFD0000FDFD0000FDFDFDFDFD00F9F90000FFFFFFFFFFFFFFFFFFFFFFFF00FFFDFDFDFDFDFDFDFD00F9F9F90000F9F90000FFFFFFFFFFFFFFFFFFFFFFFF00FF000000000000
310
000000F9F9F900FFF9F9FF00FFFFFFFFFFFFFFFFFFFFFFFF00FF0000000000000000000000000000F9F90000FFFFFFFFFFFFFFFFFFFFFFFF00FFFCFFFFFFFFFFFFFFFFFFFFFFFFFFFFFFFF00FFFFFFFFFFFFFFFFFFFFFFFF00FFFCFFFFFFFFFFFFFFFFFFFFFFFFFFFFFFFF00FFFFFFFFFFFFFFFFFFFFFFFF00FFFCFFFFFFFF
310
FFFFFFFFFFFFFFFFFFFFFFFF00FFFFFFFFFFFFFFFFFFFFFFFF00FFFCFFFFFFFFFFFFFFFFFFFFFFFFFFFFFFFF00FFFFFFFFFFFFFFFFFFFFFFFF00FFFCFFFFFFFFFFFFFFFFFFFFFFFFFFFFFFFF00FFFFFFFFFFFFFFFFFFFFFFFF00FFFCFFFFFFFFFFFFFFFFFFFFFFFFFFFFFFFF00FFFFFFFFFFFFFFFFFFFFFFFF00FFFCFFFFFF
310
FFFFFFFFFFFFFFFFFFFFFFFFFF00FFFFFFFFFFFFFFFFFFFFFFFF00FCFCFFFFFFFFFFFFFFFFFFFFFFFFFFFFFFFF00FFFFFFFFFFFFFFFFFFFFFFFF00FFFCFFFFFFFFFFFFFFFFFFFFFFFFFFFFFFFF00FFFFFFFFFFFFFFFFFFFFFFFF00FFFCFFFFFFFFFFFFFFFFFFFFFFFFFFFFFFFF00FFFFFFFFFFFFFFFFFFFFFFFF00FFFCFFFF
310
FFFFFFFFFFFFFFFFFFFFFFFFFFFF00FFFFFFFFFFFFFFFFFFFFFFFF00FFFCFFFFFFFFFFFFFFFFFFFFFFFFFFFFFFFF00FFFFFFFFFFFFFFFFFFFFFFFF00FFFCFFFFFFFFFFFFFFFFFFFFFFFFFFFFFFFF00FFFFFFFFFFFFFFFFFFFFFFFF00FFFCFFFFFFFFFFFFFFFFFFFFFFFFFFFFFFFF00FFFFFFFFFFFFFFFFFFFFFFFF00FFFCFF
310
FFFFFFFFFFFFFFFFFFFFFFFFFFFFFF00FFFFFFFFFFFFFFFFFFFFFFFF00FFFCFFFFFFFFFFFFFFFFFFFFFFFFFFFFFFFF00FFFFFFFFFFFFFFFFFFFFFFFF00FFFCFFFFFFFFFFFFFFFFFFFFFFFFFFFFFFFF00FFFFFFFFFFFFFFFFFFFFFFFF00FFFCFFFFFFFFFFFFFFFFFFFFFFFFFFFFFFFF00FFFFFFFFFFFFFFFFFFFFFFFF00FFFC
310
FFFFFFFFFFFFFFFFFFFFFFFFFFFFFFFF00FFFFFFFFFFFFFFFFFFFFFFFF00FFFCFFFFFFFFFFFFFFFFFFFFFFFFFFFFFFFF00FFFFFFFFFFFFFFFFFFFFFFFF00FFFCFFFFFFFFFFFFFFFFFFFFFFFFFFFFFFFF00FFFFFFFFFFFFFFFFFFFFFFFF00FFFCFCFCFCFCFCFCFCFCFCFCFCFCFCFCFCFC00FFFFFFFFFFFFFFFFFFFFFFFF0000
310
000000000000000000000000000000000000FFFFFFFFFFFFFFFFFFFFFFFFFFFFFFFFFFFFFFFFFFFFFFFFFFFFFFFFFFFFFFFFFFFFFFFFFFFF
 70
     4
280
     1
281
     0
  0
BLOCK_RECORD
  5
1D0F
330
1
100
AcDbSymbolTableRecord
100
AcDbBlockTableRecord
  2
*D5
340
0
 70
     0
280
     1
281
     0
  0
BLOCK_RECORD
  5
1D1B
330
1
100
AcDbSymbolTableRecord
100
AcDbBlockTableRecord
  2
*D6
340
0
 70
     0
280
     1
281
     0
  0
BLOCK_RECORD
  5
1E2D
330
1
100
AcDbSymbolTableRecord
100
AcDbBlockTableRecord
  2
*D24
340
0
 70
     0
280
     1
281
     0
  0
BLOCK_RECORD
  5
1E39
330
1
100
AcDbSymbolTableRecord
100
AcDbBlockTableRecord
  2
*D25
340
0
 70
     0
280
     1
281
     0
  0
BLOCK_RECORD
  5
1E4E
330
1
100
AcDbSymbolTableRecord
100
AcDbBlockTableRecord
  2
*D26
340
0
 70
     0
280
     1
281
     0
  0
BLOCK_RECORD
  5
1E5A
330
1
100
AcDbSymbolTableRecord
100
AcDbBlockTableRecord
  2
*D27
340
0
 70
     0
280
     1
281
     0
  0
BLOCK_RECORD
  5
1E63
330
1
100
AcDbSymbolTableRecord
100
AcDbBlockTableRecord
  2
*D28
340
0
 70
     0
280
     1
281
     0
  0
BLOCK_RECORD
  5
1E6F
330
1
100
AcDbSymbolTableRecord
100
AcDbBlockTableRecord
  2
*D29
340
0
 70
     0
280
     1
281
     0
  0
BLOCK_RECORD
  5
1E8A
330
1
100
AcDbSymbolTableRecord
100
AcDbBlockTableRecord
  2
*D32
340
0
 70
     0
280
     1
281
     0
  0
BLOCK_RECORD
  5
1E98
330
1
100
AcDbSymbolTableRecord
100
AcDbBlockTableRecord
  2
*D33
340
0
 70
     0
280
     1
281
     0
  0
BLOCK_RECORD
  5
1EA4
330
1
100
AcDbSymbolTableRecord
100
AcDbBlockTableRecord
  2
*D34
340
0
 70
     0
280
     1
281
     0
  0
BLOCK_RECORD
  5
1EBD
330
1
100
AcDbSymbolTableRecord
100
AcDbBlockTableRecord
  2
*D35
340
0
 70
     0
280
     1
281
     0
  0
ENDTAB
  0
ENDSEC
  0
SECTION
  2
BLOCKS
  0
BLOCK
  5
20
330
1F
100
AcDbEntity
  8
0
100
AcDbBlockBegin
  2
*Model_Space
 70
     0
 10
0.0
 20
0.0
 30
0.0
  3
*Model_Space
  1

  0
ENDBLK
  5
21
330
1F
100
AcDbEntity
  8
0
100
AcDbBlockEnd
  0
BLOCK
  5
76
330
72
100
AcDbEntity
 67
     1
  8
0
100
AcDbBlockBegin
  2
*Paper_Space
 70
     0
 10
0.0
 20
0.0
 30
0.0
  3
*Paper_Space
  1

  0
ENDBLK
  5
77
330
72
100
AcDbEntity
 67
     1
  8
0
100
AcDbBlockEnd
  0
BLOCK
  5
184
330
145
100
AcDbEntity
  8
0
100
AcDbBlockBegin
  2
GB_A4 title block
 70
     2
 10
0.0
 20
0.0
 30
0.0
  3
GB_A4 title block
  1

  0
LWPOLYLINE
  5
1EE
330
145
100
AcDbEntity
  8
图框_角线
100
AcDbPolyline
 90
        3
 70
   128
 43
0.0
 10
175.0
 20
291.0
 10
184.0
 20
291.0
 10
184.0
 20
282.0
  0
LWPOLYLINE
  5
1EF
330
145
100
AcDbEntity
  8
图框_内框线
100
AcDbPolyline
 90
        2
 70
     0
 43
0.0
 10
185.0
 20
143.5
 10
175.0
 20
143.5
  0
LWPOLYLINE
  5
1F0
330
145
100
AcDbEntity
  8
图框_角线
100
AcDbPolyline
 90
        3
 70
   128
 43
0.0
 10
184.0
 20
5.0
 10
184.0
 20
-4.0
 10
175.0
 20
-4.0
  0
LWPOLYLINE
  5
1F1
330
145
100
AcDbEntity
  8
图框_内框线
100
AcDbPolyline
 90
        2
 70
     0
 43
0.0
 10
80.0
 20
292.0
 10
80.0
 20
282.0
  0
LWPOLYLINE
  5
1F2
330
145
100
AcDbEntity
  8
图框_角线
100
AcDbPolyline
 90
        3
 70
   128
 43
0.0
 10
-24.0
 20
282.0
 10
-24.0
 20
291.0
 10
-15.0
 20
291.0
  0
LWPOLYLINE
  5
1F3
330
145
100
AcDbEntity
  8
图框_内框线
100
AcDbPolyline
 90
        2
 70
     0
 43
0.0
 10
80.0
 20
-5.0
 10
80.0
 20
0.0
  0
LWPOLYLINE
  5
1F4
330
145
100
AcDbEntity
  8
图框_内框线
100
AcDbPolyline
 90
        2
 70
     0
 43
0.0
 10
-25.0
 20
143.5
 10
5.0
 20
143.5
  0
LWPOLYLINE
  5
1F5
330
145
100
AcDbEntity
  8
图框_角线
100
AcDbPolyline
 90
        3
 70
   128
 43
0.0
 10
-15.0
 20
-4.0
 10
-24.0
 20
-4.0
 10
-24.0
 20
5.0
  0
LWPOLYLINE
  5
1F6
330
145
100
AcDbEntity
  8
图框_内框线
100
AcDbPolyline
 90
        4
 70
     1
 43
0.0
 10
0.0
 20
0.0
 10
180.0
 20
0.0
 10
180.0
 20
287.0
 10
0.0
 20
287.0
  0
LWPOLYLINE
  5
1F7
330
145
100
AcDbEntity
  8
图框_外框线
100
AcDbPolyline
 90
        4
 70
     1
 43
0.0
 10
-25.0
 20
-5.0
 10
185.0
 20
-5.0
 10
185.0
 20
292.0
 10
-25.0
 20
292.0
  0
LINE
  5
1F8
330
145
100
AcDbEntity
  8
图框_外框线
100
AcDbLine
 10
130.0
 20
38.0
 30
0.0
 11
180.0
 21
38.0
 31
0.0
  0
LINE
  5
1F9
330
145
100
AcDbEntity
  8
图框_外框线
100
AcDbLine
 10
180.0
 20
18.0
 30
0.0
 11
80.0
 21
18.0
 31
0.0
  0
LWPOLYLINE
  5
1FA
330
145
100
AcDbEntity
  8
图框_外框线
100
AcDbPolyline
 90
        5
 70
     0
 43
0.0
 10
180.0
 20
56.0
 10
0.0
 20
56.0
 10
0.0
 20
0.0
 10
180.0000000000002
 20
0.0
 10
180.0
 20
56.0
  0
LINE
  5
1FB
330
145
100
AcDbEntity
  8
图框_外框线
100
AcDbLine
 10
130.0
 20
56.0
 30
0.0
 11
130.0
 21
0.0
 31
0.0
  0
LINE
  5
1FC
330
145
100
AcDbEntity
  8
图框_外框线
100
AcDbLine
 10
80.0
 20
56.0
 30
0.0
 11
80.0
 21
0.0
 31
0.0
  0
LINE
  5
1FD
330
145
100
AcDbEntity
  8
图框_外框线
100
AcDbLine
 10
40.0
 20
0.0
 30
0.0
 11
40.0
 21
28.0
 31
0.0
  0
LINE
  5
1FE
330
145
100
AcDbEntity
  8
图框_外框线
100
AcDbLine
 10
24.0
 20
28.0
 30
0.0
 11
24.0
 21
0.0
 31
0.0
  0
LINE
  5
1FF
330
145
100
AcDbEntity
  8
图框_外框线
100
AcDbLine
 10
12.0
 20
0.0
 30
0.0
 11
12.0
 21
28.0
 31
0.0
  0
LINE
  5
200
330
145
100
AcDbEntity
  8
图框_外框线
100
AcDbLine
 10
106.0
 20
28.0
 30
0.0
 11
106.0
 21
9.0
 31
0.0
  0
LINE
  5
201
330
145
100
AcDbEntity
  8
图框_外框线
100
AcDbLine
 10
118.0
 20
28.0
 30
0.0
 11
118.0
 21
9.0
 31
0.0
  0
LINE
  5
202
330
145
100
AcDbEntity
  8
图框_外框线
100
AcDbLine
 10
64.0
 20
0.0
 30
0.0
 11
64.0
 21
28.0
 31
0.0
  0
LINE
  5
203
330
145
100
AcDbEntity
  8
图框_外框线
100
AcDbLine
 10
52.0
 20
28.0
 30
0.0
 11
52.0
 21
0.0
 31
0.0
  0
LINE
  5
204
330
145
100
AcDbEntity
  8
图框_外框线
100
AcDbLine
 10
93.0
 20
18.0
 30
0.0
 11
93.0
 21
9.0
 31
0.0
  0
LINE
  5
205
330
145
100
AcDbEntity
  8
图框_外框线
100
AcDbLine
 10
86.5
 20
18.0
 30
0.0
 11
86.5
 21
9.0
 31
0.0
  0
LINE
  5
206
330
145
100
AcDbEntity
  8
图框_外框线
100
AcDbLine
 10
99.50000000000001
 20
18.0
 30
0.0
 11
99.50000000000001
 21
9.0
 31
0.0
  0
LINE
  5
207
330
145
100
AcDbEntity
  8
图框_外框线
100
AcDbLine
 10
0.0
 20
14.0
 30
0.0
 11
80.0
 21
14.0
 31
0.0
  0
LINE
  5
208
330
145
100
AcDbEntity
  8
图框_外框线
100
AcDbLine
 10
0.0
 20
7.0
 30
0.0
 11
80.0
 21
7.0
 31
0.0
  0
TEXT
  5
209
330
145
100
AcDbEntity
  8
图框_标题栏文字
100
AcDbText
 10
1.045077494601855
 20
1.148395388825292
 30
0.0
 40
5.0
  1
工艺
  7
工程字
100
AcDbText
1001
AcadStringInfo
1000
MIFCodePage
1070
     5
  0
TEXT
  5
20A
330
145
100
AcDbEntity
  8
图框_标题栏文字
100
AcDbText
 10
1.045077494601855
 20
8.148395388825292
 30
0.0
 40
5.0
  1
审核
  7
工程字
100
AcDbText
1001
AcadStringInfo
1000
MIFCodePage
1070
     5
  0
TEXT
  5
20B
330
145
100
AcDbEntity
  8
图框_标题栏文字
100
AcDbText
 10
41.47003071851645
 20
1.148396199330477
 30
0.0
 40
5.0
  1
批准
  7
工程字
100
AcDbText
1001
AcadStringInfo
1000
MIFCodePage
1070
     5
  0
TEXT
  5
20C
330
145
100
AcDbEntity
  8
图框_标题栏文字
100
AcDbText
 10
84.4007282514949
 20
2.0
 30
0.0
 40
5.0
  1
共   张 第  张
  7
工程字
100
AcDbText
1001
AcadStringInfo
1000
MIFCodePage
1070
     5
  0
LINE
  5
20D
330
145
100
AcDbEntity
  8
图框_外框线
100
AcDbLine
 10
130.0
 20
9.0
 30
0.0
 11
80.0
 21
9.0
 31
0.0
  0
LINE
  5
20E
330
145
100
AcDbEntity
  8
图框_外框线
100
AcDbLine
 10
0.0
 20
49.0
 30
0.0
 11
80.0
 21
49.0
 31
0.0
  0
TEXT
  5
20F
330
145
100
AcDbEntity
  8
图框_标题栏文字
100
AcDbText
 10
54.0
 20
29.0
 30
0.0
 40
5.0
  1
签名
  7
工程字
100
AcDbText
1001
AcadStringInfo
1000
MIFCodePage
1070
     5
  0
LINE
  5
210
330
145
100
AcDbEntity
  8
图框_外框线
100
AcDbLine
 10
0.0
 20
42.0
 30
0.0
 11
80.0
 21
42.0
 31
0.0
  0
LINE
  5
211
330
145
100
AcDbEntity
  8
图框_外框线
100
AcDbLine
 10
0.0
 20
35.0
 30
0.0
 11
80.0
 21
35.0
 31
0.0
  0
LINE
  5
212
330
145
100
AcDbEntity
  8
图框_外框线
100
AcDbLine
 10
0.0
 20
21.0
 30
0.0
 11
80.0
 21
21.0
 31
0.0
  0
LINE
  5
213
330
145
100
AcDbEntity
  8
图框_外框线
100
AcDbLine
 10
0.0
 20
28.0
 30
0.0
 11
130.0
 21
28.0
 31
0.0
  0
LINE
  5
214
330
145
100
AcDbEntity
  8
图框_外框线
100
AcDbLine
 10
10.0
 20
56.0
 30
0.0
 11
10.0
 21
28.0
 31
0.0
  0
TEXT
  5
215
330
145
100
AcDbEntity
  8
图框_标题栏文字
100
AcDbText
 10
1.0
 20
29.43872591737909
 30
0.0
 40
5.0
  1
标记
  7
工程字
100
AcDbText
1001
AcadStringInfo
1000
MIFCodePage
1070
     5
  0
TEXT
  5
216
330
145
100
AcDbEntity
  8
图框_标题栏文字
100
AcDbText
 10
1.334625653507146
 20
22.34847714549829
 30
0.0
 40
5.0
  1
设计
  7
工程字
100
AcDbText
1001
AcadStringInfo
1000
MIFCodePage
1070
     5
  0
LINE
  5
217
330
145
100
AcDbEntity
  8
图框_外框线
100
AcDbLine
 10
52.0
 20
28.0
 30
0.0
 11
52.0
 21
56.0
 31
0.0
  0
LINE
  5
218
330
145
100
AcDbEntity
  8
图框_外框线
100
AcDbLine
 10
30.0
 20
56.0
 30
0.0
 11
30.0
 21
28.0
 31
0.0
  0
LINE
  5
219
330
145
100
AcDbEntity
  8
图框_外框线
100
AcDbLine
 10
20.0
 20
28.0
 30
0.0
 11
20.0
 21
56.0
 31
0.0
  0
TEXT
  5
21A
330
145
100
AcDbEntity
  8
图框_标题栏文字
100
AcDbText
 10
31.0
 20
29.58713295238179
 30
0.0
 40
5.0
  1
更改文件号
  7
工程字
100
AcDbText
1001
AcadStringInfo
1000
MIFCodePage
1070
     5
  0
TEXT
  5
21B
330
145
100
AcDbEntity
  8
图框_标题栏文字
100
AcDbText
 10
11.0
 20
29.43872591737909
 30
0.0
 40
5.0
  1
处数
  7
工程字
100
AcDbText
1001
AcadStringInfo
1000
MIFCodePage
1070
     5
  0
TEXT
  5
21C
330
145
100
AcDbEntity
  8
图框_标题栏文字
100
AcDbText
 10
21.0
 20
29.43872591737909
 30
0.0
 40
5.0
  1
分区
  7
工程字
100
AcDbText
1001
AcadStringInfo
1000
MIFCodePage
1070
     5
  0
TEXT
  5
21D
330
145
100
AcDbEntity
  8
图框_标题栏文字
100
AcDbText
 10
40.43901960824041
 20
22.0
 30
0.0
 40
5.0
  1
标准化
  7
工程字
100
AcDbText
1001
AcadStringInfo
1000
MIFCodePage
1070
     5
  0
LINE
  5
21E
330
145
100
AcDbEntity
  8
图框_外框线
100
AcDbLine
 10
64.0
 20
56.0
 30
0.0
 11
64.0
 21
28.0
 31
0.0
  0
TEXT
  5
21F
330
145
100
AcDbEntity
  8
图框_标题栏文字
100
AcDbText
 10
66.0
 20
29.0
 30
0.0
 40
5.0
  1
年月日
  7
工程字
100
AcDbText
1001
AcadStringInfo
1000
MIFCodePage
1070
     5
  0
TEXT
  5
220
330
145
100
AcDbEntity
  8
图框_标题栏文字
100
AcDbText
 10
85.89077928789151
 20
20.2
 30
0.0
 40
5.0
  1
阶段标记
  7
工程字
100
AcDbText
1001
AcadStringInfo
1000
MIFCodePage
1070
     5
  0
TEXT
  5
221
330
145
100
AcDbEntity
  8
图框_标题栏文字
100
AcDbText
 10
107.8907792878915
 20
20.0
 30
0.0
 40
5.0
  1
重量
  7
工程字
100
AcDbText
1001
AcadStringInfo
1000
MIFCodePage
1070
     5
  0
TEXT
  5
222
330
145
100
AcDbEntity
  8
图框_标题栏文字
100
AcDbText
 10
120.0
 20
20.0
 30
0.0
 40
5.0
  1
比例
  7
工程字
100
AcDbText
1001
AcadStringInfo
1000
MIFCodePage
1070
     5
  0
ATTDEF
  5
223
330
145
100
AcDbEntity
  8
图框_标题栏属性
100
AcDbText
 10
93.94224277899834
 20
37.29897765641386
 30
0.0
 40
7.0
  1
xxx1
  7
工程字
 72
     4
 11
103.0422427789983
 21
40.79897765641385
 31
0.0
100
AcDbAttributeDefinition
280
     0
  3
名称1
  2
XXX1
 70
     0
280
     0
1001
AcadStringInfo
1000
MIFCodePage
1070
     5
  0
ATTDEF
  5
224
330
145
100
AcDbEntity
  8
图框_标题栏属性
100
AcDbText
 10
143.422325769551
 20
43.25611160273171
 30
0.0
 40
7.0
  1
xxx2
  7
工程字
 72
     4
 11
153.4325324624644
 21
46.93180057910967
 31
0.0
100
AcDbAttributeDefinition
280
     0
  3
名称2
  2
XXX2
 70
     0
280
     0
1001
AcadStringInfo
1000
MIFCodePage
1070
     5
  0
ATTDEF
  5
225
330
145
100
AcDbEntity
  8
图框_标题栏属性
100
AcDbText
 10
144.802086825971
 20
25.17830687839783
 30
0.0
 40
7.0
  1
xxx3
  7
工程字
 72
     4
 11
154.7470615728016
 21
28.53333213156725
 31
0.0
100
AcDbAttributeDefinition
280
     0
  3
名称3
  2
XXX3
 70
     0
280
     0
1001
AcadStringInfo
1000
MIFCodePage
1070
     5
  0
ATTDEF
  5
226
330
145
100
AcDbEntity
  8
图框_标题栏属性
100
AcDbText
 10
144.5970615728016
 20
5.320687680483274
 30
0.0
 40
7.0
  1
xxx4
  7
工程字
 72
     4
 11
154.7470615728016
 21
8.820687680483274
 31
0.0
100
AcDbAttributeDefinition
280
     0
  3
名称4
  2
XXX4
 70
     0
280
     0
1001
AcadStringInfo
1000
MIFCodePage
1070
     5
  0
ATTDEF
  5
227
330
145
100
AcDbEntity
  8
图框_标题栏属性
100
AcDbText
 10
107.0058429934309
 20
11.83382664077868
 30
0.0
 40
3.5
  1
xxx5
  7
工程字
 72
     1
 11
111.9783303668462
 21
13.58382664077868
 31
0.0
100
AcDbAttributeDefinition
280
     0
  3
重量
  2
XXX5
 70
     0
 74
     2
280
     0
1001
AcadStringInfo
1000
MIFCodePage
1070
     5
  0
ATTDEF
  5
228
330
145
100
AcDbEntity
  8
图框_标题栏属性
100
AcDbText
 10
118.6137133771492
 20
11.99284807675928
 30
0.0
 40
3.5
  1
xxx6
  7
工程字
 72
     1
 11
123.6005244007713
 21
13.74284807675928
 31
0.0
100
AcDbAttributeDefinition
280
     0
  3
比例
  2
XXX6
 70
     0
 74
     2
280
     0
1001
AcadStringInfo
1000
MIFCodePage
1070
     5
  0
ATTDEF
  5
229
330
145
100
AcDbEntity
  8
图框_标题栏属性
100
AcDbText
 10
87.14701881317841
 20
1.542546479159106
 30
0.0
 40
5.0
  1
xxx7
  7
工程字
 72
     1
 11
94.14701881317842
 21
4.042546479159106
 31
0.0
100
AcDbAttributeDefinition
280
     0
  3
共几张
  2
XXX7
 70
     0
 74
     2
280
     0
1001
AcadStringInfo
1000
MIFCodePage
1070
     5
  0
ATTDEF
  5
22A
330
145
100
AcDbEntity
  8
图框_标题栏属性
100
AcDbText
 10
110.5506151715112
 20
1.542546479159106
 30
0.0
 40
5.0
  1
xxx8
  7
工程字
 72
     1
 11
117.5506151715112
 21
4.042546479159106
 31
0.0
100
AcDbAttributeDefinition
280
     0
  3
第几张
  2
XXX8
 70
     0
 74
     2
280
     0
1001
AcadStringInfo
1000
MIFCodePage
1070
     5
  0
ENDBLK
  5
185
330
145
100
AcDbEntity
  8
0
100
AcDbBlockEnd
  0
BLOCK
  5
1D19
330
1D0F
100
AcDbEntity
  8
0
100
AcDbBlockBegin
  2
*D5
 70
     1
 10
0.0
 20
0.0
 30
0.0
  3
*D5
  1

  0
LINE
  5
37CD
330
1D0F
100
AcDbEntity
  8
0
 62
     0
440
 16777216
370
    -2
100
AcDbLine
 10
7876.575089798956
 20
813.1803809441299
 30
0.0
 11
7876.575089798956
 21
744.2178312493597
 31
0.0
  0
LINE
  5
37CE
330
1D0F
100
AcDbEntity
  8
0
 62
     0
440
 16777216
370
    -2
100
AcDbLine
 10
7518.575089798956
 20
823.1803809441299
 30
0.0
 11
7518.575089798956
 21
744.2178312493597
 31
0.0
  0
LINE
  5
37CF
330
1D0F
100
AcDbEntity
  8
0
 62
     0
440
 16777216
370
    -2
100
AcDbLine
 10
7856.575089798956
 20
746.2178312493597
 30
0.0
 11
7538.575089798957
 21
746.2178312493597
 31
0.0
  0
SOLID
  5
37D0
330
1D0F
100
AcDbEntity
  8
0
 62
     0
440
 16777216
100
AcDbTrace
 10
7856.575089798956
 20
749.5511645826931
 30
0.0
 11
7856.575089798956
 21
742.8844979160263
 31
0.0
 12
7876.575089798956
 22
746.2178312493597
 32
0.0
 13
7876.575089798956
 23
746.2178312493597
 33
0.0
  0
SOLID
  5
37D1
330
1D0F
100
AcDbEntity
  8
0
 62
     0
440
 16777216
100
AcDbTrace
 10
7538.575089798957
 20
749.5511645826931
 30
0.0
 11
7538.575089798957
 21
742.8844979160263
 31
0.0
 12
7518.575089798956
 22
746.2178312493597
 32
0.0
 13
7518.575089798956
 23
746.2178312493597
 33
0.0
  0
MTEXT
  5
37D2
330
1D0F
100
AcDbEntity
  8
0
 62
     0
440
 16777216
100
AcDbMText
 10
7697.575089798957
 20
755.7178312493597
 30
0.0
 40
15.0
 41
0.0
 46
0.0
 71
     5
 72
     1
  1
\A1;358
 73
     1
 44
1.0
  0
POINT
  5
37D3
330
1D0F
100
AcDbEntity
  8
Defpoints
 62
     0
440
 16777216
100
AcDbPoint
 10
7876.575089798956
 20
815.1803809441299
 30
0.0
  0
POINT
  5
37D4
330
1D0F
100
AcDbEntity
  8
Defpoints
 62
     0
440
 16777216
100
AcDbPoint
 10
7518.575089798956
 20
825.1803809441298
 30
0.0
  0
POINT
  5
37D5
330
1D0F
100
AcDbEntity
  8
Defpoints
 62
     0
440
 16777216
100
AcDbPoint
 10
7518.575089798956
 20
746.2178312493597
 30
0.0
  0
ENDBLK
  5
1D1A
330
1D0F
100
AcDbEntity
  8
0
100
AcDbBlockEnd
  0
BLOCK
  5
1D27
330
1D1B
100
AcDbEntity
  8
0
100
AcDbBlockBegin
  2
*D6
 70
     1
 10
0.0
 20
0.0
 30
0.0
  3
*D6
  1

  0
LINE
  5
39A4
330
1D1B
100
AcDbEntity
  8
0
 62
     0
440
 16777216
370
    -2
100
AcDbLine
 10
7744.575089798956
 20
408.1558750689619
 30
0.0
 11
7926.685921617769
 21
408.1558750689618
 31
0.0
  0
LINE
  5
39A5
330
1D1B
100
AcDbEntity
  8
0
 62
     0
440
 16777216
370
    -2
100
AcDbLine
 10
7873.831304428051
 20
423.1500194904038
 30
0.0
 11
7926.685921617769
 21
423.1500194904038
 31
0.0
  0
LINE
  5
39A6
330
1D1B
100
AcDbEntity
  8
0
 62
     0
440
 16777216
370
    -2
100
AcDbLine
 10
7924.685921617769
 20
388.1558750689618
 30
0.0
 11
7924.685921617769
 21
368.1558750689618
 31
0.0
  0
LINE
  5
39A7
330
1D1B
100
AcDbEntity
  8
0
 62
     0
440
 16777216
370
    -2
100
AcDbLine
 10
7924.685921617769
 20
443.1500194904038
 30
0.0
 11
7924.685921617769
 21
504.6500194904061
 31
0.0
  0
LINE
  5
39A8
330
1D1B
100
AcDbEntity
  8
0
 62
     0
440
 16777216
370
    -2
100
AcDbLine
 10
7924.685921617769
 20
408.1558750689618
 30
0.0
 11
7924.685921617769
 21
423.1500194904038
 31
0.0
  0
SOLID
  5
39A9
330
1D1B
100
AcDbEntity
  8
0
 62
     0
440
 16777216
100
AcDbTrace
 10
7921.352588284436
 20
388.1558750689618
 30
0.0
 11
7928.019254951102
 21
388.1558750689618
 31
0.0
 12
7924.685921617769
 22
408.1558750689618
 32
0.0
 13
7924.685921617769
 23
408.1558750689618
 33
0.0
  0
SOLID
  5
39AA
330
1D1B
100
AcDbEntity
  8
0
 62
     0
440
 16777216
100
AcDbTrace
 10
7921.352588284436
 20
443.1500194904038
 30
0.0
 11
7928.019254951102
 21
443.1500194904038
 31
0.0
 12
7924.685921617769
 22
423.1500194904038
 32
0.0
 13
7924.685921617769
 23
423.1500194904038
 33
0.0
  0
MTEXT
  5
39AB
330
1D1B
100
AcDbEntity
  8
0
 62
     0
440
 16777216
100
AcDbMText
 10
7915.185921617769
 20
492.6500194904074
 30
0.0
 40
15.0
 41
0.0
 46
0.0
 71
     5
 72
     1
  1
\A1;15
 11
0.0000000000000001
 21
1.0
 31
0.0
 73
     1
 44
1.0
  0
POINT
  5
39AC
330
1D1B
100
AcDbEntity
  8
Defpoints
 62
     0
440
 16777216
100
AcDbPoint
 10
7742.575089798958
 20
408.1558750689619
 30
0.0
  0
POINT
  5
39AD
330
1D1B
100
AcDbEntity
  8
Defpoints
 62
     0
440
 16777216
100
AcDbPoint
 10
7871.831304428052
 20
423.1500194904038
 30
0.0
  0
POINT
  5
39AE
330
1D1B
100
AcDbEntity
  8
Defpoints
 62
     0
440
 16777216
100
AcDbPoint
 10
7924.685921617769
 20
423.1500194904038
 30
0.0
  0
ENDBLK
  5
1D28
330
1D1B
100
AcDbEntity
  8
0
100
AcDbBlockEnd
  0
BLOCK
  5
1E37
330
1E2D
100
AcDbEntity
  8
0
100
AcDbBlockBegin
  2
*D24
 70
     1
 10
0.0
 20
0.0
 30
0.0
  3
*D24
  1

  0
LINE
  5
37BB
330
1E2D
100
AcDbEntity
  8
0
 62
     0
440
 16777216
370
    -2
100
AcDbLine
 10
7899.575089798957
 20
775.1803809441262
 30
0.0
 11
7899.575089798957
 21
703.1284078590361
 31
0.0
  0
LINE
  5
37BC
330
1E2D
100
AcDbEntity
  8
0
 62
     0
440
 16777216
370
    -2
100
AcDbLine
 10
7495.575089798956
 20
775.1803809441298
 30
0.0
 11
7495.575089798956
 21
703.1284078590361
 31
0.0
  0
LINE
  5
37BD
330
1E2D
100
AcDbEntity
  8
0
 62
     0
440
 16777216
370
    -2
100
AcDbLine
 10
7879.575089798956
 20
705.128407859036
 30
0.0
 11
7515.575089798956
 21
705.128407859036
 31
0.0
  0
SOLID
  5
37BE
330
1E2D
100
AcDbEntity
  8
0
 62
     0
440
 16777216
100
AcDbTrace
 10
7879.575089798956
 20
708.4617411923694
 30
0.0
 11
7879.575089798956
 21
701.7950745257027
 31
0.0
 12
7899.575089798957
 22
705.128407859036
 32
0.0
 13
7899.575089798957
 23
705.128407859036
 33
0.0
  0
SOLID
  5
37BF
330
1E2D
100
AcDbEntity
  8
0
 62
     0
440
 16777216
100
AcDbTrace
 10
7515.575089798956
 20
708.4617411923694
 30
0.0
 11
7515.575089798956
 21
701.7950745257027
 31
0.0
 12
7495.575089798956
 22
705.128407859036
 32
0.0
 13
7495.575089798956
 23
705.128407859036
 33
0.0
  0
MTEXT
  5
37C0
330
1E2D
100
AcDbEntity
  8
0
 62
     0
440
 16777216
100
AcDbMText
 10
7697.575089798957
 20
714.6284078590361
 30
0.0
 40
15.0
 41
0.0
 46
0.0
 71
     5
 72
     1
  1
\A1;404
 73
     1
 44
1.0
  0
POINT
  5
37C1
330
1E2D
100
AcDbEntity
  8
Defpoints
 62
     0
440
 16777216
100
AcDbPoint
 10
7899.575089798957
 20
777.1803809441262
 30
0.0
  0
POINT
  5
37C2
330
1E2D
100
AcDbEntity
  8
Defpoints
 62
     0
440
 16777216
100
AcDbPoint
 10
7495.575089798956
 20
777.1803809441299
 30
0.0
  0
POINT
  5
37C3
330
1E2D
100
AcDbEntity
  8
Defpoints
 62
     0
440
 16777216
100
AcDbPoint
 10
7495.575089798956
 20
705.128407859036
 30
0.0
  0
ENDBLK
  5
1E38
330
1E2D
100
AcDbEntity
  8
0
100
AcDbBlockEnd
  0
BLOCK
  5
1E43
330
1E39
100
AcDbEntity
  8
0
100
AcDbBlockBegin
  2
*D25
 70
     1
 10
0.0
 20
0.0
 30
0.0
  3
*D25
  1

  0
LINE
  5
37C4
330
1E39
100
AcDbEntity
  8
0
 62
     0
440
 16777216
370
    -2
100
AcDbLine
 10
7901.575089798956
 20
777.1803809441262
 30
0.0
 11
7967.623247342607
 21
777.180380944126
 31
0.0
  0
LINE
  5
37C5
330
1E39
100
AcDbEntity
  8
0
 62
     0
440
 16777216
370
    -2
100
AcDbLine
 10
7901.575089798953
 20
1221.18038094413
 30
0.0
 11
7967.623247342607
 21
1221.18038094413
 31
0.0
  0
LINE
  5
37C6
330
1E39
100
AcDbEntity
  8
0
 62
     0
440
 16777216
370
    -2
100
AcDbLine
 10
7965.623247342605
 20
797.1803809441261
 30
0.0
 11
7965.623247342605
 21
1201.18038094413
 31
0.0
  0
SOLID
  5
37C7
330
1E39
100
AcDbEntity
  8
0
 62
     0
440
 16777216
100
AcDbTrace
 10
7962.289914009272
 20
797.1803809441261
 30
0.0
 11
7968.956580675939
 21
797.1803809441261
 31
0.0
 12
7965.623247342605
 22
777.180380944126
 32
0.0
 13
7965.623247342605
 23
777.180380944126
 33
0.0
  0
SOLID
  5
37C8
330
1E39
100
AcDbEntity
  8
0
 62
     0
440
 16777216
100
AcDbTrace
 10
7962.289914009272
 20
1201.18038094413
 30
0.0
 11
7968.956580675939
 21
1201.18038094413
 31
0.0
 12
7965.623247342605
 22
1221.18038094413
 32
0.0
 13
7965.623247342605
 23
1221.18038094413
 33
0.0
  0
MTEXT
  5
37C9
330
1E39
100
AcDbEntity
  8
0
 62
     0
440
 16777216
100
AcDbMText
 10
7956.123247342606
 20
994.9457907372197
 30
0.0
 40
15.0
 41
0.0
 46
0.0
 71
     5
 72
     1
  1
\A1;444
 11
0.0000000000000001
 21
1.0
 31
0.0
 73
     1
 44
1.0
  0
POINT
  5
37CA
330
1E39
100
AcDbEntity
  8
Defpoints
 62
     0
440
 16777216
100
AcDbPoint
 10
7899.575089798957
 20
777.1803809441262
 30
0.0
  0
POINT
  5
37CB
330
1E39
100
AcDbEntity
  8
Defpoints
 62
     0
440
 16777216
100
AcDbPoint
 10
7899.575089798952
 20
1221.18038094413
 30
0.0
  0
POINT
  5
37CC
330
1E39
100
AcDbEntity
  8
Defpoints
 62
     0
440
 16777216
100
AcDbPoint
 10
7965.623247342605
 20
1221.18038094413
 30
0.0
  0
ENDBLK
  5
1E44
330
1E39
100
AcDbEntity
  8
0
100
AcDbBlockEnd
  0
BLOCK
  5
1E58
330
1E4E
100
AcDbEntity
  8
0
100
AcDbBlockBegin
  2
*D26
 70
     1
 10
0.0
 20
0.0
 30
0.0
  3
*D26
  1

  0
LINE
  5
37D6
330
1E4E
100
AcDbEntity
  8
0
 62
     0
440
 16777216
370
    -2
100
AcDbLine
 10
7822.314568375777
 20
996.8905034155705
 30
0.0
 11
7782.814568375778
 21
996.8905034155705
 31
0.0
  0
LINE
  5
37D7
330
1E4E
100
AcDbEntity
  8
0
 62
     0
440
 16777216
370
    -2
100
AcDbLine
 10
7782.814568375778
 20
996.8905034155705
 30
0.0
 11
7752.980750873891
 21
1015.191960550566
 31
0.0
  0
LINE
  5
37D8
330
1E4E
100
AcDbEntity
  8
0
 62
     0
440
 16777216
370
    -2
100
AcDbLine
 10
7642.169428724016
 20
1083.168801337698
 30
0.0
 11
7625.121533008652
 21
1093.62677684341
 31
0.0
  0
MTEXT
  5
37D9
330
1E4E
100
AcDbEntity
  8
0
 62
     0
440
 16777216
100
AcDbMText
 10
7803.564568375776
 20
1006.39050341557
 30
0.0
 40
15.0
 41
0.0
 46
0.0
 71
     5
 72
     1
  1
\A1;\U+220590
 73
     1
 44
1.0
  0
LINE
  5
37DA
330
1E4E
100
AcDbEntity
  8
0
 62
     0
440
 16777216
370
    -2
100
AcDbLine
 10
7659.217324439381
 20
1072.710825831986
 30
0.0
 11
7735.932855158527
 21
1025.649936056278
 31
0.0
  0
SOLID
  5
37DB
330
1E4E
100
AcDbEntity
  8
0
 62
     0
440
 16777216
100
AcDbTrace
 10
7643.912424641634
 20
1086.010117290259
 30
0.0
 11
7640.426432806396
 21
1080.327485385137
 31
0.0
 12
7659.217324439381
 22
1072.710825831986
 32
0.0
 13
7659.217324439381
 23
1072.710825831986
 33
0.0
  0
SOLID
  5
37DC
330
1E4E
100
AcDbEntity
  8
0
 62
     0
440
 16777216
100
AcDbTrace
 10
7754.723746791508
 20
1018.033276503127
 30
0.0
 11
7751.237754956271
 21
1012.350644598005
 31
0.0
 12
7735.932855158527
 22
1025.649936056278
 32
0.0
 13
7735.932855158527
 23
1025.649936056278
 33
0.0
  0
POINT
  5
37DD
330
1E4E
100
AcDbEntity
  8
Defpoints
 62
     0
440
 16777216
100
AcDbPoint
 10
7735.932855158527
 20
1025.649936056278
 30
0.0
  0
POINT
  5
37DE
330
1E4E
100
AcDbEntity
  8
Defpoints
 62
     0
440
 16777216
100
AcDbPoint
 10
7659.217324439381
 20
1072.710825831986
 30
0.0
  0
ENDBLK
  5
1E59
330
1E4E
100
AcDbEntity
  8
0
100
AcDbBlockEnd
  0
BLOCK
  5
1E61
330
1E5A
100
AcDbEntity
  8
0
100
AcDbBlockBegin
  2
*D27
 70
     1
 10
0.0
 20
0.0
 30
0.0
  3
*D27
  1

  0
LINE
  5
37DF
330
1E5A
100
AcDbEntity
  8
0
  6
PHANTOM
 62
     0
440
 16777216
370
    -2
100
AcDbLine
 10
7606.199312500113
 20
1165.064207921364
 30
0.0
 11
7569.199312500112
 21
1165.064207921365
 31
0.0
  0
LINE
  5
37E0
330
1E5A
100
AcDbEntity
  8
0
  6
PHANTOM
 62
     0
440
 16777216
370
    -2
100
AcDbLine
 10
7569.199312500112
 20
1165.064207921365
 30
0.0
 11
7538.031906192546
 21
1180.913932702037
 31
0.0
  0
MTEXT
  5
37E1
330
1E5A
100
AcDbEntity
  8
0
  6
PHANTOM
 62
     0
440
 16777216
100
AcDbMText
 10
7588.699312500112
 20
1174.564207921365
 30
0.0
 40
15.0
 41
0.0
 46
0.0
 71
     5
 72
     1
  1
\A1;R15
 73
     1
 44
1.0
  0
SOLID
  5
37E2
330
1E5A
100
AcDbEntity
  8
0
  6
PHANTOM
 62
     0
440
 16777216
100
AcDbTrace
 10
7539.542871687267
 20
1183.885143631082
 30
0.0
 11
7536.520940697825
 21
1177.942721772993
 31
0.0
 12
7520.204640618278
 22
1189.979725670363
 32
0.0
 13
7520.204640618278
 23
1189.979725670363
 33
0.0
  0
POINT
  5
37E3
330
1E5A
100
AcDbEntity
  8
Defpoints
  6
PHANTOM
 62
     0
440
 16777216
100
AcDbPoint
 10
7520.204640618278
 20
1189.979725670363
 30
0.0
  0
POINT
  5
37E4
330
1E5A
100
AcDbEntity
  8
Defpoints
  6
PHANTOM
 62
     0
440
 16777216
100
AcDbPoint
 10
7533.575089798957
 20
1183.18038094413
 30
0.0
  0
ENDBLK
  5
1E62
330
1E5A
100
AcDbEntity
  8
0
100
AcDbBlockEnd
  0
BLOCK
  5
1E6D
330
1E63
100
AcDbEntity
  8
0
100
AcDbBlockBegin
  2
*D28
 70
     1
 10
0.0
 20
0.0
 30
0.0
  3
*D28
  1

  0
LINE
  5
37E5
330
1E63
100
AcDbEntity
  8
0
 62
     0
440
 16777216
370
    -2
100
AcDbLine
 10
7863.575089798956
 20
800.1803809441298
 30
0.0
 11
7936.213313113178
 21
800.1803809441296
 31
0.0
  0
LINE
  5
37E6
330
1E63
100
AcDbEntity
  8
0
 62
     0
440
 16777216
370
    -2
100
AcDbLine
 10
7863.575089798956
 20
1198.18038094413
 30
0.0
 11
7936.213313113178
 21
1198.18038094413
 31
0.0
  0
LINE
  5
37E7
330
1E63
100
AcDbEntity
  8
0
 62
     0
440
 16777216
370
    -2
100
AcDbLine
 10
7934.213313113177
 20
820.1803809441297
 30
0.0
 11
7934.213313113177
 21
1178.18038094413
 31
0.0
  0
SOLID
  5
37E8
330
1E63
100
AcDbEntity
  8
0
 62
     0
440
 16777216
100
AcDbTrace
 10
7930.879979779844
 20
820.1803809441297
 30
0.0
 11
7937.54664644651
 21
820.1803809441297
 31
0.0
 12
7934.213313113177
 22
800.1803809441298
 32
0.0
 13
7934.213313113177
 23
800.1803809441298
 33
0.0
  0
SOLID
  5
37E9
330
1E63
100
AcDbEntity
  8
0
 62
     0
440
 16777216
100
AcDbTrace
 10
7930.879979779844
 20
1178.18038094413
 30
0.0
 11
7937.54664644651
 21
1178.18038094413
 31
0.0
 12
7934.213313113177
 22
1198.18038094413
 32
0.0
 13
7934.213313113177
 23
1198.18038094413
 33
0.0
  0
MTEXT
  5
37EA
330
1E63
100
AcDbEntity
  8
0
 62
     0
440
 16777216
100
AcDbMText
 10
7924.713313113177
 20
999.928472226049
 30
0.0
 40
15.0
 41
0.0
 46
0.0
 71
     5
 72
     1
  1
\A1;398
 11
0.0000000000000001
 21
1.0
 31
0.0
 73
     1
 44
1.0
  0
POINT
  5
37EB
330
1E63
100
AcDbEntity
  8
Defpoints
 62
     0
440
 16777216
100
AcDbPoint
 10
7861.575089798957
 20
800.1803809441298
 30
0.0
  0
POINT
  5
37EC
330
1E63
100
AcDbEntity
  8
Defpoints
 62
     0
440
 16777216
100
AcDbPoint
 10
7861.575089798957
 20
1198.18038094413
 30
0.0
  0
POINT
  5
37ED
330
1E63
100
AcDbEntity
  8
Defpoints
 62
     0
440
 16777216
100
AcDbPoint
 10
7934.213313113177
 20
1198.18038094413
 30
0.0
  0
ENDBLK
  5
1E6E
330
1E63
100
AcDbEntity
  8
0
100
AcDbBlockEnd
  0
BLOCK
  5
1E76
330
1E6F
100
AcDbEntity
  8
0
100
AcDbBlockBegin
  2
*D29
 70
     1
 10
0.0
 20
0.0
 30
0.0
  3
*D29
  1

  0
LINE
  5
37EE
330
1E6F
100
AcDbEntity
  8
0
 62
     0
440
 16777216
370
    -2
100
AcDbLine
 10
7613.152974048104
 20
448.9467661826251
 30
0.0
 11
7576.152974048105
 21
448.946766182625
 31
0.0
  0
LINE
  5
37EF
330
1E6F
100
AcDbEntity
  8
0
 62
     0
440
 16777216
370
    -2
100
AcDbLine
 10
7576.152974048105
 20
448.946766182625
 30
0.0
 11
7542.757796037766
 21
438.4700259616509
 31
0.0
  0
MTEXT
  5
37F0
330
1E6F
100
AcDbEntity
  8
0
 62
     0
440
 16777216
100
AcDbMText
 10
7595.652974048104
 20
458.4467661826249
 30
0.0
 40
15.0
 41
0.0
 46
0.0
 71
     5
 72
     1
  1
\A1;R15
 73
     1
 44
1.0
  0
SOLID
  5
37F1
330
1E6F
100
AcDbEntity
  8
0
 62
     0
440
 16777216
100
AcDbTrace
 10
7541.760011254815
 20
441.6505191054928
 30
0.0
 11
7543.755580820715
 21
435.2895328178091
 31
0.0
 12
7523.674837174714
 22
432.4833172639512
 32
0.0
 13
7523.674837174714
 23
432.4833172639512
 33
0.0
  0
POINT
  5
37F2
330
1E6F
100
AcDbEntity
  8
Defpoints
 62
     0
440
 16777216
100
AcDbPoint
 10
7523.674837174714
 20
432.4833172639512
 30
0.0
  0
POINT
  5
37F3
330
1E6F
100
AcDbEntity
  8
Defpoints
 62
     0
440
 16777216
100
AcDbPoint
 10
7537.987056322002
 20
436.9733487872256
 30
0.0
  0
ENDBLK
  5
1E77
330
1E6F
100
AcDbEntity
  8
0
100
AcDbBlockEnd
  0
BLOCK
  5
1E96
330
1E8A
100
AcDbEntity
  8
0
100
AcDbBlockBegin
  2
*D32
 70
     1
 10
0.0
 20
0.0
 30
0.0
  3
*D32
  1

  0
LINE
  5
3985
330
1E8A
100
AcDbEntity
  8
0
 62
     0
440
 16777216
370
    -2
100
AcDbLine
 10
7876.426737110847
 20
606.1558750689653
 30
0.0
 11
7876.426737110847
 21
372.7783773053086
 31
0.0
  0
LINE
  5
3986
330
1E8A
100
AcDbEntity
  8
0
 62
     0
440
 16777216
370
    -2
100
AcDbLine
 10
7871.831304428052
 20
421.1500194904036
 30
0.0
 11
7871.831304428052
 21
372.7783773053086
 31
0.0
  0
LINE
  5
3987
330
1E8A
100
AcDbEntity
  8
0
 62
     0
440
 16777216
370
    -2
100
AcDbLine
 10
7896.426737110847
 20
374.7783773053086
 30
0.0
 11
7916.426737110848
 21
374.7783773053086
 31
0.0
  0
LINE
  5
3988
330
1E8A
100
AcDbEntity
  8
0
 62
     0
440
 16777216
370
    -2
100
AcDbLine
 10
7851.831304428052
 20
374.7783773053086
 30
0.0
 11
7807.831304428052
 21
374.7783773053086
 31
0.0
  0
LINE
  5
3989
330
1E8A
100
AcDbEntity
  8
0
 62
     0
440
 16777216
370
    -2
100
AcDbLine
 10
7876.426737110847
 20
374.7783773053086
 30
0.0
 11
7871.831304428052
 21
374.7783773053086
 31
0.0
  0
SOLID
  5
398A
330
1E8A
100
AcDbEntity
  8
0
 62
     0
440
 16777216
100
AcDbTrace
 10
7896.426737110847
 20
378.1117106386419
 30
0.0
 11
7896.426737110847
 21
371.4450439719753
 31
0.0
 12
7876.426737110847
 22
374.7783773053086
 32
0.0
 13
7876.426737110847
 23
374.7783773053086
 33
0.0
  0
SOLID
  5
398B
330
1E8A
100
AcDbEntity
  8
0
 62
     0
440
 16777216
100
AcDbTrace
 10
7851.831304428052
 20
378.1117106386419
 30
0.0
 11
7851.831304428052
 21
371.4450439719753
 31
0.0
 12
7871.831304428052
 22
374.7783773053086
 32
0.0
 13
7871.831304428052
 23
374.7783773053086
 33
0.0
  0
MTEXT
  5
398C
330
1E8A
100
AcDbEntity
  8
0
 62
     0
440
 16777216
100
AcDbMText
 10
7814.831304428051
 20
384.2783773053086
 30
0.0
 40
15.0
 41
0.0
 46
0.0
 71
     5
 72
     1
  1
\A1;5
 73
     1
 44
1.0
  0
POINT
  5
398D
330
1E8A
100
AcDbEntity
  8
Defpoints
 62
     0
440
 16777216
100
AcDbPoint
 10
7876.426737110847
 20
608.1558750689652
 30
0.0
  0
POINT
  5
398E
330
1E8A
100
AcDbEntity
  8
Defpoints
 62
     0
440
 16777216
100
AcDbPoint
 10
7871.831304428052
 20
423.1500194904035
 30
0.0
  0
POINT
  5
398F
330
1E8A
100
AcDbEntity
  8
Defpoints
 62
     0
440
 16777216
100
AcDbPoint
 10
7871.831304428052
 20
374.7783773053086
 30
0.0
  0
ENDBLK
  5
1E97
330
1E8A
100
AcDbEntity
  8
0
100
AcDbBlockEnd
  0
BLOCK
  5
1EA2
330
1E98
100
AcDbEntity
  8
0
100
AcDbBlockBegin
  2
*D33
 70
     1
 10
0.0
 20
0.0
 30
0.0
  3
*D33
  1

  0
LINE
  5
3990
330
1E98
100
AcDbEntity
  8
0
 62
     0
440
 16777216
370
    -2
100
AcDbLine
 10
7744.575089798956
 20
408.1558750689619
 30
0.0
 11
7966.544466040075
 21
408.1558750689618
 31
0.0
  0
LINE
  5
3991
330
1E98
100
AcDbEntity
  8
0
 62
     0
440
 16777216
370
    -2
100
AcDbLine
 10
7898.575089798956
 20
608.1558750689655
 30
0.0
 11
7966.544466040075
 21
608.1558750689654
 31
0.0
  0
LINE
  5
3992
330
1E98
100
AcDbEntity
  8
0
 62
     0
440
 16777216
370
    -2
100
AcDbLine
 10
7964.544466040075
 20
428.1558750689618
 30
0.0
 11
7964.544466040075
 21
588.1558750689654
 31
0.0
  0
SOLID
  5
3993
330
1E98
100
AcDbEntity
  8
0
 62
     0
440
 16777216
100
AcDbTrace
 10
7961.211132706742
 20
428.1558750689618
 30
0.0
 11
7967.877799373408
 21
428.1558750689618
 31
0.0
 12
7964.544466040075
 22
408.1558750689618
 32
0.0
 13
7964.544466040075
 23
408.1558750689618
 33
0.0
  0
SOLID
  5
3994
330
1E98
100
AcDbEntity
  8
0
 62
     0
440
 16777216
100
AcDbTrace
 10
7961.211132706742
 20
588.1558750689654
 30
0.0
 11
7967.877799373408
 21
588.1558750689654
 31
0.0
 12
7964.544466040075
 22
608.1558750689654
 32
0.0
 13
7964.544466040075
 23
608.1558750689654
 33
0.0
  0
MTEXT
  5
3995
330
1E98
100
AcDbEntity
  8
0
 62
     0
440
 16777216
100
AcDbMText
 10
7955.044466040075
 20
518.4084848830535
 30
0.0
 40
15.0
 41
0.0
 46
0.0
 71
     5
 72
     1
  1
\A1;200
 11
0.0000000000000001
 21
1.0
 31
0.0
 73
     1
 44
1.0
  0
POINT
  5
3996
330
1E98
100
AcDbEntity
  8
Defpoints
 62
     0
440
 16777216
100
AcDbPoint
 10
7742.575089798958
 20
408.1558750689619
 30
0.0
  0
POINT
  5
3997
330
1E98
100
AcDbEntity
  8
Defpoints
 62
     0
440
 16777216
100
AcDbPoint
 10
7896.575089798957
 20
608.1558750689655
 30
0.0
  0
POINT
  5
3998
330
1E98
100
AcDbEntity
  8
Defpoints
 62
     0
440
 16777216
100
AcDbPoint
 10
7964.544466040075
 20
608.1558750689654
 30
0.0
  0
ENDBLK
  5
1EA3
330
1E98
100
AcDbEntity
  8
0
100
AcDbBlockEnd
  0
BLOCK
  5
1EB0
330
1EA4
100
AcDbEntity
  8
0
100
AcDbBlockBegin
  2
*D34
 70
     1
 10
0.0
 20
0.0
 30
0.0
  3
*D34
  1

  0
LINE
  5
3999
330
1EA4
100
AcDbEntity
  8
0
 62
     0
440
 16777216
370
    -2
100
AcDbLine
 10
7744.575089798956
 20
408.1558750689619
 30
0.0
 11
7773.619786554111
 21
408.1558750689619
 31
0.0
  0
LINE
  5
399A
330
1EA4
100
AcDbEntity
  8
0
 62
     0
440
 16777216
370
    -2
100
AcDbLine
 10
7754.575089798956
 20
413.1558750689618
 30
0.0
 11
7773.619786554111
 21
413.1558750689618
 31
0.0
  0
LINE
  5
399B
330
1EA4
100
AcDbEntity
  8
0
 62
     0
440
 16777216
370
    -2
100
AcDbLine
 10
7771.619786554111
 20
433.1558750689619
 30
0.0
 11
7771.619786554111
 21
453.1558750689619
 31
0.0
  0
LINE
  5
399C
330
1EA4
100
AcDbEntity
  8
0
 62
     0
440
 16777216
370
    -2
100
AcDbLine
 10
7771.619786554111
 20
388.1558750689619
 30
0.0
 11
7771.619786554111
 21
339.1558750689619
 31
0.0
  0
LINE
  5
399D
330
1EA4
100
AcDbEntity
  8
0
 62
     0
440
 16777216
370
    -2
100
AcDbLine
 10
7771.619786554111
 20
413.1558750689618
 30
0.0
 11
7771.619786554111
 21
408.1558750689619
 31
0.0
  0
SOLID
  5
399E
330
1EA4
100
AcDbEntity
  8
0
 62
     0
440
 16777216
100
AcDbTrace
 10
7768.286453220778
 20
433.1558750689619
 30
0.0
 11
7774.953119887443
 21
433.1558750689619
 31
0.0
 12
7771.619786554111
 22
413.1558750689618
 32
0.0
 13
7771.619786554111
 23
413.1558750689618
 33
0.0
  0
SOLID
  5
399F
330
1EA4
100
AcDbEntity
  8
0
 62
     0
440
 16777216
100
AcDbTrace
 10
7768.286453220778
 20
388.1558750689619
 30
0.0
 11
7774.953119887443
 21
388.1558750689619
 31
0.0
 12
7771.619786554111
 22
408.1558750689619
 32
0.0
 13
7771.619786554111
 23
408.1558750689619
 33
0.0
  0
MTEXT
  5
39A0
330
1EA4
100
AcDbEntity
  8
0
 62
     0
440
 16777216
100
AcDbMText
 10
7762.11978655411
 20
346.1558750689631
 30
0.0
 40
15.0
 41
0.0
 46
0.0
 71
     5
 72
     1
  1
\A1;5
 11
0.0000000000000001
 21
1.0
 31
0.0
 73
     1
 44
1.0
  0
POINT
  5
39A1
330
1EA4
100
AcDbEntity
  8
Defpoints
 62
     0
440
 16777216
100
AcDbPoint
 10
7742.575089798958
 20
408.1558750689619
 30
0.0
  0
POINT
  5
39A2
330
1EA4
100
AcDbEntity
  8
Defpoints
 62
     0
440
 16777216
100
AcDbPoint
 10
7752.575089798956
 20
413.1558750689618
 30
0.0
  0
POINT
  5
39A3
330
1EA4
100
AcDbEntity
  8
Defpoints
 62
     0
440
 16777216
100
AcDbPoint
 10
7771.619786554111
 20
413.1558750689618
 30
0.0
  0
ENDBLK
  5
1EB1
330
1EA4
100
AcDbEntity
  8
0
100
AcDbBlockEnd
  0
BLOCK
  5
1EC9
330
1EBD
100
AcDbEntity
  8
0
100
AcDbBlockBegin
  2
*D35
 70
     1
 10
0.0
 20
0.0
 30
0.0
  3
*D35
  1

  0
LINE
  5
39AF
330
1EBD
100
AcDbEntity
  8
0
 62
     0
440
 16777216
370
    -2
100
AcDbLine
 10
7901.575089798956
 20
603.1558750689619
 30
0.0
 11
7924.86909395882
 21
603.1558750689619
 31
0.0
  0
LINE
  5
39B0
330
1EBD
100
AcDbEntity
  8
0
 62
     0
440
 16777216
370
    -2
100
AcDbLine
 10
7898.575089798953
 20
608.1558750689655
 30
0.0
 11
7924.86909395882
 21
608.1558750689655
 31
0.0
  0
LINE
  5
39B1
330
1EBD
100
AcDbEntity
  8
0
 62
     0
440
 16777216
370
    -2
100
AcDbLine
 10
7922.869093958819
 20
628.1558750689655
 30
0.0
 11
7922.869093958819
 21
648.1558750689655
 31
0.0
  0
LINE
  5
39B2
330
1EBD
100
AcDbEntity
  8
0
 62
     0
440
 16777216
370
    -2
100
AcDbLine
 10
7922.869093958819
 20
583.1558750689619
 30
0.0
 11
7922.869093958819
 21
534.1558750689618
 31
0.0
  0
LINE
  5
39B3
330
1EBD
100
AcDbEntity
  8
0
 62
     0
440
 16777216
370
    -2
100
AcDbLine
 10
7922.869093958819
 20
608.1558750689655
 30
0.0
 11
7922.869093958819
 21
603.1558750689619
 31
0.0
  0
SOLID
  5
39B4
330
1EBD
100
AcDbEntity
  8
0
 62
     0
440
 16777216
100
AcDbTrace
 10
7919.535760625487
 20
628.1558750689655
 30
0.0
 11
7926.202427292152
 21
628.1558750689655
 31
0.0
 12
7922.869093958819
 22
608.1558750689655
 32
0.0
 13
7922.869093958819
 23
608.1558750689655
 33
0.0
  0
SOLID
  5
39B5
330
1EBD
100
AcDbEntity
  8
0
 62
     0
440
 16777216
100
AcDbTrace
 10
7919.535760625487
 20
583.1558750689619
 30
0.0
 11
7926.202427292152
 21
583.1558750689619
 31
0.0
 12
7922.869093958819
 22
603.1558750689619
 32
0.0
 13
7922.869093958819
 23
603.1558750689619
 33
0.0
  0
MTEXT
  5
39B6
330
1EBD
100
AcDbEntity
  8
0
 62
     0
440
 16777216
100
AcDbMText
 10
7913.369093958819
 20
541.1558750689631
 30
0.0
 40
15.0
 41
0.0
 46
0.0
 71
     5
 72
     1
  1
\A1;5
 11
0.0000000000000001
 21
1.0
 31
0.0
 73
     1
 44
1.0
  0
POINT
  5
39B7
330
1EBD
100
AcDbEntity
  8
Defpoints
 62
     0
440
 16777216
100
AcDbPoint
 10
7899.575089798957
 20
603.1558750689619
 30
0.0
  0
POINT
  5
39B8
330
1EBD
100
AcDbEntity
  8
Defpoints
 62
     0
440
 16777216
100
AcDbPoint
 10
7896.575089798954
 20
608.1558750689655
 30
0.0
  0
POINT
  5
39B9
330
1EBD
100
AcDbEntity
  8
Defpoints
 62
     0
440
 16777216
100
AcDbPoint
 10
7922.869093958819
 20
608.1558750689655
 30
0.0
  0
ENDBLK
  5
1ECA
330
1EBD
100
AcDbEntity
  8
0
100
AcDbBlockEnd
  0
ENDSEC
  0
SECTION
  2
ENTITIES
  0
LINE
  5
1C3E
102
{ACAD_REACTORS
330
1C8D
330
1C90
330
1C97
102
}
330
1F
100
AcDbEntity
  8
0
100
AcDbLine
 10
7896.575089798957
 20
608.1558750689655
 30
0.0
 11
7498.57508979896
 21
608.1558750689619
 31
0.0
  0
LINE
  5
1C3F
330
1F
100
AcDbEntity
  8
0
100
AcDbLine
 10
7496.663057385504
 20
603.1558750689619
 30
0.0
 11
7495.575089798956
 21
603.1558750689619
 31
0.0
  0
LINE
  5
1C40
330
1F
100
AcDbEntity
  8
0
100
AcDbLine
 10
7518.575089798956
 20
1183.18038094413
 30
0.0
 11
7518.575089798956
 21
815.1803809441299
 31
0.0
  0
ARC
  5
1C41
330
1F
100
AcDbEntity
  8
0
100
AcDbCircle
 10
7533.575089798957
 20
815.1803809441299
 30
0.0
 40
15.0
100
AcDbArc
 50
180.0
 51
270.0
  0
LINE
  5
1C42
330
1F
100
AcDbEntity
  8
0
100
AcDbLine
 10
7533.575089798957
 20
800.1803809441298
 30
0.0
 11
7861.575089798957
 21
800.1803809441298
 31
0.0
  0
ARC
  5
1C43
102
{ACAD_REACTORS
330
1C78
102
}
330
1F
100
AcDbEntity
  8
0
100
AcDbCircle
 10
7861.575089798957
 20
815.1803809441299
 30
0.0
 40
15.0
100
AcDbArc
 50
270.0
 51
0.0
  0
LINE
  5
1C44
330
1F
100
AcDbEntity
  8
0
100
AcDbLine
 10
7876.575089798956
 20
1183.18038094413
 30
0.0
 11
7876.575089798956
 21
815.1803809441299
 31
0.0
  0
LINE
  5
1C45
330
1F
100
AcDbEntity
  8
0
100
AcDbLine
 10
7533.575089798957
 20
1198.18038094413
 30
0.0
 11
7861.575089798957
 21
1198.18038094413
 31
0.0
  0
ARC
  5
1C46
102
{ACAD_REACTORS
330
1C71
102
}
330
1F
100
AcDbEntity
  8
0
100
AcDbCircle
 10
7533.575089798957
 20
1183.18038094413
 30
0.0
 40
15.0
100
AcDbArc
 50
90.0
 51
180.0
  0
ARC
  5
1C47
102
{ACAD_REACTORS
330
1C78
102
}
330
1F
100
AcDbEntity
  8
0
100
AcDbCircle
 10
7861.575089798957
 20
1183.18038094413
 30
0.0
 40
15.0
100
AcDbArc
 50
0.0
 51
90.0
  0
CIRCLE
  5
1C48
330
1F
100
AcDbEntity
  8
0
100
AcDbCircle
 10
7697.575089798957
 20
1049.18038094413
 30
0.0
 40
45.0
  0
CIRCLE
  5
1C49
102
{ACAD_REACTORS
330
1C6E
102
}
330
1F
100
AcDbEntity
  8
0
100
AcDbCircle
 10
7697.575089798957
 20
1049.18038094413
 30
0.0
 40
45.0
  0
CIRCLE
  5
1C4A
330
1F
100
AcDbEntity
  8
0
100
AcDbCircle
 10
7697.575089798957
 20
1049.18038094413
 30
0.0
 40
55.0
  0
LINE
  5
1C4B
330
1F
100
AcDbEntity
  8
0
100
AcDbLine
 10
7543.575089798956
 20
1173.18038094413
 30
0.0
 11
7654.73607590712
 21
1083.6741323895
 31
0.0
  0
LINE
  5
1C4C
330
1F
100
AcDbEntity
  8
0
100
AcDbLine
 10
7851.575089798956
 20
825.1803809441298
 30
0.0
 11
7728.734175057744
 21
1003.858075113163
 31
0.0
  0
LINE
  5
1C4D
330
1F
100
AcDbEntity
  8
0
100
AcDbLine
 10
7543.575089798956
 20
825.1803809441298
 30
0.0
 11
7666.416004540166
 21
1003.858075113163
 31
0.0
  0
LINE
  5
1C4E
330
1F
100
AcDbEntity
  8
0
100
AcDbLine
 10
7740.41410369079
 20
1083.6741323895
 30
0.0
 11
7851.575089798956
 21
1173.18038094413
 31
0.0
  0
LINE
  5
1C4F
330
1F
100
AcDbEntity
  8
0
100
AcDbLine
 10
7642.575089798957
 20
413.1558750689618
 30
0.0
 11
7752.575089798956
 21
413.1558750689618
 31
0.0
  0
LINE
  5
1C50
330
1F
100
AcDbEntity
  8
0
100
AcDbLine
 10
7518.727263712
 20
603.1558750689619
 30
0.0
 11
7522.991970502139
 21
436.5894200765032
 31
0.0
  0
ARC
  5
1C51
102
{ACAD_REACTORS
330
1C7C
102
}
330
1F
100
AcDbEntity
  8
0
100
AcDbCircle
 10
7537.987056322002
 20
436.9733487872253
 30
0.0
 40
15.0
100
AcDbArc
 50
181.4666598191836
 51
265.2095797386995
  0
LINE
  5
1C52
330
1F
100
AcDbEntity
  8
0
100
AcDbLine
 10
7876.302540158583
 20
603.1558750689619
 30
0.0
 11
7872.165429855577
 21
436.6014537417868
 31
0.0
  0
ARC
  5
1C53
330
1F
100
AcDbEntity
  8
0
100
AcDbCircle
 10
7857.170055180221
 20
436.973929708336
 30
0.0
 40
15.0
100
AcDbArc
 50
274.7904202613006
 51
358.5771003541428
  0
LINE
  5
1C54
330
1F
100
AcDbEntity
  8
0
100
AcDbLine
 10
7652.575089798957
 20
408.1558750689619
 30
0.0
 11
7742.575089798958
 21
408.1558750689619
 31
0.0
  0
LINE
  5
1C55
330
1F
100
AcDbEntity
  8
0
100
AcDbLine
 10
7642.575089798957
 20
413.1558750689618
 30
0.0
 11
7652.575089798957
 21
408.1558750689619
 31
0.0
  0
LINE
  5
1C56
102
{ACAD_REACTORS
330
1C90
102
}
330
1F
100
AcDbEntity
  8
0
100
AcDbLine
 10
7752.575089798956
 20
413.1558750689618
 30
0.0
 11
7742.575089798958
 21
408.1558750689619
 31
0.0
  0
LINE
  5
1C57
102
{ACAD_REACTORS
330
1C68
102
}
330
1F
100
AcDbEntity
  8
0
100
AcDbLine
 10
7495.575089798956
 20
1221.180380944123
 30
0.0
 11
7899.575089798957
 21
1221.180380944123
 31
0.0
  0
LINE
  5
1C58
330
1F
100
AcDbEntity
  8
0
100
AcDbLine
 10
7498.57508979896
 20
1218.180380944119
 30
0.0
 11
7896.575089798957
 21
1218.180380944126
 31
0.0
  0
LINE
  5
1C59
102
{ACAD_REACTORS
330
1C68
102
}
330
1F
100
AcDbEntity
  8
0
100
AcDbLine
 10
7495.575089798956
 20
777.1803809441299
 30
0.0
 11
7899.575089798957
 21
777.1803809441262
 31
0.0
  0
LINE
  5
1C5A
330
1F
100
AcDbEntity
  8
0
100
AcDbLine
 10
7498.575089798956
 20
780.1803809441298
 30
0.0
 11
7896.575089798957
 21
780.1803809441334
 31
0.0
  0
LINE
  5
1C5B
330
1F
100
AcDbEntity
  8
0
100
AcDbLine
 10
7495.575089798956
 20
1221.18038094413
 30
0.0
 11
7495.575089798956
 21
777.1803809441299
 31
0.0
  0
LINE
  5
1C5C
330
1F
100
AcDbEntity
  8
0
100
AcDbLine
 10
7498.575089798956
 20
1218.180380944122
 30
0.0
 11
7498.575089798956
 21
780.1803809441298
 31
0.0
  0
LINE
  5
1C5D
330
1F
100
AcDbEntity
  8
0
  6
CENTER
 62
     1
 48
55.88
100
AcDbLine
 10
7637.075089798956
 20
1049.18038094413
 30
0.0
 11
7758.075089798956
 21
1049.18038094413
 31
0.0
  0
LINE
  5
1C5E
330
1F
100
AcDbEntity
  8
0
  6
CENTER
 62
     1
 48
55.88
100
AcDbLine
 10
7697.575089798957
 20
988.6803809441298
 30
0.0
 11
7697.575089798957
 21
1109.68038094413
 31
0.0
  0
LINE
  5
1C5F
330
1F
100
AcDbEntity
  8
0
100
AcDbLine
 10
7536.73438786345
 20
422.0257462459158
 30
0.0
 11
7642.575089798957
 21
413.1558750689618
 31
0.0
  0
LINE
  5
1C60
102
{ACAD_REACTORS
330
1C93
102
}
330
1F
100
AcDbEntity
  8
0
100
AcDbLine
 10
7858.422723638774
 20
422.0263271670265
 30
0.0
 11
7752.575089798956
 21
413.1558750689618
 31
0.0
  0
LINE
  5
1C61
102
{ACAD_REACTORS
330
1C65
102
}
330
1F
100
AcDbEntity
  8
0
100
AcDbLine
 10
7498.575089798956
 20
780.1803809441298
 30
0.0
 11
7495.575089798956
 21
777.1803809441299
 31
0.0
  0
LINE
  5
1C62
330
1F
100
AcDbEntity
  8
0
100
AcDbLine
 10
7498.575089798956
 20
1218.180380944122
 30
0.0
 11
7495.575089798956
 21
1221.180380944123
 31
0.0
  0
DIMENSION
  5
1C63
102
{ACAD_XDICTIONARY
360
1C64
102
}
102
{ACAD_REACTORS
330
1C65
102
}
330
1F
100
AcDbEntity
  8
0
100
AcDbDimension
280
     0
  2
*D24
 10
7495.575089798956
 20
705.128407859036
 30
0.0
 11
7697.575089798957
 21
705.128407859036
 31
0.0
 70
   160
 71
     5
 42
404.0
 73
     0
 74
     0
 75
     0
  3
N915iso
100
AcDbAlignedDimension
 13
7899.575089798957
 23
777.1803809441262
 33
0.0
 14
7495.575089798956
 24
777.1803809441299
 34
0.0
100
AcDbRotatedDimension
  0
DIMENSION
  5
1C66
102
{ACAD_XDICTIONARY
360
1C67
102
}
102
{ACAD_REACTORS
330
1C68
102
}
330
1F
100
AcDbEntity
  8
0
100
AcDbDimension
280
     0
  2
*D25
 10
7965.623247342605
 20
1221.18038094413
 30
0.0
 11
7965.623247342605
 21
994.9457907372197
 31
0.0
 70
   160
 71
     5
 42
444.0000000000037
 73
     0
 74
     0
 75
     0
  3
N915iso
100
AcDbAlignedDimension
 13
7899.575089798957
 23
777.1803809441262
 33
0.0
 14
7899.575089798952
 24
1221.18038094413
 34
0.0
 50
90.0
100
AcDbRotatedDimension
  0
DIMENSION
  5
1C69
330
1F
100
AcDbEntity
  8
0
100
AcDbDimension
280
     0
  2
*D5
 10
7518.575089798956
 20
746.2178312493597
 30
0.0
 11
7697.575089798957
 21
746.2178312493597
 31
0.0
 70
   160
 71
     5
 42
358.0
 73
     0
 74
     0
 75
     0
  3
N915iso
100
AcDbAlignedDimension
 13
7876.575089798956
 23
815.1803809441299
 33
0.0
 14
7518.575089798956
 24
825.1803809441298
 34
0.0
100
AcDbRotatedDimension
  0
LINE
  5
1C6A
330
1F
100
AcDbEntity
  8
0
100
AcDbLine
 10
7495.575089798956
 20
603.1558750689619
 30
0.0
 11
7498.575089798956
 21
608.1558750689619
 31
0.0
  0
LINE
  5
1C6B
330
1F
100
AcDbEntity
  8
0
100
AcDbLine
 10
7899.575089798957
 20
603.1558750689582
 30
0.0
 11
7496.663057385504
 21
603.1558750689619
 31
0.0
  0
DIMENSION
  5
1C6C
102
{ACAD_XDICTIONARY
360
1C6D
102
}
102
{ACAD_REACTORS
330
1C6E
102
}
330
1F
100
AcDbEntity
  8
0
100
AcDbDimension
280
     0
  2
*D26
 10
7659.217324439381
 20
1072.710825831986
 30
0.0
 11
7803.564568375776
 21
1006.39050341557
 31
0.0
 70
    35
 71
     5
 42
90.00000000000818
 73
     0
 74
     0
 75
     0
  3
N915iso
100
AcDbDiametricDimension
 15
7735.932855158527
 25
1025.649936056278
 35
0.0
 40
0.0
  0
DIMENSION
  5
1C6F
102
{ACAD_XDICTIONARY
360
1C70
102
}
102
{ACAD_REACTORS
330
1C71
102
}
330
1F
100
AcDbEntity
  8
0
  6
PHANTOM
100
AcDbDimension
280
     0
  2
*D27
 10
7533.575089798957
 20
1183.18038094413
 30
0.0
 11
7569.199312500112
 21
1165.064207921365
 31
0.0
 70
   164
 71
     5
 42
14.99999999997544
 73
     0
 74
     0
 75
     0
  3
N915iso
100
AcDbRadialDimension
 15
7520.204640618278
 25
1189.979725670363
 35
0.0
 40
0.0
1001
ACAD
1000
DSTYLE
1002
{
1070
   279
1070
     1
1002
}
  0
LINE
  5
1C72
330
1F
100
AcDbEntity
  8
0
100
AcDbLine
 10
7899.575089798957
 20
1221.18038094413
 30
0.0
 11
7899.575089798957
 21
777.1803809441299
 31
0.0
  0
LINE
  5
1C73
330
1F
100
AcDbEntity
  8
0
100
AcDbLine
 10
7896.575089798957
 20
1218.180380944122
 30
0.0
 11
7896.575089798957
 21
780.1803809441298
 31
0.0
  0
LINE
  5
1C74
330
1F
100
AcDbEntity
  8
0
  6
PHANTOM
100
AcDbLine
 10
7896.575089798957
 20
1218.180380944122
 30
0.0
 11
7899.575089798957
 21
1221.18038094413
 31
0.0
  0
LINE
  5
1C75
330
1F
100
AcDbEntity
  8
0
  6
PHANTOM
100
AcDbLine
 10
7896.575089798957
 20
780.1803809441298
 30
0.0
 11
7899.575089798957
 21
777.1803809441299
 31
0.0
  0
DIMENSION
  5
1C76
102
{ACAD_XDICTIONARY
360
1C77
102
}
102
{ACAD_REACTORS
330
1C78
102
}
330
1F
100
AcDbEntity
  8
0
100
AcDbDimension
280
     0
  2
*D28
 10
7934.213313113177
 20
1198.18038094413
 30
0.0
 11
7934.213313113177
 21
999.928472226049
 31
0.0
 70
   160
 71
     5
 42
398.0000000000001
 73
     0
 74
     0
 75
     0
  3
N915iso
100
AcDbAlignedDimension
 13
7861.575089798957
 23
800.1803809441298
 33
0.0
 14
7861.575089798957
 24
1198.18038094413
 34
0.0
 50
90.0
100
AcDbRotatedDimension
  0
LINE
  5
1C79
102
{ACAD_REACTORS
330
1C97
102
}
330
1F
100
AcDbEntity
  8
0
100
AcDbLine
 10
7899.575089798957
 20
603.1558750689619
 30
0.0
 11
7896.575089798957
 21
608.1558750689619
 31
0.0
  0
DIMENSION
  5
1C7A
102
{ACAD_XDICTIONARY
360
1C7B
102
}
102
{ACAD_REACTORS
330
1C7C
102
}
330
1F
100
AcDbEntity
  8
0
100
AcDbDimension
280
     0
  2
*D29
 10
7537.987056322002
 20
436.9733487872256
 30
0.0
 11
7576.152974048105
 21
448.946766182625
 31
0.0
 70
   164
 71
     5
 42
14.99999999999909
 73
     0
 74
     0
 75
     0
  3
N915iso
100
AcDbRadialDimension
 15
7523.674837174714
 25
432.4833172639512
 35
0.0
 40
0.0
1001
ACAD
1000
DSTYLE
1002
{
1070
   279
1070
     1
1002
}
  0
LINE
  5
1C83
330
1F
100
AcDbEntity
  8
0
  6
DIVIDE
 62
     2
 48
0.01
100
AcDbLine
 10
7866.601957920223
 20
422.7117794844125
 30
0.0
 11
7871.831304428052
 21
423.1500194904038
 31
0.0
  0
LINE
  5
1C84
102
{ACAD_REACTORS
330
1C8D
102
}
330
1F
100
AcDbEntity
  8
0
  6
DIVIDE
 62
     2
 48
0.01
100
AcDbLine
 10
7871.831304428052
 20
423.1500194904038
 30
0.0
 11
7871.961613345156
 21
428.3960788484328
 31
0.0
  0
LINE
  5
1C85
330
1F
100
AcDbEntity
  8
0
  6
DIVIDE
 62
     2
 48
0.01
100
AcDbLine
 10
7528.561435307638
 20
422.7106721297495
 30
0.0
 11
7523.336104985054
 21
423.1485755634675
 31
0.0
  0
LINE
  5
1C86
330
1F
100
AcDbEntity
  8
0
  6
DIVIDE
 62
     2
 48
0.01
100
AcDbLine
 10
7523.336104985054
 20
423.1485755634675
 30
0.0
 11
7523.201892536639
 21
428.3905049235508
 31
0.0
  0
LINE
  5
1C87
102
{ACAD_REACTORS
330
1C8D
102
}
330
1F
100
AcDbEntity
  8
0
  6
DIVIDE
 62
     2
 48
0.01
100
AcDbLine
 10
7876.378300299326
 20
606.2058750689685
 30
0.0
 11
7876.426737110847
 21
608.1558750689691
 31
0.0
  0
LINE
  5
1C88
330
1F
100
AcDbEntity
  8
0
  6
DIVIDE
 62
     2
 48
0.01
100
AcDbLine
 10
7876.426737110847
 20
608.1558750689691
 30
0.0
 11
7884.284594659209
 21
608.1558750689691
 31
0.0
  0
LINE
  5
1C89
330
1F
100
AcDbEntity
  8
0
  6
DIVIDE
 62
     2
 48
0.01
100
AcDbLine
 10
7518.649172623937
 20
606.2058750689612
 30
0.0
 11
7518.599245534798
 21
608.1558750689619
 31
0.0
  0
LINE
  5
1C8A
330
1F
100
AcDbEntity
  8
0
  6
DIVIDE
 62
     2
 48
0.01
100
AcDbLine
 10
7518.599245534798
 20
608.1558750689619
 30
0.0
 11
7510.789824797822
 21
608.1558750689619
 31
0.0
  0
DIMENSION
  5
1C8B
102
{ACAD_XDICTIONARY
360
1C8C
102
}
102
{ACAD_REACTORS
330
1C8D
102
}
330
1F
100
AcDbEntity
  8
0
100
AcDbDimension
280
     0
  2
*D32
 10
7871.831304428052
 20
374.7783773053086
 30
0.0
 11
7814.831304428051
 21
374.7783773053086
 31
0.0
 70
   160
 71
     5
 42
4.595432682795944
 73
     0
 74
     0
 75
     0
  3
N915
100
AcDbAlignedDimension
 13
7876.426737110847
 23
608.1558750689652
 33
0.0
 14
7871.831304428052
 24
423.1500194904035
 34
0.0
100
AcDbRotatedDimension
1001
ACAD
1000
DSTYLE
1002
{
1070
   271
1070
     0
1002
}
  0
DIMENSION
  5
1C8E
102
{ACAD_XDICTIONARY
360
1C8F
102
}
102
{ACAD_REACTORS
330
1C90
102
}
330
1F
100
AcDbEntity
  8
0
100
AcDbDimension
280
     0
  2
*D33
 10
7964.544466040075
 20
608.1558750689654
 30
0.0
 11
7964.544466040075
 21
518.4084848830535
 31
0.0
 70
   160
 71
     5
 42
200.0000000000036
 73
     0
 74
     0
 75
     0
  3
N915
100
AcDbAlignedDimension
 13
7742.575089798958
 23
408.1558750689619
 33
0.0
 14
7896.575089798957
 24
608.1558750689655
 34
0.0
 50
90.0
100
AcDbRotatedDimension
  0
DIMENSION
  5
1C91
102
{ACAD_XDICTIONARY
360
1C92
102
}
102
{ACAD_REACTORS
330
1C93
102
}
330
1F
100
AcDbEntity
  8
0
100
AcDbDimension
280
     0
  2
*D34
 10
7771.619786554111
 20
413.1558750689618
 30
0.0
 11
7771.619786554111
 21
346.1558750689631
 31
0.0
 70
   160
 71
     5
 42
5.0
 73
     0
 74
     0
 75
     0
  3
N915
100
AcDbAlignedDimension
 13
7742.575089798958
 23
408.1558750689619
 33
0.0
 14
7752.575089798956
 24
413.1558750689618
 34
0.0
 50
90.0
100
AcDbRotatedDimension
  0
DIMENSION
  5
1C94
330
1F
100
AcDbEntity
  8
0
100
AcDbDimension
280
     0
  2
*D6
 10
7924.685921617769
 20
423.1500194904038
 30
0.0
 11
7924.685921617769
 21
492.6500194904074
 31
0.0
 70
   160
 71
     5
 42
14.99414442144194
 73
     0
 74
     0
 75
     0
  3
N915
100
AcDbAlignedDimension
 13
7742.575089798958
 23
408.1558750689619
 33
0.0
 14
7871.831304428052
 24
423.1500194904038
 34
0.0
 50
90.0
100
AcDbRotatedDimension
1001
ACAD
1000
DSTYLE
1002
{
1070
   271
1070
     0
1002
}
  0
DIMENSION
  5
1C95
102
{ACAD_XDICTIONARY
360
1C96
102
}
102
{ACAD_REACTORS
330
1C97
102
}
330
1F
100
AcDbEntity
  8
0
100
AcDbDimension
280
     0
  2
*D35
 10
7922.869093958819
 20
608.1558750689655
 30
0.0
 11
7922.869093958819
 21
541.1558750689631
 31
0.0
 70
   160
 71
     5
 42
5.000000000003637
 73
     0
 74
     0
 75
     0
  3
N915
100
AcDbAlignedDimension
 13
7899.575089798957
 23
603.1558750689619
 33
0.0
 14
7896.575089798954
 24
608.1558750689655
 34
0.0
 50
90.0
100
AcDbRotatedDimension
  0
VIEWPORT
  5
73
330
72
100
AcDbEntity
 67
     1
  8
0
100
AcDbViewport
 10
94.99082881936539
 20
171.4920751360736
 30
0.0
 40
327.0249719395562
 41
232.9448814899499
 68
     1
 69
     1
 12
94.99082881936539
 22
171.4920751360736
 13
0.0
 23
0.0
 14
1.0
 24
1.0
 15
10.0
 25
10.0
 16
0.0
 26
0.0
 36
1.0
 17
0.0
 27
0.0
 37
0.0
 42
50.0
 43
0.0
 44
0.0
 45
232.9448814899499
 50
0.0
 51
0.0
 72
  1000
 90
   557408
  1

281
     0
 71
     1
 74
     0
110
0.0
120
0.0
130
0.0
111
1.0
121
0.0
131
0.0
112
0.0
122
1.0
132
0.0
 79
     0
146
0.0
170
     0
 61
     5
348
2B2
292
     1
282
     1
141
0.0
142
0.0
 63
   250
421
  3355443
  0
LWPOLYLINE
  5
1E3
102
{ACAD_REACTORS
330
1E5
102
}
330
72
100
AcDbEntity
 67
     1
  8
图框_视口
100
AcDbPolyline
 90
        5
 70
     1
 43
0.0
 10
5.0
 20
287.0
 10
185.0
 20
287.0
 10
185.0
 20
56.0
 10
5.0
 20
56.0
 10
5.0
 20
287.0
  0
VIEWPORT
  5
1E5
330
72
100
AcDbEntity
 67
     1
  8
图框_视口
100
AcDbViewport
 10
95.0
 20
171.5
 30
0.0
 40
180.0
 41
231.0
 68
     2
 69
     2
 12
210.0
 22
148.5
 13
0.0
 23
0.0
 14
10.0
 24
10.0
 15
10.0
 25
10.0
 16
0.0
 26
0.0
 36
1.0
 17
0.0
 27
0.0
 37
0.0
 42
50.0
 43
0.0
 44
0.0
 45
557.693641618497
 50
0.0
 51
0.0
 72
   100
 90
    98368
340
1E3
  1

281
     0
 71
     1
 74
     0
110
0.0
120
0.0
130
0.0
111
1.0
121
0.0
131
0.0
112
0.0
122
1.0
132
0.0
 79
     0
146
0.0
170
     0
 61
     5
348
2B2
292
     1
282
     1
141
0.0
142
0.0
 63
   250
421
  3355443
  0
ENDSEC
  0
SECTION
  2
OBJECTS
  0
DICTIONARY
  5
C
330
0
100
AcDbDictionary
281
     1
  3
ACAD_CIP_PREVIOUS_PRODUCT_INFO
350
48F5
  3
ACAD_COLOR
350
24E
  3
ACAD_DETAILVIEWSTYLE
350
48E6
  3
ACAD_GROUP
350
D
  3
ACAD_LAYOUT
350
1A
  3
ACAD_MATERIAL
350
24D
  3
ACAD_MLEADERSTYLE
350
48E1
  3
ACAD_MLINESTYLE
350
17
  3
ACAD_PLOTSETTINGS
350
19
  3
ACAD_PLOTSTYLENAME
350
E
  3
ACAD_SCALELIST
350
48CF
  3
ACAD_SECTIONVIEWSTYLE
350
48E3
  3
ACAD_TABLESTYLE
350
27C
  3
ACAD_VISUALSTYLE
350
2AC
  3
ACDB_RECOMPOSE_DATA
350
4920
  3
AcDbVariableDictionary
350
23A
  3
ASE_INDEX_DICTIONARY
350
F8D
  3
lxx_dict
350
30A
  0
DICTIONARY
  5
289
330
2
100
AcDbDictionary
280
     1
281
     1
  3
ACAD_LAYERSTATES
360
28A
  0
DICTIONARY
  5
48F6
330
10
100
AcDbDictionary
280
     1
281
     1
  3
ADSK_XREC_LAYER_RECONCILED
360
48F7
  0
DICTIONARY
  5
48F8
330
194
100
AcDbDictionary
280
     1
281
     1
  3
ADSK_XREC_LAYER_RECONCILED
360
48F9
  0
DICTIONARY
  5
48FA
330
195
100
AcDbDictionary
280
     1
281
     1
  3
ADSK_XREC_LAYER_RECONCILED
360
48FB
  0
DICTIONARY
  5
48FC
330
196
100
AcDbDictionary
280
     1
281
     1
  3
ADSK_XREC_LAYER_RECONCILED
360
48FD
  0
DICTIONARY
  5
48FE
330
197
100
AcDbDictionary
280
     1
281
     1
  3
ADSK_XREC_LAYER_RECONCILED
360
48FF
  0
DICTIONARY
  5
4900
330
198
100
AcDbDictionary
280
     1
281
     1
  3
ADSK_XREC_LAYER_RECONCILED
360
4901
  0
DICTIONARY
  5
4902
330
199
100
AcDbDictionary
280
     1
281
     1
  3
ADSK_XREC_LAYER_RECONCILED
360
4903
  0
DICTIONARY
  5
F99
330
1F
100
AcDbDictionary
280
     1
281
     1
  3
ACAD_SORTENTS
360
F9A
  0
DICTIONARY
  5
1C64
330
1C63
100
AcDbDictionary
280
     1
281
     1
  3
ACAD_DIMASSOC
360
1C65
  0
DICTIONARY
  5
1C67
330
1C66
100
AcDbDictionary
280
     1
281
     1
  3
ACAD_DIMASSOC
360
1C68
  0
DICTIONARY
  5
1C6D
330
1C6C
100
AcDbDictionary
280
     1
281
     1
  3
ACAD_DIMASSOC
360
1C6E
  0
DICTIONARY
  5
1C70
330
1C6F
100
AcDbDictionary
280
     1
281
     1
  3
ACAD_DIMASSOC
360
1C71
  0
DICTIONARY
  5
1C77
330
1C76
100
AcDbDictionary
280
     1
281
     1
  3
ACAD_DIMASSOC
360
1C78
  0
DICTIONARY
  5
1C7B
330
1C7A
100
AcDbDictionary
280
     1
281
     1
  3
ACAD_DIMASSOC
360
1C7C
  0
DICTIONARY
  5
1C8C
330
1C8B
100
AcDbDictionary
280
     1
281
     1
  3
ACAD_DIMASSOC
360
1C8D
  0
DICTIONARY
  5
1C8F
330
1C8E
100
AcDbDictionary
280
     1
281
     1
  3
ACAD_DIMASSOC
360
1C90
  0
DICTIONARY
  5
1C92
330
1C91
100
AcDbDictionary
280
     1
281
     1
  3
ACAD_DIMASSOC
360
1C93
  0
DICTIONARY
  5
1C96
330
1C95
100
AcDbDictionary
280
     1
281
     1
  3
ACAD_DIMASSOC
360
1C97
  0
XRECORD
  5
48F5
102
{ACAD_REACTORS
330
C
102
}
330
C
100
AcDbXrecord
280
     1
300
ACD
300
2017
300
ACD_F_S
  0
DICTIONARY
  5
24E
102
{ACAD_REACTORS
330
C
102
}
330
C
100
AcDbDictionary
281
     1
  0
DICTIONARY
  5
48E6
102
{ACAD_REACTORS
330
C
102
}
330
C
100
AcDbDictionary
281
     1
  3
Metric50
350
48E7
  0
DICTIONARY
  5
D
102
{ACAD_REACTORS
330
C
102
}
330
C
100
AcDbDictionary
281
     1
  0
DICTIONARY
  5
1A
102
{ACAD_REACTORS
330
C
102
}
330
C
100
AcDbDictionary
281
     1
  3
Gb A4 标题栏
350
71
  3
Model
350
22
1001
AcadStringInfo
1000
MIFCodePage
1070
     5
  0
DICTIONARY
  5
24D
102
{ACAD_REACTORS
330
C
102
}
330
C
100
AcDbDictionary
281
     1
  3
ByBlock
350
2AA
  3
ByLayer
350
2A9
  3
Global
350
2AB
  0
DICTIONARY
  5
48E1
102
{ACAD_REACTORS
330
C
102
}
330
C
100
AcDbDictionary
281
     1
  3
Standard
350
48E2
  0
DICTIONARY
  5
17
102
{ACAD_REACTORS
330
C
102
}
330
C
100
AcDbDictionary
281
     1
  3
Standard
350
18
  0
DICTIONARY
  5
19
102
{ACAD_REACTORS
330
C
102
}
330
C
100
AcDbDictionary
281
     1
  0
ACDBDICTIONARYWDFLT
  5
E
102
{ACAD_REACTORS
330
C
102
}
330
C
100
AcDbDictionary
281
     1
  3
Normal
350
F
100
AcDbDictionaryWithDefault
340
F
  0
DICTIONARY
  5
48CF
102
{ACAD_REACTORS
330
C
102
}
330
C
100
AcDbDictionary
281
     1
  3
A0
350
48D0
  3
A1
350
48D1
  3
A2
350
48D2
  3
A3
350
48D3
  3
A4
350
48D4
  3
A5
350
48D5
  3
A6
350
48D6
  3
A7
350
48D7
  3
A8
350
48D8
  3
A9
350
48D9
  3
B0
350
48DA
  3
B1
350
48DB
  3
B2
350
48DC
  3
B3
350
48DD
  3
B4
350
48DE
  3
B5
350
48DF
  3
B6
350
48E0
  0
DICTIONARY
  5
48E3
102
{ACAD_REACTORS
330
C
102
}
330
C
100
AcDbDictionary
281
     1
  3
Metric50
350
48E5
  0
DICTIONARY
  5
27C
102
{ACAD_REACTORS
330
C
102
}
330
C
100
AcDbDictionary
281
     1
  3
Standard
350
27D
  0
DICTIONARY
  5
2AC
102
{ACAD_REACTORS
330
C
102
}
330
C
100
AcDbDictionary
281
     1
  3
2dWireframe
350
2B2
  3
3D Hidden
350
2B4
  3
3dWireframe
350
2B3
  3
Basic
350
2B1
  3
Brighten
350
2B8
  3
ColorChange
350
2BC
  3
Conceptual
350
2B5
  3
Dim
350
2B7
  3
EdgeColorOff
350
48CE
  3
Facepattern
350
2BB
  3
Flat
350
2AD
  3
FlatWithEdges
350
2AE
  3
Gouraud
350
2AF
  3
GouraudWithEdges
350
2B0
  3
Hidden
350
48C6
  3
JitterOff
350
48CC
  3
Linepattern
350
2BA
  3
OverhangOff
350
48CD
  3
Realistic
350
2B6
  3
Shaded
350
48CB
  3
Shaded with edges
350
48CA
  3
Shades of Gray
350
48C7
  3
Sketchy
350
48C8
  3
Thicken
350
2B9
  3
Wireframe
350
48C5
  3
X-Ray
350
48C9
  0
XRECORD
  5
4920
102
{ACAD_REACTORS
330
C
102
}
330
C
100
AcDbXrecord
280
     1
 90
        1
330
27D
330
48E5
330
48E7
  0
DICTIONARY
  5
23A
102
{ACAD_REACTORS
330
C
102
}
330
C
100
AcDbDictionary
281
     1
  3
CANNOSCALE
350
4916
  3
CMLEADERSTYLE
350
4912
  3
CTABLESTYLE
350
290
  3
CVIEWDETAILSTYLE
350
4913
  3
CVIEWSECTIONSTYLE
350
4914
  3
DIMASSOC
350
23C
  3
HIDETEXT
350
23B
  3
LAYEREVAL
350
4918
  3
LAYERNOTIFY
350
4919
  3
LIGHTINGUNITS
350
4917
  3
MSLTSCALE
350
4915
  0
DICTIONARY
  5
F8D
102
{ACAD_REACTORS
330
C
102
}
330
C
100
AcDbDictionary
281
     1
  3
ASEBlockHierarchyIndexRecord
350
F8E
1001
DCO15
1040
1674194785.75
  0
DICTIONARY
  5
30A
102
{ACAD_REACTORS
330
C
102
}
330
C
100
AcDbDictionary
281
     1
  3
lxx_dimth
350
30B
  0
DICTIONARY
  5
28A
102
{ACAD_REACTORS
330
289
102
}
330
289
100
AcDbDictionary
281
     1
  0
XRECORD
  5
48F7
102
{ACAD_REACTORS
330
48F6
102
}
330
48F6
100
AcDbXrecord
280
     1
290
     1
  0
XRECORD
  5
48F9
102
{ACAD_REACTORS
330
48F8
102
}
330
48F8
100
AcDbXrecord
280
     1
290
     1
  0
XRECORD
  5
48FB
102
{ACAD_REACTORS
330
48FA
102
}
330
48FA
100
AcDbXrecord
280
     1
290
     1
  0
XRECORD
  5
48FD
102
{ACAD_REACTORS
330
48FC
102
}
330
48FC
100
AcDbXrecord
280
     1
290
     1
  0
XRECORD
  5
48FF
102
{ACAD_REACTORS
330
48FE
102
}
330
48FE
100
AcDbXrecord
280
     1
290
     1
  0
XRECORD
  5
4901
102
{ACAD_REACTORS
330
4900
102
}
330
4900
100
AcDbXrecord
280
     1
290
     1
  0
XRECORD
  5
4903
102
{ACAD_REACTORS
330
4902
102
}
330
4902
100
AcDbXrecord
280
     1
290
     1
  0
SORTENTSTABLE
  5
F9A
102
{ACAD_REACTORS
330
F99
102
}
330
F99
100
AcDbSortentsTable
330
1F
331
1C3F
  5
1C44
331
1C76
  5
1C83
331
1C72
  5
1C79
331
1C6A
  5
1C73
331
1C66
  5
1C6F
331
1C62
  5
1C6B
331
1C5F
  5
1C66
331
1C5B
  5
1C60
331
1C57
  5
1C5C
331
1C53
  5
1C58
331
1C95
  5
1C9C
331
1C91
  5
1C9A
331
1C89
  5
1C94
331
1C4F
  5
1C54
331
1C4B
  5
1C50
331
1C47
  5
1C4C
331
1C43
  5
1C48
331
1C85
  5
1C8A
331
1C79
  5
1C84
331
1C73
  5
1C7A
331
1C6F
  5
1C76
331
1C6B
  5
1C74
331
1C63
  5
1C6C
331
1C5C
  5
1C61
331
1C58
  5
1C5D
331
1C54
  5
1C59
331
1C50
  5
1C55
331
1C8E
  5
1C99
331
1C8A
  5
1C95
331
1C4C
  5
1C51
331
1C48
  5
1C4D
331
1C44
  5
1C49
331
1C40
  5
1C45
331
1C86
  5
1C8B
331
1C7A
  5
1C85
331
1C74
  5
1C7D
331
1C6C
  5
1C75
331
1C60
  5
1C69
331
1C5D
  5
1C62
331
1C59
  5
1C5E
331
1C55
  5
1C5A
331
1C51
  5
1C56
331
1C8B
  5
1C98
331
1C4D
  5
1C52
331
1C49
  5
1C4E
331
1C45
  5
1C4A
331
1C41
  5
1C46
331
1C87
  5
1C8E
331
1C83
  5
1C88
331
1C3E
  5
1C43
331
1C75
  5
1C80
331
1C69
  5
1C72
331
1C61
  5
1C6A
331
1C5E
  5
1C63
331
1C5A
  5
1C5F
331
1C56
  5
1C5B
331
1C52
  5
1C57
331
1C94
  5
1C9B
331
1C88
  5
1C91
331
1C4E
  5
1C53
331
1C4A
  5
1C4F
331
1C46
  5
1C4B
331
1C42
  5
1C47
331
1C84
  5
1C89
  0
DIMASSOC
  5
1C65
102
{ACAD_REACTORS
330
1C64
102
}
330
1C64
100
AcDbDimAssoc
330
1C63
 90
        2
 70
     0
 71
     0
  1
AcDbOsnapPointRef
 72
     1
331
1C61
 73
     2
 91
        0
 40
1.0
 10
0.0
 20
0.0
 30
2.000000000000000E+50
 75
     0
  0
DIMASSOC
  5
1C68
102
{ACAD_REACTORS
330
1C67
102
}
330
1C67
100
AcDbDimAssoc
330
1C66
 90
        3
 70
     0
 71
     0
  1
AcDbOsnapPointRef
 72
     1
331
1C59
 73
     2
 91
        0
 40
1.0
 10
0.0
 20
0.0
 30
2.000000000000000E+50
 75
     0
  1
AcDbOsnapPointRef
 72
     8
331
1C57
 73
     2
 91
        0
 40
0.9999999999999863
 10
0.0
 20
0.0
 30
0.0
 75
     1
  1
AcDbOsnapPointRef
 72
     1
331
1C59
 73
     2
 91
        0
 40
1.0
 10
0.0
 20
0.0
 30
2.000000000000000E+50
 75
     0
  0
DIMASSOC
  5
1C6E
102
{ACAD_REACTORS
330
1C6D
102
}
330
1C6D
100
AcDbDimAssoc
330
1C6C
 90
        2
 70
     0
 71
     0
  1
AcDbOsnapPointRef
 72
     3
331
1C49
 73
     2
 91
        0
 40
0.0
 10
0.0
 20
0.0
 30
0.0
 75
     0
  0
DIMASSOC
  5
1C71
102
{ACAD_REACTORS
330
1C70
102
}
330
1C70
100
AcDbDimAssoc
330
1C6F
 90
        2
 70
     0
 71
     0
  1
AcDbOsnapPointRef
 72
     3
331
1C46
 73
     2
 91
        0
 40
0.0
 10
0.0
 20
0.0
 30
0.0
 75
     0
  0
DIMASSOC
  5
1C78
102
{ACAD_REACTORS
330
1C77
102
}
330
1C77
100
AcDbDimAssoc
330
1C76
 90
        3
 70
     0
 71
     0
  1
AcDbOsnapPointRef
 72
    13
331
1C43
 73
     2
 91
        0
 40
4.712388980384689
 10
0.0
 20
0.0
 30
2.000000000000000E+50
 75
     0
  1
AcDbOsnapPointRef
 72
     1
331
1C47
 73
     2
 91
        0
 40
1.570796326794896
 10
0.0
 20
0.0
 30
2.000000000000000E+50
 75
     0
  0
DIMASSOC
  5
1C7C
102
{ACAD_REACTORS
330
1C7B
102
}
330
1C7B
100
AcDbDimAssoc
330
1C7A
 90
        2
 70
     0
 71
     0
  1
AcDbOsnapPointRef
 72
     3
331
1C51
 73
     2
 91
        0
 40
0.0
 10
0.0
 20
0.0
 30
0.0
 75
     0
  0
DIMASSOC
  5
1C8D
102
{ACAD_REACTORS
330
1C8C
102
}
330
1C8C
100
AcDbDimAssoc
330
1C8B
 90
        3
 70
     0
 71
     0
  1
AcDbOsnapPointRef
 72
    11
331
1C87
 73
     2
 91
        0
 40
0.9999999999981355
 10
0.0
 20
0.0
 30
0.0
332
1C3E
 74
     2
 92
        0
 75
     0
  1
AcDbOsnapPointRef
 72
    13
331
1C84
 73
     2
 91
        0
 40
0.0
 10
0.0
 20
0.0
 30
2.000000000000000E+50
 75
     0
  0
DIMASSOC
  5
1C90
102
{ACAD_REACTORS
330
1C8F
102
}
330
1C8F
100
AcDbDimAssoc
330
1C8E
 90
        3
 70
     0
 71
     0
  1
AcDbOsnapPointRef
 72
     1
331
1C56
 73
     2
 91
        0
 40
0.9999999999999998
 10
0.0
 20
0.0
 30
2.000000000000000E+50
 75
     0
  1
AcDbOsnapPointRef
 72
    13
331
1C3E
 73
     2
 91
        0
 40
0.0
 10
0.0
 20
0.0
 30
2.000000000000000E+50
 75
     0
  0
DIMASSOC
  5
1C93
102
{ACAD_REACTORS
330
1C92
102
}
330
1C92
100
AcDbDimAssoc
330
1C91
 90
        2
 70
     0
 71
     0
  1
AcDbOsnapPointRef
 72
     1
331
1C60
 73
     2
 91
        0
 40
1.0
 10
0.0
 20
0.0
 30
2.000000000000000E+50
 75
     0
  0
DIMASSOC
  5
1C97
102
{ACAD_REACTORS
330
1C96
102
}
330
1C96
100
AcDbDimAssoc
330
1C95
 90
        3
 70
     0
 71
     0
  1
AcDbOsnapPointRef
 72
    13
331
1C79
 73
     2
 91
        0
 40
0.0
 10
0.0
 20
0.0
 30
2.000000000000000E+50
 75
     0
  1
AcDbOsnapPointRef
 72
    11
331
1C79
 73
     2
 91
        0
 40
1.0
 10
0.0
 20
0.0
 30
0.0
332
1C3E
 74
     2
 92
        0
 75
     0
  0
ACDBDETAILVIEWSTYLE
  5
48E7
102
{ACAD_XDICTIONARY
360
491E
102
}
102
{ACAD_REACTORS
330
48E6
102
}
330
48E6
100
AcDbModelDocViewStyle
 70
     0
  3
Metric50
290
     0
100
AcDbDetailViewStyle
 70
     0
 71
     0
 90
        3
 71
     1
340
11
 62
   256
 40
5.0
340
0
 62
   256
 40
5.0
300

 40
0.0
280
     1
 71
     2
340
16
 90
       25
 62
   256
 71
     3
340
11
 62
   256
 40
5.0
 90
        0
 40
15.0
 90
        1
300
%<\AcVar ViewDetailId>% (%<\AcVar ViewScale \f "%sn">%)
 71
     4
340
16
 90
       25
 62
   256
340
16
 90
       25
 62
   256
280
     0
  0
LAYOUT
  5
71
102
{ACAD_XDICTIONARY
360
28C
102
}
102
{ACAD_REACTORS
330
1A
102
}
330
1A
100
AcDbPlotSettings
  1

  2
none_device
  4
none_user_media
  6

 40
3.96875
 41
16.66873168945312
 42
3.175003051757812
 43
9.965972900390625
 44
210.0438842773438
 45
296.8977661132813
 46
0.0033180722678026
 47
63.39422423475372
 48
0.0
 49
0.0
140
0.0
141
0.0
142
1.0
143
1.463931392077999
 70
   692
 72
     1
 73
     1
 74
     1
  7

 75
     0
147
0.6830921212643269
 76
     0
 77
     2
 78
   300
148
20.02395427876752
149
5.011816723367587
100
AcDbLayout
  1
Gb A4 标题栏
 70
     1
 71
     1
 10
-127.4182497939359
 20
-10.82665186583117
 11
307.2197102571284
 21
296.663184041771
 12
0.0
 22
0.0
 32
0.0
 14
4.97734458046716
 24
55.97694212324916
 34
-0.0015258207003583
 15
185.0043130582636
 25
287.0072081488981
 35
0.0000000349246037
146
0.0
 13
0.0
 23
0.0
 33
0.0
 16
1.0
 26
0.0
 36
0.0
 17
0.0
 27
1.0
 37
0.0
 76
     0
330
72
331
73
1001
AcadStringInfo
1000
MIFCodePage
1070
     5
  0
LAYOUT
  5
22
102
{ACAD_REACTORS
330
1A
102
}
330
1A
100
AcDbPlotSettings
  1

  2
none_device
  4
Letter_(8.50_x_11.00_Inches)
  6

 40
6.349999904632568
 41
6.349999904632568
 42
6.350006103515625
 43
6.350006103515625
 44
215.8999938964844
 45
279.3999938964844
 46
0.0
 47
0.0
 48
0.0
 49
0.0
140
0.0
141
0.0
142
1.0
143
1.0
 70
 11956
 72
     1
 73
     1
 74
     1
  7

 75
     0
147
1.0
 76
     0
 77
     2
 78
   300
148
-76.89329353605074
149
0.0
100
AcDbLayout
  1
Model
 70
     1
 71
     0
 10
0.0
 20
0.0
 11
12.0
 21
9.0
 12
0.0
 22
0.0
 32
0.0
 14
0.0
 24
0.0
 34
0.0
 15
0.0
 25
0.0
 35
0.0
146
0.0
 13
0.0
 23
0.0
 33
0.0
 16
1.0
 26
0.0
 36
0.0
 17
0.0
 27
1.0
 37
0.0
 76
     0
330
1F
331
28F
  0
MATERIAL
  5
2AA
102
{ACAD_REACTORS
330
24D
102
}
330
24D
100
AcDbMaterial
  1
ByBlock
 73
     1
 78
     1
172
     1
176
     1
270
     1
274
     1
 94
       63
  0
MATERIAL
  5
2A9
102
{ACAD_REACTORS
330
24D
102
}
330
24D
100
AcDbMaterial
  1
ByLayer
 73
     1
 78
     1
172
     1
176
     1
270
     1
274
     1
 94
       63
  0
MATERIAL
  5
2AB
102
{ACAD_REACTORS
330
24D
102
}
330
24D
100
AcDbMaterial
  1
Global
 73
     1
 78
     1
172
     1
176
     1
270
     1
274
     1
 94
       63
  0
MLEADERSTYLE
  5
48E2
102
{ACAD_REACTORS
330
48E1
102
}
330
48E1
100
AcDbMLeaderStyle
179
     2
170
     2
171
     1
172
     0
 90
        2
 40
0.0
 41
0.0
173
     1
 91
-1056964608
340
14
 92
       -2
290
     1
 42
2.0
291
     1
 43
0.36
  3
Standard
 44
4.0
300

342
11
174
     1
178
     6
175
     1
176
     0
 93
-1056964608
 45
4.0
292
     0
297
     0
 46
4.0
 94
-1056964608
 47
1.0
 49
1.0
140
1.0
293
     1
141
0.0
294
     1
177
     0
142
1.0
295
     1
296
     0
143
0.125
271
     0
272
     9
273
     9
298
     1
  0
MLINESTYLE
  5
18
102
{ACAD_REACTORS
330
17
102
}
330
17
100
AcDbMlineStyle
  2
STANDARD
 70
     0
  3

 62
   256
 51
90.0
 52
90.0
 71
     2
 49
0.5
 62
   256
  6
BYLAYER
 49
-0.5
 62
   256
  6
BYLAYER
  0
ACDBPLACEHOLDER
  5
F
102
{ACAD_REACTORS
330
E
102
}
330
E
  0
SCALE
  5
48D0
102
{ACAD_REACTORS
330
48CF
102
}
330
48CF
100
AcDbScale
 70
     0
300
1:1
140
1.0
141
1.0
290
     1
  0
SCALE
  5
48D1
102
{ACAD_REACTORS
330
48CF
102
}
330
48CF
100
AcDbScale
 70
     0
300
1:2
140
1.0
141
2.0
290
     0
  0
SCALE
  5
48D2
102
{ACAD_REACTORS
330
48CF
102
}
330
48CF
100
AcDbScale
 70
     0
300
1:4
140
1.0
141
4.0
290
     0
  0
SCALE
  5
48D3
102
{ACAD_REACTORS
330
48CF
102
}
330
48CF
100
AcDbScale
 70
     0
300
1:5
140
1.0
141
5.0
290
     0
  0
SCALE
  5
48D4
102
{ACAD_REACTORS
330
48CF
102
}
330
48CF
100
AcDbScale
 70
     0
300
1:8
140
1.0
141
8.0
290
     0
  0
SCALE
  5
48D5
102
{ACAD_REACTORS
330
48CF
102
}
330
48CF
100
AcDbScale
 70
     0
300
1:10
140
1.0
141
10.0
290
     0
  0
SCALE
  5
48D6
102
{ACAD_REACTORS
330
48CF
102
}
330
48CF
100
AcDbScale
 70
     0
300
1:16
140
1.0
141
16.0
290
     0
  0
SCALE
  5
48D7
102
{ACAD_REACTORS
330
48CF
102
}
330
48CF
100
AcDbScale
 70
     0
300
1:20
140
1.0
141
20.0
290
     0
  0
SCALE
  5
48D8
102
{ACAD_REACTORS
330
48CF
102
}
330
48CF
100
AcDbScale
 70
     0
300
1:30
140
1.0
141
30.0
290
     0
  0
SCALE
  5
48D9
102
{ACAD_REACTORS
330
48CF
102
}
330
48CF
100
AcDbScale
 70
     0
300
1:40
140
1.0
141
40.0
290
     0
  0
SCALE
  5
48DA
102
{ACAD_REACTORS
330
48CF
102
}
330
48CF
100
AcDbScale
 70
     0
300
1:50
140
1.0
141
50.0
290
     0
  0
SCALE
  5
48DB
102
{ACAD_REACTORS
330
48CF
102
}
330
48CF
100
AcDbScale
 70
     0
300
1:100
140
1.0
141
100.0
290
     0
  0
SCALE
  5
48DC
102
{ACAD_REACTORS
330
48CF
102
}
330
48CF
100
AcDbScale
 70
     0
300
2:1
140
2.0
141
1.0
290
     0
  0
SCALE
  5
48DD
102
{ACAD_REACTORS
330
48CF
102
}
330
48CF
100
AcDbScale
 70
     0
300
4:1
140
4.0
141
1.0
290
     0
  0
SCALE
  5
48DE
102
{ACAD_REACTORS
330
48CF
102
}
330
48CF
100
AcDbScale
 70
     0
300
8:1
140
8.0
141
1.0
290
     0
  0
SCALE
  5
48DF
102
{ACAD_REACTORS
330
48CF
102
}
330
48CF
100
AcDbScale
 70
     0
300
10:1
140
10.0
141
1.0
290
     0
  0
SCALE
  5
48E0
102
{ACAD_REACTORS
330
48CF
102
}
330
48CF
100
AcDbScale
 70
     0
300
100:1
140
100.0
141
1.0
290
     0
  0
ACDBSECTIONVIEWSTYLE
  5
48E5
102
{ACAD_XDICTIONARY
360
491C
102
}
102
{ACAD_REACTORS
330
48E3
102
}
330
48E3
100
AcDbModelDocViewStyle
 70
     0
  3
Metric50
290
     0
100
AcDbSectionViewStyle
 70
     0
 71
     0
 90
      102
 71
     1
340
11
 62
   256
 40
5.0
340
0
340
0
 62
   256
 40
5.0
300
I, O, Q, S, X, Z
 40
10.0
 90
        0
 40
2.5
 90
        0
 71
     2
340
16
 90
       25
 62
   256
340
16
 90
       50
 62
   256
 40
5.0
 40
2.5
 40
5.0
 71
     3
340
11
 62
   256
 40
5.0
 90
        0
 40
15.0
 90
        1
300
%<\AcVar ViewSectionStartId>%-%<\AcVar ViewSectionEndId>% (%<\AcVar ViewScale \f "%sn">%)
 71
     4
 62
   256
 62
   257
300
ANSI31
 40
1.0
 90
        0
290
     0
290
     0
 90
        6
 40
0.0
 40
1.570796326794896
 40
0.2617993877991494
 40
1.308996938995747
 40
-0.2617993877991494
 40
1.832595714594046
  0
TABLESTYLE
  5
27D
102
{ACAD_XDICTIONARY
360
491A
102
}
102
{ACAD_REACTORS
330
27C
102
}
330
27C
100
AcDbTableStyle
280
     0
  3
Standard
 70
     0
 71
     0
 40
1.5
 41
1.5
280
     0
281
     0
  7
Standard
140
4.5
170
     2
 62
     0
 63
     7
283
     0
 90
      512
 91
        0
  1

274
    -2
284
     1
 64
     0
275
    -2
285
     1
 65
     0
276
    -2
286
     1
 66
     0
277
    -2
287
     1
 67
     0
278
    -2
288
     1
 68
     0
279
    -2
289
     1
 69
     0
  7
Standard
140
6.0
170
     5
 62
     0
 63
     7
283
     0
 90
      512
 91
        0
  1

274
    -2
284
     1
 64
     0
275
    -2
285
     1
 65
     0
276
    -2
286
     1
 66
     0
277
    -2
287
     1
 67
     0
278
    -2
288
     1
 68
     0
279
    -2
289
     1
 69
     0
  7
Standard
140
4.5
170
     5
 62
     0
 63
     7
283
     0
 90
      512
 91
        0
  1

274
    -2
284
     1
 64
     0
275
    -2
285
     1
 65
     0
276
    -2
286
     1
 66
     0
277
    -2
287
     1
 67
     0
278
    -2
288
     1
 68
     0
279
    -2
289
     1
 69
     0
  0
VISUALSTYLE
  5
2B2
102
{ACAD_REACTORS
330
2AC
102
}
330
2AC
100
AcDbVisualStyle
  2
2dWireframe
 70
     4
177
     3
291
     0
 70
    58
 90
        0
176
     1
 90
        2
176
     1
 90
        1
176
     1
 90
        0
176
     1
 40
0.6
176
     1
 40
30.0
176
     1
 62
     7
420
 16777215
176
     1
 90
        1
176
     1
 90
        4
176
     1
 62
     7
176
     1
 62
   257
176
     1
 90
        1
176
     1
 90
        1
176
     1
 40
1.0
176
     1
 90
        0
176
     1
 62
   257
176
     1
 40
1.0
176
     1
 90
        1
176
     1
 90
        6
176
     1
 90
        2
176
     1
 62
     7
176
     1
 90
        5
176
     1
 90
        0
176
     1
 90
        0
176
     1
290
     0
176
     1
 90
        1
176
     1
 40
0.0
176
     1
 90
        0
176
     1
290
     1
176
     1
290
     1
176
     1
290
     0
176
     1
290
     0
176
     1
290
     0
176
     1
290
     0
176
     1
290
     0
176
     1
290
     0
176
     1
290
     0
176
     1
 90
       50
176
     1
 40
0.0
176
     1
 40
1.0
176
     1
 90
        0
176
     1
 62
    18
420
        0
176
     1
 90
       50
176
     1
 90
        3
176
     1
 62
     5
420
      255
176
     1
290
     0
176
     1
 90
       50
176
     1
 90
       50
176
     1
 90
       50
176
     1
290
     0
176
     1
 90
       50
176
     1
 62
   256
176
     0
 40
1.0
176
     0
 90
        2
176
     1
  1
strokes_ogs.tif
176
     1
290
     0
176
     1
 40
1.0
176
     1
 40
1.0
176
     1
  0
VISUALSTYLE
  5
2B4
102
{ACAD_REACTORS
330
2AC
102
}
330
2AC
100
AcDbVisualStyle
  2
3D Hidden
 70
     6
177
     3
291
     0
 70
    58
 90
        1
176
     1
 90
        2
176
     1
 90
        2
176
     1
 90
        0
176
     1
 40
0.6
176
     1
 40
30.0
176
     1
 62
     7
420
 16777215
176
     1
 90
        2
176
     1
 90
        2
176
     1
 62
     7
176
     1
 62
   257
176
     1
 90
        2
176
     1
 90
        1
176
     1
 40
40.0
176
     1
 90
        0
176
     1
 62
   257
176
     1
 40
1.0
176
     1
 90
        1
176
     1
 90
        6
176
     1
 90
        2
176
     1
 62
     7
176
     1
 90
        3
176
     1
 90
        0
176
     1
 90
        0
176
     1
290
     0
176
     1
 90
        1
176
     1
 40
0.0
176
     1
 90
        0
176
     1
290
     0
176
     1
290
     1
176
     1
290
     1
176
     1
290
     0
176
     1
290
     0
176
     1
290
     0
176
     1
290
     0
176
     1
290
     0
176
     1
290
     0
176
     1
 90
       50
176
     1
 40
0.0
176
     1
 40
1.0
176
     1
 90
        0
176
     1
 62
    18
420
        0
176
     1
 90
       50
176
     1
 90
        3
176
     1
 62
     5
420
      255
176
     1
290
     0
176
     1
 90
       50
176
     1
 90
       50
176
     1
 90
       50
176
     1
290
     0
176
     1
 90
       50
176
     1
 62
   256
176
     0
 40
1.0
176
     0
 90
        2
176
     1
  1
strokes_ogs.tif
176
     1
290
     0
176
     1
 40
1.0
176
     1
 40
1.0
176
     1
  0
VISUALSTYLE
  5
2B3
102
{ACAD_REACTORS
330
2AC
102
}
330
2AC
100
AcDbVisualStyle
  2
3dWireframe
 70
     5
177
     3
291
     0
 70
    58
 90
        0
176
     1
 90
        2
176
     1
 90
        1
176
     1
 90
        0
176
     1
 40
0.6
176
     1
 40
30.0
176
     1
 62
     7
420
 16777215
176
     1
 90
        1
176
     1
 90
        4
176
     1
 62
     7
176
     1
 62
   257
176
     1
 90
        1
176
     1
 90
        1
176
     1
 40
1.0
176
     1
 90
        0
176
     1
 62
   257
176
     1
 40
1.0
176
     1
 90
        1
176
     1
 90
        6
176
     1
 90
        2
176
     1
 62
     7
176
     1
 90
        5
176
     1
 90
        0
176
     1
 90
        0
176
     1
290
     0
176
     1
 90
        1
176
     1
 40
0.0
176
     1
 90
        0
176
     1
290
     0
176
     1
290
     1
176
     1
290
     1
176
     1
290
     0
176
     1
290
     0
176
     1
290
     0
176
     1
290
     0
176
     1
290
     0
176
     1
290
     0
176
     1
 90
       50
176
     1
 40
0.0
176
     1
 40
1.0
176
     1
 90
        0
176
     1
 62
    18
420
        0
176
     1
 90
       50
176
     1
 90
        3
176
     1
 62
     5
420
      255
176
     1
290
     0
176
     1
 90
       50
176
     1
 90
       50
176
     1
 90
       50
176
     1
290
     0
176
     1
 90
       50
176
     1
 62
   256
176
     0
 40
1.0
176
     0
 90
        2
176
     1
  1
strokes_ogs.tif
176
     1
290
     0
176
     1
 40
1.0
176
     1
 40
1.0
176
     1
  0
VISUALSTYLE
  5
2B1
102
{ACAD_REACTORS
330
2AC
102
}
330
2AC
100
AcDbVisualStyle
  2
Basic
 70
     7
177
     3
291
     1
 70
    58
 90
        1
176
     1
 90
        0
176
     1
 90
        1
176
     1
 90
        0
176
     1
 40
0.6
176
     1
 40
30.0
176
     1
 62
     7
420
 16777215
176
     1
 90
        0
176
     1
 90
        4
176
     1
 62
     7
176
     1
 62
   257
176
     1
 90
        1
176
     1
 90
        1
176
     1
 40
1.0
176
     1
 90
        8
176
     1
 62
     7
176
     1
 40
1.0
176
     1
 90
        1
176
     1
 90
        6
176
     1
 90
        2
176
     1
 62
     7
176
     1
 90
        5
176
     1
 90
        0
176
     1
 90
        0
176
     1
290
     0
176
     1
 90
        1
176
     1
 40
0.0
176
     1
 90
        0
176
     1
290
     0
176
     1
290
     1
176
     1
290
     1
176
     1
290
     0
176
     1
290
     0
176
     1
290
     0
176
     1
290
     0
176
     1
290
     0
176
     1
290
     0
176
     1
 90
       50
176
     1
 40
0.0
176
     1
 40
1.0
176
     1
 90
        0
176
     1
 62
    18
420
        0
176
     1
 90
       50
176
     1
 90
        3
176
     1
 62
     5
420
      255
176
     1
290
     0
176
     1
 90
       50
176
     1
 90
       50
176
     1
 90
       50
176
     1
290
     0
176
     1
 90
       50
176
     1
 62
   256
176
     0
 40
1.0
176
     0
 90
        2
176
     1
  1
strokes_ogs.tif
176
     1
290
     0
176
     1
 40
1.0
176
     1
 40
1.0
176
     1
  0
VISUALSTYLE
  5
2B8
102
{ACAD_REACTORS
330
2AC
102
}
330
2AC
100
AcDbVisualStyle
  2
Brighten
 70
    12
177
     3
291
     1
 70
    58
 90
        2
176
     1
 90
        2
176
     1
 90
        1
176
     1
 90
        0
176
     1
 40
0.6
176
     1
 40
30.0
176
     1
 62
     7
420
 16777215
176
     1
 90
        1
176
     1
 90
        4
176
     1
 62
     7
176
     1
 62
   257
176
     1
 90
        1
176
     1
 90
        1
176
     1
 40
1.0
176
     1
 90
        8
176
     1
 62
     7
176
     1
 40
1.0
176
     1
 90
        1
176
     1
 90
        6
176
     1
 90
        2
176
     1
 62
     7
176
     1
 90
        5
176
     1
 90
        0
176
     1
 90
        0
176
     1
290
     0
176
     1
 90
        1
176
     1
 40
50.0
176
     1
 90
        0
176
     1
290
     0
176
     1
290
     1
176
     1
290
     1
176
     1
290
     0
176
     1
290
     0
176
     1
290
     0
176
     1
290
     0
176
     1
290
     0
176
     1
290
     0
176
     1
 90
       50
176
     1
 40
0.0
176
     1
 40
1.0
176
     1
 90
        0
176
     1
 62
    18
420
        0
176
     1
 90
       50
176
     1
 90
        3
176
     1
 62
     5
420
      255
176
     1
290
     0
176
     1
 90
       50
176
     1
 90
       50
176
     1
 90
       50
176
     1
290
     0
176
     1
 90
       50
176
     1
 62
   256
176
     0
 40
1.0
176
     0
 90
        2
176
     1
  1
strokes_ogs.tif
176
     1
290
     0
176
     1
 40
1.0
176
     1
 40
1.0
176
     1
  0
VISUALSTYLE
  5
2BC
102
{ACAD_REACTORS
330
2AC
102
}
330
2AC
100
AcDbVisualStyle
  2
ColorChange
 70
    16
177
     3
291
     1
 70
    58
 90
        2
176
     1
 90
        2
176
     1
 90
        3
176
     1
 90
        0
176
     1
 40
0.6
176
     1
 40
30.0
176
     1
 62
     8
420
  8421504
176
     1
 90
        1
176
     1
 90
        4
176
     1
 62
     7
176
     1
 62
   257
176
     1
 90
        1
176
     1
 90
        1
176
     1
 40
1.0
176
     1
 90
        8
176
     1
 62
     8
420
  8421504
176
     1
 40
1.0
176
     1
 90
        1
176
     1
 90
        6
176
     1
 90
        2
176
     1
 62
     7
176
     1
 90
        5
176
     1
 90
        0
176
     1
 90
        0
176
     1
290
     0
176
     1
 90
        1
176
     1
 40
0.0
176
     1
 90
        0
176
     1
290
     0
176
     1
290
     1
176
     1
290
     1
176
     1
290
     0
176
     1
290
     0
176
     1
290
     0
176
     1
290
     0
176
     1
290
     0
176
     1
290
     0
176
     1
 90
       50
176
     1
 40
0.0
176
     1
 40
1.0
176
     1
 90
        0
176
     1
 62
    18
420
        0
176
     1
 90
       50
176
     1
 90
        3
176
     1
 62
     5
420
      255
176
     1
290
     0
176
     1
 90
       50
176
     1
 90
       50
176
     1
 90
       50
176
     1
290
     0
176
     1
 90
       50
176
     1
 62
   256
176
     0
 40
1.0
176
     0
 90
        2
176
     1
  1
strokes_ogs.tif
176
     1
290
     0
176
     1
 40
1.0
176
     1
 40
1.0
176
     1
  0
VISUALSTYLE
  5
2B5
102
{ACAD_REACTORS
330
2AC
102
}
330
2AC
100
AcDbVisualStyle
  2
Conceptual
 70
     9
177
     3
291
     0
 70
    58
 90
        3
176
     1
 90
        2
176
     1
 90
        1
176
     1
 90
        0
176
     1
 40
0.6
176
     1
 40
30.0
176
     1
 62
     7
420
 16777215
176
     1
 90
        2
176
     1
 90
        2
176
     1
 62
     7
176
     1
 62
   257
176
     1
 90
        1
176
     1
 90
        1
176
     1
 40
40.0
176
     1
 90
        8
176
     1
 62
     7
176
     1
 40
1.0
176
     1
 90
        1
176
     1
 90
        6
176
     1
 90
        2
176
     1
 62
     7
176
     1
 90
        3
176
     1
 90
        0
176
     1
 90
        0
176
     1
290
     0
176
     1
 90
        1
176
     1
 40
0.0
176
     1
 90
        0
176
     1
290
     0
176
     1
290
     1
176
     1
290
     1
176
     1
290
     0
176
     1
290
     0
176
     1
290
     0
176
     1
290
     0
176
     1
290
     0
176
     1
290
     0
176
     1
 90
       50
176
     1
 40
0.0
176
     1
 40
1.0
176
     1
 90
        0
176
     1
 62
    18
420
        0
176
     1
 90
       50
176
     1
 90
        3
176
     1
 62
     5
420
      255
176
     1
290
     0
176
     1
 90
       50
176
     1
 90
       50
176
     1
 90
       50
176
     1
290
     0
176
     1
 90
       50
176
     1
 62
   256
176
     0
 40
1.0
176
     0
 90
        2
176
     1
  1
strokes_ogs.tif
176
     1
290
     0
176
     1
 40
1.0
176
     1
 40
1.0
176
     1
  0
VISUALSTYLE
  5
2B7
102
{ACAD_REACTORS
330
2AC
102
}
330
2AC
100
AcDbVisualStyle
  2
Dim
 70
    11
177
     3
291
     1
 70
    58
 90
        2
176
     1
 90
        2
176
     1
 90
        1
176
     1
 90
        0
176
     1
 40
0.6
176
     1
 40
30.0
176
     1
 62
     7
420
 16777215
176
     1
 90
        1
176
     1
 90
        4
176
     1
 62
     7
176
     1
 62
   257
176
     1
 90
        1
176
     1
 90
        1
176
     1
 40
1.0
176
     1
 90
        8
176
     1
 62
     7
176
     1
 40
1.0
176
     1
 90
        1
176
     1
 90
        6
176
     1
 90
        2
176
     1
 62
     7
176
     1
 90
        5
176
     1
 90
        0
176
     1
 90
        0
176
     1
290
     0
176
     1
 90
        1
176
     1
 40
-50.0
176
     1
 90
        0
176
     1
290
     0
176
     1
290
     1
176
     1
290
     1
176
     1
290
     0
176
     1
290
     0
176
     1
290
     0
176
     1
290
     0
176
     1
290
     0
176
     1
290
     0
176
     1
 90
       50
176
     1
 40
0.0
176
     1
 40
1.0
176
     1
 90
        0
176
     1
 62
    18
420
        0
176
     1
 90
       50
176
     1
 90
        3
176
     1
 62
     5
420
      255
176
     1
290
     0
176
     1
 90
       50
176
     1
 90
       50
176
     1
 90
       50
176
     1
290
     0
176
     1
 90
       50
176
     1
 62
   256
176
     0
 40
1.0
176
     0
 90
        2
176
     1
  1
strokes_ogs.tif
176
     1
290
     0
176
     1
 40
1.0
176
     1
 40
1.0
176
     1
  0
VISUALSTYLE
  5
48CE
102
{ACAD_REACTORS
330
2AC
102
}
330
2AC
100
AcDbVisualStyle
  2
EdgeColorOff
 70
    22
177
     3
291
     1
 70
    58
 90
        2
176
     0
 90
        2
176
     0
 90
        0
176
     0
 90
        0
176
     0
 40
0.6
176
     0
 40
30.0
176
     0
 62
     7
420
 16777215
176
     0
 90
        1
176
     0
 90
        4
176
     0
 62
     7
176
     0
 62
   257
176
     0
 90
        1
176
     0
 90
        1
176
     0
 40
1.0
176
     0
 90
        8
176
     2
 62
     7
176
     0
 40
1.0
176
     0
 90
        1
176
     0
 90
        6
176
     0
 90
        2
176
     0
 62
     7
176
     0
 90
        5
176
     0
 90
        0
176
     0
 90
        0
176
     0
290
     0
176
     0
 90
        1
176
     0
 40
0.0
176
     0
 90
        0
176
     0
290
     0
176
     0
290
     1
176
     0
290
     1
176
     0
290
     0
176
     0
290
     0
176
     0
290
     0
176
     0
290
     0
176
     0
290
     0
176
     0
290
     0
176
     0
 90
       50
176
     0
 40
0.0
176
     0
 40
1.0
176
     0
 90
        0
176
     0
 62
    18
420
        0
176
     0
 90
       50
176
     0
 90
        3
176
     0
 62
     5
420
      255
176
     0
290
     0
176
     0
 90
       50
176
     0
 90
       50
176
     0
 90
       50
176
     0
290
     0
176
     0
 90
       50
176
     0
 62
   256
176
     0
 40
1.0
176
     0
 90
        2
176
     0
  1
strokes_ogs.tif
176
     0
290
     0
176
     0
 40
1.0
176
     0
 40
1.0
176
     0
  0
VISUALSTYLE
  5
2BB
102
{ACAD_REACTORS
330
2AC
102
}
330
2AC
100
AcDbVisualStyle
  2
Facepattern
 70
    15
177
     3
291
     1
 70
    58
 90
        2
176
     1
 90
        2
176
     1
 90
        1
176
     1
 90
        0
176
     1
 40
0.6
176
     1
 40
30.0
176
     1
 62
     7
420
 16777215
176
     1
 90
        1
176
     1
 90
        4
176
     1
 62
     7
176
     1
 62
   257
176
     1
 90
        1
176
     1
 90
        1
176
     1
 40
1.0
176
     1
 90
        8
176
     1
 62
     7
176
     1
 40
1.0
176
     1
 90
        1
176
     1
 90
        6
176
     1
 90
        2
176
     1
 62
     7
176
     1
 90
        5
176
     1
 90
        0
176
     1
 90
        0
176
     1
290
     0
176
     1
 90
        1
176
     1
 40
0.0
176
     1
 90
        0
176
     1
290
     0
176
     1
290
     1
176
     1
290
     1
176
     1
290
     0
176
     1
290
     0
176
     1
290
     0
176
     1
290
     0
176
     1
290
     0
176
     1
290
     0
176
     1
 90
       50
176
     1
 40
0.0
176
     1
 40
1.0
176
     1
 90
        0
176
     1
 62
    18
420
        0
176
     1
 90
       50
176
     1
 90
        3
176
     1
 62
     5
420
      255
176
     1
290
     0
176
     1
 90
       50
176
     1
 90
       50
176
     1
 90
       50
176
     1
290
     0
176
     1
 90
       50
176
     1
 62
   256
176
     0
 40
1.0
176
     0
 90
        2
176
     1
  1
strokes_ogs.tif
176
     1
290
     0
176
     1
 40
1.0
176
     1
 40
1.0
176
     1
  0
VISUALSTYLE
  5
2AD
102
{ACAD_REACTORS
330
2AC
102
}
330
2AC
100
AcDbVisualStyle
  2
Flat
 70
     0
177
     3
291
     1
 70
    58
 90
        2
176
     1
 90
        1
176
     1
 90
        1
176
     1
 90
        2
176
     1
 40
0.6
176
     1
 40
30.0
176
     1
 62
     7
420
 16777215
176
     1
 90
        0
176
     1
 90
        4
176
     1
 62
     7
176
     1
 62
   257
176
     1
 90
        1
176
     1
 90
        1
176
     1
 40
1.0
176
     1
 90
        8
176
     1
 62
     7
176
     1
 40
1.0
176
     1
 90
        1
176
     1
 90
        6
176
     1
 90
        2
176
     1
 62
     7
176
     1
 90
        5
176
     1
 90
        0
176
     1
 90
        0
176
     1
290
     0
176
     1
 90
        1
176
     1
 40
0.0
176
     1
 90
        0
176
     1
290
     0
176
     1
290
     1
176
     1
290
     1
176
     1
290
     0
176
     1
290
     0
176
     1
290
     0
176
     1
290
     0
176
     1
290
     0
176
     1
290
     0
176
     1
 90
       50
176
     1
 40
0.0
176
     1
 40
1.0
176
     1
 90
        0
176
     1
 62
    18
420
        0
176
     1
 90
       50
176
     1
 90
        3
176
     1
 62
     5
420
      255
176
     1
290
     0
176
     1
 90
       50
176
     1
 90
       50
176
     1
 90
       50
176
     1
290
     0
176
     1
 90
       50
176
     1
 62
   256
176
     0
 40
1.0
176
     0
 90
        2
176
     1
  1
strokes_ogs.tif
176
     1
290
     0
176
     1
 40
1.0
176
     1
 40
1.0
176
     1
  0
VISUALSTYLE
  5
2AE
102
{ACAD_REACTORS
330
2AC
102
}
330
2AC
100
AcDbVisualStyle
  2
FlatWithEdges
 70
     1
177
     3
291
     1
 70
    58
 90
        2
176
     1
 90
        1
176
     1
 90
        1
176
     1
 90
        2
176
     1
 40
0.6
176
     1
 40
30.0
176
     1
 62
     7
420
 16777215
176
     1
 90
        1
176
     1
 90
        4
176
     1
 62
     7
176
     1
 62
   257
176
     1
 90
        1
176
     1
 90
        1
176
     1
 40
1.0
176
     1
 90
        0
176
     1
 62
   257
176
     1
 40
1.0
176
     1
 90
        1
176
     1
 90
        6
176
     1
 90
        2
176
     1
 62
     7
176
     1
 90
        5
176
     1
 90
        0
176
     1
 90
        0
176
     1
290
     0
176
     1
 90
        1
176
     1
 40
0.0
176
     1
 90
        0
176
     1
290
     0
176
     1
290
     1
176
     1
290
     1
176
     1
290
     0
176
     1
290
     0
176
     1
290
     0
176
     1
290
     0
176
     1
290
     0
176
     1
290
     0
176
     1
 90
       50
176
     1
 40
0.0
176
     1
 40
1.0
176
     1
 90
        0
176
     1
 62
    18
420
        0
176
     1
 90
       50
176
     1
 90
        3
176
     1
 62
     5
420
      255
176
     1
290
     0
176
     1
 90
       50
176
     1
 90
       50
176
     1
 90
       50
176
     1
290
     0
176
     1
 90
       50
176
     1
 62
   256
176
     0
 40
1.0
176
     0
 90
        2
176
     1
  1
strokes_ogs.tif
176
     1
290
     0
176
     1
 40
1.0
176
     1
 40
1.0
176
     1
  0
VISUALSTYLE
  5
2AF
102
{ACAD_REACTORS
330
2AC
102
}
330
2AC
100
AcDbVisualStyle
  2
Gouraud
 70
     2
177
     3
291
     1
 70
    58
 90
        2
176
     1
 90
        2
176
     1
 90
        1
176
     1
 90
        2
176
     1
 40
0.6
176
     1
 40
30.0
176
     1
 62
     7
420
 16777215
176
     1
 90
        0
176
     1
 90
        4
176
     1
 62
     7
176
     1
 62
   257
176
     1
 90
        1
176
     1
 90
        1
176
     1
 40
1.0
176
     1
 90
        0
176
     1
 62
     7
176
     1
 40
1.0
176
     1
 90
        1
176
     1
 90
        6
176
     1
 90
        2
176
     1
 62
     7
176
     1
 90
        5
176
     1
 90
        0
176
     1
 90
        0
176
     1
290
     0
176
     1
 90
        1
176
     1
 40
0.0
176
     1
 90
        0
176
     1
290
     0
176
     1
290
     1
176
     1
290
     1
176
     1
290
     0
176
     1
290
     0
176
     1
290
     0
176
     1
290
     0
176
     1
290
     0
176
     1
290
     0
176
     1
 90
       50
176
     1
 40
0.0
176
     1
 40
1.0
176
     1
 90
        0
176
     1
 62
    18
420
        0
176
     1
 90
       50
176
     1
 90
        3
176
     1
 62
     5
420
      255
176
     1
290
     0
176
     1
 90
       50
176
     1
 90
       50
176
     1
 90
       50
176
     1
290
     0
176
     1
 90
       50
176
     1
 62
   256
176
     0
 40
1.0
176
     0
 90
        2
176
     1
  1
strokes_ogs.tif
176
     1
290
     0
176
     1
 40
1.0
176
     1
 40
1.0
176
     1
  0
VISUALSTYLE
  5
2B0
102
{ACAD_REACTORS
330
2AC
102
}
330
2AC
100
AcDbVisualStyle
  2
GouraudWithEdges
 70
     3
177
     3
291
     1
 70
    58
 90
        2
176
     1
 90
        2
176
     1
 90
        1
176
     1
 90
        2
176
     1
 40
0.6
176
     1
 40
30.0
176
     1
 62
     7
420
 16777215
176
     1
 90
        1
176
     1
 90
        4
176
     1
 62
     7
176
     1
 62
   257
176
     1
 90
        1
176
     1
 90
        1
176
     1
 40
1.0
176
     1
 90
        0
176
     1
 62
   257
176
     1
 40
1.0
176
     1
 90
        1
176
     1
 90
        6
176
     1
 90
        2
176
     1
 62
     7
176
     1
 90
        5
176
     1
 90
        0
176
     1
 90
        0
176
     1
290
     0
176
     1
 90
        1
176
     1
 40
0.0
176
     1
 90
        0
176
     1
290
     0
176
     1
290
     1
176
     1
290
     1
176
     1
290
     0
176
     1
290
     0
176
     1
290
     0
176
     1
290
     0
176
     1
290
     0
176
     1
290
     0
176
     1
 90
       50
176
     1
 40
0.0
176
     1
 40
1.0
176
     1
 90
        0
176
     1
 62
    18
420
        0
176
     1
 90
       50
176
     1
 90
        3
176
     1
 62
     5
420
      255
176
     1
290
     0
176
     1
 90
       50
176
     1
 90
       50
176
     1
 90
       50
176
     1
290
     0
176
     1
 90
       50
176
     1
 62
   256
176
     0
 40
1.0
176
     0
 90
        2
176
     1
  1
strokes_ogs.tif
176
     1
290
     0
176
     1
 40
1.0
176
     1
 40
1.0
176
     1
  0
VISUALSTYLE
  5
48C6
102
{ACAD_REACTORS
330
2AC
102
}
330
2AC
100
AcDbVisualStyle
  2
Hidden
 70
     6
177
     3
291
     0
 70
    58
 90
        1
176
     1
 90
        2
176
     1
 90
        2
176
     1
 90
        0
176
     1
 40
0.6
176
     1
 40
30.0
176
     1
 62
     7
420
 16777215
176
     1
 90
        2
176
     1
 90
        2
176
     1
 62
     7
176
     1
 62
   257
176
     1
 90
        2
176
     1
 90
        1
176
     1
 40
40.0
176
     1
 90
        0
176
     1
 62
   257
176
     1
 40
1.0
176
     1
 90
        1
176
     1
 90
        6
176
     1
 90
        2
176
     1
 62
     7
176
     1
 90
        3
176
     1
 90
        0
176
     1
 90
        0
176
     1
290
     0
176
     1
 90
        1
176
     1
 40
0.0
176
     1
 90
        0
176
     1
290
     0
176
     1
290
     1
176
     1
290
     1
176
     1
290
     0
176
     1
290
     0
176
     1
290
     0
176
     1
290
     0
176
     1
290
     0
176
     1
290
     0
176
     1
 90
       50
176
     1
 40
0.0
176
     1
 40
1.0
176
     1
 90
        0
176
     1
 62
    18
420
        0
176
     1
 90
       50
176
     1
 90
        3
176
     1
 62
     5
420
      255
176
     1
290
     0
176
     1
 90
       50
176
     1
 90
       50
176
     1
 90
       50
176
     1
290
     0
176
     1
 90
       50
176
     1
 62
   256
176
     0
 40
1.0
176
     0
 90
        2
176
     1
  1
strokes_ogs.tif
176
     1
290
     0
176
     1
 40
1.0
176
     1
 40
1.0
176
     1
  0
VISUALSTYLE
  5
48CC
102
{ACAD_REACTORS
330
2AC
102
}
330
2AC
100
AcDbVisualStyle
  2
JitterOff
 70
    20
177
     3
291
     1
 70
    58
 90
        2
176
     0
 90
        2
176
     0
 90
        0
176
     0
 90
        0
176
     0
 40
0.6
176
     0
 40
30.0
176
     0
 62
     7
420
 16777215
176
     0
 90
        1
176
     0
 90
        4
176
     0
 62
     7
176
     0
 62
   257
176
     0
 90
        1
176
     0
 90
        1
176
     0
 40
1.0
176
     0
 90
       10
176
     2
 62
     7
176
     0
 40
1.0
176
     0
 90
        1
176
     0
 90
        6
176
     0
 90
        2
176
     0
 62
     7
176
     0
 90
        5
176
     0
 90
        0
176
     0
 90
        0
176
     0
290
     0
176
     0
 90
        1
176
     0
 40
0.0
176
     0
 90
        0
176
     0
290
     0
176
     0
290
     1
176
     0
290
     1
176
     0
290
     0
176
     0
290
     0
176
     0
290
     0
176
     0
290
     0
176
     0
290
     0
176
     0
290
     0
176
     0
 90
       50
176
     0
 40
0.0
176
     0
 40
1.0
176
     0
 90
        0
176
     0
 62
    18
420
        0
176
     0
 90
       50
176
     0
 90
        3
176
     0
 62
     5
420
      255
176
     0
290
     0
176
     0
 90
       50
176
     0
 90
       50
176
     0
 90
       50
176
     0
290
     0
176
     0
 90
       50
176
     0
 62
   256
176
     0
 40
1.0
176
     0
 90
        2
176
     0
  1
strokes_ogs.tif
176
     0
290
     0
176
     0
 40
1.0
176
     0
 40
1.0
176
     0
  0
VISUALSTYLE
  5
2BA
102
{ACAD_REACTORS
330
2AC
102
}
330
2AC
100
AcDbVisualStyle
  2
Linepattern
 70
    14
177
     3
291
     1
 70
    58
 90
        2
176
     1
 90
        2
176
     1
 90
        1
176
     1
 90
        0
176
     1
 40
0.6
176
     1
 40
30.0
176
     1
 62
     7
420
 16777215
176
     1
 90
        1
176
     1
 90
        4
176
     1
 62
     7
176
     1
 62
   257
176
     1
 90
        7
176
     1
 90
        7
176
     1
 40
1.0
176
     1
 90
        8
176
     1
 62
     7
176
     1
 40
1.0
176
     1
 90
        1
176
     1
 90
        6
176
     1
 90
        2
176
     1
 62
     7
176
     1
 90
        5
176
     1
 90
        0
176
     1
 90
        0
176
     1
290
     0
176
     1
 90
        1
176
     1
 40
0.0
176
     1
 90
        0
176
     1
290
     0
176
     1
290
     1
176
     1
290
     1
176
     1
290
     0
176
     1
290
     0
176
     1
290
     0
176
     1
290
     0
176
     1
290
     0
176
     1
290
     0
176
     1
 90
       50
176
     1
 40
0.0
176
     1
 40
1.0
176
     1
 90
        0
176
     1
 62
    18
420
        0
176
     1
 90
       50
176
     1
 90
        3
176
     1
 62
     5
420
      255
176
     1
290
     0
176
     1
 90
       50
176
     1
 90
       50
176
     1
 90
       50
176
     1
290
     0
176
     1
 90
       50
176
     1
 62
   256
176
     0
 40
1.0
176
     0
 90
        2
176
     1
  1
strokes_ogs.tif
176
     1
290
     0
176
     1
 40
1.0
176
     1
 40
1.0
176
     1
  0
VISUALSTYLE
  5
48CD
102
{ACAD_REACTORS
330
2AC
102
}
330
2AC
100
AcDbVisualStyle
  2
OverhangOff
 70
    21
177
     3
291
     1
 70
    58
 90
        2
176
     0
 90
        2
176
     0
 90
        0
176
     0
 90
        0
176
     0
 40
0.6
176
     0
 40
30.0
176
     0
 62
     7
420
 16777215
176
     0
 90
        1
176
     0
 90
        4
176
     0
 62
     7
176
     0
 62
   257
176
     0
 90
        1
176
     0
 90
        1
176
     0
 40
1.0
176
     0
 90
        9
176
     2
 62
     7
176
     0
 40
1.0
176
     0
 90
        1
176
     0
 90
        6
176
     0
 90
        2
176
     0
 62
     7
176
     0
 90
        5
176
     0
 90
        0
176
     0
 90
        0
176
     0
290
     0
176
     0
 90
        1
176
     0
 40
0.0
176
     0
 90
        0
176
     0
290
     0
176
     0
290
     1
176
     0
290
     1
176
     0
290
     0
176
     0
290
     0
176
     0
290
     0
176
     0
290
     0
176
     0
290
     0
176
     0
290
     0
176
     0
 90
       50
176
     0
 40
0.0
176
     0
 40
1.0
176
     0
 90
        0
176
     0
 62
    18
420
        0
176
     0
 90
       50
176
     0
 90
        3
176
     0
 62
     5
420
      255
176
     0
290
     0
176
     0
 90
       50
176
     0
 90
       50
176
     0
 90
       50
176
     0
290
     0
176
     0
 90
       50
176
     0
 62
   256
176
     0
 40
1.0
176
     0
 90
        2
176
     0
  1
strokes_ogs.tif
176
     0
290
     0
176
     0
 40
1.0
176
     0
 40
1.0
176
     0
  0
VISUALSTYLE
  5
2B6
102
{ACAD_REACTORS
330
2AC
102
}
330
2AC
100
AcDbVisualStyle
  2
Realistic
 70
     8
177
     3
291
     0
 70
    58
 90
        2
176
     1
 90
        2
176
     1
 90
        1
176
     1
 90
        0
176
     1
 40
0.6
176
     1
 40
30.0
176
     1
 62
     7
420
 16777215
176
     1
 90
        1
176
     1
 90
        0
176
     1
 62
     7
176
     1
 62
   257
176
     1
 90
        1
176
     1
 90
        1
176
     1
 40
1.0
176
     1
 90
        8
176
     1
 62
     8
420
  7895160
176
     1
 40
1.0
176
     1
 90
        1
176
     1
 90
        6
176
     1
 90
        2
176
     1
 62
     7
176
     1
 90
        5
176
     1
 90
        0
176
     1
 90
        0
176
     1
290
     0
176
     1
 90
       13
176
     1
 40
0.0
176
     1
 90
        0
176
     1
290
     0
176
     1
290
     1
176
     1
290
     1
176
     1
290
     0
176
     1
290
     0
176
     1
290
     0
176
     1
290
     0
176
     1
290
     0
176
     1
290
     0
176
     1
 90
       50
176
     1
 40
0.0
176
     1
 40
1.0
176
     1
 90
        0
176
     1
 62
    18
420
        0
176
     1
 90
       50
176
     1
 90
        3
176
     1
 62
     5
420
      255
176
     1
290
     0
176
     1
 90
       50
176
     1
 90
       50
176
     1
 90
       50
176
     1
290
     0
176
     1
 90
       50
176
     1
 62
   256
176
     0
 40
1.0
176
     0
 90
        2
176
     1
  1
strokes_ogs.tif
176
     1
290
     0
176
     1
 40
1.0
176
     1
 40
1.0
176
     1
  0
VISUALSTYLE
  5
48CB
102
{ACAD_REACTORS
330
2AC
102
}
330
2AC
100
AcDbVisualStyle
  2
Shaded
 70
    27
177
     3
291
     0
 70
    58
 90
        2
176
     1
 90
        2
176
     1
 90
        1
176
     1
 90
        2
176
     1
 40
0.6
176
     1
 40
30.0
176
     1
 62
     7
420
 16777215
176
     1
 90
        0
176
     1
 90
        4
176
     1
 62
     7
176
     1
 62
   257
176
     1
 90
        1
176
     1
 90
        1
176
     1
 40
1.0
176
     1
 90
        8
176
     1
 62
   257
176
     1
 40
1.0
176
     1
 90
        1
176
     1
 90
        6
176
     1
 90
        2
176
     1
 62
     8
420
  7895160
176
     1
 90
        3
176
     1
 90
        0
176
     1
 90
        0
176
     1
290
     0
176
     1
 90
        5
176
     1
 40
0.0
176
     1
 90
        0
176
     1
290
     0
176
     1
290
     1
176
     1
290
     1
176
     1
290
     0
176
     1
290
     0
176
     1
290
     0
176
     1
290
     0
176
     1
290
     0
176
     1
290
     0
176
     1
 90
       50
176
     1
 40
0.0
176
     1
 40
1.0
176
     1
 90
        0
176
     1
 62
    18
420
        0
176
     1
 90
       50
176
     1
 90
        3
176
     1
 62
     5
420
      255
176
     1
290
     0
176
     1
 90
       50
176
     1
 90
       50
176
     1
 90
       50
176
     1
290
     0
176
     1
 90
       50
176
     1
 62
   256
176
     0
 40
1.0
176
     0
 90
        2
176
     1
  1
strokes_ogs.tif
176
     1
290
     0
176
     1
 40
1.0
176
     1
 40
1.0
176
     1
  0
VISUALSTYLE
  5
48CA
102
{ACAD_REACTORS
330
2AC
102
}
330
2AC
100
AcDbVisualStyle
  2
Shaded with edges
 70
    26
177
     3
291
     0
 70
    58
 90
        2
176
     1
 90
        2
176
     1
 90
        1
176
     1
 90
        2
176
     1
 40
0.6
176
     1
 40
30.0
176
     1
 62
     7
420
 16777215
176
     1
 90
        1
176
     1
 90
        2
176
     1
 62
     7
176
     1
 62
   257
176
     1
 90
        2
176
     1
 90
        1
176
     1
 40
1.0
176
     1
 90
        8
176
     1
 62
   257
176
     1
 40
1.0
176
     1
 90
        1
176
     1
 90
        6
176
     1
 90
        2
176
     1
 62
     7
176
     1
 90
        3
176
     1
 90
        0
176
     1
 90
        0
176
     1
290
     0
176
     1
 90
        5
176
     1
 40
0.0
176
     1
 90
        0
176
     1
290
     0
176
     1
290
     1
176
     1
290
     1
176
     1
290
     0
176
     1
290
     0
176
     1
290
     0
176
     1
290
     0
176
     1
290
     0
176
     1
290
     0
176
     1
 90
       50
176
     1
 40
0.0
176
     1
 40
1.0
176
     1
 90
        0
176
     1
 62
    18
420
        0
176
     1
 90
       50
176
     1
 90
        3
176
     1
 62
     5
420
      255
176
     1
290
     0
176
     1
 90
       50
176
     1
 90
       50
176
     1
 90
       50
176
     1
290
     0
176
     1
 90
       50
176
     1
 62
   256
176
     0
 40
1.0
176
     0
 90
        2
176
     1
  1
strokes_ogs.tif
176
     1
290
     0
176
     1
 40
1.0
176
     1
 40
1.0
176
     1
  0
VISUALSTYLE
  5
48C7
102
{ACAD_REACTORS
330
2AC
102
}
330
2AC
100
AcDbVisualStyle
  2
Shades of Gray
 70
    23
177
     3
291
     0
 70
    58
 90
        2
176
     1
 90
        2
176
     1
 90
        3
176
     1
 90
        0
176
     1
 40
0.6
176
     1
 40
30.0
176
     1
 62
     7
420
 16777215
176
     1
 90
        2
176
     1
 90
        2
176
     1
 62
     7
176
     1
 62
     7
176
     1
 90
        1
176
     1
 90
        1
176
     1
 40
40.0
176
     1
 90
        8
176
     1
 62
     7
176
     1
 40
1.0
176
     1
 90
        1
176
     1
 90
        6
176
     1
 90
        2
176
     1
 62
     7
176
     1
 90
        3
176
     1
 90
        0
176
     1
 90
        0
176
     1
290
     0
176
     1
 90
        1
176
     1
 40
0.0
176
     1
 90
        0
176
     1
290
     0
176
     1
290
     1
176
     1
290
     1
176
     1
290
     0
176
     1
290
     0
176
     1
290
     0
176
     1
290
     0
176
     1
290
     0
176
     1
290
     0
176
     1
 90
       50
176
     1
 40
0.0
176
     1
 40
1.0
176
     1
 90
        0
176
     1
 62
    18
420
        0
176
     1
 90
       50
176
     1
 90
        3
176
     1
 62
     5
420
      255
176
     1
290
     0
176
     1
 90
       50
176
     1
 90
       50
176
     1
 90
       50
176
     1
290
     0
176
     1
 90
       50
176
     1
 62
   256
176
     0
 40
1.0
176
     0
 90
        2
176
     1
  1
strokes_ogs.tif
176
     1
290
     0
176
     1
 40
1.0
176
     1
 40
1.0
176
     1
  0
VISUALSTYLE
  5
48C8
102
{ACAD_REACTORS
330
2AC
102
}
330
2AC
100
AcDbVisualStyle
  2
Sketchy
 70
    24
177
     3
291
     0
 70
    58
 90
        1
176
     1
 90
        2
176
     1
 90
        2
176
     1
 90
        0
176
     1
 40
0.6
176
     1
 40
30.0
176
     1
 62
     7
420
 16777215
176
     1
 90
        2
176
     1
 90
        2
176
     1
 62
     7
176
     1
 62
     7
176
     1
 90
        1
176
     1
 90
        1
176
     1
 40
40.0
176
     1
 90
       11
176
     1
 62
     7
176
     1
 40
1.0
176
     1
 90
        1
176
     1
 90
        6
176
     1
 90
        2
176
     1
 62
     7
176
     1
 90
        6
176
     1
 90
        0
176
     1
 90
        0
176
     1
290
     0
176
     1
 90
        1
176
     1
 40
0.0
176
     1
 90
        0
176
     1
290
     0
176
     1
290
     1
176
     1
290
     1
176
     1
290
     0
176
     1
290
     0
176
     1
290
     0
176
     1
290
     0
176
     1
290
     0
176
     1
290
     0
176
     1
 90
       50
176
     1
 40
0.0
176
     1
 40
1.0
176
     1
 90
        0
176
     1
 62
    18
420
        0
176
     1
 90
       50
176
     1
 90
        3
176
     1
 62
     5
420
      255
176
     1
290
     0
176
     1
 90
       50
176
     1
 90
       50
176
     1
 90
       50
176
     1
290
     0
176
     1
 90
       50
176
     1
 62
   256
176
     0
 40
1.0
176
     0
 90
        2
176
     1
  1
strokes_ogs.tif
176
     1
290
     0
176
     1
 40
1.0
176
     1
 40
1.0
176
     1
  0
VISUALSTYLE
  5
2B9
102
{ACAD_REACTORS
330
2AC
102
}
330
2AC
100
AcDbVisualStyle
  2
Thicken
 70
    13
177
     3
291
     1
 70
    58
 90
        2
176
     1
 90
        2
176
     1
 90
        1
176
     1
 90
        0
176
     1
 40
0.6
176
     1
 40
30.0
176
     1
 62
     7
420
 16777215
176
     1
 90
        1
176
     1
 90
        4
176
     1
 62
     7
176
     1
 62
   257
176
     1
 90
        1
176
     1
 90
        1
176
     1
 40
1.0
176
     1
 90
       12
176
     1
 62
     7
176
     1
 40
1.0
176
     1
 90
        1
176
     1
 90
        6
176
     1
 90
        2
176
     1
 62
     7
176
     1
 90
        5
176
     1
 90
        0
176
     1
 90
        0
176
     1
290
     0
176
     1
 90
        1
176
     1
 40
0.0
176
     1
 90
        0
176
     1
290
     0
176
     1
290
     1
176
     1
290
     1
176
     1
290
     0
176
     1
290
     0
176
     1
290
     0
176
     1
290
     0
176
     1
290
     0
176
     1
290
     0
176
     1
 90
       50
176
     1
 40
0.0
176
     1
 40
1.0
176
     1
 90
        0
176
     1
 62
    18
420
        0
176
     1
 90
       50
176
     1
 90
        3
176
     1
 62
     5
420
      255
176
     1
290
     0
176
     1
 90
       50
176
     1
 90
       50
176
     1
 90
       50
176
     1
290
     0
176
     1
 90
       50
176
     1
 62
   256
176
     0
 40
1.0
176
     0
 90
        2
176
     1
  1
strokes_ogs.tif
176
     1
290
     0
176
     1
 40
1.0
176
     1
 40
1.0
176
     1
  0
VISUALSTYLE
  5
48C5
102
{ACAD_REACTORS
330
2AC
102
}
330
2AC
100
AcDbVisualStyle
  2
Wireframe
 70
     5
177
     3
291
     0
 70
    58
 90
        0
176
     1
 90
        2
176
     1
 90
        0
176
     1
 90
        0
176
     1
 40
0.6
176
     1
 40
30.0
176
     1
 62
     7
420
 16777215
176
     1
 90
        1
176
     1
 90
        4
176
     1
 62
     7
176
     1
 62
   257
176
     1
 90
        1
176
     1
 90
        1
176
     1
 40
1.0
176
     1
 90
        0
176
     1
 62
   257
176
     1
 40
1.0
176
     1
 90
        1
176
     1
 90
        6
176
     1
 90
        2
176
     1
 62
     7
176
     1
 90
        3
176
     1
 90
        0
176
     1
 90
        0
176
     1
290
     0
176
     1
 90
        1
176
     1
 40
0.0
176
     1
 90
        0
176
     1
290
     0
176
     1
290
     1
176
     1
290
     1
176
     1
290
     0
176
     1
290
     0
176
     1
290
     0
176
     1
290
     0
176
     1
290
     0
176
     1
290
     0
176
     1
 90
       50
176
     1
 40
0.0
176
     1
 40
1.0
176
     1
 90
        0
176
     1
 62
    18
420
        0
176
     1
 90
       50
176
     1
 90
        3
176
     1
 62
     5
420
      255
176
     1
290
     0
176
     1
 90
       50
176
     1
 90
       50
176
     1
 90
       50
176
     1
290
     0
176
     1
 90
       50
176
     1
 62
   256
176
     0
 40
1.0
176
     0
 90
        2
176
     1
  1
strokes_ogs.tif
176
     1
290
     0
176
     1
 40
1.0
176
     1
 40
1.0
176
     1
  0
VISUALSTYLE
  5
48C9
102
{ACAD_REACTORS
330
2AC
102
}
330
2AC
100
AcDbVisualStyle
  2
X-Ray
 70
    25
177
     3
291
     0
 70
    58
 90
        2
176
     1
 90
        2
176
     1
 90
        1
176
     1
 90
        1
176
     1
 40
0.5
176
     1
 40
30.0
176
     1
 62
     7
420
 16777215
176
     1
 90
        1
176
     1
 90
        0
176
     1
 62
     7
176
     1
 62
   257
176
     1
 90
        1
176
     1
 90
        1
176
     1
 40
1.0
176
     1
 90
        8
176
     1
 62
     7
176
     1
 40
1.0
176
     1
 90
        1
176
     1
 90
        6
176
     1
 90
        2
176
     1
 62
     7
176
     1
 90
        3
176
     1
 90
        0
176
     1
 90
        0
176
     1
290
     0
176
     1
 90
       13
176
     1
 40
0.0
176
     1
 90
        0
176
     1
290
     0
176
     1
290
     1
176
     1
290
     1
176
     1
290
     0
176
     1
290
     0
176
     1
290
     0
176
     1
290
     0
176
     1
290
     0
176
     1
290
     0
176
     1
 90
       50
176
     1
 40
0.0
176
     1
 40
1.0
176
     1
 90
        0
176
     1
 62
    18
420
        0
176
     1
 90
       50
176
     1
 90
        3
176
     1
 62
     5
420
      255
176
     1
290
     0
176
     1
 90
       50
176
     1
 90
       50
176
     1
 90
       50
176
     1
290
     0
176
     1
 90
       50
176
     1
 62
   256
176
     0
 40
1.0
176
     0
 90
        2
176
     1
  1
strokes_ogs.tif
176
     1
290
     0
176
     1
 40
1.0
176
     1
 40
1.0
176
     1
  0
DICTIONARYVAR
  5
4916
102
{ACAD_REACTORS
330
23A
102
}
330
23A
100
DictionaryVariables
280
     0
  1
1:1
  0
DICTIONARYVAR
  5
4912
102
{ACAD_REACTORS
330
23A
102
}
330
23A
100
DictionaryVariables
280
     0
  1
STANDARD
  0
DICTIONARYVAR
  5
290
102
{ACAD_REACTORS
330
23A
102
}
330
23A
100
DictionaryVariables
280
     0
  1
STANDARD
  0
DICTIONARYVAR
  5
4913
102
{ACAD_REACTORS
330
23A
102
}
330
23A
100
DictionaryVariables
280
     0
  1
Metric50
  0
DICTIONARYVAR
  5
4914
102
{ACAD_REACTORS
330
23A
102
}
330
23A
100
DictionaryVariables
280
     0
  1
Metric50
  0
DICTIONARYVAR
  5
23C
102
{ACAD_REACTORS
330
23A
102
}
330
23A
100
DictionaryVariables
280
     0
  1
2
  0
DICTIONARYVAR
  5
23B
102
{ACAD_REACTORS
330
23A
102
}
330
23A
100
DictionaryVariables
280
     0
  1
1
  0
DICTIONARYVAR
  5
4918
102
{ACAD_REACTORS
330
23A
102
}
330
23A
100
DictionaryVariables
280
     0
  1
1
  0
DICTIONARYVAR
  5
4919
102
{ACAD_REACTORS
330
23A
102
}
330
23A
100
DictionaryVariables
280
     0
  1
15
  0
DICTIONARYVAR
  5
4917
102
{ACAD_REACTORS
330
23A
102
}
330
23A
100
DictionaryVariables
280
     0
  1
0
  0
DICTIONARYVAR
  5
4915
102
{ACAD_REACTORS
330
23A
102
}
330
23A
100
DictionaryVariables
280
     0
  1
0
  0
XRECORD
  5
F8E
102
{ACAD_REACTORS
330
F8D
102
}
330
F8D
100
AcDbXrecord
280
     1
  0
VLO-VL
  5
30B
102
{ACAD_REACTORS
330
30A
102
}
330
30A
100
vlo_VL
 90
   -64512
 91
       12
 92
        1
 40
2.5
300
(&VLO-R . 0)
  0
DICTIONARY
  5
491E
330
48E7
100
AcDbDictionary
280
     1
281
     1
  3
ACAD_XREC_ROUNDTRIP
360
491F
  0
DICTIONARY
  5
28C
330
71
100
AcDbDictionary
280
     1
281
     1
  0
DICTIONARY
  5
491C
330
48E5
100
AcDbDictionary
280
     1
281
     1
  3
ACAD_XREC_ROUNDTRIP
360
491D
  0
DICTIONARY
  5
491A
330
27D
100
AcDbDictionary
280
     1
281
     1
  3
ACAD_ROUNDTRIP_2008_TABLESTYLE_CELLSTYLEMAP
360
491B
  0
XRECORD
  5
491F
102
{ACAD_REACTORS
330
491E
102
}
330
491E
100
AcDbXrecord
280
     1
102
DISPLAYNAME
  1
Metric50
102
FLAGS
 90
        0
  0
XRECORD
  5
491D
102
{ACAD_REACTORS
330
491C
102
}
330
491C
100
AcDbXrecord
280
     1
102
DISPLAYNAME
  1
Metric50
102
FLAGS
 90
        0
  0
CELLSTYLEMAP
  5
491B
102
{ACAD_REACTORS
330
491A
102
}
330
491A
100
AcDbCellStyleMap
 90
        3
300
CELLSTYLE
  1
TABLEFORMAT_BEGIN
 90
        5
170
     1
 91
        0
 92
    32768
 62
   257
 93
        1
300
CONTENTFORMAT
  1
CONTENTFORMAT_BEGIN
 90
        0
 91
        0
 92
      512
 93
        0
300

 40
0.0
140
1.0
 94
        5
 62
     0
340
11
144
6.0
309
CONTENTFORMAT_END
171
     1
301
MARGIN
  1
CELLMARGIN_BEGIN
 40
1.5
 40
1.5
 40
1.5
 40
1.5
 40
0.18
 40
0.18
309
CELLMARGIN_END
 94
        6
 95
        1
302
GRIDFORMAT
  1
GRIDFORMAT_BEGIN
 90
        0
 91
        1
 62
     0
 92
       -2
340
0
 93
        0
 40
0.045
309
GRIDFORMAT_END
 95
        2
302
GRIDFORMAT
  1
GRIDFORMAT_BEGIN
 90
        0
 91
        1
 62
     0
 92
       -2
340
0
 93
        0
 40
0.045
309
GRIDFORMAT_END
 95
        4
302
GRIDFORMAT
  1
GRIDFORMAT_BEGIN
 90
        0
 91
        1
 62
     0
 92
       -2
340
0
 93
        0
 40
0.045
309
GRIDFORMAT_END
 95
        8
302
GRIDFORMAT
  1
GRIDFORMAT_BEGIN
 90
        0
 91
        1
 62
     0
 92
       -2
340
0
 93
        0
 40
0.045
309
GRIDFORMAT_END
 95
       16
302
GRIDFORMAT
  1
GRIDFORMAT_BEGIN
 90
        0
 91
        1
 62
     0
 92
       -2
340
0
 93
        0
 40
0.045
309
GRIDFORMAT_END
 95
       32
302
GRIDFORMAT
  1
GRIDFORMAT_BEGIN
 90
        0
 91
        1
 62
     0
 92
       -2
340
0
 93
        0
 40
0.045
309
GRIDFORMAT_END
309
TABLEFORMAT_END
  1
CELLSTYLE_BEGIN
 90
        1
 91
        1
300
_TITLE
309
CELLSTYLE_END
300
CELLSTYLE
  1
TABLEFORMAT_BEGIN
 90
        5
170
     1
 91
        0
 92
        0
 62
   257
 93
        1
300
CONTENTFORMAT
  1
CONTENTFORMAT_BEGIN
 90
        0
 91
        0
 92
      512
 93
        0
300

 40
0.0
140
1.0
 94
        5
 62
     0
340
11
144
4.5
309
CONTENTFORMAT_END
171
     1
301
MARGIN
  1
CELLMARGIN_BEGIN
 40
1.5
 40
1.5
 40
1.5
 40
1.5
 40
0.18
 40
0.18
309
CELLMARGIN_END
 94
        6
 95
        1
302
GRIDFORMAT
  1
GRIDFORMAT_BEGIN
 90
        0
 91
        1
 62
     0
 92
       -2
340
0
 93
        0
 40
0.045
309
GRIDFORMAT_END
 95
        2
302
GRIDFORMAT
  1
GRIDFORMAT_BEGIN
 90
        0
 91
        1
 62
     0
 92
       -2
340
0
 93
        0
 40
0.045
309
GRIDFORMAT_END
 95
        4
302
GRIDFORMAT
  1
GRIDFORMAT_BEGIN
 90
        0
 91
        1
 62
     0
 92
       -2
340
0
 93
        0
 40
0.045
309
GRIDFORMAT_END
 95
        8
302
GRIDFORMAT
  1
GRIDFORMAT_BEGIN
 90
        0
 91
        1
 62
     0
 92
       -2
340
0
 93
        0
 40
0.045
309
GRIDFORMAT_END
 95
       16
302
GRIDFORMAT
  1
GRIDFORMAT_BEGIN
 90
        0
 91
        1
 62
     0
 92
       -2
340
0
 93
        0
 40
0.045
309
GRIDFORMAT_END
 95
       32
302
GRIDFORMAT
  1
GRIDFORMAT_BEGIN
 90
        0
 91
        1
 62
     0
 92
       -2
340
0
 93
        0
 40
0.045
309
GRIDFORMAT_END
309
TABLEFORMAT_END
  1
CELLSTYLE_BEGIN
 90
        2
 91
        1
300
_HEADER
309
CELLSTYLE_END
300
CELLSTYLE
  1
TABLEFORMAT_BEGIN
 90
        5
170
     1
 91
        0
 92
        0
 62
   257
 93
        1
300
CONTENTFORMAT
  1
CONTENTFORMAT_BEGIN
 90
        0
 91
        0
 92
      512
 93
        0
300

 40
0.0
140
1.0
 94
        2
 62
     0
340
11
144
4.5
309
CONTENTFORMAT_END
171
     1
301
MARGIN
  1
CELLMARGIN_BEGIN
 40
1.5
 40
1.5
 40
1.5
 40
1.5
 40
0.18
 40
0.18
309
CELLMARGIN_END
 94
        6
 95
        1
302
GRIDFORMAT
  1
GRIDFORMAT_BEGIN
 90
        0
 91
        1
 62
     0
 92
       -2
340
0
 93
        0
 40
0.045
309
GRIDFORMAT_END
 95
        2
302
GRIDFORMAT
  1
GRIDFORMAT_BEGIN
 90
        0
 91
        1
 62
     0
 92
       -2
340
0
 93
        0
 40
0.045
309
GRIDFORMAT_END
 95
        4
302
GRIDFORMAT
  1
GRIDFORMAT_BEGIN
 90
        0
 91
        1
 62
     0
 92
       -2
340
0
 93
        0
 40
0.045
309
GRIDFORMAT_END
 95
        8
302
GRIDFORMAT
  1
GRIDFORMAT_BEGIN
 90
        0
 91
        1
 62
     0
 92
       -2
340
0
 93
        0
 40
0.045
309
GRIDFORMAT_END
 95
       16
302
GRIDFORMAT
  1
GRIDFORMAT_BEGIN
 90
        0
 91
        1
 62
     0
 92
       -2
340
0
 93
        0
 40
0.045
309
GRIDFORMAT_END
 95
       32
302
GRIDFORMAT
  1
GRIDFORMAT_BEGIN
 90
        0
 91
        1
 62
     0
 92
       -2
340
0
 93
        0
 40
0.045
309
GRIDFORMAT_END
309
TABLEFORMAT_END
  1
CELLSTYLE_BEGIN
 90
        3
 91
        2
300
_DATA
309
CELLSTYLE_END
  0
ENDSEC
  0
SECTION
  2
ACDSDATA
 70
     2
 71
     8
  0
ACDSSCHEMA
 90
        0
  1
AcDb_Thumbnail_Schema
  2
AcDbDs::ID
280
    10
 91
        8
  2
Thumbnail_Data
280
    15
 91
        0
101
ACDSRECORD
 95
        0
 90
        1
  2
AcDbDs::TreatedAsObjectData
280
     1
291
     1
101
ACDSRECORD
 95
        0
 90
        2
  2
AcDbDs::Legacy
280
     1
291
     1
101
ACDSRECORD
  1
AcDbDs::ID
 90
        3
  2
AcDs:Indexable
280
     1
291
     1
101
ACDSRECORD
  1
AcDbDs::ID
 90
        4
  2
AcDbDs::HandleAttribute
280
     7
282
     1
  0
ACDSSCHEMA
 90
        1
  1
AcDbDs::TreatedAsObjectDataSchema
  2
AcDbDs::TreatedAsObjectData
280
     1
 91
        0
  0
ACDSSCHEMA
 90
        2
  1
AcDbDs::LegacySchema
  2
AcDbDs::Legacy
280
     1
 91
        0
  0
ACDSSCHEMA
 90
        3
  1
AcDbDs::IndexedPropertySchema
  2
AcDs:Indexable
280
     1
 91
        0
  0
ACDSSCHEMA
 90
        4
  1
AcDbDs::HandleAttributeSchema
  2
AcDbDs::HandleAttribute
280
     7
 91
        1
284
     1
  0
ACDSRECORD
 90
        0
  2
AcDbDs::ID
280
    10
320
71
  2
Thumbnail_Data
280
    15
 94
     1034
310
89504E470D0A1A0A0000000D49484452000000B40000007F0803000000713C187700000300504C5445FFFFFF000000FFFFFF0000000000000000000000000000000000000000000000000000330000660000990000CC0000FF0033000033330033660033990033CC0033FF0066000066330066660066990066CC0066FF0099
310
000099330099660099990099CC0099FF00CC0000CC3300CC6600CC9900CCCC00CCFF00FF0000FF3300FF6600FF9900FFCC00FFFF3300003300333300663300993300CC3300FF3333003333333333663333993333CC3333FF3366003366333366663366993366CC3366FF3399003399333399663399993399CC3399FF33CC00
310
33CC3333CC6633CC9933CCCC33CCFF33FF0033FF3333FF6633FF9933FFCC33FFFF6600006600336600666600996600CC6600FF6633006633336633666633996633CC6633FF6666006666336666666666996666CC6666FF6699006699336699666699996699CC6699FF66CC0066CC3366CC6666CC9966CCCC66CCFF66FF0066
310
FF3366FF6666FF9966FFCC66FFFF9900009900339900669900999900CC9900FF9933009933339933669933999933CC9933FF9966009966339966669966999966CC9966FF9999009999339999669999999999CC9999FF99CC0099CC3399CC6699CC9999CCCC99CCFF99FF0099FF3399FF6699FF9999FFCC99FFFFCC0000CC00
310
33CC0066CC0099CC00CCCC00FFCC3300CC3333CC3366CC3399CC33CCCC33FFCC6600CC6633CC6666CC6699CC66CCCC66FFCC9900CC9933CC9966CC9999CC99CCCC99FFCCCC00CCCC33CCCC66CCCC99CCCCCCCCCCFFCCFF00CCFF33CCFF66CCFF99CCFFCCCCFFFFFF0000FF0033FF0066FF0099FF00CCFF00FFFF3300FF3333
310
FF3366FF3399FF33CCFF33FFFF6600FF6633FF6666FF6699FF66CCFF66FFFF9900FF9933FF9966FF9999FF99CCFF99FFFFCC00FFCC33FFCC66FFCC99FFCCCCFFCCFFFFFF00FFFF33FFFF66FFFF99FFFFCCFFFFFF0000000D0D0D1A1A1A2828283535354343435050505D5D5D6B6B6B787878868686939393A1A1A1AEAEAEBB
310
BBBBC9C9C9D6D6D6E4E4E4F1F1F1FFFFFF000000000000000000000000000000000000000000000000000000000000790CAC0F000000C54944415478DAEDDC310A80300C05D0DEFF985EA053761114C1459052FCF4FDAD25C34384D00C693D306D0B4CDBEAC875AC338FAA7AB91F72FD567ED75DE8FA7D56458FFB4167A2C7
310
7F4068E891E8FA3FBAA0A1A1A1A1C3D0DA383434343434343434B4B987970B343434B4B987360E0D0D0D0D0D0D0D0D0DEDE5020D0D0D6DEEA1234243434343434343439B7B78B940434343437F446BE3D0D0D0B3D0890B1CE6071A1A1A7A697454A0A1A1A1A133D0DA383434F44AE8C465AC69CD2571576FEF3D0EBD031E16
310
08A9D332BAF70000000049454E44AE426082
  0
ENDSEC
  0
EOF
