  0
SECTION
  2
HEADER
  9
$ACADVER
  1
AC1027
  9
$ACADMAINTVER
 70
   125
  9
$DWGCODEPAGE
  3
ANSI_1252
  9
$LASTSAVEDBY
  1
fleminab
  9
$REQUIREDVERSIONS
160
                 0
  9
$INSBASE
 10
0.0
 20
0.0
 30
0.0
  9
$EXTMIN
 10
532.7262296007847
 20
60.34117731756897
 30
-0.000000000000013
  9
$EXTMAX
 10
889.9726660272399
 20
298.7703919370239
 30
0.0000000000000023
  9
$LIMMIN
 10
0.0
 20
0.0
  9
$LIMMAX
 10
420.0
 20
297.0
  9
$ORTHOMODE
 70
     0
  9
$REGENMODE
 70
     1
  9
$FILLMODE
 70
     1
  9
$QTEXTMODE
 70
     0
  9
$MIRRTEXT
 70
     1
  9
$LTSCALE
 40
0.3
  9
$ATTMODE
 70
     1
  9
$TEXTSIZE
 40
2.5
  9
$TRACEWID
 40
1.0
  9
$TEXTSTYLE
  7
Standard
  9
$CLAYER
  8
轮廓线
  9
$CELTYPE
  6
ByLayer
  9
$CECOLOR
 62
   256
  9
$CELTSCALE
 40
1.0
  9
$DISPSILH
 70
     0
  9
$DIMSCALE
 40
3.0
  9
$DIMASZ
 40
2.5
  9
$DIMEXO
 40
0.625
  9
$DIMDLI
 40
3.75
  9
$DIMRND
 40
0.0
  9
$DIMDLE
 40
0.0
  9
$DIMEXE
 40
1.25
  9
$DIMTP
 40
0.0
  9
$DIMTM
 40
0.0
  9
$DIMTXT
 40
3.0
  9
$DIMCEN
 40
2.5
  9
$DIMTSZ
 40
0.0
  9
$DIMTOL
 70
     0
  9
$DIMLIM
 70
     0
  9
$DIMTIH
 70
     0
  9
$DIMTOH
 70
     0
  9
$DIMSE1
 70
     0
  9
$DIMSE2
 70
     0
  9
$DIMTAD
 70
     1
  9
$DIMZIN
 70
     8
  9
$DIMBLK
  1

  9
$DIMASO
 70
     1
  9
$DIMSHO
 70
     1
  9
$DIMPOST
  1

  9
$DIMAPOST
  1

  9
$DIMALT
 70
     0
  9
$DIMALTD
 70
     3
  9
$DIMALTF
 40
0.03937007874016
  9
$DIMLFAC
 40
1.0
  9
$DIMTOFL
 70
     1
  9
$DIMTVP
 40
0.0
  9
$DIMTIX
 70
     0
  9
$DIMSOXD
 70
     0
  9
$DIMSAH
 70
     0
  9
$DIMBLK1
  1

  9
$DIMBLK2
  1

  9
$DIMSTYLE
  2
ISO-25
  9
$DIMCLRD
 70
   256
  9
$DIMCLRE
 70
   256
  9
$DIMCLRT
 70
   256
  9
$DIMTFAC
 40
1.0
  9
$DIMGAP
 40
0.625
  9
$DIMJUST
 70
     0
  9
$DIMSD1
 70
     0
  9
$DIMSD2
 70
     0
  9
$DIMTOLJ
 70
     0
  9
$DIMTZIN
 70
     8
  9
$DIMALTZ
 70
     0
  9
$DIMALTTZ
 70
     0
  9
$DIMUPT
 70
     0
  9
$DIMDEC
 70
     1
  9
$DIMTDEC
 70
     1
  9
$DIMALTU
 70
     2
  9
$DIMALTTD
 70
     3
  9
$DIMTXSTY
  7
Standard
  9
$DIMAUNIT
 70
     0
  9
$DIMADEC
 70
     0
  9
$DIMALTRND
 40
0.0
  9
$DIMAZIN
 70
     0
  9
$DIMDSEP
 70
    46
  9
$DIMATFIT
 70
     3
  9
$DIMFRAC
 70
     0
  9
$DIMLDRBLK
  1

  9
$DIMLUNIT
 70
     2
  9
$DIMLWD
 70
    -1
  9
$DIMLWE
 70
    -1
  9
$DIMTMOVE
 70
     0
  9
$DIMFXL
 40
1.25
  9
$DIMFXLON
 70
     0
  9
$DIMJOGANG
 40
0.7853981633974483
  9
$DIMTFILL
 70
     0
  9
$DIMTFILLCLR
 70
     0
  9
$DIMARCSYM
 70
     0
  9
$DIMLTYPE
  6

  9
$DIMLTEX1
  6

  9
$DIMLTEX2
  6

  9
$DIMTXTDIRECTION
 70
     0
  9
$LUNITS
 70
     2
  9
$LUPREC
 70
     4
  9
$SKETCHINC
 40
1.0
  9
$FILLETRAD
 40
2.0
  9
$AUNITS
 70
     0
  9
$AUPREC
 70
     0
  9
$MENU
  1
.
  9
$ELEVATION
 40
0.0
  9
$PELEVATION
 40
0.0
  9
$THICKNESS
 40
0.0
  9
$LIMCHECK
 70
     0
  9
$CHAMFERA
 40
10.0
  9
$CHAMFERB
 40
10.0
  9
$CHAMFERC
 40
20.0
  9
$CHAMFERD
 40
0.0
  9
$SKPOLY
 70
     0
  9
$TDCREATE
 40
2452341.882372685
  9
$TDUCREATE
 40
2452341.424046528
  9
$TDUPDATE
 40
2458032.468240741
  9
$TDUUPDATE
 40
2458032.009907407
  9
$TDINDWG
 40
1.1191243634
  9
$TDUSRTIMER
 40
1.1191243634
  9
$USRTIMER
 70
     1
  9
$ANGBASE
 50
0.0
  9
$ANGDIR
 70
     0
  9
$PDMODE
 70
     0
  9
$PDSIZE
 40
0.0
  9
$PLINEWID
 40
0.0
  9
$SPLFRAME
 70
     0
  9
$SPLINETYPE
 70
     6
  9
$SPLINESEGS
 70
     8
  9
$HANDSEED
  5
25DF
  9
$SURFTAB1
 70
     6
  9
$SURFTAB2
 70
     6
  9
$SURFTYPE
 70
     6
  9
$SURFU
 70
     6
  9
$SURFV
 70
     6
  9
$UCSBASE
  2

  9
$UCSNAME
  2

  9
$UCSORG
 10
0.0
 20
0.0
 30
0.0
  9
$UCSXDIR
 10
1.0
 20
0.0
 30
0.0
  9
$UCSYDIR
 10
0.0
 20
1.0
 30
0.0
  9
$UCSORTHOREF
  2

  9
$UCSORTHOVIEW
 70
     0
  9
$UCSORGTOP
 10
0.0
 20
0.0
 30
0.0
  9
$UCSORGBOTTOM
 10
0.0
 20
0.0
 30
0.0
  9
$UCSORGLEFT
 10
0.0
 20
0.0
 30
0.0
  9
$UCSORGRIGHT
 10
0.0
 20
0.0
 30
0.0
  9
$UCSORGFRONT
 10
0.0
 20
0.0
 30
0.0
  9
$UCSORGBACK
 10
0.0
 20
0.0
 30
0.0
  9
$PUCSBASE
  2

  9
$PUCSNAME
  2

  9
$PUCSORG
 10
0.0
 20
0.0
 30
0.0
  9
$PUCSXDIR
 10
1.0
 20
0.0
 30
0.0
  9
$PUCSYDIR
 10
0.0
 20
1.0
 30
0.0
  9
$PUCSORTHOREF
  2

  9
$PUCSORTHOVIEW
 70
     0
  9
$PUCSORGTOP
 10
0.0
 20
0.0
 30
0.0
  9
$PUCSORGBOTTOM
 10
0.0
 20
0.0
 30
0.0
  9
$PUCSORGLEFT
 10
0.0
 20
0.0
 30
0.0
  9
$PUCSORGRIGHT
 10
0.0
 20
0.0
 30
0.0
  9
$PUCSORGFRONT
 10
0.0
 20
0.0
 30
0.0
  9
$PUCSORGBACK
 10
0.0
 20
0.0
 30
0.0
  9
$USERI1
 70
     0
  9
$USERI2
 70
     0
  9
$USERI3
 70
     0
  9
$USERI4
 70
     0
  9
$USERI5
 70
     0
  9
$USERR1
 40
0.0
  9
$USERR2
 40
0.0
  9
$USERR3
 40
0.0
  9
$USERR4
 40
0.0
  9
$USERR5
 40
0.0
  9
$WORLDVIEW
 70
     1
  9
$SHADEDGE
 70
     3
  9
$SHADEDIF
 70
    70
  9
$TILEMODE
 70
     1
  9
$MAXACTVP
 70
    64
  9
$PINSBASE
 10
0.0
 20
0.0
 30
0.0
  9
$PLIMCHECK
 70
     0
  9
$PEXTMIN
 10
1.000000000000000E+20
 20
1.000000000000000E+20
 30
1.000000000000000E+20
  9
$PEXTMAX
 10
-1.000000000000000E+20
 20
-1.000000000000000E+20
 30
-1.000000000000000E+20
  9
$PLIMMIN
 10
0.0
 20
0.0
  9
$PLIMMAX
 10
420.0
 20
297.0
  9
$UNITMODE
 70
     0
  9
$VISRETAIN
 70
     1
  9
$PLINEGEN
 70
     0
  9
$PSLTSCALE
 70
     1
  9
$TREEDEPTH
 70
  3020
  9
$CMLSTYLE
  2
Standard
  9
$CMLJUST
 70
     0
  9
$CMLSCALE
 40
20.0
  9
$PROXYGRAPHICS
 70
     1
  9
$MEASUREMENT
 70
     0
  9
$CELWEIGHT
370
    -1
  9
$ENDCAPS
280
     0
  9
$JOINSTYLE
280
     0
  9
$LWDISPLAY
290
     1
  9
$INSUNITS
 70
     4
  9
$HYPERLINKBASE
  1

  9
$STYLESHEET
  1

  9
$XEDIT
290
     1
  9
$CEPSNTYPE
380
     0
  9
$PSTYLEMODE
290
     1
  9
$FINGERPRINTGUID
  2
{76D08062-31F6-11D6-AFE6-00E04C3D640A}
  9
$VERSIONGUID
  2
{91043393-99FD-3A4B-AE19-4EF63211D174}
  9
$EXTNAMES
290
     1
  9
$PSVPSCALE
 40
0.0
  9
$OLESTARTUP
290
     0
  9
$SORTENTS
280
    96
  9
$INDEXCTL
280
     0
  9
$HIDETEXT
280
     0
  9
$XCLIPFRAME
280
     0
  9
$HALOGAP
280
     0
  9
$OBSCOLOR
 70
   257
  9
$OBSLTYPE
280
     0
  9
$INTERSECTIONDISPLAY
280
     0
  9
$INTERSECTIONCOLOR
 70
   257
  9
$DIMASSOC
280
     1
  9
$PROJECTNAME
  1

  9
$CAMERADISPLAY
290
     0
  9
$LENSLENGTH
 40
50.0
  9
$CAMERAHEIGHT
 40
0.0
  9
$STEPSPERSEC
 40
2.0
  9
$STEPSIZE
 40
6.0
  9
$3DDWFPREC
 40
2.0
  9
$PSOLWIDTH
 40
0.25
  9
$PSOLHEIGHT
 40
4.0
  9
$LOFTANG1
 40
1.570796326794896
  9
$LOFTANG2
 40
1.570796326794896
  9
$LOFTMAG1
 40
0.0
  9
$LOFTMAG2
 40
0.0
  9
$LOFTPARAM
 70
     7
  9
$LOFTNORMALS
280
     1
  9
$LATITUDE
 40
37.795
  9
$LONGITUDE
 40
-122.394
  9
$NORTHDIRECTION
 40
0.0
  9
$TIMEZONE
 70
 -8000
  9
$LIGHTGLYPHDISPLAY
280
     1
  9
$TILEMODELIGHTSYNCH
280
     1
  9
$CMATERIAL
347
256D
  9
$SOLIDHIST
280
     0
  9
$SHOWHIST
280
     1
  9
$DWFFRAME
280
     2
  9
$DGNFRAME
280
     0
  9
$REALWORLDSCALE
290
     1
  9
$INTERFERECOLOR
 62
     1
  9
$INTERFEREOBJVS
345
258F
  9
$INTERFEREVPVS
346
258C
  9
$CSHADOW
280
     0
  9
$SHADOWPLANELOCATION
 40
0.0
  0
ENDSEC
  0
SECTION
  2
CLASSES
  0
CLASS
  1
ACDBDICTIONARYWDFLT
  2
AcDbDictionaryWithDefault
  3
ObjectDBX Classes
 90
        0
 91
        1
280
     0
281
     0
  0
CLASS
  1
DICTIONARYVAR
  2
AcDbDictionaryVar
  3
ObjectDBX Classes
 90
        0
 91
       20
280
     0
281
     0
  0
CLASS
  1
TABLESTYLE
  2
AcDbTableStyle
  3
ObjectDBX Classes
 90
     4095
 91
        1
280
     0
281
     0
  0
CLASS
  1
SORTENTSTABLE
  2
AcDbSortentsTable
  3
ObjectDBX Classes
 90
        0
 91
        1
280
     0
281
     0
  0
CLASS
  1
MATERIAL
  2
AcDbMaterial
  3
ObjectDBX Classes
 90
     1153
 91
        3
280
     0
281
     0
  0
CLASS
  1
VISUALSTYLE
  2
AcDbVisualStyle
  3
ObjectDBX Classes
 90
     4095
 91
       24
280
     0
281
     0
  0
CLASS
  1
SCALE
  2
AcDbScale
  3
ObjectDBX Classes
 90
     1153
 91
       17
280
     0
281
     0
  0
CLASS
  1
MLEADERSTYLE
  2
AcDbMLeaderStyle
  3
ACDB_MLEADERSTYLE_CLASS
 90
     4095
 91
        1
280
     0
281
     0
  0
CLASS
  1
ACDBSECTIONVIEWSTYLE
  2
AcDbSectionViewStyle
  3
ObjectDBX Classes
 90
     1025
 91
        1
280
     0
281
     0
  0
CLASS
  1
ACDBDETAILVIEWSTYLE
  2
AcDbDetailViewStyle
  3
ObjectDBX Classes
 90
     1025
 91
        1
280
     0
281
     0
  0
CLASS
  1
CELLSTYLEMAP
  2
AcDbCellStyleMap
  3
ObjectDBX Classes
 90
     1152
 91
        1
280
     0
281
     0
  0
ENDSEC
  0
SECTION
  2
TABLES
  0
TABLE
  2
VPORT
  5
8
330
0
100
AcDbSymbolTable
 70
     1
1001
ACAD
1000
DbSaveVer
1071
        5
  0
VPORT
  5
256B
330
8
100
AcDbSymbolTableRecord
100
AcDbViewportTableRecord
  2
*Active
 70
     0
 10
0.0
 20
0.0
 11
1.0
 21
1.0
 12
711.3494478140125
 22
179.5557846272964
 13
0.0
 23
0.0
 14
10.0
 24
10.0
 15
10.0
 25
10.0
 16
0.0
 26
0.0
 36
1.0
 17
0.0
 27
0.0
 37
0.0
 40
240.1363450343913
 41
2.292712066905615
 42
50.0
 43
0.0
 44
0.0
 50
0.0
 51
0.0
 71
     0
 72
 20000
 73
     1
 74
     3
 75
     0
 76
     0
 77
     0
 78
     0
281
     0
 65
     1
110
0.0
120
0.0
130
0.0
111
1.0
121
0.0
131
0.0
112
0.0
122
1.0
132
0.0
 79
     0
146
0.0
348
258B
 60
     3
 61
     5
292
     1
282
     1
141
0.0
142
0.0
 63
   250
421
  3355443
1001
ACAD_NAV_VCDISPLAY
1070
     3
  0
ENDTAB
  0
TABLE
  2
LTYPE
  5
5
330
0
100
AcDbSymbolTable
 70
     1
  0
LTYPE
  5
14
330
5
100
AcDbSymbolTableRecord
100
AcDbLinetypeTableRecord
  2
ByBlock
 70
     0
  3

 72
    65
 73
     0
 40
0.0
  0
LTYPE
  5
15
330
5
100
AcDbSymbolTableRecord
100
AcDbLinetypeTableRecord
  2
ByLayer
 70
     0
  3

 72
    65
 73
     0
 40
0.0
  0
LTYPE
  5
16
330
5
100
AcDbSymbolTableRecord
100
AcDbLinetypeTableRecord
  2
Continuous
 70
     0
  3
Solid line
 72
    65
 73
     0
 40
0.0
  0
ENDTAB
  0
TABLE
  2
LAYER
  5
2
102
{ACAD_XDICTIONARY
360
2465
102
}
330
0
100
AcDbSymbolTable
 70
     3
  0
LAYER
  5
10
102
{ACAD_XDICTIONARY
360
25BE
102
}
330
2
100
AcDbSymbolTableRecord
100
AcDbLayerTableRecord
  2
0
 70
     0
 62
     7
  6
Continuous
370
    -3
390
F
347
257D
348
0
  0
LAYER
  5
A53
330
2
100
AcDbSymbolTableRecord
100
AcDbLayerTableRecord
  2
Defpoints
 70
     0
 62
     7
  6
Continuous
290
     0
370
    -3
390
F
347
257D
348
0
  0
LAYER
  5
C91
102
{ACAD_XDICTIONARY
360
25C0
102
}
330
2
100
AcDbSymbolTableRecord
100
AcDbLayerTableRecord
  2
轮廓线
 70
     0
 62
     7
  6
Continuous
370
    -3
390
F
347
257D
348
0
1001
AcadStringInfo
1000
MIFCodePage
1070
     5
  0
ENDTAB
  0
TABLE
  2
STYLE
  5
3
330
0
100
AcDbSymbolTable
 70
     3
  0
STYLE
  5
11
330
3
100
AcDbSymbolTableRecord
100
AcDbTextStyleTableRecord
  2
Standard
 70
     0
 40
0.0
 41
1.0
 50
0.0
 71
     0
 42
2.5
  3
ARIAL.TTF
  4

1001
ACAD
1000
Arial
1071
       34
  0
STYLE
  5
24B6
330
3
100
AcDbSymbolTableRecord
100
AcDbTextStyleTableRecord
  2
GN3
 70
     0
 40
0.156
 41
1.0
 50
0.0
 71
     0
 42
0.2
  3
ARIAL.TTF
  4

1001
ACAD
1000
Arial
1071
       34
  0
STYLE
  5
24B7
330
3
100
AcDbSymbolTableRecord
100
AcDbTextStyleTableRecord
  2
GN4
 70
     0
 40
0.188
 41
1.0
 50
0.0
 71
     0
 42
0.2
  3
ROMAND
  4

  0
ENDTAB
  0
TABLE
  2
VIEW
  5
6
330
0
100
AcDbSymbolTable
 70
     0
  0
ENDTAB
  0
TABLE
  2
UCS
  5
7
330
0
100
AcDbSymbolTable
 70
     0
  0
ENDTAB
  0
TABLE
  2
APPID
  5
9
330
0
100
AcDbSymbolTable
 70
    13
  0
APPID
  5
12
330
9
100
AcDbSymbolTableRecord
100
AcDbRegAppTableRecord
  2
ACAD
 70
     0
  0
APPID
  5
A80
330
9
100
AcDbSymbolTableRecord
100
AcDbRegAppTableRecord
  2
ACAD_EXEMPT_FROM_CAD_STANDARDS
 70
     0
  0
APPID
  5
2293
330
9
100
AcDbSymbolTableRecord
100
AcDbRegAppTableRecord
  2
ACAD_DSTYLE_DIMTEXT_FILL
 70
     0
  0
APPID
  5
2294
330
9
100
AcDbSymbolTableRecord
100
AcDbRegAppTableRecord
  2
ACAD_DSTYLE_DIMEXT_LENGTH
 70
     0
  0
APPID
  5
2295
330
9
100
AcDbSymbolTableRecord
100
AcDbRegAppTableRecord
  2
ACAD_DSTYLE_DIMEXT_ENABLED
 70
     0
  0
APPID
  5
2296
330
9
100
AcDbSymbolTableRecord
100
AcDbRegAppTableRecord
  2
ACAD_DSTYLE_DIM_LINETYPE
 70
     0
  0
APPID
  5
2297
330
9
100
AcDbSymbolTableRecord
100
AcDbRegAppTableRecord
  2
ACAD_DSTYLE_DIM_EXT1_LINETYPE
 70
     0
  0
APPID
  5
2298
330
9
100
AcDbSymbolTableRecord
100
AcDbRegAppTableRecord
  2
ACAD_DSTYLE_DIM_EXT2_LINETYPE
 70
     0
  0
APPID
  5
2354
330
9
100
AcDbSymbolTableRecord
100
AcDbRegAppTableRecord
  2
ACAD_DSTYLE_DIMJOGGED_JOGANGLE_SYMBOL
 70
     0
  0
APPID
  5
23B8
330
9
100
AcDbSymbolTableRecord
100
AcDbRegAppTableRecord
  2
ACAD_DSTYLE_DIMARC_LENGTH_SYMBOL
 70
     0
  0
APPID
  5
24B8
330
9
100
AcDbSymbolTableRecord
100
AcDbRegAppTableRecord
  2
PSP
 70
     0
  0
APPID
  5
25B6
330
9
100
AcDbSymbolTableRecord
100
AcDbRegAppTableRecord
  2
AcadStringInfo
 70
     0
  0
APPID
  5
25C2
330
9
100
AcDbSymbolTableRecord
100
AcDbRegAppTableRecord
  2
ACAD_NAV_VCDISPLAY
 70
     0
  0
ENDTAB
  0
TABLE
  2
DIMSTYLE
  5
A
330
0
100
AcDbSymbolTable
 70
     1
100
AcDbDimStyleTable
 71
     1
340
27
  0
DIMSTYLE
105
27
102
{ACAD_REACTORS
330
2286
330
241A
330
2442
330
244F
102
}
330
A
100
AcDbSymbolTableRecord
100
AcDbDimStyleTableRecord
  2
ISO-25
 70
     0
 40
3.0
 41
2.5
 42
0.625
 43
3.75
 44
1.25
 49
1.25
 73
     0
 74
     0
 77
     1
 78
     8
140
3.0
141
2.5
143
0.03937007874016
147
0.625
171
     3
172
     1
176
   256
177
   256
178
   256
271
     1
272
     1
274
     3
283
     0
284
     8
340
11
371
    -1
372
    -1
1001
ACAD_DSTYLE_DIMJOGGED_JOGANGLE_SYMBOL
1070
   384
1040
0.7853981633974483
  0
ENDTAB
  0
TABLE
  2
BLOCK_RECORD
  5
1
330
0
100
AcDbSymbolTable
 70
     5
  0
BLOCK_RECORD
  5
1F
102
{ACAD_XDICTIONARY
360
ADA
102
}
330
1
100
AcDbSymbolTableRecord
100
AcDbBlockTableRecord
  2
*Model_Space
340
22
 70
     0
280
     1
281
     0
  0
BLOCK_RECORD
  5
1B
330
1
100
AcDbSymbolTableRecord
100
AcDbBlockTableRecord
  2
*Paper_Space
340
1E
 70
     0
280
     1
281
     0
  0
BLOCK_RECORD
  5
23
330
1
100
AcDbSymbolTableRecord
100
AcDbBlockTableRecord
  2
*Paper_Space0
340
26
 70
     0
280
     1
281
     0
  0
BLOCK_RECORD
  5
2287
330
1
100
AcDbSymbolTableRecord
100
AcDbBlockTableRecord
  2
*D1
340
0
 70
     0
280
     1
281
     0
  0
BLOCK_RECORD
  5
241B
330
1
100
AcDbSymbolTableRecord
100
AcDbBlockTableRecord
  2
*D2
340
0
 70
     0
280
     1
281
     0
  0
BLOCK_RECORD
  5
2443
330
1
100
AcDbSymbolTableRecord
100
AcDbBlockTableRecord
  2
*D3
340
0
 70
     0
280
     1
281
     0
  0
BLOCK_RECORD
  5
2450
330
1
100
AcDbSymbolTableRecord
100
AcDbBlockTableRecord
  2
*D4
340
0
 70
     0
280
     1
281
     0
  0
ENDTAB
  0
ENDSEC
  0
SECTION
  2
BLOCKS
  0
BLOCK
  5
20
330
1F
100
AcDbEntity
  8
0
100
AcDbBlockBegin
  2
*Model_Space
 70
     0
 10
0.0
 20
0.0
 30
0.0
  3
*Model_Space
  1

  0
ENDBLK
  5
21
330
1F
100
AcDbEntity
  8
0
100
AcDbBlockEnd
  0
BLOCK
  5
1C
330
1B
100
AcDbEntity
 67
     1
  8
0
100
AcDbBlockBegin
  2
*Paper_Space
 70
     0
 10
0.0
 20
0.0
 30
0.0
  3
*Paper_Space
  1

  0
ENDBLK
  5
1D
330
1B
100
AcDbEntity
 67
     1
  8
0
100
AcDbBlockEnd
  0
BLOCK
  5
24
330
23
100
AcDbEntity
 67
     1
  8
0
100
AcDbBlockBegin
  2
*Paper_Space0
 70
     0
 10
0.0
 20
0.0
 30
0.0
  3
*Paper_Space0
  1

  0
ENDBLK
  5
25
330
23
100
AcDbEntity
 67
     1
  8
0
100
AcDbBlockEnd
  0
BLOCK
  5
2291
330
2287
100
AcDbEntity
  8
0
100
AcDbBlockBegin
  2
*D1
 70
     1
 10
0.0
 20
0.0
 30
0.0
  3
*D1
  1

  0
LINE
  5
24A7
330
2287
100
AcDbEntity
  8
0
440
 16777216
100
AcDbLine
 10
868.9361512522644
 20
210.5437203888264
 30
0.0
 11
889.9457940098432
 21
210.5437203888264
 31
0.0
  0
LINE
  5
24A8
330
2287
100
AcDbEntity
  8
0
440
 16777216
100
AcDbLine
 10
868.9361512522644
 20
248.5437203881667
 30
0.0
 11
889.9457940098432
 21
248.5437203881667
 31
0.0
  0
LINE
  5
24A9
330
2287
100
AcDbEntity
  8
0
440
 16777216
100
AcDbLine
 10
886.1957940098433
 20
218.0437203888264
 30
0.0
 11
886.1957940098433
 21
241.0437203881667
 31
0.0
  0
SOLID
  5
24AA
330
2287
100
AcDbEntity
  8
0
440
 16777216
100
AcDbTrace
 10
884.9457940098432
 20
218.0437203888264
 30
0.0
 11
887.4457940098432
 21
218.0437203888264
 31
0.0
 12
886.1957940098433
 22
210.5437203888264
 32
0.0
 13
886.1957940098433
 23
210.5437203888264
 33
0.0
  0
SOLID
  5
24AB
330
2287
100
AcDbEntity
  8
0
440
 16777216
100
AcDbTrace
 10
884.9457940098432
 20
241.0437203881667
 30
0.0
 11
887.4457940098432
 21
241.0437203881667
 31
0.0
 12
886.1957940098433
 22
248.5437203881667
 32
0.0
 13
886.1957940098433
 23
248.5437203881667
 33
0.0
  0
MTEXT
  5
24AC
330
2287
100
AcDbEntity
  8
0
440
 16777216
100
AcDbMText
 10
879.7225675432674
 20
229.5437203884967
 30
0.0
 40
9.0
 41
0.0
 46
0.0
 71
     5
 72
     1
  1
38
 11
0.0000000000000001
 21
1.0
 31
0.0
 73
     1
 44
1.0
  0
POINT
  5
24AD
330
2287
100
AcDbEntity
  8
Defpoints
 62
     0
440
 16777216
100
AcDbPoint
 10
867.0611512522643
 20
210.5437203888264
 30
0.0
  0
POINT
  5
24AE
330
2287
100
AcDbEntity
  8
Defpoints
 62
     0
440
 16777216
100
AcDbPoint
 10
867.0611512522643
 20
248.5437203881667
 30
0.0
  0
POINT
  5
24AF
330
2287
100
AcDbEntity
  8
Defpoints
 62
     0
440
 16777216
100
AcDbPoint
 10
886.1957940098433
 20
248.5437203881667
 30
0.0
  0
ENDBLK
  5
2292
330
2287
100
AcDbEntity
  8
0
100
AcDbBlockEnd
  0
BLOCK
  5
2425
330
241B
100
AcDbEntity
  8
0
100
AcDbBlockBegin
  2
*D2
 70
     1
 10
0.0
 20
0.0
 30
0.0
  3
*D2
  1

  0
LINE
  5
248C
330
241B
100
AcDbEntity
  8
0
440
 16777216
100
AcDbLine
 10
870.9529524767512
 20
183.9780255421033
 30
0.0
 11
889.9457940098432
 21
183.9780255421033
 31
0.0
  0
LINE
  5
248D
330
241B
100
AcDbEntity
  8
0
440
 16777216
100
AcDbLine
 10
868.9361512522644
 20
60.35060854366335
 30
0.0
 11
889.9457940098432
 21
60.35060854366334
 31
0.0
  0
LINE
  5
248E
330
241B
100
AcDbEntity
  8
0
440
 16777216
100
AcDbLine
 10
886.1957940098433
 20
176.4780255421033
 30
0.0
 11
886.1957940098433
 21
67.85060854366334
 31
0.0
  0
SOLID
  5
248F
330
241B
100
AcDbEntity
  8
0
440
 16777216
100
AcDbTrace
 10
884.9457940098432
 20
176.4780255421033
 30
0.0
 11
887.4457940098432
 21
176.4780255421033
 31
0.0
 12
886.1957940098433
 22
183.9780255421033
 32
0.0
 13
886.1957940098433
 23
183.9780255421033
 33
0.0
  0
SOLID
  5
2490
330
241B
100
AcDbEntity
  8
0
440
 16777216
100
AcDbTrace
 10
884.9457940098432
 20
67.85060854366334
 30
0.0
 11
887.4457940098432
 21
67.85060854366334
 31
0.0
 12
886.1957940098433
 22
60.35060854366334
 32
0.0
 13
886.1957940098433
 23
60.35060854366334
 33
0.0
  0
MTEXT
  5
2491
330
241B
100
AcDbEntity
  8
0
440
 16777216
100
AcDbMText
 10
879.7225675432674
 20
122.1643170428834
 30
0.0
 40
9.0
 41
0.0
 46
0.0
 71
     5
 72
     1
  1
123.6
 11
0.0000000000000001
 21
1.0
 31
0.0
 73
     1
 44
1.0
  0
POINT
  5
2492
330
241B
100
AcDbEntity
  8
Defpoints
 62
     0
440
 16777216
100
AcDbPoint
 10
869.0779524767513
 20
183.9780255421033
 30
0.0
  0
POINT
  5
2493
330
241B
100
AcDbEntity
  8
Defpoints
 62
     0
440
 16777216
100
AcDbPoint
 10
867.0611512522643
 20
60.35060854366335
 30
0.0
  0
POINT
  5
2494
330
241B
100
AcDbEntity
  8
Defpoints
 62
     0
440
 16777216
100
AcDbPoint
 10
886.1957940098433
 20
60.35060854366334
 30
0.0
  0
ENDBLK
  5
2426
330
241B
100
AcDbEntity
  8
0
100
AcDbBlockEnd
  0
BLOCK
  5
244D
330
2443
100
AcDbEntity
  8
0
100
AcDbBlockBegin
  2
*D3
 70
     1
 10
0.0
 20
0.0
 30
0.0
  3
*D3
  1

  0
LINE
  5
249E
330
2443
100
AcDbEntity
  8
0
440
 16777216
100
AcDbLine
 10
843.8523746523967
 20
246.2724830654737
 30
0.0
 11
843.8523746523967
 21
263.5755202660055
 31
0.0
  0
LINE
  5
249F
330
2443
100
AcDbEntity
  8
0
440
 16777216
100
AcDbLine
 10
709.6523746523968
 20
246.2724830654737
 30
0.0
 11
709.6523746523968
 21
263.5755202660055
 31
0.0
  0
LINE
  5
24A0
330
2443
100
AcDbEntity
  8
0
440
 16777216
100
AcDbLine
 10
836.3523746523968
 20
259.8255202660055
 30
0.0
 11
717.1523746523968
 21
259.8255202660055
 31
0.0
  0
SOLID
  5
24A1
330
2443
100
AcDbEntity
  8
0
440
 16777216
100
AcDbTrace
 10
836.3523746523968
 20
261.0755202660055
 30
0.0
 11
836.3523746523968
 21
258.5755202660055
 31
0.0
 12
843.8523746523967
 22
259.8255202660055
 32
0.0
 13
843.8523746523967
 23
259.8255202660055
 33
0.0
  0
SOLID
  5
24A2
330
2443
100
AcDbEntity
  8
0
440
 16777216
100
AcDbTrace
 10
717.1523746523968
 20
261.0755202660055
 30
0.0
 11
717.1523746523968
 21
258.5755202660055
 31
0.0
 12
709.6523746523968
 22
259.8255202660055
 32
0.0
 13
709.6523746523968
 23
259.8255202660055
 33
0.0
  0
MTEXT
  5
24A3
330
2443
100
AcDbEntity
  8
0
440
 16777216
100
AcDbMText
 10
776.7523746523968
 20
266.2987467325812
 30
0.0
 40
9.0
 41
0.0
 46
0.0
 71
     5
 72
     1
  1
134.2
 73
     1
 44
1.0
  0
POINT
  5
24A4
330
2443
100
AcDbEntity
  8
Defpoints
 62
     0
440
 16777216
100
AcDbPoint
 10
843.8523746523967
 20
244.3974830654737
 30
0.0
  0
POINT
  5
24A5
330
2443
100
AcDbEntity
  8
Defpoints
 62
     0
440
 16777216
100
AcDbPoint
 10
709.6523746523968
 20
244.3974830654737
 30
0.0
  0
POINT
  5
24A6
330
2443
100
AcDbEntity
  8
Defpoints
 62
     0
440
 16777216
100
AcDbPoint
 10
709.6523746523968
 20
259.8255202660055
 30
0.0
  0
ENDBLK
  5
244E
330
2443
100
AcDbEntity
  8
0
100
AcDbBlockEnd
  0
BLOCK
  5
245A
330
2450
100
AcDbEntity
  8
0
100
AcDbBlockBegin
  2
*D4
 70
     1
 10
0.0
 20
0.0
 30
0.0
  3
*D4
  1

  0
LINE
  5
2495
330
2450
100
AcDbEntity
  8
0
440
 16777216
100
AcDbLine
 10
689.6523746523968
 20
226.2724830654737
 30
0.0
 11
689.6523746523968
 21
289.2423864723173
 31
0.0
  0
LINE
  5
2496
330
2450
100
AcDbEntity
  8
0
440
 16777216
100
AcDbLine
 10
863.8523746523969
 20
226.2724830654737
 30
0.0
 11
863.8523746523969
 21
289.2423864723173
 31
0.0
  0
LINE
  5
2497
330
2450
100
AcDbEntity
  8
0
440
 16777216
100
AcDbLine
 10
697.1523746523968
 20
285.4923864723173
 30
0.0
 11
856.3523746523967
 21
285.4923864723173
 31
0.0
  0
SOLID
  5
2498
330
2450
100
AcDbEntity
  8
0
440
 16777216
100
AcDbTrace
 10
697.1523746523968
 20
286.7423864723173
 30
0.0
 11
697.1523746523968
 21
284.2423864723173
 31
0.0
 12
689.6523746523968
 22
285.4923864723173
 32
0.0
 13
689.6523746523968
 23
285.4923864723173
 33
0.0
  0
SOLID
  5
2499
330
2450
100
AcDbEntity
  8
0
440
 16777216
100
AcDbTrace
 10
856.3523746523967
 20
286.7423864723173
 30
0.0
 11
856.3523746523967
 21
284.2423864723173
 31
0.0
 12
863.8523746523969
 22
285.4923864723173
 32
0.0
 13
863.8523746523969
 23
285.4923864723173
 33
0.0
  0
MTEXT
  5
249A
330
2450
100
AcDbEntity
  8
0
440
 16777216
100
AcDbMText
 10
776.7523746523968
 20
291.8858039348003
 30
0.0
 40
9.0
 41
0.0
 46
0.0
 71
     5
 72
     1
  1
174.2
 73
     1
 44
1.0
  0
POINT
  5
249B
330
2450
100
AcDbEntity
  8
Defpoints
 62
     0
440
 16777216
100
AcDbPoint
 10
689.6523746523968
 20
224.3974830654737
 30
0.0
  0
POINT
  5
249C
330
2450
100
AcDbEntity
  8
Defpoints
 62
     0
440
 16777216
100
AcDbPoint
 10
863.8523746523969
 20
224.3974830654737
 30
0.0
  0
POINT
  5
249D
330
2450
100
AcDbEntity
  8
Defpoints
 62
     0
440
 16777216
100
AcDbPoint
 10
863.8523746523969
 20
285.4923864723173
 30
0.0
  0
ENDBLK
  5
245B
330
2450
100
AcDbEntity
  8
0
100
AcDbBlockEnd
  0
ENDSEC
  0
SECTION
  2
ENTITIES
  0
ARC
  5
1F27
330
1F
100
AcDbEntity
  8
0
100
AcDbCircle
 10
709.6523746523968
 20
224.3974830654737
 30
0.0
 40
20.0
100
AcDbArc
 50
11.53695903281534
 51
348.4630409671844
  0
ARC
  5
1F28
330
1F
100
AcDbEntity
  8
0
100
AcDbCircle
 10
843.8523746523967
 20
224.3974830654737
 30
0.0
 40
20.0
100
AcDbArc
 50
191.5369590328156
 51
168.4630409671846
  0
ARC
  5
1F2B
330
1F
100
AcDbEntity
  8
0
100
AcDbCircle
 10
843.8523746523967
 20
224.3974830654737
 30
0.0
 40
10.0
100
AcDbArc
 50
203.5781784782023
 51
156.4218215217977
  0
LINE
  5
1F2F
330
1F
100
AcDbEntity
  8
0
100
AcDbLine
 10
849.8523746523968
 20
228.3974830654737
 30
0.0
 11
849.8523746523968
 21
220.3974830654737
 31
0.0
  0
LINE
  5
1F5E
330
1F
100
AcDbEntity
  8
0
100
AcDbLine
 10
729.6523746523968
 20
183.9780255421033
 30
0.0
 11
729.6523746523968
 21
178.9780255421033
 31
0.0
  0
LINE
  5
1F60
330
1F
100
AcDbEntity
  8
0
100
AcDbLine
 10
689.6523746523968
 20
183.9780255421033
 30
0.0
 11
689.6523746523968
 21
178.9780255421033
 31
0.0
  0
ARC
  5
1F68
330
1F
100
AcDbEntity
  8
0
100
AcDbCircle
 10
691.6523746523968
 20
178.9780255421033
 30
0.0
 40
2.0
100
AcDbArc
 50
180.0
 51
270.0
  0
ARC
  5
1F69
330
1F
100
AcDbEntity
  8
0
100
AcDbCircle
 10
727.6523746523968
 20
178.9780255421033
 30
0.0
 40
2.0
100
AcDbArc
 50
270.0
 51
0.0
  0
LINE
  5
1F6F
330
1F
100
AcDbEntity
  8
0
100
AcDbLine
 10
699.6523746523968
 20
176.9780255421033
 30
0.0
 11
699.6523746523968
 21
61.9780255421033
 31
0.0
  0
LINE
  5
1F70
330
1F
100
AcDbEntity
  8
0
100
AcDbLine
 10
719.6523746523967
 20
176.9780255421033
 30
0.0
 11
719.6523746523967
 21
61.9780255421033
 31
0.0
  0
LINE
  5
1F7D
330
1F
100
AcDbEntity
  8
0
100
AcDbLine
 10
699.6523746523968
 20
61.9780255421033
 30
0.0
 11
763.5177727346417
 21
61.97802554210331
 31
0.0
  0
LINE
  5
1F7E
330
1F
100
AcDbEntity
  8
0
100
AcDbLine
 10
789.9869765701518
 20
61.97802554210331
 30
0.0
 11
810.8523729626204
 21
61.9780255421033
 31
0.0
  0
LINE
  5
1F7F
330
1F
100
AcDbEntity
  8
0
100
AcDbLine
 10
719.6523746523967
 20
69.97802554210331
 30
0.0
 11
745.7821520519464
 21
69.9780255421033
 31
0.0
  0
LINE
  5
1F81
330
1F
100
AcDbEntity
  8
0
100
AcDbLine
 10
807.7225972528472
 20
69.9780255421033
 30
0.0
 11
833.8523746523968
 21
69.9780255421033
 31
0.0
  0
LINE
  5
1F82
330
1F
100
AcDbEntity
  8
0
100
AcDbLine
 10
853.8523746523969
 20
176.9780255421032
 30
0.0
 11
853.8523746523969
 21
61.9780255421033
 31
0.0
  0
LINE
  5
1F85
330
1F
100
AcDbEntity
  8
0
100
AcDbLine
 10
853.8523746523969
 20
61.9780255421033
 30
0.0
 11
810.8523729626204
 21
61.9780255421033
 31
0.0
  0
ARC
  5
1F89
330
1F
100
AcDbEntity
  8
0
100
AcDbCircle
 10
825.8523746523968
 20
178.9780255421032
 30
0.0
 40
2.0
100
AcDbArc
 50
180.0
 51
270.0
  0
LINE
  5
1F8A
330
1F
100
AcDbEntity
  8
0
100
AcDbLine
 10
863.8523746523969
 20
183.9780255421032
 30
0.0
 11
823.8523746523968
 21
183.9780255421032
 31
0.0
  0
LINE
  5
1F8F
330
1F
100
AcDbEntity
  8
0
100
AcDbLine
 10
824.9523746523969
 20
183.9780255421032
 30
0.0
 11
862.7523746523968
 21
183.9780255421032
 31
0.0
  0
LINE
  5
1F93
330
1F
100
AcDbEntity
  8
0
100
AcDbLine
 10
863.8523746523969
 20
183.9780255421032
 30
0.0
 11
863.8523746523969
 21
178.9780255421032
 31
0.0
  0
ARC
  5
1F96
330
1F
100
AcDbEntity
  8
0
100
AcDbCircle
 10
861.8523746523969
 20
178.9780255421032
 30
0.0
 40
2.0
100
AcDbArc
 50
270.0
 51
0.0
  0
LINE
  5
1FAD
330
1F
100
AcDbEntity
  8
0
100
AcDbLine
 10
823.8523746523968
 20
183.9780255421032
 30
0.0
 11
823.8523746523968
 21
178.9780255421032
 31
0.0
  0
LINE
  5
20A5
330
1F
100
AcDbEntity
  8
0
100
AcDbLine
 10
744.7623997781835
 20
230.1974830654736
 30
0.0
 11
808.7423495266101
 21
230.1974830654736
 31
0.0
  0
LINE
  5
20A7
330
1F
100
AcDbEntity
  8
0
100
AcDbLine
 10
741.7623997781835
 20
228.3974830654736
 30
0.0
 11
743.5343021866819
 21
229.77601919295
 31
0.0
  0
LINE
  5
20AC
330
1F
100
AcDbEntity
  8
0
100
AcDbLine
 10
811.74234952661
 20
228.3974830654736
 30
0.0
 11
809.9704471181116
 21
229.77601919295
 31
0.0
  0
ARC
  5
20AF
330
1F
100
AcDbEntity
  8
0
100
AcDbCircle
 10
808.7423495266101
 20
228.1974830654736
 30
0.0
 40
2.0
100
AcDbArc
 50
52.11716343379783
 51
90.0
  0
CIRCLE
  5
20B7
330
1F
100
AcDbEntity
  8
0
 48
0.2
100
AcDbCircle
 10
776.7523746523968
 20
114.9780255421033
 30
0.0
 40
36.0
  0
LWPOLYLINE
  5
20F4
330
1F
100
AcDbEntity
  8
0
100
AcDbPolyline
 90
        4
 70
     0
 43
0.0
 10
757.6877554436371
 20
122.5962386190836
 10
757.6477481042968
 20
122.3180357668034
 10
757.5673449859571
 20
121.953787676403
 10
757.4401844274764
 20
121.5158020779032
  0
LINE
  5
20F5
330
1F
100
AcDbEntity
  8
0
100
AcDbLine
 10
757.2856759302969
 20
121.0402738214434
 30
0.0
 11
757.4401844274764
 21
121.5158020779032
 31
0.0
  0
LINE
  5
20F6
330
1F
100
AcDbEntity
  8
0
100
AcDbLine
 10
755.7796352873167
 20
122.0553472015031
 30
0.0
 11
755.6251267901363
 21
121.5798189425036
 31
0.0
  0
LWPOLYLINE
  5
20F7
330
1F
100
AcDbEntity
  8
0
100
AcDbPolyline
 90
       32
 70
     0
 43
0.0
 10
755.7796352873167
 20
122.0553472015031
 10
755.8476647575564
 20
122.2282858599433
 10
755.9266746909773
 20
122.3768669547035
 10
756.0121677762774
 20
122.5038529059634
 10
756.1007913633168
 20
122.6117489309632
 10
756.1897024351767
 20
122.7025490897231
 10
756.2773985285168
 20
122.7788045811031
 10
756.3624559453967
 20
122.8423822314431
 10
756.4440441007366
 20
122.8951220954832
 10
756.5219686819967
 20
122.9388140070833
 10
756.5958838961171
 20
122.9747776740433
 10
756.6656519226974
 20
123.0041876533233
 10
756.7313490861972
 20
123.028090958323
 10
756.792886113237
 20
123.047301366943
 10
756.8502494173574
 20
123.0625411561232
 10
756.9033959734972
 20
123.074429168923
 10
756.9522482633967
 20
123.0835046930634
 10
756.9976742939563
 20
123.0903779711635
 10
757.0421485738163
 20
123.0956631041031
 10
757.087270723857
 20
123.0995777038434
 10
757.1327096093567
 20
123.1020548896431
 10
757.1780308801565
 20
123.1030655708833
 10
757.2233122754972
 20
123.1026190160233
 10
757.2685450018973
 20
123.1007152453831
 10
757.3134639138372
 20
123.097374363063
 10
757.3578284606167
 20
123.0926435521033
 10
757.4015127572968
 20
123.086579312263
 10
757.4450389135774
 20
123.079129319543
 10
757.4891228767167
 20
123.0701264444834
 10
757.532189196477
 20
123.0598859417233
 10
757.5724986332573
 20
123.0489766544234
 10
757.6152843795364
 20
123.0359404524034
  0
LINE
  5
20F8
330
1F
100
AcDbEntity
  8
0
100
AcDbLine
 10
764.9712931930173
 20
98.33743261558362
 30
0.0
 11
764.5667846954568
 21
98.63132524090321
 31
0.0
  0
LINE
  5
20F9
330
1F
100
AcDbEntity
  8
0
100
AcDbLine
 10
763.5405088866966
 20
97.21877777390325
 30
0.0
 11
763.9450173842572
 21
96.92488514604299
 31
0.0
  0
LWPOLYLINE
  5
20FA
330
1F
100
AcDbEntity
  8
0
100
AcDbPolyline
 90
       31
 70
     0
 43
0.0
 10
763.5405088866966
 20
97.21877777390325
 10
763.3976237012968
 20
97.33639207004314
 10
763.2810824281571
 20
97.45691484652304
 10
763.186917658397
 20
97.57695897270338
 10
763.1117486240766
 20
97.69413517726304
 10
763.0528342359369
 20
97.80636938002324
 10
763.0073153201167
 20
97.91301517638345
 10
762.9729944819776
 20
98.01330412998328
 10
762.947885624397
 20
98.10700053390343
 10
762.9302388727967
 20
98.19445936838343
 10
762.9186982862768
 20
98.27576772494337
 10
762.9121121018372
 20
98.35114517388326
 10
762.9095123762774
 20
98.4209807060434
 10
762.9101012219364
 20
98.4854502240433
 10
762.9131911090764
 20
98.54475634622311
 10
762.9181834968569
 20
98.59905208726338
 10
762.9245429812165
 20
98.64841895322349
 10
762.9319391411765
 20
98.6937725302833
 10
762.9405135791969
 20
98.73753703508334
 10
762.9505614585171
 20
98.78142865926344
 10
762.9620774984771
 20
98.82525525436319
 10
762.9749458445969
 20
98.86853829200305
 10
762.9891700452565
 20
98.91131764256313
 10
763.0047573724771
 20
98.95361732174349
 10
763.021617493697
 20
98.99521226776329
 10
763.0396292026573
 20
99.03587459436318
 10
763.0586970486968
 20
99.07549131472348
 10
763.0789770792564
 20
99.11444345170327
 10
763.1008518386563
 20
99.15339035120366
 10
763.1237820950566
 20
99.19132914248354
 10
763.1466679319376
 20
99.22667118762326
  0
LWPOLYLINE
  5
20FB
330
1F
100
AcDbEntity
  8
0
100
AcDbPolyline
 90
        5
 70
     0
 43
0.0
 10
756.6317431563768
 20
119.7382769486831
 10
756.7715607964767
 20
119.896035307283
 10
756.9435164825365
 20
120.1910600868032
 10
757.121277569737
 20
120.5866427094029
 10
757.2856759302969
 20
121.0402738214434
  0
LWPOLYLINE
  5
20FC
330
1F
100
AcDbEntity
  8
0
100
AcDbPolyline
 90
        6
 70
     0
 43
0.0
 10
778.4188001079576
 20
135.5699053463232
 10
778.2982546772166
 20
135.5165109573032
 10
778.1064343394967
 20
135.4637131406235
 10
777.8294847003564
 20
135.4157929773833
 10
777.4582182419765
 20
135.3797020538832
 10
777.0023746502368
 20
135.3652939521435
  0
LWPOLYLINE
  5
20FD
330
1F
100
AcDbEntity
  8
0
100
AcDbPolyline
 90
        5
 70
     0
 43
0.0
 10
790.2323018961972
 20
99.30029079654339
 10
790.0264590109566
 20
99.25484435200321
 10
789.7139327246571
 20
99.11723730692308
 10
789.3376033528568
 20
98.90168958968303
 10
788.9379646067966
 20
98.63132524090321
  0
LWPOLYLINE
  5
20FE
330
1F
100
AcDbEntity
  8
0
100
AcDbPolyline
 90
        7
 70
     0
 43
0.0
 10
763.2772959688765
 20
99.30147598848368
 10
763.3746503817367
 20
99.28513240420313
 10
763.5147830046965
 20
99.24170427414317
 10
763.7022140979572
 20
99.16112108250315
 10
763.9420677965565
 20
99.0357497838432
 10
764.2341358331971
 20
98.85916120382313
 10
764.5667846954568
 20
98.63132524090321
  0
LWPOLYLINE
  5
20FF
330
1F
100
AcDbEntity
  8
0
100
AcDbPolyline
 90
        5
 70
     0
 43
0.0
 10
766.007489464537
 20
97.31316642942335
 10
765.9006583751772
 20
97.49489092246319
 10
765.6732103642373
 20
97.74959816514325
 10
765.3519201305164
 20
98.04090076008293
 10
764.9712931930173
 20
98.33743261558362
  0
LINE
  5
2100
330
1F
100
AcDbEntity
  8
0
100
AcDbLine
 10
766.0079660244166
 20
97.21256038730331
 30
0.0
 11
766.007489464537
 21
97.31316642942335
 31
0.0
  0
LINE
  5
2101
330
1F
100
AcDbEntity
  8
0
100
AcDbLine
 10
756.5362083918974
 20
119.7067347359235
 30
0.0
 11
756.6317431563768
 21
119.7382769486831
 31
0.0
  0
LINE
  5
2102
330
1F
100
AcDbEntity
  8
0
100
AcDbLine
 10
790.3281311914573
 20
99.26965505898312
 30
0.0
 11
790.2323018961972
 21
99.30029079654339
 31
0.0
  0
LWPOLYLINE
  5
2103
330
1F
100
AcDbEntity
  8
0
100
AcDbPolyline
 90
        4
 70
     0
 43
0.0
 10
769.8117993336766
 20
118.7275093842432
 10
769.7734662226369
 20
118.4216673467036
 10
769.6871045462369
 20
118.0215963764631
 10
769.5585915622171
 20
117.5782929145831
  0
LINE
  5
2104
330
1F
100
AcDbEntity
  8
0
100
AcDbLine
 10
769.4040830650367
 20
117.1027646555831
 30
0.0
 11
769.5585915622171
 21
117.5782929145831
 31
0.0
  0
LINE
  5
2105
330
1F
100
AcDbEntity
  8
0
100
AcDbLine
 10
770.5409330900367
 20
116.733379692043
 30
0.0
 11
770.6954415872162
 21
117.2089079485031
 31
0.0
  0
LWPOLYLINE
  5
2106
330
1F
100
AcDbEntity
  8
0
100
AcDbPolyline
 90
        3
 70
     0
 43
0.0
 10
778.5022452369769
 20
135.6644986648831
 10
778.4821861203766
 20
135.6120899203234
 10
778.4188001079576
 20
135.5699053463232
  0
LWPOLYLINE
  5
2107
330
1F
100
AcDbEntity
  8
0
100
AcDbPolyline
 90
        4
 70
     0
 43
0.0
 10
768.9255791706366
 20
116.0118382623832
 10
769.0714998287569
 20
116.2725880253634
 10
769.2394829065571
 20
116.6486327419034
 10
769.4040830650367
 20
117.1027646555831
  0
LWPOLYLINE
  5
2108
330
1F
100
AcDbEntity
  8
0
100
AcDbPolyline
 90
        3
 70
     0
 43
0.0
 10
782.7941304022372
 20
109.6007421742634
 10
782.7045849628368
 20
109.6049374287632
 10
782.5665770574971
 20
109.5735778902636
  0
LINE
  5
2109
330
1F
100
AcDbEntity
  8
0
100
AcDbLine
 10
770.7296833195971
 20
109.6101787365433
 30
0.0
 11
770.8474179660172
 21
109.5977895004631
 31
0.0
  0
LWPOLYLINE
  5
210A
330
1F
100
AcDbEntity
  8
0
100
AcDbPolyline
 90
        5
 70
     0
 43
0.0
 10
770.8474179660172
 20
109.5977895004631
 10
771.0416478899771
 20
109.5358003864431
 10
771.3206753684965
 20
109.4048330410633
 10
771.6744782473772
 20
109.1990694774832
 10
772.0563721952969
 20
108.9398580655034
  0
LINE
  5
210B
330
1F
100
AcDbEntity
  8
0
100
AcDbLine
 10
772.4608806928565
 20
108.6459654401833
 30
0.0
 11
772.0563721952969
 21
108.9398580655034
 31
0.0
  0
LINE
  5
210C
330
1F
100
AcDbEntity
  8
0
100
AcDbLine
 10
773.1634926480567
 20
109.6130278316832
 30
0.0
 11
772.7589841504971
 21
109.9069204595435
 31
0.0
  0
LWPOLYLINE
  5
210D
330
1F
100
AcDbEntity
  8
0
100
AcDbPolyline
 90
        5
 70
     0
 43
0.0
 10
757.6191093426771
 20
123.034723111683
 10
757.6627544115965
 20
122.9994505838031
 10
757.6832869511775
 20
122.926131202883
 10
757.696817457517
 20
122.7949859686032
 10
757.6877554436371
 20
122.5962386190836
  0
LWPOLYLINE
  5
210E
330
1F
100
AcDbEntity
  8
0
100
AcDbPolyline
 90
        4
 70
     0
 43
0.0
 10
773.3505475114372
 20
107.8537663997432
 10
773.1476517145368
 20
108.0731212975834
 10
772.8419215614569
 20
108.3490869077032
 10
772.4608806928565
 20
108.6459654401833
  0
LWPOLYLINE
  5
210F
330
1F
100
AcDbEntity
  8
0
100
AcDbPolyline
 90
        3
 70
     0
 43
0.0
 10
775.0029126877773
 20
122.8911753418834
 10
775.0026173797571
 20
122.9078267690834
 10
775.0024934150571
 20
122.9268762204434
  0
LINE
  5
2110
330
1F
100
AcDbEntity
  8
0
100
AcDbLine
 10
776.5023746520166
 20
121.4278917787433
 30
0.0
 11
776.5023746520166
 21
137.1112986465633
 31
0.0
  0
LINE
  5
2111
330
1F
100
AcDbEntity
  8
0
100
AcDbLine
 10
777.0023746502368
 20
137.1112986465633
 30
0.0
 11
777.0023746502368
 21
121.4278917787433
 31
0.0
  0
LINE
  5
2112
330
1F
100
AcDbEntity
  8
0
100
AcDbLine
 10
775.0025088607965
 20
122.924492651423
 30
0.0
 11
775.0024066283369
 21
135.5169252135234
 31
0.0
  0
LINE
  5
2113
330
1F
100
AcDbEntity
  8
0
100
AcDbLine
 10
775.0024066283369
 20
135.5169252135234
 30
0.0
 11
775.0025054063974
 21
135.6659934777431
 31
0.0
  0
LWPOLYLINE
  5
2114
330
1F
100
AcDbEntity
  8
0
100
AcDbPolyline
 90
        3
 70
     0
 43
0.0
 10
775.0025316014173
 20
135.6671208821431
 10
775.0031769061973
 20
135.7079340085429
 10
775.0051010501777
 20
135.749675924043
  0
LWPOLYLINE
  5
2115
330
1F
100
AcDbEntity
  8
0
100
AcDbPolyline
 90
       26
 70
     0
 43
0.0
 10
775.0051010501777
 20
135.749675924043
 10
775.0071150542765
 20
135.7779162104635
 10
775.0099360163769
 20
135.8083827433834
 10
775.0136834790375
 20
135.8408254572633
 10
775.0184686459972
 20
135.8750133416429
 10
775.0244530714174
 20
135.911064501443
 10
775.0318873440767
 20
135.9494040996433
 10
775.0411620931165
 20
135.9907605625235
 10
775.0528238376366
 20
136.0359819224232
 10
775.067546498057
 20
136.0857741571031
 10
775.0859801187973
 20
136.1402376600632
 10
775.1086041604168
 20
136.1987505631032
 10
775.1358908622571
 20
136.2606845210235
 10
775.1685979748965
 20
136.3259637884835
 10
775.207763753817
 20
136.3947270545632
 10
775.2546055702171
 20
136.4669615100434
 10
775.3105117118969
 20
136.5424231015632
 10
775.3769468977964
 20
136.620475823283
 10
775.4554856688367
 20
136.7001342466433
 10
775.5478587022773
 20
136.7800602031234
 10
775.6559138684372
 20
136.8584399625434
 10
775.7819532353562
 20
136.9330595364432
 10
775.9278832762368
 20
137.0005912733632
 10
776.0959715303572
 20
137.0568828625833
 10
776.2869901678771
 20
137.0961302644032
 10
776.5023746520166
 20
137.1112986465633
  0
LWPOLYLINE
  5
2116
330
1F
100
AcDbEntity
  8
0
100
AcDbPolyline
 90
        4
 70
     0
 43
0.0
 10
773.497229638697
 20
107.5206532991429
 10
773.5037681905171
 20
107.5819617744433
 10
773.463752867957
 20
107.693614111463
 10
773.3505475114372
 20
107.8537663997432
  0
LWPOLYLINE
  5
2117
330
1F
100
AcDbEntity
  8
0
100
AcDbPolyline
 90
        4
 70
     0
 43
0.0
 10
778.5022387548972
 20
122.9232427402831
 10
778.4696867549767
 20
122.8607504167035
 10
778.367139027637
 20
122.8015642866631
 10
778.173538955097
 20
122.7375462054033
  0
LWPOLYLINE
  5
2118
330
1F
100
AcDbEntity
  8
0
100
AcDbPolyline
 90
        3
 70
     0
 43
0.0
 10
763.1466679319376
 20
99.22667118762326
 10
763.1584684772962
 20
99.24402085066327
 10
763.175155990277
 20
99.26760370926338
  0
LINE
  5
2119
330
1F
100
AcDbEntity
  8
0
100
AcDbLine
 10
763.1790014131167
 20
99.2729415040231
 30
0.0
 11
770.5760168044764
 21
109.4542760968634
 31
0.0
  0
LINE
  5
211A
330
1F
100
AcDbEntity
  8
0
100
AcDbLine
 10
763.5405088866966
 20
97.21877777390325
 30
0.0
 11
772.7589841504971
 21
109.9069204595435
 31
0.0
  0
LINE
  5
211B
330
1F
100
AcDbEntity
  8
0
100
AcDbLine
 10
773.1634926480567
 20
109.6130278316832
 30
0.0
 11
763.9450173842572
 21
96.92488514604299
 31
0.0
  0
LINE
  5
211C
330
1F
100
AcDbEntity
  8
0
100
AcDbLine
 10
770.5765704812968
 20
109.4550241802031
 30
0.0
 11
770.6666236133571
 21
109.578754466143
 31
0.0
  0
LINE
  5
211D
330
1F
100
AcDbEntity
  8
0
100
AcDbLine
 10
770.6681339938771
 20
109.5807935730632
 30
0.0
 11
770.6805816194767
 21
109.5975819977034
 31
0.0
  0
LINE
  5
211E
330
1F
100
AcDbEntity
  8
0
100
AcDbLine
 10
770.6805816194767
 20
109.5975819977034
 30
0.0
 11
770.6948160918966
 21
109.6161621002434
 31
0.0
  0
LWPOLYLINE
  5
211F
330
1F
100
AcDbEntity
  8
0
100
AcDbPolyline
 90
        5
 70
     0
 43
0.0
 10
770.6948160918966
 20
109.6161621002434
 10
770.7158964485172
 20
109.6426059538831
 10
770.7397174041773
 20
109.6710645456833
 10
770.7665926209367
 20
109.7015148073633
 10
770.7880645896769
 20
109.7246817968435
  0
LWPOLYLINE
  5
2120
330
1F
100
AcDbEntity
  8
0
100
AcDbPolyline
 90
        4
 70
     0
 43
0.0
 10
783.5903675702368
 20
119.0264265842234
 10
783.619947381537
 20
119.040133089703
 10
783.6663055793971
 20
119.0600578834833
 10
783.7102231039573
 20
119.0772451541634
  0
LINE
  5
2121
330
1F
100
AcDbEntity
  8
0
100
AcDbLine
 10
783.7102231039573
 20
119.0772451541634
 30
0.0
 11
783.732999611617
 21
119.0855327118834
 31
0.0
  0
LINE
  5
2122
330
1F
100
AcDbEntity
  8
0
100
AcDbLine
 10
783.732999611617
 20
119.0855327118834
 30
0.0
 11
783.7639248405969
 21
119.0960955203232
 31
0.0
  0
LINE
  5
2123
330
1F
100
AcDbEntity
  8
0
100
AcDbLine
 10
782.8093077150372
 20
117.2089079485031
 30
0.0
 11
797.7251140149376
 21
122.0553472015031
 31
0.0
  0
LINE
  5
2124
330
1F
100
AcDbEntity
  8
0
100
AcDbLine
 10
797.879622512117
 20
121.5798189425036
 30
0.0
 11
782.9638162122166
 21
116.733379692043
 31
0.0
  0
LINE
  5
2125
330
1F
100
AcDbEntity
  8
0
100
AcDbLine
 10
783.7713717167373
 20
119.0985569378036
 30
0.0
 11
795.7452786908973
 21
122.989219413003
 31
0.0
  0
LINE
  5
2126
330
1F
100
AcDbEntity
  8
0
100
AcDbLine
 10
795.7452786908973
 20
122.989219413003
 30
0.0
 11
795.8870622427369
 21
123.0351838295833
 31
0.0
  0
LWPOLYLINE
  5
2127
330
1F
100
AcDbEntity
  8
0
100
AcDbPolyline
 90
        3
 70
     0
 43
0.0
 10
795.8881337061768
 20
123.0355031837831
 10
795.9288119382565
 20
123.047985691203
 10
795.9707719406972
 20
123.0594290922436
  0
LWPOLYLINE
  5
2128
330
1F
100
AcDbEntity
  8
0
100
AcDbPolyline
 90
        5
 70
     0
 43
0.0
 10
784.8046667265964
 20
115.7553206016833
 10
784.7720690523967
 20
115.7463177977434
 10
784.7360699549765
 20
115.7372959209434
 10
784.6964292316172
 20
115.7284579960233
 10
784.6654408302968
 20
115.722336415683
  0
LWPOLYLINE
  5
2129
330
1F
100
AcDbEntity
  8
0
100
AcDbPolyline
 90
        5
 70
     0
 43
0.0
 10
768.8395715981771
 20
115.7222873759033
 10
768.8266777250576
 20
115.7247488314834
 10
768.7763979627764
 20
115.735485581663
 10
768.7299284087769
 20
115.747046968243
 10
768.6859084866576
 20
115.7594861102434
  0
LWPOLYLINE
  5
212A
330
1F
100
AcDbEntity
  8
0
100
AcDbPolyline
 90
        3
 70
     0
 43
0.0
 10
768.6859084866576
 20
115.7594861102434
 10
768.6699807841962
 20
115.7643508300035
 10
768.6518253696569
 20
115.7701195357636
  0
LINE
  5
212B
330
1F
100
AcDbEntity
  8
0
100
AcDbLine
 10
770.5409330900367
 20
116.733379692043
 30
0.0
 11
755.6251267901363
 21
121.5798189425036
 31
0.0
  0
LINE
  5
212C
330
1F
100
AcDbEntity
  8
0
100
AcDbLine
 10
755.7796352873167
 20
122.0553472015031
 30
0.0
 11
770.6954415872162
 21
117.2089079485031
 31
0.0
  0
LINE
  5
212D
330
1F
100
AcDbEntity
  8
0
100
AcDbLine
 10
768.6540970567569
 20
115.7693976626834
 30
0.0
 11
756.677783866937
 21
119.6606302916835
 31
0.0
  0
LINE
  5
212E
330
1F
100
AcDbEntity
  8
0
100
AcDbLine
 10
756.677783866937
 20
119.6606302916835
 30
0.0
 11
756.5362083918974
 21
119.7067347359235
 31
0.0
  0
LWPOLYLINE
  5
212F
330
1F
100
AcDbEntity
  8
0
100
AcDbPolyline
 90
        3
 70
     0
 43
0.0
 10
756.5350762173769
 20
119.7071224999431
 10
756.506977690897
 20
119.716622671443
 10
756.4780922724168
 20
119.7271111061432
  0
LWPOLYLINE
  5
2130
330
1F
100
AcDbEntity
  8
0
100
AcDbPolyline
 90
       26
 70
     0
 43
0.0
 10
756.4780922724168
 20
119.7271111061432
 10
756.4529320153963
 20
119.7368405355033
 10
756.425656352397
 20
119.7480283820633
 10
756.3963493142367
 20
119.7608108812633
 10
756.3653529068371
 20
119.775214134143
 10
756.3328556185171
 20
119.7913237793432
 10
756.298707904237
 20
119.8094074439632
 10
756.2624874305768
 20
119.8299404178834
 10
756.2235489181569
 20
119.8536454682631
 10
756.1812604708568
 20
119.881419720563
 10
756.1352962193771
 20
119.9141781640633
 10
756.0860659241363
 20
119.9524924740231
 10
756.0345382547768
 20
119.9965482304633
 10
755.9813290419172
 20
120.0468246145433
 10
755.9266200504973
 20
120.1043629272035
 10
755.8707631416366
 20
120.1703689724832
 10
755.8143596984375
 20
120.246201668163
 10
755.758424562657
 20
120.3332202622233
 10
755.7044394534571
 20
120.4326984300433
 10
755.6542589492976
 20
120.5460405833433
 10
755.6103375385366
 20
120.6744582335432
 10
755.575610838877
 20
120.8196945597834
 10
755.5540889438973
 20
120.9826081989031
 10
755.5507497303563
 20
121.1642919782835
 10
755.571840556857
 20
121.3636504416436
 10
755.6251267901363
 20
121.5798189425036
  0
LINE
  5
2131
330
1F
100
AcDbEntity
  8
0
100
AcDbLine
 10
782.8402222607776
 20
109.5758768747433
 30
0.0
 11
782.7941304022372
 21
109.6007421742634
 31
0.0
  0
LWPOLYLINE
  5
2132
330
1F
100
AcDbEntity
  8
0
100
AcDbPolyline
 90
        4
 70
     0
 43
0.0
 10
769.7367622167969
 20
119.0974522029033
 10
769.7861349958769
 20
119.0471894941834
 10
769.8107341389571
 20
118.9313887072436
 10
769.8117993336766
 20
118.7275093842432
  0
LWPOLYLINE
  5
2133
330
1F
100
AcDbEntity
  8
0
100
AcDbPolyline
 90
        3
 70
     0
 43
0.0
 10
787.5284082539567
 20
97.17079332834334
 10
787.5155543121775
 20
97.18737765382327
 10
787.4982824086966
 20
97.21053592602363
  0
LINE
  5
2134
330
1F
100
AcDbEntity
  8
0
100
AcDbLine
 10
787.4943941614567
 20
97.21584261086315
 30
0.0
 11
780.0969296345968
 21
107.3973626999032
 31
0.0
  0
LINE
  5
2135
330
1F
100
AcDbEntity
  8
0
100
AcDbLine
 10
789.5597319179962
 20
96.92488514604299
 30
0.0
 11
780.3412566567369
 21
109.6130278316832
 31
0.0
  0
LINE
  5
2136
330
1F
100
AcDbEntity
  8
0
100
AcDbLine
 10
780.7457651517563
 20
109.9069204595435
 30
0.0
 11
789.9642404155567
 21
97.21877777390325
 31
0.0
  0
LINE
  5
2137
330
1F
100
AcDbEntity
  8
0
100
AcDbLine
 10
780.096260237917
 20
107.3982983901833
 30
0.0
 11
780.0067860963174
 21
107.5216658422033
 31
0.0
  0
LINE
  5
2138
330
1F
100
AcDbEntity
  8
0
100
AcDbLine
 10
780.0056085751768
 20
107.5232866441434
 30
0.0
 11
779.9888937622766
 21
107.5469333202432
 31
0.0
  0
LWPOLYLINE
  5
2139
330
1F
100
AcDbEntity
  8
0
100
AcDbPolyline
 90
        6
 70
     0
 43
0.0
 10
779.9888937622766
 20
107.5469333202432
 10
779.970493075177
 20
107.5741405962831
 10
779.9509250218573
 20
107.6045763571033
 10
779.9302049693172
 20
107.6386968070233
 10
779.9087755481171
 20
107.676324699763
 10
779.9060030619168
 20
107.6813857158036
  0
LWPOLYLINE
  5
213A
330
1F
100
AcDbEntity
  8
0
100
AcDbPolyline
 90
        5
 70
     0
 43
0.0
 10
775.0150191050172
 20
122.7335379711031
 10
775.0133756208772
 20
122.7465617449034
 10
775.0080496066368
 20
122.797698261883
 10
775.0046852648767
 20
122.8454659921036
 10
775.0029126877773
 20
122.8911753418834
  0
LWPOLYLINE
  5
213B
330
1F
100
AcDbEntity
  8
0
100
AcDbPolyline
 90
        3
 70
     0
 43
0.0
 10
778.5022452369769
 20
135.6644986648831
 10
778.5023414166174
 20
123.025447948623
 10
778.5022387548972
 20
122.9232427402831
  0
LWPOLYLINE
  5
213C
330
1F
100
AcDbEntity
  8
0
100
AcDbPolyline
 90
        3
 70
     0
 43
0.0
 10
778.5022153995972
 20
122.9207064613834
 10
778.502013088597
 20
122.899809261623
 10
778.5014184034773
 20
122.8764134410031
  0
LWPOLYLINE
  5
213D
330
1F
100
AcDbEntity
  8
0
100
AcDbPolyline
 90
        5
 70
     0
 43
0.0
 10
778.5014184034773
 20
122.8764134410031
 10
778.4999076114766
 20
122.8426316188034
 10
778.4973642434363
 20
122.8056120382835
 10
778.4935214748968
 20
122.7651909304032
 10
778.4897653711571
 20
122.7338072288835
  0
LWPOLYLINE
  5
213E
330
1F
100
AcDbEntity
  8
0
100
AcDbPolyline
 90
        4
 70
     0
 43
0.0
 10
773.5992847609761
 20
107.6823741923631
 10
773.5761524882166
 20
107.6414338272034
 10
773.5498332088766
 20
107.5982347568834
 10
773.5231735492172
 20
107.5575996844832
  0
LINE
  5
213F
330
1F
100
AcDbEntity
  8
0
100
AcDbLine
 10
773.5231735492172
 20
107.5575996844832
 30
0.0
 11
773.5104001254369
 21
107.539110102463
 31
0.0
  0
LINE
  5
2140
330
1F
100
AcDbEntity
  8
0
100
AcDbLine
 10
773.5104001254369
 20
107.539110102463
 30
0.0
 11
773.4958300072569
 21
107.5186917841429
 31
0.0
  0
LINE
  5
2141
330
1F
100
AcDbEntity
  8
0
100
AcDbLine
 10
773.497229638697
 20
107.5206532991429
 30
0.0
 11
766.0955501469364
 21
97.33294168324352
 31
0.0
  0
LINE
  5
2142
330
1F
100
AcDbEntity
  8
0
100
AcDbLine
 10
766.0955501469364
 20
97.33294168324352
 30
0.0
 11
766.0079660244166
 21
97.21256038730331
 31
0.0
  0
LWPOLYLINE
  5
2143
330
1F
100
AcDbEntity
  8
0
100
AcDbPolyline
 90
        3
 70
     0
 43
0.0
 10
766.0072270190369
 20
97.21156819472305
 10
765.9936081384769
 20
97.19319252916335
 10
765.9790124043968
 20
97.17419864538312
  0
LWPOLYLINE
  5
2144
330
1F
100
AcDbEntity
  8
0
100
AcDbPolyline
 90
       26
 70
     0
 43
0.0
 10
765.9790124043968
 20
97.17419864538312
 10
765.9629626574772
 20
97.15406420254346
 10
765.9445672840567
 20
97.13189281686306
 10
765.9240070102171
 20
97.10817340024329
 10
765.9011836852771
 20
97.08305645784328
 10
765.8762562573567
 20
97.0569696393032
 10
765.8489911861563
 20
97.02991863422319
 10
765.818934304437
 20
97.00174931540329
 10
765.7852492790973
 20
96.97207121118305
 10
765.7468687259363
 20
96.94049032946356
 10
765.7026777881567
 20
96.90682311714324
 10
765.6519256823969
 20
96.87140091468343
 10
765.5946917836566
 20
96.83524099716358
 10
765.5309330846569
 20
96.79926134344311
 10
765.4597368668767
 20
96.76397497002341
 10
765.3800322612371
 20
96.73007908404322
 10
765.290636996797
 20
96.69855026470356
 10
765.1904493891963
 20
96.67077140738326
 10
765.0786654547776
 20
96.64859580276294
 10
764.954411212557
 20
96.6342851176433
 10
764.8172966023569
 20
96.63065807892332
 10
764.6664520627966
 20
96.64117603858318
 10
764.5022762087767
 20
96.67011266346349
 10
764.3252072156976
 20
96.72281075974348
 10
764.1383183743366
 20
96.80521725228306
 10
763.9450173842572
 20
96.92488514604299
  0
LWPOLYLINE
  5
2145
330
1F
100
AcDbEntity
  8
0
100
AcDbPolyline
 90
        4
 70
     0
 43
0.0
 10
783.7713717167373
 20
119.0985569378036
 10
783.7334802405769
 20
119.0624047749029
 10
783.7018192548769
 20
118.9785384046632
 10
783.6889971596167
 20
118.8375944574432
  0
LWPOLYLINE
  5
2146
330
1F
100
AcDbEntity
  8
0
100
AcDbPolyline
 90
        3
 70
     0
 43
0.0
 10
763.1790014131167
 20
99.2729415040231
 10
763.2172336963169
 20
99.29929639924337
 10
763.2772959688765
 20
99.30147598848368
  0
LINE
  5
2147
330
1F
100
AcDbEntity
  8
0
100
AcDbLine
 10
770.6666236133571
 20
109.578754466143
 30
0.0
 11
770.7296833195971
 21
109.6101787365433
 31
0.0
  0
LWPOLYLINE
  5
2148
330
1F
100
AcDbEntity
  8
0
100
AcDbPolyline
 90
        3
 70
     0
 43
0.0
 10
796.9671194603172
 20
119.7062714653235
 10
784.9466850684168
 20
115.800494455963
 10
784.8494625755368
 20
115.769012890783
  0
LWPOLYLINE
  5
2149
330
1F
100
AcDbEntity
  8
0
100
AcDbPolyline
 90
        3
 70
     0
 43
0.0
 10
784.8470420977767
 20
115.7682509974634
 10
784.8271037657971
 20
115.7619854067434
 10
784.8046667265964
 20
115.7553206016833
  0
LWPOLYLINE
  5
214A
330
1F
100
AcDbEntity
  8
0
100
AcDbPolyline
 90
       25
 70
     0
 43
0.0
 10
795.9707719406972
 20
123.0594290922436
 10
795.9994468820771
 20
123.0664484559029
 10
796.0306169924563
 20
123.0733541825034
 10
796.0641365850571
 20
123.0799517664632
 10
796.0998743774364
 20
123.0860542028236
 10
796.1381028506369
 20
123.0915324189432
 10
796.1794286252373
 20
123.0962498974432
 10
796.2247968860367
 20
123.1000041546036
 10
796.2752523197971
 20
123.1024448431431
 10
796.3316160297774
 20
123.1030265945833
 10
796.3939300174172
 20
123.1010446376631
 10
796.4615154397773
 20
123.0957743307036
 10
796.5341272147973
 20
123.0864653272234
 10
796.6122318083964
 20
123.0721680050433
 10
796.6962562758565
 20
123.0516990061033
 10
796.7865191788972
 20
123.0236024963833
 10
796.8830075203371
 20
122.9861758656234
 10
796.9852708311766
 20
122.9375120970631
 10
797.0926397858568
 20
122.8753741517435
 10
797.2038331474171
 20
122.797332819383
 10
797.3175038268566
 20
122.7002360234833
 10
797.4309027694764
 20
122.5810184107632
 10
797.5406364920965
 20
122.4358472101231
 10
797.6409818438571
 20
122.2619188279832
 10
797.7251140149376
 20
122.0553472015031
  0
LWPOLYLINE
  5
214B
330
1F
100
AcDbEntity
  8
0
100
AcDbPolyline
 90
        4
 70
     0
 43
0.0
 10
768.6540970567569
 20
115.7693976626834
 10
768.7144254070164
 20
115.7821244901634
 10
768.8082476730171
 20
115.8546837913237
 10
768.9255791706366
 20
116.0118382623832
  0
LWPOLYLINE
  5
214C
330
1F
100
AcDbEntity
  8
0
100
AcDbPolyline
 90
        3
 70
     0
 43
0.0
 10
796.9671194603172
 20
119.7062714653235
 10
796.9110771822572
 20
119.7091536134831
 10
796.8513699585167
 20
119.7564015149233
  0
LWPOLYLINE
  5
214D
330
1F
100
AcDbEntity
  8
0
100
AcDbPolyline
 90
        4
 70
     0
 43
0.0
 10
784.8494625755368
 20
115.769012890783
 10
784.7799754805776
 20
115.7806556869032
 10
784.6920083616171
 20
115.8598814771431
 10
784.5713093396173
 20
116.0241972089634
  0
LINE
  5
214E
330
1F
100
AcDbEntity
  8
0
100
AcDbLine
 10
757.6191093426771
 20
123.034723111683
 30
0.0
 11
769.5903367666971
 21
119.1451716096231
 31
0.0
  0
LINE
  5
214F
330
1F
100
AcDbEntity
  8
0
100
AcDbLine
 10
769.5911978724163
 20
119.1448831951634
 30
0.0
 11
769.7367622167969
 21
119.0974522029033
 31
0.0
  0
LWPOLYLINE
  5
2150
330
1F
100
AcDbEntity
  8
0
100
AcDbPolyline
 90
        7
 70
     0
 43
0.0
 10
769.7386675368372
 20
119.0968330753631
 10
769.7660892726965
 20
119.0875272341832
 10
769.7969677758367
 20
119.0763317371434
 10
769.8306883560965
 20
119.0632105035434
 10
769.8675067279766
 20
119.0477854188235
 10
769.9069606140167
 20
119.029939714103
 10
769.9121783912371
 20
119.0274748930228
  0
LWPOLYLINE
  5
2151
330
1F
100
AcDbEntity
  8
0
100
AcDbPolyline
 90
        4
 70
     0
 43
0.0
 10
782.7156888623969
 20
109.7257325415031
 10
782.7378651883766
 20
109.7018360132234
 10
782.771140265337
 20
109.6639038437234
 10
782.8010575918363
 20
109.6274469544833
  0
LINE
  5
2152
330
1F
100
AcDbEntity
  8
0
100
AcDbLine
 10
782.8010575918363
 20
109.6274469544833
 30
0.0
 11
782.8159778566371
 21
109.6083462052834
 31
0.0
  0
LINE
  5
2153
330
1F
100
AcDbEntity
  8
0
100
AcDbLine
 10
782.8159778566371
 20
109.6083462052834
 30
0.0
 11
782.835580103437
 21
109.5821986528031
 31
0.0
  0
LINE
  5
2154
330
1F
100
AcDbEntity
  8
0
100
AcDbLine
 10
782.8402222607776
 20
109.5758768747433
 30
0.0
 11
790.2406130098772
 21
99.39028152588349
 31
0.0
  0
LINE
  5
2155
330
1F
100
AcDbEntity
  8
0
100
AcDbLine
 10
790.2406130098772
 20
99.39028152588349
 30
0.0
 11
790.3281311914573
 21
99.26965505898312
 31
0.0
  0
LWPOLYLINE
  5
2156
330
1F
100
AcDbEntity
  8
0
100
AcDbPolyline
 90
        3
 70
     0
 43
0.0
 10
790.3288464579966
 20
99.26864561726331
 10
790.3421142902364
 20
99.25001490014352
 10
790.3556682153769
 20
99.23026409890333
  0
LWPOLYLINE
  5
2157
330
1F
100
AcDbEntity
  8
0
100
AcDbPolyline
 90
       26
 70
     0
 43
0.0
 10
790.3556682153769
 20
99.23026409890333
 10
790.369857564697
 20
99.20877799760326
 10
790.3852593220565
 20
99.18443162262299
 10
790.4014643544171
 20
99.15754793750336
 10
790.4182991899372
 20
99.12808010464329
 10
790.4354062296372
 20
99.09631144072324
 10
790.4527078942967
 20
99.0620215982031
 10
790.4702104221571
 20
99.02473100476306
 10
790.4880267314568
 20
98.98352360432324
 10
790.506201688757
 20
98.93726250050356
 10
790.5245653604372
 20
98.88483067750355
 10
790.5425706152575
 20
98.82561649570341
 10
790.5592744909165
 20
98.76000979430324
 10
790.5737906544166
 20
98.68825334142327
 10
790.5853491479367
 20
98.60963762616307
 10
790.592955975497
 20
98.52335963768297
 10
790.5953170070972
 20
98.42859674872313
 10
790.5907765970762
 20
98.32472853126326
 10
790.5773237156766
 20
98.21156305274332
 10
790.5525373136363
 20
98.08896800202326
 10
790.5136160884569
 20
97.95744344414295
 10
790.4569993868574
 20
97.81723198974312
 10
790.3787458908366
 20
97.67003338396314
 10
790.2739096971566
 20
97.51791536968319
 10
790.1377846379366
 20
97.36563852412343
 10
789.9642404155567
 20
97.21877777390325
  0
LWPOLYLINE
  5
2158
330
1F
100
AcDbEntity
  8
0
100
AcDbPolyline
 90
        4
 70
     0
 43
0.0
 10
775.0025088607965
 20
122.924492651423
 10
775.0332553093369
 20
122.8710497458633
 10
775.1312560556764
 20
122.8042415203236
 10
775.3169763979769
 20
122.7412160228032
  0
LWPOLYLINE
  5
2159
330
1F
100
AcDbEntity
  8
0
100
AcDbPolyline
 90
        3
 70
     0
 43
0.0
 10
787.4943941614567
 20
97.21584261086315
 10
787.4811435935973
 20
97.26034778220361
 10
787.4976309444166
 20
97.31814392772328
  0
LWPOLYLINE
  5
215A
330
1F
100
AcDbEntity
  8
0
100
AcDbPolyline
 90
        4
 70
     0
 43
0.0
 10
780.0067860963174
 20
107.5216658422033
 10
779.9963863609566
 20
107.5913498176433
 10
780.044551230337
 20
107.6994936348834
 10
780.1635267277172
 20
107.8650615790835
  0
LWPOLYLINE
  5
215B
330
1F
100
AcDbEntity
  8
0
100
AcDbPolyline
 90
        5
 70
     0
 43
0.0
 10
783.6889971596167
 20
118.8375944574432
 10
783.7017702531968
 20
118.6279779831034
 10
783.7461614521973
 20
118.3401537835434
 10
783.8286145410368
 20
117.9789932384033
 10
783.9461577400363
 20
117.5782929145831
  0
LWPOLYLINE
  5
215C
330
1F
100
AcDbEntity
  8
0
100
AcDbPolyline
 90
        3
 70
     0
 43
0.0
 10
795.8870622427369
 20
123.0351838295833
 10
795.8283130409565
 20
122.9535117170831
 10
795.8079262313369
 20
122.7436997770433
  0
LWPOLYLINE
  5
215D
330
1F
100
AcDbEntity
  8
0
100
AcDbPolyline
 90
        4
 70
     0
 43
0.0
 10
780.1635267277172
 20
107.8650615790835
 10
780.374308305137
 20
108.0899613477232
 10
780.679332185817
 20
108.3628634409834
 10
781.0438686119371
 20
108.6459654401833
  0
LINE
  5
215E
330
1F
100
AcDbEntity
  8
0
100
AcDbLine
 10
780.7457651517563
 20
109.9069204595435
 30
0.0
 11
780.3412566567369
 21
109.6130278316832
 31
0.0
  0
LINE
  5
215F
330
1F
100
AcDbEntity
  8
0
100
AcDbLine
 10
781.4483771069574
 20
108.9398580655034
 30
0.0
 11
781.0438686119371
 21
108.6459654401833
 31
0.0
  0
LWPOLYLINE
  5
2160
330
1F
100
AcDbEntity
  8
0
100
AcDbPolyline
 90
        5
 70
     0
 43
0.0
 10
782.5665770574971
 20
109.5735778902636
 10
782.3711670469967
 20
109.4966549021233
 10
782.1111476000571
 20
109.3654937953834
 10
781.7931429147567
 20
109.1754715008033
 10
781.4483771069574
 20
108.9398580655034
  0
LWPOLYLINE
  5
2161
330
1F
100
AcDbEntity
  8
0
100
AcDbPolyline
 90
        4
 70
     0
 43
0.0
 10
778.173538955097
 20
122.7375462054033
 10
777.8707866522974
 20
122.6794935097232
 10
777.4636201514169
 20
122.6380069810635
 10
777.0023746502368
 20
122.6232466346633
  0
LINE
  5
2162
330
1F
100
AcDbEntity
  8
0
100
AcDbLine
 10
776.5023746520166
 20
121.4278917787433
 30
0.0
 11
777.0023746502368
 21
121.4278917787433
 31
0.0
  0
LINE
  5
2163
330
1F
100
AcDbEntity
  8
0
100
AcDbLine
 10
776.5023746520166
 20
122.6232466346633
 30
0.0
 11
777.0023746502368
 21
122.6232466346633
 31
0.0
  0
LWPOLYLINE
  5
2164
330
1F
100
AcDbEntity
  8
0
100
AcDbPolyline
 90
        4
 70
     0
 43
0.0
 10
775.3169763979769
 20
122.7412160228032
 10
775.610056286797
 20
122.6830133401232
 10
776.0196056632769
 20
122.6394561806033
 10
776.5023746520166
 20
122.6232466346633
  0
LINE
  5
2165
330
1F
100
AcDbEntity
  8
0
100
AcDbLine
 10
775.0025054063974
 20
135.6659934777431
 30
0.0
 11
775.0620810251168
 21
135.5848431853833
 31
0.0
  0
LWPOLYLINE
  5
2166
330
1F
100
AcDbEntity
  8
0
100
AcDbPolyline
 90
        4
 70
     0
 43
0.0
 10
784.5713093396173
 20
116.0241972089634
 10
784.4225520399771
 20
116.2941602529836
 10
784.2572642857169
 20
116.6685865882032
 10
784.1006662372167
 20
117.1027646555831
  0
LINE
  5
2167
330
1F
100
AcDbEntity
  8
0
100
AcDbLine
 10
782.8093077150372
 20
117.2089079485031
 30
0.0
 11
782.9638162122166
 21
116.733379692043
 31
0.0
  0
LINE
  5
2168
330
1F
100
AcDbEntity
  8
0
100
AcDbLine
 10
783.9461577400363
 20
117.5782929145831
 30
0.0
 11
784.1006662372167
 21
117.1027646555831
 31
0.0
  0
LWPOLYLINE
  5
2169
330
1F
100
AcDbEntity
  8
0
100
AcDbPolyline
 90
        4
 70
     0
 43
0.0
 10
795.8079262313369
 20
122.7436997770433
 10
795.8422223755972
 20
122.4039466998834
 10
795.930928263717
 20
121.9794282906032
 10
796.064564874777
 20
121.5158020779032
  0
LWPOLYLINE
  5
216A
330
1F
100
AcDbEntity
  8
0
100
AcDbPolyline
 90
        7
 70
     0
 43
0.0
 10
787.4976309444166
 20
97.31814392772328
 10
787.5432587830567
 20
97.40568303128345
 10
787.6278647530373
 20
97.52553704608324
 10
787.7624233155168
 20
97.67889303096314
 10
787.9557773738172
 20
97.86826559354318
 10
788.2139770809374
 20
98.09146992996335
 10
788.533456109237
 20
98.33743261558362
  0
LINE
  5
216B
330
1F
100
AcDbEntity
  8
0
100
AcDbLine
 10
788.9379646067966
 20
98.63132524090321
 30
0.0
 11
788.533456109237
 21
98.33743261558362
 31
0.0
  0
LINE
  5
216C
330
1F
100
AcDbEntity
  8
0
100
AcDbLine
 10
776.5023746520166
 20
135.3652939521435
 30
0.0
 11
777.0023746502368
 21
135.3652939521435
 31
0.0
  0
LWPOLYLINE
  5
216D
330
1F
100
AcDbEntity
  8
0
100
AcDbPolyline
 90
        5
 70
     0
 43
0.0
 10
775.0620810251168
 20
135.5848431853833
 10
775.2554254237968
 20
135.5006097826031
 10
775.5891428310363
 20
135.4282618323032
 10
776.0202338967167
 20
135.3814601606032
 10
776.5023746520166
 20
135.3652939521435
  0
LWPOLYLINE
  5
216E
330
1F
100
AcDbEntity
  8
0
100
AcDbPolyline
 90
        6
 70
     0
 43
0.0
 10
796.8513699585167
 20
119.7564015149233
 10
796.7633383133972
 20
119.8545472038232
 10
796.6538488778171
 20
120.0206637067431
 10
796.5226919595363
 20
120.2692502657033
 10
796.3736397963769
 20
120.6111929295435
 10
796.2190733719564
 20
121.0402738214434
  0
LINE
  5
216F
330
1F
100
AcDbEntity
  8
0
100
AcDbLine
 10
796.064564874777
 20
121.5158020779032
 30
0.0
 11
796.2190733719564
 21
121.0402738214434
 31
0.0
  0
LINE
  5
2170
330
1F
100
AcDbEntity
  8
0
100
AcDbLine
 10
789.5597319179962
 20
96.92488514604299
 30
0.0
 11
789.9642404155567
 21
97.21877777390325
 31
0.0
  0
LWPOLYLINE
  5
2171
330
1F
100
AcDbEntity
  8
0
100
AcDbPolyline
 90
       31
 70
     0
 43
0.0
 10
789.5597319179962
 20
96.92488514604299
 10
789.4037201218172
 20
96.82533807564329
 10
789.2530829173767
 20
96.7517443239231
 10
789.1098156550172
 20
96.69928398180315
 10
788.975145952297
 20
96.66400341990318
 10
788.8501993365573
 20
96.6426547859433
 10
788.7347070376965
 20
96.63231908652329
 10
788.6287208539372
 20
96.63066902124326
 10
788.5318512127762
 20
96.63574285920327
 10
788.4432197745966
 20
96.64598606706347
 10
788.3623246938171
 20
96.66013598034311
 10
788.2886012369965
 20
96.67716505728328
 10
788.2213803401967
 20
96.69627294134357
 10
788.1602481459769
 20
96.71675514066334
 10
788.1047995014771
 20
96.7380203991234
 10
788.0547039145969
 20
96.75954674926339
 10
788.009718424177
 20
96.7808501788432
 10
787.9688701492571
 20
96.80189937220308
 10
787.9298972782573
 20
96.823578122343
 10
787.8912588287369
 20
96.84669747920322
 10
787.8531359103164
 20
96.87119304870345
 10
787.8159478338168
 20
96.89680676684345
 10
787.7796577743167
 20
96.92355433082326
 10
787.7442451400368
 20
96.95145007894332
 10
787.7098960570967
 20
96.98033855304363
 10
787.6767898113969
 20
97.01003405626359
 10
787.6450043606175
 20
97.04041089670324
 10
787.6142255499374
 20
97.07173522572299
 10
787.5839445208368
 20
97.10457460886306
 10
787.5549484243967
 20
97.13810631218354
 10
787.5284082539567
 20
97.17079332834334
  0
LINE
  5
2172
330
1F
100
AcDbEntity
  8
0
100
AcDbLine
 10
777.0023746502368
 20
137.1112986465633
 30
0.0
 11
776.5023746520166
 21
137.1112986465633
 31
0.0
  0
LWPOLYLINE
  5
2173
330
1F
100
AcDbEntity
  8
0
100
AcDbPolyline
 90
       32
 70
     0
 43
0.0
 10
777.0023746502368
 20
137.1112986465633
 10
777.1878716274771
 20
137.1000397257231
 10
777.3535962464968
 20
137.0708108230433
 10
777.5007860257776
 20
137.028742781703
 10
777.6307875158375
 20
136.9777983496833
 10
777.7446186724776
 20
136.9212975965434
 10
777.8442415415568
 20
136.8614578152833
 10
777.9309916449167
 20
136.8002099189835
 10
778.0063623298367
 20
136.7389124393431
 10
778.0719957825169
 20
136.6783032692233
 10
778.1290402658371
 20
136.6191190949835
 10
778.1785702683767
 20
136.5618539364632
 10
778.2216051454772
 20
136.5067587609033
 10
778.2588912558169
 20
136.4541699405036
 10
778.2911113310768
 20
136.4043235936634
 10
778.3188406304573
 20
136.3574518713031
 10
778.3425680760167
 20
136.3137951768031
 10
778.3631423376366
 20
136.2727164426033
 10
778.381912142617
 20
136.2320519773234
 10
778.3995786706575
 20
136.1903478646432
 10
778.415975996257
 20
136.1478983711832
 10
778.4309422502968
 20
136.1051075449032
 10
778.4445102673573
 20
136.061904321683
 10
778.4566773448771
 20
136.0182970962233
 10
778.4673806686571
 20
135.9745442297035
 10
778.4765907823168
 20
135.9308890896832
 10
778.4843225194565
 20
135.8874688361634
 10
778.4906874749769
 20
135.8437706304431
 10
778.4957479017369
 20
135.7990621117833
 10
778.4993167846161
 20
135.754939179963
 10
778.5013977050168
 20
135.7132313538032
 10
778.5022210180771
 20
135.668512446543
  0
LINE
  5
2174
330
1F
100
AcDbEntity
  8
0
100
AcDbLine
 10
797.879622512117
 20
121.5798189425036
 30
0.0
 11
797.7251140149376
 21
122.0553472015031
 31
0.0
  0
LWPOLYLINE
  5
2175
330
1F
100
AcDbEntity
  8
0
100
AcDbPolyline
 90
       32
 70
     0
 43
0.0
 10
797.879622512117
 20
121.5798189425036
 10
797.9262363076361
 20
121.3999219108833
 10
797.949649705057
 20
121.2332764072435
 10
797.9551248147566
 20
121.0802910388429
 10
797.9468465204174
 20
120.9409096843834
 10
797.9282869486971
 20
120.8151901949032
 10
797.9021611690971
 20
120.7019517371032
 10
797.8707182779573
 20
120.6005208426832
 10
797.8357117896769
 20
120.5098970793033
 10
797.7983509398366
 20
120.4287466624833
 10
797.7596911898774
 20
120.3562051718036
 10
797.7205344228771
 20
120.2914033811631
 10
797.6814343105773
 20
120.2334493771832
 10
797.6429414055967
 20
120.1817372733436
 10
797.6054912417368
 20
120.1356907207833
 10
797.5694823729375
 20
120.0948343534233
 10
797.5352944961771
 20
120.0587774456031
 10
797.5025840764576
 20
120.0265160978834
 10
797.4697101543963
 20
119.9960990060631
 10
797.4355065118563
 20
119.9664098960234
 10
797.4002017335972
 20
119.9376975023433
 10
797.3641301191767
 20
119.9102406713032
 10
797.3272342239563
 20
119.8839862051432
 10
797.2895211700972
 20
119.8589392575236
 10
797.2512172868366
 20
119.8352394141434
 10
797.2125449105362
 20
119.8129898955236
 10
797.1736391031575
 20
119.7922189820233
 10
797.1340467083766
 20
119.7726621199436
 10
797.0930902751772
 20
119.7540336964435
 10
797.0522296736374
 20
119.7370046906231
 10
797.0132063353769
 20
119.7221371968631
 10
796.9709294526967
 20
119.7075348740232
  0
ARC
  5
2176
330
1F
100
AcDbEntity
  8
0
100
AcDbCircle
 10
769.2688568127571
 20
117.6724334400433
 30
0.0
 40
1.499999999739999
100
AcDbArc
 50
341.9999999999992
 51
64.59702419270202
  0
ARC
  5
2177
330
1F
100
AcDbEntity
  8
0
100
AcDbCircle
 10
769.1143483155768
 20
117.1969051835831
 30
0.0
 40
1.499999999739999
100
AcDbArc
 50
259.4608305358983
 51
341.9999999999992
  0
ARC
  5
2178
330
1F
100
AcDbEntity
  8
0
100
AcDbCircle
 10
771.8773062719967
 20
108.6933949668633
 30
0.0
 40
1.499999999739999
100
AcDbArc
 50
53.99999999999683
 51
136.5546929611002
  0
ARC
  5
2179
330
1F
100
AcDbEntity
  8
0
100
AcDbCircle
 10
772.2818147695573
 20
108.3995023415432
 30
0.0
 40
1.499999999739999
100
AcDbArc
 50
331.4507769305993
 51
53.99999999999683
  0
ARC
  5
217A
330
1F
100
AcDbEntity
  8
0
100
AcDbCircle
 10
781.2229345352372
 20
108.3995023415432
 30
0.0
 40
1.499999999739999
100
AcDbArc
 50
126.0000000000031
 51
208.5970241955992
  0
ARC
  5
217B
330
1F
100
AcDbEntity
  8
0
100
AcDbCircle
 10
781.6274430302566
 20
108.6933949668633
 30
0.0
 40
1.499999999739999
100
AcDbArc
 50
43.51148714270134
 51
126.0000000000031
  0
ARC
  5
217C
330
1F
100
AcDbEntity
  8
0
100
AcDbCircle
 10
784.3904009866767
 20
117.1969051835831
 30
0.0
 40
1.499999999739999
100
AcDbArc
 50
198.0000000000006
 51
280.5546929589994
  0
ARC
  5
217D
330
1F
100
AcDbEntity
  8
0
100
AcDbCircle
 10
784.2358924894963
 20
117.6724334400433
 30
0.0
 40
1.499999999739999
100
AcDbArc
 50
115.5114871425995
 51
198.0000000000006
  0
ARC
  5
217E
330
1F
100
AcDbEntity
  8
0
100
AcDbCircle
 10
777.0023746502368
 20
122.9278917784832
 30
0.0
 40
1.499999999739999
100
AcDbArc
 50
270.0
 51
352.5548421330989
  0
ARC
  5
217F
330
1F
100
AcDbEntity
  8
0
100
AcDbCircle
 10
776.5023746520166
 20
122.9278917784832
 30
0.0
 40
1.499999999739999
100
AcDbArc
 50
187.4608320866021
 51
270.0
  0
CIRCLE
  5
2181
330
1F
100
AcDbEntity
  8
0
100
AcDbCircle
 10
776.7523746523968
 20
114.9780255421033
 30
0.0
 40
54.62741699844
  0
CIRCLE
  5
2182
330
1F
100
AcDbEntity
  8
0
100
AcDbCircle
 10
776.7523746523968
 20
114.9780255421033
 30
0.0
 40
30.99999999886
  0
CIRCLE
  5
2185
330
1F
100
AcDbEntity
  8
0
100
AcDbCircle
 10
776.7523746523968
 20
114.9780255421033
 30
0.0
 40
2.167128901699999
  0
CIRCLE
  5
2186
330
1F
100
AcDbEntity
  8
0
100
AcDbCircle
 10
776.7523746523968
 20
114.9780255421033
 30
0.0
 40
48.93984184834
  0
CIRCLE
  5
2187
330
1F
100
AcDbEntity
  8
0
100
AcDbCircle
 10
776.7523746523968
 20
114.9780255421033
 30
0.0
 40
25.29861667978
  0
LINE
  5
2188
330
1F
100
AcDbEntity
  8
0
100
AcDbLine
 10
807.7524866589058
 20
230.5437203887465
 30
0.0
 11
806.502486659547
 21
230.5437203887464
 31
0.0
  0
LINE
  5
2189
330
1F
100
AcDbEntity
  8
0
100
AcDbLine
 10
806.502486659547
 20
230.5437203887465
 30
0.0
 11
806.4884958127514
 21
230.1974830654736
 31
0.0
  0
LINE
  5
2192
330
1F
100
AcDbEntity
  8
0
100
AcDbLine
 10
745.7522626458878
 20
230.5437203887465
 30
0.0
 11
747.0022626452466
 21
230.5437203887464
 31
0.0
  0
LINE
  5
2194
330
1F
100
AcDbEntity
  8
0
100
AcDbLine
 10
747.0022626452466
 20
230.5437203887465
 30
0.0
 11
747.0162534920421
 21
230.1974830654736
 31
0.0
  0
LINE
  5
21CB
330
1F
100
AcDbEntity
  8
0
100
AcDbLine
 10
833.8523746523968
 20
176.9780255421033
 30
0.0
 11
833.8523746523968
 21
61.9780255421033
 31
0.0
  0
LINE
  5
21D8
330
1F
100
AcDbEntity
  8
0
100
AcDbLine
 10
689.6523746523968
 20
183.9780255421033
 30
0.0
 11
729.6523746523968
 21
183.9780255421033
 31
0.0
  0
LINE
  5
21D9
330
1F
100
AcDbEntity
  8
0
100
AcDbLine
 10
806.0924948926292
 20
220.3974830654737
 30
0.0
 11
805.7524866584561
 21
211.9831574273532
 31
0.0
  0
ARC
  5
21DA
330
1F
100
AcDbEntity
  8
0
100
AcDbCircle
 10
804.2537097812333
 20
212.0437203888264
 30
0.0
 40
1.5
100
AcDbArc
 50
269.9999999999935
 51
357.6860362939366
  0
ARC
  5
21DB
330
1F
100
AcDbEntity
  8
0
100
AcDbCircle
 10
807.7524866589058
 20
255.5437203886465
 30
0.0
 40
24.9999999999
100
AcDbArc
 50
270.0
 51
340.5287793642091
  0
ARC
  5
21DC
330
1F
100
AcDbEntity
  8
0
100
AcDbCircle
 10
830.3799036565996
 20
247.5437203881667
 30
0.0
 40
1.0
100
AcDbArc
 50
340.5287793642086
 51
90.0
  0
LINE
  5
21DD
330
1F
100
AcDbEntity
  8
0
 48
0.3
100
AcDbLine
 10
749.2510395235604
 20
210.5437203888264
 30
0.0
 11
804.2537097812333
 21
210.5437203888264
 31
0.0
  0
LINE
  5
21DE
330
1F
100
AcDbEntity
  8
0
100
AcDbLine
 10
723.1248456481941
 20
248.5437203881667
 30
0.0
 11
830.3799036565996
 21
248.5437203881667
 31
0.0
  0
LINE
  5
21DF
330
1F
100
AcDbEntity
  8
0
100
AcDbLine
 10
747.4122544121642
 20
220.3974830654737
 30
0.0
 11
747.7522626463375
 21
211.9831574273532
 31
0.0
  0
ARC
  5
21E0
330
1F
100
AcDbEntity
  8
0
100
AcDbCircle
 10
749.2510395235604
 20
212.0437203888264
 30
0.0
 40
1.499999999999999
100
AcDbArc
 50
182.3139637060634
 51
270.0
  0
ARC
  5
21E1
330
1F
100
AcDbEntity
  8
0
100
AcDbCircle
 10
745.7522626458878
 20
255.5437203886465
 30
0.0
 40
24.99999999989999
100
AcDbArc
 50
199.471220635791
 51
270.0
  0
ARC
  5
21E2
330
1F
100
AcDbEntity
  8
0
100
AcDbCircle
 10
723.1248456481941
 20
247.5437203881667
 30
0.0
 40
0.9999999999999998
100
AcDbArc
 50
90.0
 51
199.4712206357915
  0
LINE
  5
2261
330
1F
100
AcDbEntity
  8
0
100
AcDbLine
 10
691.6523746523968
 20
176.9780255421033
 30
0.0
 11
861.8523746523969
 21
176.9780255421032
 31
0.0
  0
ARC
  5
2262
330
1F
100
AcDbEntity
  8
0
100
AcDbCircle
 10
709.6523746523968
 20
224.3974830654737
 30
0.0
 40
9.999999999999998
100
AcDbArc
 50
23.57817847820276
 51
336.4218215217972
  0
LINE
  5
2263
330
1F
100
AcDbEntity
  8
0
100
AcDbLine
 10
703.6523746523968
 20
228.3974830654737
 30
0.0
 11
703.6523746523968
 21
220.3974830654737
 31
0.0
  0
LINE
  5
2265
330
1F
100
AcDbEntity
  8
0
100
AcDbLine
 10
703.6523746523968
 20
220.3974830654737
 30
0.0
 11
849.8523746523968
 21
220.3974830654737
 31
0.0
  0
LINE
  5
2266
330
1F
100
AcDbEntity
  8
0
100
AcDbLine
 10
703.6523746523968
 20
228.3974830654737
 30
0.0
 11
849.8523746523968
 21
228.3974830654737
 31
0.0
  0
ARC
  5
2267
330
1F
100
AcDbEntity
  8
0
100
AcDbCircle
 10
744.7623997781835
 20
228.1974830654736
 30
0.0
 40
2.0
100
AcDbArc
 50
90.0
 51
127.8828365662022
  0
LINE
  5
2273
330
1F
100
AcDbEntity
  8
0
100
AcDbLine
 10
654.4377882036265
 20
204.3974830654737
 30
0.0
 11
649.4377882036265
 21
204.3974830654737
 31
0.0
  0
ARC
  5
2274
330
1F
100
AcDbEntity
  8
0
100
AcDbCircle
 10
649.4377882036265
 20
206.3974830654737
 30
0.0
 40
2.0
100
AcDbArc
 50
180.0
 51
270.0
  0
LINE
  5
2275
330
1F
100
AcDbEntity
  8
0
100
AcDbLine
 10
654.4377882036265
 20
244.3974830654737
 30
0.0
 11
649.4377882036265
 21
244.3974830654737
 31
0.0
  0
ARC
  5
2276
330
1F
100
AcDbEntity
  8
0
100
AcDbCircle
 10
649.4377882036265
 20
242.3974830654737
 30
0.0
 40
2.0
100
AcDbArc
 50
90.0
 51
180.0
  0
LINE
  5
2277
330
1F
100
AcDbEntity
  8
0
100
AcDbLine
 10
561.0305257634807
 20
213.3974830654738
 30
0.0
 11
561.0876761975671
 21
211.9831574273532
 31
0.0
  0
ARC
  5
2278
330
1F
100
AcDbEntity
  8
0
100
AcDbCircle
 10
562.5864530747898
 20
212.0437203888264
 30
0.0
 40
1.5
100
AcDbArc
 50
182.3139637060636
 51
270.000000000013
  0
ARC
  5
2279
330
1F
100
AcDbEntity
  8
0
100
AcDbCircle
 10
559.0876761971173
 20
255.5437203886465
 30
0.0
 40
24.9999999999
100
AcDbArc
 50
199.4712206357909
 51
242.3562421364254
  0
ARC
  5
227A
330
1F
100
AcDbEntity
  8
0
100
AcDbCircle
 10
536.4602591994237
 20
247.5437203881667
 30
0.0
 40
1.0
100
AcDbArc
 50
90.0
 51
199.4712206357913
  0
LINE
  5
227B
330
1F
100
AcDbEntity
  8
0
 48
0.3
100
AcDbLine
 10
617.5891233324628
 20
210.5437203888264
 30
0.0
 11
562.5864530747898
 21
210.5437203888264
 31
0.0
  0
LINE
  5
227C
330
1F
100
AcDbEntity
  8
0
100
AcDbLine
 10
643.7153172078292
 20
248.5437203881667
 30
0.0
 11
536.4602591994237
 21
248.5437203881667
 31
0.0
  0
LINE
  5
227D
330
1F
100
AcDbEntity
  8
0
100
AcDbLine
 10
619.145050643772
 20
213.3974830654737
 30
0.0
 11
619.0879002096855
 21
211.9831574273532
 31
0.0
  0
ARC
  5
227E
330
1F
100
AcDbEntity
  8
0
100
AcDbCircle
 10
617.5891233324628
 20
212.0437203888264
 30
0.0
 40
1.499999999999999
100
AcDbArc
 50
270.0
 51
357.6860362939365
  0
ARC
  5
227F
330
1F
100
AcDbEntity
  8
0
100
AcDbCircle
 10
621.0879002101353
 20
255.5437203886465
 30
0.0
 40
24.99999999989999
100
AcDbArc
 50
297.6437578635746
 51
340.528779364209
  0
ARC
  5
2280
330
1F
100
AcDbEntity
  8
0
100
AcDbCircle
 10
643.7153172078292
 20
247.5437203881667
 30
0.0
 40
0.9999999999999998
100
AcDbArc
 50
340.5287793642086
 51
90.0
  0
LINE
  5
2281
330
1F
100
AcDbEntity
  8
0
100
AcDbLine
 10
654.4377882036265
 20
244.3974830654737
 30
0.0
 11
654.4377882036265
 21
204.3974830654737
 31
0.0
  0
LINE
  5
2282
330
1F
100
AcDbEntity
  8
0
100
AcDbLine
 10
647.4377882036264
 20
242.3974830654737
 30
0.0
 11
647.4377882036264
 21
206.3974830654737
 31
0.0
  0
LINE
  5
2283
330
1F
100
AcDbEntity
  8
0
100
AcDbLine
 10
532.7377882036264
 20
233.3974830654737
 30
0.0
 11
532.7377882036264
 21
213.3974830654738
 31
0.0
  0
LINE
  5
2284
330
1F
100
AcDbEntity
  8
0
100
AcDbLine
 10
532.7377882036264
 20
213.3974830654738
 30
0.0
 11
647.4377882036264
 21
213.3974830654738
 31
0.0
  0
LINE
  5
2285
330
1F
100
AcDbEntity
  8
0
100
AcDbLine
 10
532.7377882036264
 20
233.3974830654737
 30
0.0
 11
647.4377882036264
 21
233.3974830654737
 31
0.0
  0
DIMENSION
  5
2286
330
1F
100
AcDbEntity
  8
0
100
AcDbDimension
280
     0
  2
*D1
 10
886.1957940098433
 20
248.5437203881667
 30
0.0
 11
879.7225675432674
 21
229.5437203884967
 31
0.0
 70
    32
 71
     5
 42
37.99999999934028
 73
     0
 74
     0
 75
     0
  3
ISO-25
100
AcDbAlignedDimension
 13
867.0611512522643
 23
210.5437203888264
 33
0.0
 14
867.0611512522643
 24
248.5437203881667
 34
0.0
 50
90.0
100
AcDbRotatedDimension
  0
DIMENSION
  5
241A
330
1F
100
AcDbEntity
  8
0
100
AcDbDimension
280
     0
  2
*D2
 10
886.1957940098433
 20
60.35060854366334
 30
0.0
 11
879.7225675432674
 21
122.1643170428834
 31
0.0
 70
    32
 71
     5
 42
123.6274169984399
 73
     0
 74
     0
 75
     0
  3
ISO-25
100
AcDbAlignedDimension
 13
869.0779524767513
 23
183.9780255421033
 33
0.0
 14
867.0611512522643
 24
60.35060854366335
 34
0.0
 50
90.0
100
AcDbRotatedDimension
  0
DIMENSION
  5
2442
330
1F
100
AcDbEntity
  8
0
100
AcDbDimension
280
     0
  2
*D3
 10
709.6523746523968
 20
259.8255202660055
 30
0.0
 11
776.7523746523968
 21
266.2987467325812
 31
0.0
 70
    32
 71
     5
 42
134.2
 73
     0
 74
     0
 75
     0
  3
ISO-25
100
AcDbAlignedDimension
 13
843.8523746523967
 23
244.3974830654737
 33
0.0
 14
709.6523746523968
 24
244.3974830654737
 34
0.0
100
AcDbRotatedDimension
  0
DIMENSION
  5
244F
330
1F
100
AcDbEntity
  8
0
100
AcDbDimension
280
     0
  2
*D4
 10
863.8523746523969
 20
285.4923864723173
 30
0.0
 11
776.7523746523968
 21
291.8858039348003
 31
0.0
 70
    32
 71
     5
 42
174.2
 73
     0
 74
     0
 75
     0
  3
ISO-25
100
AcDbAlignedDimension
 13
689.6523746523968
 23
224.3974830654737
 33
0.0
 14
863.8523746523969
 24
224.3974830654737
 34
0.0
100
AcDbRotatedDimension
  0
ENDSEC
  0
SECTION
  2
OBJECTS
  0
DICTIONARY
  5
C
330
0
100
AcDbDictionary
281
     1
  3
ACAD_CIP_PREVIOUS_PRODUCT_INFO
350
25BD
  3
ACAD_COLOR
350
970
  3
ACAD_DETAILVIEWSTYLE
350
25B4
  3
ACAD_GROUP
350
D
  3
ACAD_LAYOUT
350
1A
  3
ACAD_MATERIAL
350
96F
  3
ACAD_MLEADERSTYLE
350
25B0
  3
ACAD_MLINESTYLE
350
17
  3
ACAD_PLOTSETTINGS
350
19
  3
ACAD_PLOTSTYLENAME
350
E
  3
ACAD_SCALELIST
350
259E
  3
ACAD_SECTIONVIEWSTYLE
350
25B2
  3
ACAD_TABLESTYLE
350
971
  3
ACAD_VISUALSTYLE
350
2585
  3
AcadDim
350
1DD0
  3
ACDB_RECOMPOSE_DATA
350
25DE
  3
AcDbVariableDictionary
350
7B
  0
DICTIONARY
  5
2465
330
2
100
AcDbDictionary
280
     1
281
     1
  3
ACAD_LAYERFILTERS
360
2467
  3
ACLYDICTIONARY
360
2466
  0
DICTIONARY
  5
25BE
330
10
100
AcDbDictionary
280
     1
281
     1
  3
ADSK_XREC_LAYER_RECONCILED
360
25BF
  0
DICTIONARY
  5
25C0
330
C91
100
AcDbDictionary
280
     1
281
     1
  3
ADSK_XREC_LAYER_RECONCILED
360
25C1
  0
DICTIONARY
  5
ADA
330
1F
100
AcDbDictionary
280
     1
281
     1
  3
ACAD_SORTENTS
360
ADB
  0
XRECORD
  5
25BD
102
{ACAD_REACTORS
330
C
102
}
330
C
100
AcDbXrecord
280
     1
300
ACD
300
2017
300
ACD_F_S
  0
DICTIONARY
  5
970
102
{ACAD_REACTORS
330
C
102
}
330
C
100
AcDbDictionary
281
     1
  0
DICTIONARY
  5
25B4
102
{ACAD_REACTORS
330
C
102
}
330
C
100
AcDbDictionary
281
     1
  3
Imperial24
350
25B5
  0
DICTIONARY
  5
D
102
{ACAD_REACTORS
330
C
102
}
330
C
100
AcDbDictionary
281
     1
  0
DICTIONARY
  5
1A
102
{ACAD_REACTORS
330
C
102
}
330
C
100
AcDbDictionary
281
     1
  3
Model
350
22
  3
布局1
350
1E
  3
布局2
350
26
1001
AcadStringInfo
1000
MIFCodePage
1070
     5
  0
DICTIONARY
  5
96F
102
{ACAD_REACTORS
330
C
102
}
330
C
100
AcDbDictionary
281
     1
  3
ByBlock
350
2575
  3
ByLayer
350
256D
  3
Global
350
257D
  0
DICTIONARY
  5
25B0
102
{ACAD_REACTORS
330
C
102
}
330
C
100
AcDbDictionary
281
     1
  3
Standard
350
25B1
  0
DICTIONARY
  5
17
102
{ACAD_REACTORS
330
C
102
}
330
C
100
AcDbDictionary
281
     1
  3
Standard
350
18
  0
DICTIONARY
  5
19
102
{ACAD_REACTORS
330
C
102
}
330
C
100
AcDbDictionary
281
     1
  0
ACDBDICTIONARYWDFLT
  5
E
102
{ACAD_REACTORS
330
C
102
}
330
C
100
AcDbDictionary
281
     1
  3
Normal
350
F
100
AcDbDictionaryWithDefault
340
F
  0
DICTIONARY
  5
259E
102
{ACAD_REACTORS
330
C
102
}
330
C
100
AcDbDictionary
281
     1
  3
A0
350
259F
  3
A1
350
25A0
  3
A2
350
25A1
  3
A3
350
25A2
  3
A4
350
25A3
  3
A5
350
25A4
  3
A6
350
25A5
  3
A7
350
25A6
  3
A8
350
25A7
  3
A9
350
25A8
  3
B0
350
25A9
  3
B1
350
25AA
  3
B2
350
25AB
  3
B3
350
25AC
  3
B4
350
25AD
  3
B5
350
25AE
  3
B6
350
25AF
  0
DICTIONARY
  5
25B2
102
{ACAD_REACTORS
330
C
102
}
330
C
100
AcDbDictionary
281
     1
  3
Imperial24
350
25B3
  0
DICTIONARY
  5
971
102
{ACAD_REACTORS
330
C
102
}
330
C
100
AcDbDictionary
281
     1
  3
Standard
350
972
  0
DICTIONARY
  5
2585
102
{ACAD_REACTORS
330
C
102
}
330
C
100
AcDbDictionary
281
     1
  3
2dWireframe
350
258B
  3
Basic
350
258A
  3
Brighten
350
2591
  3
ColorChange
350
2595
  3
Conceptual
350
258E
  3
Dim
350
2590
  3
EdgeColorOff
350
259D
  3
Facepattern
350
2594
  3
Flat
350
2586
  3
FlatWithEdges
350
2587
  3
Gouraud
350
2588
  3
GouraudWithEdges
350
2589
  3
Hidden
350
258D
  3
JitterOff
350
259B
  3
Linepattern
350
2593
  3
OverhangOff
350
259C
  3
Realistic
350
258F
  3
Shaded
350
259A
  3
Shaded with edges
350
2599
  3
Shades of Gray
350
2596
  3
Sketchy
350
2597
  3
Thicken
350
2592
  3
Wireframe
350
258C
  3
X-Ray
350
2598
  0
XRECORD
  5
1DD0
102
{ACAD_REACTORS
330
C
102
}
330
C
100
AcDbXrecord
280
     1
 90
   990106
  3

 60
     0
 61
     0
 62
     1
 63
     3
 64
     0
 65
     0
 66
     0
 67
     3
 68
     1
 69
     0
 70
     0
 71
     0
 72
     0
 40
0.0
170
     0
  0
XRECORD
  5
25DE
102
{ACAD_REACTORS
330
C
102
}
330
C
100
AcDbXrecord
280
     1
 90
        1
330
972
330
25B3
330
25B5
  0
DICTIONARY
  5
7B
102
{ACAD_REACTORS
330
C
102
}
330
C
100
AcDbDictionary
281
     1
  3
CANNOSCALE
350
25D4
  3
CMLEADERSTYLE
350
25D0
  3
CTABLESTYLE
350
AFB
  3
CVIEWDETAILSTYLE
350
25D1
  3
CVIEWSECTIONSTYLE
350
25D2
  3
DIMASSOC
350
AFC
  3
LAYEREVAL
350
25D6
  3
LAYERNOTIFY
350
25D7
  3
LIGHTINGUNITS
350
25D5
  3
MSLTSCALE
350
25D3
  3
PROJECTNAME
350
AFD
  3
SORTENTS
350
7C
  0
DICTIONARY
  5
2467
102
{ACAD_REACTORS
330
2465
102
}
330
2465
100
AcDbDictionary
281
     1
  0
DICTIONARY
  5
2466
102
{ACAD_REACTORS
330
2465
102
}
330
2465
100
AcDbDictionary
281
     1
1001
ACAD
1000
<All
  0
XRECORD
  5
25BF
102
{ACAD_REACTORS
330
25BE
102
}
330
25BE
100
AcDbXrecord
280
     1
290
     1
  0
XRECORD
  5
25C1
102
{ACAD_REACTORS
330
25C0
102
}
330
25C0
100
AcDbXrecord
280
     1
290
     1
  0
SORTENTSTABLE
  5
ADB
102
{ACAD_REACTORS
330
ADA
102
}
330
ADA
100
AcDbSortentsTable
330
1F
331
215D
  5
215E
331
211C
  5
211D
331
2159
  5
215A
331
2118
  5
2119
331
2155
  5
2156
331
2114
  5
2115
331
2151
  5
2152
331
2110
  5
2111
331
1F6F
  5
1F6F
331
20AC
  5
20AF
331
214D
  5
214E
331
210C
  5
210D
331
2149
  5
214A
331
2108
  5
2109
331
2145
  5
2146
331
2104
  5
2105
331
2141
  5
2142
331
2100
  5
2101
331
2187
  5
2188
331
1F2F
  5
1F2F
331
217F
  5
2181
331
1F2B
  5
1F2B
331
217B
  5
217C
331
213C
  5
213D
331
2138
  5
2139
331
2134
  5
2135
331
2175
  5
2176
331
2171
  5
2172
331
2130
  5
2131
331
1F8F
  5
1F8F
331
2267
  5
20A7
331
2263
  5
2265
331
20FC
  5
20FD
331
20F8
  5
20F9
331
212C
  5
212D
331
216D
  5
216E
331
2169
  5
216A
331
2128
  5
2129
331
2124
  5
2125
331
2165
  5
2166
331
2161
  5
2162
331
2120
  5
2121
331
1F7F
  5
1F7F
331
20F4
  5
20F5
331
21DF
  5
21E0
331
21DB
  5
21DC
331
21CB
  5
21D8
331
211F
  5
2120
331
215C
  5
215D
331
211B
  5
211C
331
2158
  5
2159
331
2117
  5
2118
331
2154
  5
2155
331
2113
  5
2114
331
2150
  5
2151
331
20AF
  5
20B7
331
20A7
  5
20A8
331
2192
  5
2193
331
210F
  5
2110
331
214C
  5
214D
331
210B
  5
210C
331
2148
  5
2149
331
2107
  5
2108
331
2144
  5
2145
331
2103
  5
2104
331
2140
  5
2141
331
1F5E
  5
1F5E
331
2186
  5
2187
331
2182
  5
2185
331
1F93
  5
1F93
331
217E
  5
217F
331
217A
  5
217B
331
213F
  5
2140
331
213B
  5
213C
331
2137
  5
2138
331
2174
  5
2175
331
2133
  5
2134
331
2170
  5
2171
331
2266
  5
2267
331
1F8A
  5
1F8A
331
2262
  5
2263
331
20FF
  5
2100
331
20FB
  5
20FC
331
1F82
  5
1F82
331
21E2
  5
2255
331
212F
  5
2130
331
216C
  5
216D
331
212B
  5
212C
331
2168
  5
2169
331
2127
  5
2128
331
2164
  5
2165
331
2123
  5
2124
331
2160
  5
2161
331
1F7E
  5
1F7E
331
20F7
  5
20F8
331
21DE
  5
21DF
331
21DA
  5
21DB
331
20B7
  5
20F4
331
211E
  5
211F
331
215F
  5
2160
331
215B
  5
215C
331
211A
  5
211B
331
2116
  5
2117
331
2157
  5
2158
331
2153
  5
2154
331
2112
  5
2113
331
1F69
  5
1F69
331
2189
  5
218A
331
210E
  5
210F
331
214F
  5
2150
331
214B
  5
214C
331
210A
  5
210B
331
2106
  5
2107
331
2147
  5
2148
331
2143
  5
2144
331
2102
  5
2103
331
2185
  5
2186
331
1F96
  5
1F96
331
2181
  5
2182
331
217D
  5
217E
331
2179
  5
217A
331
213E
  5
213F
331
1F27
  5
1F27
331
213A
  5
213B
331
2177
  5
2178
331
2136
  5
2137
331
2173
  5
2174
331
2132
  5
2133
331
2265
  5
2266
331
1F89
  5
1F89
331
20FE
  5
20FF
331
2261
  5
2262
331
1F85
  5
1F85
331
20FA
  5
20FB
331
1F81
  5
1F81
331
21E1
  5
21E2
331
216F
  5
2170
331
212E
  5
212F
331
216B
  5
216C
331
212A
  5
212B
331
2167
  5
2168
331
2126
  5
2127
331
2163
  5
2164
331
2122
  5
2123
331
20F6
  5
20F7
331
1F7D
  5
1F7D
331
21DD
  5
21DE
331
21D9
  5
21DA
331
211D
  5
211E
331
215E
  5
215F
331
215A
  5
215B
331
2119
  5
211A
331
2115
  5
2116
331
2156
  5
2157
331
2152
  5
2153
331
2111
  5
2112
331
2194
  5
2195
331
1F68
  5
1F68
331
20A5
  5
20A5
331
1F60
  5
1F60
331
2188
  5
2189
331
210D
  5
210E
331
214E
  5
214F
331
214A
  5
214B
331
2109
  5
210A
331
2105
  5
2106
331
2146
  5
2147
331
2142
  5
2143
331
2101
  5
2102
331
1FAD
  5
1FAD
331
217C
  5
217D
331
1F28
  5
1F28
331
2178
  5
2179
331
213D
  5
213E
331
2139
  5
213A
331
2135
  5
2136
331
2176
  5
2177
331
2172
  5
2173
331
2131
  5
2132
331
20FD
  5
20FE
331
20F9
  5
20FA
331
21E0
  5
21E1
331
212D
  5
212E
331
216E
  5
216F
331
216A
  5
216B
331
2129
  5
212A
331
2125
  5
2126
331
2166
  5
2167
331
2162
  5
2163
331
2121
  5
2122
331
20F5
  5
20F6
331
21DC
  5
21DD
331
21D8
  5
21D9
331
1F70
  5
1F70
  0
ACDBDETAILVIEWSTYLE
  5
25B5
102
{ACAD_XDICTIONARY
360
25DC
102
}
102
{ACAD_REACTORS
330
25B4
102
}
330
25B4
100
AcDbModelDocViewStyle
 70
     0
  3
Imperial24
290
     0
100
AcDbDetailViewStyle
 70
     0
 71
     0
 90
        3
 71
     1
340
11
 62
   256
 40
0.24
340
0
 62
   256
 40
0.24
300

 40
0.36
280
     3
 71
     2
340
16
 90
       25
 62
   256
 71
     3
340
11
 62
   256
 40
0.24
 90
        1
 40
0.75
 90
        1
300
%<\AcVar ViewType \f "%tc1">% %<\AcVar ViewDetailId>%\PSCALE %<\AcVar ViewScale \f "%sn">%
 71
     4
340
16
 90
       25
 62
   256
340
16
 90
       25
 62
   256
280
     0
  0
LAYOUT
  5
22
102
{ACAD_REACTORS
330
1A
102
}
330
1A
100
AcDbPlotSettings
  1

  2
EPSON Stylus Photo EX3
  4
A3
  6

 40
3.757083177566528
 41
14.76376056671142
 42
3.757080078125
 43
3.757080078125
 44
296.9683227539062
 45
420.0172119140624
 46
0.0
 47
0.0
 48
-2.01420720382157
 49
-1.687121371913349
140
421.216483444302
141
291.759802880008
142
1.0
143
1.054133289698709
 70
 11952
 72
     1
 73
     1
 74
     4
  7

 75
     0
147
0.9486466367889953
 76
     0
 77
     2
 78
   300
148
2.01420720382157
149
1.687121371913349
100
AcDbLayout
  1
Model
 70
     1
 71
     0
 10
0.0
 20
0.0
 11
12.0
 21
9.0
 12
0.0
 22
0.0
 32
0.0
 14
0.0
 24
0.0
 34
0.0
 15
0.0
 25
0.0
 35
0.0
146
0.0
 13
0.0
 23
0.0
 33
0.0
 16
1.0
 26
0.0
 36
0.0
 17
0.0
 27
1.0
 37
0.0
 76
     0
330
1F
331
256B
  0
LAYOUT
  5
1E
102
{ACAD_REACTORS
330
1A
102
}
330
1A
100
AcDbPlotSettings
  1

  2
Star AR-3200+
  4

  6

 40
0.0
 41
0.0
 42
0.0
 43
0.0
 44
0.0
 45
0.0
 46
0.0
 47
0.0
 48
0.0
 49
0.0
140
0.0
141
0.0
142
1.0
143
1.0
 70
   688
 72
     0
 73
     0
 74
     5
  7

 75
    16
147
1.0
 76
     0
 77
     2
 78
   300
148
0.0
149
0.0
100
AcDbLayout
  1
布局1
 70
     1
 71
     1
 10
0.0
 20
0.0
 11
420.0
 21
297.0
 12
0.0
 22
0.0
 32
0.0
 14
1.000000000000000E+20
 24
1.000000000000000E+20
 34
1.000000000000000E+20
 15
-1.000000000000000E+20
 25
-1.000000000000000E+20
 35
-1.000000000000000E+20
146
0.0
 13
0.0
 23
0.0
 33
0.0
 16
1.0
 26
0.0
 36
0.0
 17
0.0
 27
1.0
 37
0.0
 76
     0
330
1B
1001
AcadStringInfo
1000
MIFCodePage
1070
     5
  0
LAYOUT
  5
26
102
{ACAD_REACTORS
330
1A
102
}
330
1A
100
AcDbPlotSettings
  1

  2
Star AR-3200+
  4

  6

 40
0.0
 41
0.0
 42
0.0
 43
0.0
 44
0.0
 45
0.0
 46
0.0
 47
0.0
 48
0.0
 49
0.0
140
0.0
141
0.0
142
1.0
143
1.0
 70
   688
 72
     0
 73
     0
 74
     5
  7

 75
    16
147
1.0
 76
     0
 77
     2
 78
   300
148
0.0
149
0.0
100
AcDbLayout
  1
布局2
 70
     1
 71
     2
 10
0.0
 20
0.0
 11
12.0
 21
9.0
 12
0.0
 22
0.0
 32
0.0
 14
0.0
 24
0.0
 34
0.0
 15
0.0
 25
0.0
 35
0.0
146
0.0
 13
0.0
 23
0.0
 33
0.0
 16
1.0
 26
0.0
 36
0.0
 17
0.0
 27
1.0
 37
0.0
 76
     0
330
23
1001
AcadStringInfo
1000
MIFCodePage
1070
     5
  0
MATERIAL
  5
2575
102
{ACAD_XDICTIONARY
360
2576
102
}
102
{ACAD_REACTORS
330
96F
102
}
330
96F
100
AcDbMaterial
  1
ByBlock
 72
     0
 43
0.0008202099737533
 43
0.0
 43
0.0
 43
0.0
 43
0.0
 43
0.0008202099737533
 43
0.0
 43
0.0
 43
0.0
 43
0.0
 43
1.0
 43
0.0
 43
0.0
 43
0.0
 43
0.0
 43
1.0
 77
     0
 47
0.0008202099737533
 47
0.0
 47
0.0
 47
0.0
 47
0.0
 47
0.0008202099737533
 47
0.0
 47
0.0
 47
0.0
 47
0.0
 47
1.0
 47
0.0
 47
0.0
 47
0.0
 47
0.0
 47
1.0
171
     0
 49
0.0008202099737533
 49
0.0
 49
0.0
 49
0.0
 49
0.0
 49
0.0008202099737533
 49
0.0
 49
0.0
 49
0.0
 49
0.0
 49
1.0
 49
0.0
 49
0.0
 49
0.0
 49
0.0
 49
1.0
175
     0
142
0.0008202099737533
142
0.0
142
0.0
142
0.0
142
0.0
142
0.0008202099737533
142
0.0
142
0.0
142
0.0
142
0.0
142
1.0
142
0.0
142
0.0
142
0.0
142
0.0
142
1.0
179
     0
144
0.0008202099737533
144
0.0
144
0.0
144
0.0
144
0.0
144
0.0008202099737533
144
0.0
144
0.0
144
0.0
144
0.0
144
1.0
144
0.0
144
0.0
144
0.0
144
0.0
144
1.0
147
0.0008202099737533
147
0.0
147
0.0
147
0.0
147
0.0
147
0.0008202099737533
147
0.0
147
0.0
147
0.0
147
0.0
147
1.0
147
0.0
147
0.0
147
0.0
147
0.0
147
1.0
  0
MATERIAL
  5
256D
102
{ACAD_XDICTIONARY
360
256E
102
}
102
{ACAD_REACTORS
330
96F
102
}
330
96F
100
AcDbMaterial
  1
ByLayer
 72
     0
 43
0.0008202099737533
 43
0.0
 43
0.0
 43
0.0
 43
0.0
 43
0.0008202099737533
 43
0.0
 43
0.0
 43
0.0
 43
0.0
 43
1.0
 43
0.0
 43
0.0
 43
0.0
 43
0.0
 43
1.0
 77
     0
 47
0.0008202099737533
 47
0.0
 47
0.0
 47
0.0
 47
0.0
 47
0.0008202099737533
 47
0.0
 47
0.0
 47
0.0
 47
0.0
 47
1.0
 47
0.0
 47
0.0
 47
0.0
 47
0.0
 47
1.0
171
     0
 49
0.0008202099737533
 49
0.0
 49
0.0
 49
0.0
 49
0.0
 49
0.0008202099737533
 49
0.0
 49
0.0
 49
0.0
 49
0.0
 49
1.0
 49
0.0
 49
0.0
 49
0.0
 49
0.0
 49
1.0
175
     0
142
0.0008202099737533
142
0.0
142
0.0
142
0.0
142
0.0
142
0.0008202099737533
142
0.0
142
0.0
142
0.0
142
0.0
142
1.0
142
0.0
142
0.0
142
0.0
142
0.0
142
1.0
179
     0
144
0.0008202099737533
144
0.0
144
0.0
144
0.0
144
0.0
144
0.0008202099737533
144
0.0
144
0.0
144
0.0
144
0.0
144
1.0
144
0.0
144
0.0
144
0.0
144
0.0
144
1.0
147
0.0008202099737533
147
0.0
147
0.0
147
0.0
147
0.0
147
0.0008202099737533
147
0.0
147
0.0
147
0.0
147
0.0
147
1.0
147
0.0
147
0.0
147
0.0
147
0.0
147
1.0
  0
MATERIAL
  5
257D
102
{ACAD_XDICTIONARY
360
257E
102
}
102
{ACAD_REACTORS
330
96F
102
}
330
96F
100
AcDbMaterial
  1
Global
 72
     0
 43
0.0008202099737533
 43
0.0
 43
0.0
 43
0.0
 43
0.0
 43
0.0008202099737533
 43
0.0
 43
0.0
 43
0.0
 43
0.0
 43
1.0
 43
0.0
 43
0.0
 43
0.0
 43
0.0
 43
1.0
 77
     0
 47
0.0008202099737533
 47
0.0
 47
0.0
 47
0.0
 47
0.0
 47
0.0008202099737533
 47
0.0
 47
0.0
 47
0.0
 47
0.0
 47
1.0
 47
0.0
 47
0.0
 47
0.0
 47
0.0
 47
1.0
171
     0
 49
0.0008202099737533
 49
0.0
 49
0.0
 49
0.0
 49
0.0
 49
0.0008202099737533
 49
0.0
 49
0.0
 49
0.0
 49
0.0
 49
1.0
 49
0.0
 49
0.0
 49
0.0
 49
0.0
 49
1.0
175
     0
142
0.0008202099737533
142
0.0
142
0.0
142
0.0
142
0.0
142
0.0008202099737533
142
0.0
142
0.0
142
0.0
142
0.0
142
1.0
142
0.0
142
0.0
142
0.0
142
0.0
142
1.0
179
     0
144
0.0008202099737533
144
0.0
144
0.0
144
0.0
144
0.0
144
0.0008202099737533
144
0.0
144
0.0
144
0.0
144
0.0
144
1.0
144
0.0
144
0.0
144
0.0
144
0.0
144
1.0
147
0.0008202099737533
147
0.0
147
0.0
147
0.0
147
0.0
147
0.0008202099737533
147
0.0
147
0.0
147
0.0
147
0.0
147
1.0
147
0.0
147
0.0
147
0.0
147
0.0
147
1.0
  0
MLEADERSTYLE
  5
25B1
102
{ACAD_REACTORS
330
25B0
102
}
330
25B0
100
AcDbMLeaderStyle
179
     2
170
     2
171
     1
172
     0
 90
        2
 40
0.0
 41
0.0
173
     1
 91
-1056964608
340
14
 92
       -2
290
     1
 42
0.09
291
     1
 43
0.36
  3
Standard
 44
0.18
300

342
11
174
     1
178
     6
175
     1
176
     0
 93
-1056964608
 45
0.18
292
     0
297
     0
 46
0.18
 94
-1056964608
 47
1.0
 49
1.0
140
1.0
293
     1
141
0.0
294
     1
177
     0
142
1.0
295
     1
296
     0
143
0.125
271
     0
272
     9
273
     9
298
     1
  0
MLINESTYLE
  5
18
102
{ACAD_REACTORS
330
17
102
}
330
17
100
AcDbMlineStyle
  2
STANDARD
 70
     0
  3

 62
   256
 51
90.0
 52
90.0
 71
     2
 49
0.5
 62
   256
  6
BYLAYER
 49
-0.5
 62
   256
  6
BYLAYER
  0
ACDBPLACEHOLDER
  5
F
102
{ACAD_REACTORS
330
E
102
}
330
E
  0
SCALE
  5
259F
102
{ACAD_REACTORS
330
259E
102
}
330
259E
100
AcDbScale
 70
     0
300
1:1
140
1.0
141
1.0
290
     1
  0
SCALE
  5
25A0
102
{ACAD_REACTORS
330
259E
102
}
330
259E
100
AcDbScale
 70
     0
300
1/128" = 1'-0"
140
0.0078125
141
12.0
290
     0
  0
SCALE
  5
25A1
102
{ACAD_REACTORS
330
259E
102
}
330
259E
100
AcDbScale
 70
     0
300
1/64" = 1'-0"
140
0.015625
141
12.0
290
     0
  0
SCALE
  5
25A2
102
{ACAD_REACTORS
330
259E
102
}
330
259E
100
AcDbScale
 70
     0
300
1/32" = 1'-0"
140
0.03125
141
12.0
290
     0
  0
SCALE
  5
25A3
102
{ACAD_REACTORS
330
259E
102
}
330
259E
100
AcDbScale
 70
     0
300
1/16" = 1'-0"
140
0.0625
141
12.0
290
     0
  0
SCALE
  5
25A4
102
{ACAD_REACTORS
330
259E
102
}
330
259E
100
AcDbScale
 70
     0
300
3/32" = 1'-0"
140
0.09375
141
12.0
290
     0
  0
SCALE
  5
25A5
102
{ACAD_REACTORS
330
259E
102
}
330
259E
100
AcDbScale
 70
     0
300
1/8" = 1'-0"
140
0.125
141
12.0
290
     0
  0
SCALE
  5
25A6
102
{ACAD_REACTORS
330
259E
102
}
330
259E
100
AcDbScale
 70
     0
300
3/16" = 1'-0"
140
0.1875
141
12.0
290
     0
  0
SCALE
  5
25A7
102
{ACAD_REACTORS
330
259E
102
}
330
259E
100
AcDbScale
 70
     0
300
1/4" = 1'-0"
140
0.25
141
12.0
290
     0
  0
SCALE
  5
25A8
102
{ACAD_REACTORS
330
259E
102
}
330
259E
100
AcDbScale
 70
     0
300
3/8" = 1'-0"
140
0.375
141
12.0
290
     0
  0
SCALE
  5
25A9
102
{ACAD_REACTORS
330
259E
102
}
330
259E
100
AcDbScale
 70
     0
300
1/2" = 1'-0"
140
0.5
141
12.0
290
     0
  0
SCALE
  5
25AA
102
{ACAD_REACTORS
330
259E
102
}
330
259E
100
AcDbScale
 70
     0
300
3/4" = 1'-0"
140
0.75
141
12.0
290
     0
  0
SCALE
  5
25AB
102
{ACAD_REACTORS
330
259E
102
}
330
259E
100
AcDbScale
 70
     0
300
1" = 1'-0"
140
1.0
141
12.0
290
     0
  0
SCALE
  5
25AC
102
{ACAD_REACTORS
330
259E
102
}
330
259E
100
AcDbScale
 70
     0
300
1-1/2" = 1'-0"
140
1.5
141
12.0
290
     0
  0
SCALE
  5
25AD
102
{ACAD_REACTORS
330
259E
102
}
330
259E
100
AcDbScale
 70
     0
300
3" = 1'-0"
140
3.0
141
12.0
290
     0
  0
SCALE
  5
25AE
102
{ACAD_REACTORS
330
259E
102
}
330
259E
100
AcDbScale
 70
     0
300
6" = 1'-0"
140
6.0
141
12.0
290
     0
  0
SCALE
  5
25AF
102
{ACAD_REACTORS
330
259E
102
}
330
259E
100
AcDbScale
 70
     0
300
1'-0" = 1'-0"
140
12.0
141
12.0
290
     0
  0
ACDBSECTIONVIEWSTYLE
  5
25B3
102
{ACAD_XDICTIONARY
360
25DA
102
}
102
{ACAD_REACTORS
330
25B2
102
}
330
25B2
100
AcDbModelDocViewStyle
 70
     0
  3
Imperial24
290
     0
100
AcDbSectionViewStyle
 70
     0
 71
     0
 90
       78
 71
     1
340
11
 62
   256
 40
0.24
340
0
340
0
 62
   256
 40
0.24
300
I, O, Q, S, X, Z
 40
0.48
 90
        3
 40
0.18
 90
        1
 71
     2
340
16
 90
       25
 62
   256
340
16
 90
       50
 62
   256
 40
0.24
 40
0.0
 40
0.24
 71
     3
340
11
 62
   256
 40
0.24
 90
        1
 40
0.75
 90
        1
300
%<\AcVar ViewType \f "%tc1">% %<\AcVar ViewSectionStartId>%-%<\AcVar ViewSectionEndId>%\PSCALE %<\AcVar ViewScale \f "%sn">%
 71
     4
 62
   256
 62
   257
300
ANSI31
 40
1.0
 90
        0
290
     0
290
     0
 90
        6
 40
0.0
 40
1.570796326794896
 40
0.2617993877991494
 40
1.308996938995747
 40
-0.2617993877991494
 40
1.832595714594046
  0
TABLESTYLE
  5
972
102
{ACAD_XDICTIONARY
360
25D8
102
}
102
{ACAD_REACTORS
330
971
102
}
330
971
100
AcDbTableStyle
280
     0
  3
Standard
 70
     0
 71
     0
 40
0.06
 41
0.06
280
     0
281
     0
  7
Standard
140
0.18
170
     2
 62
     0
 63
     7
283
     0
 90
        4
 91
        0
  1

274
    -2
284
     1
 64
     0
275
    -2
285
     1
 65
     0
276
    -2
286
     1
 66
     0
277
    -2
287
     1
 67
     0
278
    -2
288
     1
 68
     0
279
    -2
289
     1
 69
     0
  7
Standard
140
0.25
170
     5
 62
     0
 63
     7
283
     0
 90
        4
 91
        0
  1

274
    -2
284
     1
 64
     0
275
    -2
285
     1
 65
     0
276
    -2
286
     1
 66
     0
277
    -2
287
     1
 67
     0
278
    -2
288
     1
 68
     0
279
    -2
289
     1
 69
     0
  7
Standard
140
0.18
170
     5
 62
     0
 63
     7
283
     0
 90
        4
 91
        0
  1

274
    -2
284
     1
 64
     0
275
    -2
285
     1
 65
     0
276
    -2
286
     1
 66
     0
277
    -2
287
     1
 67
     0
278
    -2
288
     1
 68
     0
279
    -2
289
     1
 69
     0
  0
VISUALSTYLE
  5
258B
102
{ACAD_REACTORS
330
2585
102
}
330
2585
100
AcDbVisualStyle
  2
2dWireframe
 70
     4
177
     3
291
     0
 70
    58
 90
        0
176
     1
 90
        2
176
     1
 90
        0
176
     1
 90
        0
176
     1
 40
0.6
176
     1
 40
30.0
176
     1
 62
     7
420
 16777215
176
     1
 90
        1
176
     1
 90
        4
176
     1
 62
     7
176
     1
 62
   257
176
     1
 90
        1
176
     1
 90
        1
176
     1
 40
1.0
176
     1
 90
        0
176
     1
 62
   257
176
     1
 40
1.0
176
     1
 90
        1
176
     1
 90
        6
176
     1
 90
        2
176
     1
 62
     7
176
     1
 90
        5
176
     1
 90
        0
176
     1
 90
        0
176
     1
290
     0
176
     1
 90
        1
176
     1
 40
0.0
176
     1
 90
        0
176
     1
290
     1
176
     1
290
     1
176
     1
290
     0
176
     1
290
     0
176
     1
290
     0
176
     1
290
     0
176
     1
290
     0
176
     1
290
     0
176
     1
290
     0
176
     1
 90
       50
176
     1
 40
0.0
176
     1
 40
1.0
176
     1
 90
        0
176
     1
 62
    18
420
        0
176
     1
 90
       50
176
     1
 90
        3
176
     1
 62
     5
420
      255
176
     1
290
     0
176
     1
 90
       50
176
     1
 90
       50
176
     1
 90
       50
176
     1
290
     0
176
     1
 90
       50
176
     1
 62
   256
176
     0
 40
1.0
176
     0
 90
        2
176
     1
  1
strokes_ogs.tif
176
     1
290
     0
176
     1
 40
1.0
176
     1
 40
1.0
176
     1
  0
VISUALSTYLE
  5
258A
102
{ACAD_REACTORS
330
2585
102
}
330
2585
100
AcDbVisualStyle
  2
Basic
 70
     7
177
     3
291
     1
 70
    58
 90
        1
176
     1
 90
        0
176
     1
 90
        1
176
     1
 90
        0
176
     1
 40
0.6
176
     1
 40
30.0
176
     1
 62
     7
420
 16777215
176
     1
 90
        0
176
     1
 90
        4
176
     1
 62
     7
176
     1
 62
   257
176
     1
 90
        1
176
     1
 90
        1
176
     1
 40
1.0
176
     1
 90
        8
176
     1
 62
     7
176
     1
 40
1.0
176
     1
 90
        1
176
     1
 90
        6
176
     1
 90
        2
176
     1
 62
     7
176
     1
 90
        5
176
     1
 90
        0
176
     1
 90
        0
176
     1
290
     0
176
     1
 90
        1
176
     1
 40
0.0
176
     1
 90
        0
176
     1
290
     0
176
     1
290
     1
176
     1
290
     1
176
     1
290
     0
176
     1
290
     0
176
     1
290
     0
176
     1
290
     0
176
     1
290
     0
176
     1
290
     0
176
     1
 90
       50
176
     1
 40
0.0
176
     1
 40
1.0
176
     1
 90
        0
176
     1
 62
    18
420
        0
176
     1
 90
       50
176
     1
 90
        3
176
     1
 62
     5
420
      255
176
     1
290
     0
176
     1
 90
       50
176
     1
 90
       50
176
     1
 90
       50
176
     1
290
     0
176
     1
 90
       50
176
     1
 62
   256
176
     0
 40
1.0
176
     0
 90
        2
176
     1
  1
strokes_ogs.tif
176
     1
290
     0
176
     1
 40
1.0
176
     1
 40
1.0
176
     1
  0
VISUALSTYLE
  5
2591
102
{ACAD_REACTORS
330
2585
102
}
330
2585
100
AcDbVisualStyle
  2
Brighten
 70
    12
177
     3
291
     1
 70
    58
 90
        2
176
     1
 90
        2
176
     1
 90
        0
176
     1
 90
        0
176
     1
 40
0.6
176
     1
 40
30.0
176
     1
 62
     7
420
 16777215
176
     1
 90
        1
176
     1
 90
        4
176
     1
 62
     7
176
     1
 62
   257
176
     1
 90
        1
176
     1
 90
        1
176
     1
 40
1.0
176
     1
 90
        8
176
     1
 62
     7
176
     1
 40
1.0
176
     1
 90
        1
176
     1
 90
        6
176
     1
 90
        2
176
     1
 62
     7
176
     1
 90
        5
176
     1
 90
        0
176
     1
 90
        0
176
     1
290
     0
176
     1
 90
        1
176
     1
 40
50.0
176
     1
 90
        0
176
     1
290
     0
176
     1
290
     1
176
     1
290
     1
176
     1
290
     0
176
     1
290
     0
176
     1
290
     0
176
     1
290
     0
176
     1
290
     0
176
     1
290
     0
176
     1
 90
       50
176
     1
 40
0.0
176
     1
 40
1.0
176
     1
 90
        0
176
     1
 62
    18
420
        0
176
     1
 90
       50
176
     1
 90
        3
176
     1
 62
     5
420
      255
176
     1
290
     0
176
     1
 90
       50
176
     1
 90
       50
176
     1
 90
       50
176
     1
290
     0
176
     1
 90
       50
176
     1
 62
   256
176
     0
 40
1.0
176
     0
 90
        2
176
     1
  1
strokes_ogs.tif
176
     1
290
     0
176
     1
 40
1.0
176
     1
 40
1.0
176
     1
  0
VISUALSTYLE
  5
2595
102
{ACAD_REACTORS
330
2585
102
}
330
2585
100
AcDbVisualStyle
  2
ColorChange
 70
    16
177
     3
291
     1
 70
    58
 90
        2
176
     1
 90
        2
176
     1
 90
        3
176
     1
 90
        0
176
     1
 40
0.6
176
     1
 40
30.0
176
     1
 62
     8
420
  8421504
176
     1
 90
        1
176
     1
 90
        4
176
     1
 62
     7
176
     1
 62
   257
176
     1
 90
        1
176
     1
 90
        1
176
     1
 40
1.0
176
     1
 90
        8
176
     1
 62
     8
420
  8421504
176
     1
 40
1.0
176
     1
 90
        1
176
     1
 90
        6
176
     1
 90
        2
176
     1
 62
     7
176
     1
 90
        5
176
     1
 90
        0
176
     1
 90
        0
176
     1
290
     0
176
     1
 90
        1
176
     1
 40
0.0
176
     1
 90
        0
176
     1
290
     0
176
     1
290
     1
176
     1
290
     1
176
     1
290
     0
176
     1
290
     0
176
     1
290
     0
176
     1
290
     0
176
     1
290
     0
176
     1
290
     0
176
     1
 90
       50
176
     1
 40
0.0
176
     1
 40
1.0
176
     1
 90
        0
176
     1
 62
    18
420
        0
176
     1
 90
       50
176
     1
 90
        3
176
     1
 62
     5
420
      255
176
     1
290
     0
176
     1
 90
       50
176
     1
 90
       50
176
     1
 90
       50
176
     1
290
     0
176
     1
 90
       50
176
     1
 62
   256
176
     0
 40
1.0
176
     0
 90
        2
176
     1
  1
strokes_ogs.tif
176
     1
290
     0
176
     1
 40
1.0
176
     1
 40
1.0
176
     1
  0
VISUALSTYLE
  5
258E
102
{ACAD_REACTORS
330
2585
102
}
330
2585
100
AcDbVisualStyle
  2
Conceptual
 70
     9
177
     3
291
     0
 70
    58
 90
        3
176
     1
 90
        2
176
     1
 90
        0
176
     1
 90
        0
176
     1
 40
0.6
176
     1
 40
30.0
176
     1
 62
     7
420
 16777215
176
     1
 90
        2
176
     1
 90
        2
176
     1
 62
     7
176
     1
 62
   257
176
     1
 90
        1
176
     1
 90
        1
176
     1
 40
179.0
176
     1
 90
        8
176
     1
 62
     7
176
     1
 40
1.0
176
     1
 90
        1
176
     1
 90
        6
176
     1
 90
        2
176
     1
 62
     7
176
     1
 90
        3
176
     1
 90
        0
176
     1
 90
        0
176
     1
290
     0
176
     1
 90
        1
176
     1
 40
0.0
176
     1
 90
        0
176
     1
290
     0
176
     1
290
     1
176
     1
290
     1
176
     1
290
     0
176
     1
290
     0
176
     1
290
     0
176
     1
290
     0
176
     1
290
     0
176
     1
290
     0
176
     1
 90
       50
176
     1
 40
0.0
176
     1
 40
1.0
176
     1
 90
        0
176
     1
 62
    18
420
        0
176
     1
 90
       50
176
     1
 90
        3
176
     1
 62
     5
420
      255
176
     1
290
     0
176
     1
 90
       50
176
     1
 90
       50
176
     1
 90
       50
176
     1
290
     0
176
     1
 90
       50
176
     1
 62
   256
176
     0
 40
1.0
176
     0
 90
        2
176
     1
  1
strokes_ogs.tif
176
     1
290
     0
176
     1
 40
1.0
176
     1
 40
1.0
176
     1
  0
VISUALSTYLE
  5
2590
102
{ACAD_REACTORS
330
2585
102
}
330
2585
100
AcDbVisualStyle
  2
Dim
 70
    11
177
     3
291
     1
 70
    58
 90
        2
176
     1
 90
        2
176
     1
 90
        0
176
     1
 90
        0
176
     1
 40
0.6
176
     1
 40
30.0
176
     1
 62
     7
420
 16777215
176
     1
 90
        1
176
     1
 90
        4
176
     1
 62
     7
176
     1
 62
   257
176
     1
 90
        1
176
     1
 90
        1
176
     1
 40
1.0
176
     1
 90
        8
176
     1
 62
     7
176
     1
 40
1.0
176
     1
 90
        1
176
     1
 90
        6
176
     1
 90
        2
176
     1
 62
     7
176
     1
 90
        5
176
     1
 90
        0
176
     1
 90
        0
176
     1
290
     0
176
     1
 90
        1
176
     1
 40
-50.0
176
     1
 90
        0
176
     1
290
     0
176
     1
290
     1
176
     1
290
     1
176
     1
290
     0
176
     1
290
     0
176
     1
290
     0
176
     1
290
     0
176
     1
290
     0
176
     1
290
     0
176
     1
 90
       50
176
     1
 40
0.0
176
     1
 40
1.0
176
     1
 90
        0
176
     1
 62
    18
420
        0
176
     1
 90
       50
176
     1
 90
        3
176
     1
 62
     5
420
      255
176
     1
290
     0
176
     1
 90
       50
176
     1
 90
       50
176
     1
 90
       50
176
     1
290
     0
176
     1
 90
       50
176
     1
 62
   256
176
     0
 40
1.0
176
     0
 90
        2
176
     1
  1
strokes_ogs.tif
176
     1
290
     0
176
     1
 40
1.0
176
     1
 40
1.0
176
     1
  0
VISUALSTYLE
  5
259D
102
{ACAD_REACTORS
330
2585
102
}
330
2585
100
AcDbVisualStyle
  2
EdgeColorOff
 70
    22
177
     3
291
     1
 70
    58
 90
        2
176
     0
 90
        2
176
     0
 90
        0
176
     0
 90
        0
176
     0
 40
0.6
176
     0
 40
30.0
176
     0
 62
     7
420
 16777215
176
     0
 90
        1
176
     0
 90
        4
176
     0
 62
     7
176
     0
 62
   257
176
     0
 90
        1
176
     0
 90
        1
176
     0
 40
1.0
176
     0
 90
        8
176
     2
 62
     7
176
     0
 40
1.0
176
     0
 90
        1
176
     0
 90
        6
176
     0
 90
        2
176
     0
 62
     7
176
     0
 90
        5
176
     0
 90
        0
176
     0
 90
        0
176
     0
290
     0
176
     0
 90
        1
176
     0
 40
0.0
176
     0
 90
        0
176
     0
290
     0
176
     0
290
     1
176
     0
290
     1
176
     0
290
     0
176
     0
290
     0
176
     0
290
     0
176
     0
290
     0
176
     0
290
     0
176
     0
290
     0
176
     0
 90
       50
176
     0
 40
0.0
176
     0
 40
1.0
176
     0
 90
        0
176
     0
 62
    18
420
        0
176
     0
 90
       50
176
     0
 90
        3
176
     0
 62
     5
420
      255
176
     0
290
     0
176
     0
 90
       50
176
     0
 90
       50
176
     0
 90
       50
176
     0
290
     0
176
     0
 90
       50
176
     0
 62
   256
176
     0
 40
1.0
176
     0
 90
        2
176
     0
  1
strokes_ogs.tif
176
     0
290
     0
176
     0
 40
1.0
176
     0
 40
1.0
176
     0
  0
VISUALSTYLE
  5
2594
102
{ACAD_REACTORS
330
2585
102
}
330
2585
100
AcDbVisualStyle
  2
Facepattern
 70
    15
177
     3
291
     1
 70
    58
 90
        2
176
     1
 90
        2
176
     1
 90
        0
176
     1
 90
        0
176
     1
 40
0.6
176
     1
 40
30.0
176
     1
 62
     7
420
 16777215
176
     1
 90
        1
176
     1
 90
        4
176
     1
 62
     7
176
     1
 62
   257
176
     1
 90
        1
176
     1
 90
        1
176
     1
 40
1.0
176
     1
 90
        8
176
     1
 62
     7
176
     1
 40
1.0
176
     1
 90
        1
176
     1
 90
        6
176
     1
 90
        2
176
     1
 62
     7
176
     1
 90
        5
176
     1
 90
        0
176
     1
 90
        0
176
     1
290
     0
176
     1
 90
        1
176
     1
 40
0.0
176
     1
 90
        0
176
     1
290
     0
176
     1
290
     1
176
     1
290
     1
176
     1
290
     0
176
     1
290
     0
176
     1
290
     0
176
     1
290
     0
176
     1
290
     0
176
     1
290
     0
176
     1
 90
       50
176
     1
 40
0.0
176
     1
 40
1.0
176
     1
 90
        0
176
     1
 62
    18
420
        0
176
     1
 90
       50
176
     1
 90
        3
176
     1
 62
     5
420
      255
176
     1
290
     0
176
     1
 90
       50
176
     1
 90
       50
176
     1
 90
       50
176
     1
290
     0
176
     1
 90
       50
176
     1
 62
   256
176
     0
 40
1.0
176
     0
 90
        2
176
     1
  1
strokes_ogs.tif
176
     1
290
     0
176
     1
 40
1.0
176
     1
 40
1.0
176
     1
  0
VISUALSTYLE
  5
2586
102
{ACAD_REACTORS
330
2585
102
}
330
2585
100
AcDbVisualStyle
  2
Flat
 70
     0
177
     3
291
     1
 70
    58
 90
        2
176
     1
 90
        1
176
     1
 90
        1
176
     1
 90
        2
176
     1
 40
0.6
176
     1
 40
30.0
176
     1
 62
     7
420
 16777215
176
     1
 90
        0
176
     1
 90
        0
176
     1
 62
     7
176
     1
 62
   257
176
     1
 90
        1
176
     1
 90
        1
176
     1
 40
1.0
176
     1
 90
        8
176
     1
 62
     7
176
     1
 40
1.0
176
     1
 90
        1
176
     1
 90
        6
176
     1
 90
        2
176
     1
 62
     7
176
     1
 90
        5
176
     1
 90
        0
176
     1
 90
        0
176
     1
290
     0
176
     1
 90
       13
176
     1
 40
0.0
176
     1
 90
        0
176
     1
290
     0
176
     1
290
     1
176
     1
290
     1
176
     1
290
     0
176
     1
290
     0
176
     1
290
     0
176
     1
290
     0
176
     1
290
     0
176
     1
290
     0
176
     1
 90
       50
176
     1
 40
0.0
176
     1
 40
1.0
176
     1
 90
        0
176
     1
 62
    18
420
        0
176
     1
 90
       50
176
     1
 90
        3
176
     1
 62
     5
420
      255
176
     1
290
     0
176
     1
 90
       50
176
     1
 90
       50
176
     1
 90
       50
176
     1
290
     0
176
     1
 90
       50
176
     1
 62
   256
176
     0
 40
1.0
176
     0
 90
        2
176
     1
  1
strokes_ogs.tif
176
     1
290
     0
176
     1
 40
1.0
176
     1
 40
1.0
176
     1
  0
VISUALSTYLE
  5
2587
102
{ACAD_REACTORS
330
2585
102
}
330
2585
100
AcDbVisualStyle
  2
FlatWithEdges
 70
     1
177
     3
291
     1
 70
    58
 90
        2
176
     1
 90
        1
176
     1
 90
        1
176
     1
 90
        2
176
     1
 40
0.6
176
     1
 40
30.0
176
     1
 62
     7
420
 16777215
176
     1
 90
        1
176
     1
 90
        0
176
     1
 62
     7
176
     1
 62
   257
176
     1
 90
        1
176
     1
 90
        1
176
     1
 40
1.0
176
     1
 90
        0
176
     1
 62
   257
176
     1
 40
1.0
176
     1
 90
        1
176
     1
 90
        6
176
     1
 90
        2
176
     1
 62
     7
176
     1
 90
        5
176
     1
 90
        0
176
     1
 90
        0
176
     1
290
     0
176
     1
 90
       13
176
     1
 40
0.0
176
     1
 90
        0
176
     1
290
     0
176
     1
290
     1
176
     1
290
     1
176
     1
290
     0
176
     1
290
     0
176
     1
290
     0
176
     1
290
     0
176
     1
290
     0
176
     1
290
     0
176
     1
 90
       50
176
     1
 40
0.0
176
     1
 40
1.0
176
     1
 90
        0
176
     1
 62
    18
420
        0
176
     1
 90
       50
176
     1
 90
        3
176
     1
 62
     5
420
      255
176
     1
290
     0
176
     1
 90
       50
176
     1
 90
       50
176
     1
 90
       50
176
     1
290
     0
176
     1
 90
       50
176
     1
 62
   256
176
     0
 40
1.0
176
     0
 90
        2
176
     1
  1
strokes_ogs.tif
176
     1
290
     0
176
     1
 40
1.0
176
     1
 40
1.0
176
     1
  0
VISUALSTYLE
  5
2588
102
{ACAD_REACTORS
330
2585
102
}
330
2585
100
AcDbVisualStyle
  2
Gouraud
 70
     2
177
     3
291
     1
 70
    58
 90
        2
176
     1
 90
        2
176
     1
 90
        1
176
     1
 90
        2
176
     1
 40
0.6
176
     1
 40
30.0
176
     1
 62
     7
420
 16777215
176
     1
 90
        0
176
     1
 90
        0
176
     1
 62
     7
176
     1
 62
   257
176
     1
 90
        1
176
     1
 90
        1
176
     1
 40
1.0
176
     1
 90
        0
176
     1
 62
     7
176
     1
 40
1.0
176
     1
 90
        1
176
     1
 90
        6
176
     1
 90
        2
176
     1
 62
     7
176
     1
 90
        5
176
     1
 90
        0
176
     1
 90
        0
176
     1
290
     0
176
     1
 90
       13
176
     1
 40
0.0
176
     1
 90
        0
176
     1
290
     0
176
     1
290
     1
176
     1
290
     1
176
     1
290
     0
176
     1
290
     0
176
     1
290
     0
176
     1
290
     0
176
     1
290
     0
176
     1
290
     0
176
     1
 90
       50
176
     1
 40
0.0
176
     1
 40
1.0
176
     1
 90
        0
176
     1
 62
    18
420
        0
176
     1
 90
       50
176
     1
 90
        3
176
     1
 62
     5
420
      255
176
     1
290
     0
176
     1
 90
       50
176
     1
 90
       50
176
     1
 90
       50
176
     1
290
     0
176
     1
 90
       50
176
     1
 62
   256
176
     0
 40
1.0
176
     0
 90
        2
176
     1
  1
strokes_ogs.tif
176
     1
290
     0
176
     1
 40
1.0
176
     1
 40
1.0
176
     1
  0
VISUALSTYLE
  5
2589
102
{ACAD_REACTORS
330
2585
102
}
330
2585
100
AcDbVisualStyle
  2
GouraudWithEdges
 70
     3
177
     3
291
     1
 70
    58
 90
        2
176
     1
 90
        2
176
     1
 90
        1
176
     1
 90
        2
176
     1
 40
0.6
176
     1
 40
30.0
176
     1
 62
     7
420
 16777215
176
     1
 90
        1
176
     1
 90
        0
176
     1
 62
     7
176
     1
 62
   257
176
     1
 90
        1
176
     1
 90
        1
176
     1
 40
1.0
176
     1
 90
        0
176
     1
 62
   257
176
     1
 40
1.0
176
     1
 90
        1
176
     1
 90
        6
176
     1
 90
        2
176
     1
 62
     7
176
     1
 90
        5
176
     1
 90
        0
176
     1
 90
        0
176
     1
290
     0
176
     1
 90
       13
176
     1
 40
0.0
176
     1
 90
        0
176
     1
290
     0
176
     1
290
     1
176
     1
290
     1
176
     1
290
     0
176
     1
290
     0
176
     1
290
     0
176
     1
290
     0
176
     1
290
     0
176
     1
290
     0
176
     1
 90
       50
176
     1
 40
0.0
176
     1
 40
1.0
176
     1
 90
        0
176
     1
 62
    18
420
        0
176
     1
 90
       50
176
     1
 90
        3
176
     1
 62
     5
420
      255
176
     1
290
     0
176
     1
 90
       50
176
     1
 90
       50
176
     1
 90
       50
176
     1
290
     0
176
     1
 90
       50
176
     1
 62
   256
176
     0
 40
1.0
176
     0
 90
        2
176
     1
  1
strokes_ogs.tif
176
     1
290
     0
176
     1
 40
1.0
176
     1
 40
1.0
176
     1
  0
VISUALSTYLE
  5
258D
102
{ACAD_REACTORS
330
2585
102
}
330
2585
100
AcDbVisualStyle
  2
Hidden
 70
     6
177
     3
291
     0
 70
    58
 90
        1
176
     1
 90
        2
176
     1
 90
        2
176
     1
 90
        0
176
     1
 40
0.6
176
     1
 40
30.0
176
     1
 62
     7
420
 16777215
176
     1
 90
        2
176
     1
 90
        2
176
     1
 62
     7
176
     1
 62
   257
176
     1
 90
        2
176
     1
 90
        1
176
     1
 40
40.0
176
     1
 90
        0
176
     1
 62
   257
176
     1
 40
1.0
176
     1
 90
        1
176
     1
 90
        6
176
     1
 90
        2
176
     1
 62
     7
176
     1
 90
        3
176
     1
 90
        0
176
     1
 90
        0
176
     1
290
     0
176
     1
 90
        1
176
     1
 40
0.0
176
     1
 90
        0
176
     1
290
     0
176
     1
290
     1
176
     1
290
     1
176
     1
290
     0
176
     1
290
     0
176
     1
290
     0
176
     1
290
     0
176
     1
290
     0
176
     1
290
     0
176
     1
 90
       50
176
     1
 40
0.0
176
     1
 40
1.0
176
     1
 90
        0
176
     1
 62
    18
420
        0
176
     1
 90
       50
176
     1
 90
        3
176
     1
 62
     5
420
      255
176
     1
290
     0
176
     1
 90
       50
176
     1
 90
       50
176
     1
 90
       50
176
     1
290
     0
176
     1
 90
       50
176
     1
 62
   256
176
     0
 40
1.0
176
     0
 90
        2
176
     1
  1
strokes_ogs.tif
176
     1
290
     0
176
     1
 40
1.0
176
     1
 40
1.0
176
     1
  0
VISUALSTYLE
  5
259B
102
{ACAD_REACTORS
330
2585
102
}
330
2585
100
AcDbVisualStyle
  2
JitterOff
 70
    20
177
     3
291
     1
 70
    58
 90
        2
176
     0
 90
        2
176
     0
 90
        0
176
     0
 90
        0
176
     0
 40
0.6
176
     0
 40
30.0
176
     0
 62
     7
420
 16777215
176
     0
 90
        1
176
     0
 90
        4
176
     0
 62
     7
176
     0
 62
   257
176
     0
 90
        1
176
     0
 90
        1
176
     0
 40
1.0
176
     0
 90
       10
176
     2
 62
     7
176
     0
 40
1.0
176
     0
 90
        1
176
     0
 90
        6
176
     0
 90
        2
176
     0
 62
     7
176
     0
 90
        5
176
     0
 90
        0
176
     0
 90
        0
176
     0
290
     0
176
     0
 90
        1
176
     0
 40
0.0
176
     0
 90
        0
176
     0
290
     0
176
     0
290
     1
176
     0
290
     1
176
     0
290
     0
176
     0
290
     0
176
     0
290
     0
176
     0
290
     0
176
     0
290
     0
176
     0
290
     0
176
     0
 90
       50
176
     0
 40
0.0
176
     0
 40
1.0
176
     0
 90
        0
176
     0
 62
    18
420
        0
176
     0
 90
       50
176
     0
 90
        3
176
     0
 62
     5
420
      255
176
     0
290
     0
176
     0
 90
       50
176
     0
 90
       50
176
     0
 90
       50
176
     0
290
     0
176
     0
 90
       50
176
     0
 62
   256
176
     0
 40
1.0
176
     0
 90
        2
176
     0
  1
strokes_ogs.tif
176
     0
290
     0
176
     0
 40
1.0
176
     0
 40
1.0
176
     0
  0
VISUALSTYLE
  5
2593
102
{ACAD_REACTORS
330
2585
102
}
330
2585
100
AcDbVisualStyle
  2
Linepattern
 70
    14
177
     3
291
     1
 70
    58
 90
        2
176
     1
 90
        2
176
     1
 90
        0
176
     1
 90
        0
176
     1
 40
0.6
176
     1
 40
30.0
176
     1
 62
     7
420
 16777215
176
     1
 90
        1
176
     1
 90
        4
176
     1
 62
     7
176
     1
 62
   257
176
     1
 90
        7
176
     1
 90
        7
176
     1
 40
1.0
176
     1
 90
        8
176
     1
 62
     7
176
     1
 40
1.0
176
     1
 90
        1
176
     1
 90
        6
176
     1
 90
        2
176
     1
 62
     7
176
     1
 90
        5
176
     1
 90
        0
176
     1
 90
        0
176
     1
290
     0
176
     1
 90
        1
176
     1
 40
0.0
176
     1
 90
        0
176
     1
290
     0
176
     1
290
     1
176
     1
290
     1
176
     1
290
     0
176
     1
290
     0
176
     1
290
     0
176
     1
290
     0
176
     1
290
     0
176
     1
290
     0
176
     1
 90
       50
176
     1
 40
0.0
176
     1
 40
1.0
176
     1
 90
        0
176
     1
 62
    18
420
        0
176
     1
 90
       50
176
     1
 90
        3
176
     1
 62
     5
420
      255
176
     1
290
     0
176
     1
 90
       50
176
     1
 90
       50
176
     1
 90
       50
176
     1
290
     0
176
     1
 90
       50
176
     1
 62
   256
176
     0
 40
1.0
176
     0
 90
        2
176
     1
  1
strokes_ogs.tif
176
     1
290
     0
176
     1
 40
1.0
176
     1
 40
1.0
176
     1
  0
VISUALSTYLE
  5
259C
102
{ACAD_REACTORS
330
2585
102
}
330
2585
100
AcDbVisualStyle
  2
OverhangOff
 70
    21
177
     3
291
     1
 70
    58
 90
        2
176
     0
 90
        2
176
     0
 90
        0
176
     0
 90
        0
176
     0
 40
0.6
176
     0
 40
30.0
176
     0
 62
     7
420
 16777215
176
     0
 90
        1
176
     0
 90
        4
176
     0
 62
     7
176
     0
 62
   257
176
     0
 90
        1
176
     0
 90
        1
176
     0
 40
1.0
176
     0
 90
        9
176
     2
 62
     7
176
     0
 40
1.0
176
     0
 90
        1
176
     0
 90
        6
176
     0
 90
        2
176
     0
 62
     7
176
     0
 90
        5
176
     0
 90
        0
176
     0
 90
        0
176
     0
290
     0
176
     0
 90
        1
176
     0
 40
0.0
176
     0
 90
        0
176
     0
290
     0
176
     0
290
     1
176
     0
290
     1
176
     0
290
     0
176
     0
290
     0
176
     0
290
     0
176
     0
290
     0
176
     0
290
     0
176
     0
290
     0
176
     0
 90
       50
176
     0
 40
0.0
176
     0
 40
1.0
176
     0
 90
        0
176
     0
 62
    18
420
        0
176
     0
 90
       50
176
     0
 90
        3
176
     0
 62
     5
420
      255
176
     0
290
     0
176
     0
 90
       50
176
     0
 90
       50
176
     0
 90
       50
176
     0
290
     0
176
     0
 90
       50
176
     0
 62
   256
176
     0
 40
1.0
176
     0
 90
        2
176
     0
  1
strokes_ogs.tif
176
     0
290
     0
176
     0
 40
1.0
176
     0
 40
1.0
176
     0
  0
VISUALSTYLE
  5
258F
102
{ACAD_REACTORS
330
2585
102
}
330
2585
100
AcDbVisualStyle
  2
Realistic
 70
     8
177
     3
291
     0
 70
    58
 90
        2
176
     1
 90
        3
176
     1
 90
        0
176
     1
 90
        2
176
     1
 40
0.6
176
     1
 40
30.0
176
     1
 62
     7
420
 16777215
176
     1
 90
        0
176
     1
 90
        0
176
     1
 62
     7
176
     1
 62
   257
176
     1
 90
        1
176
     1
 90
        1
176
     1
 40
1.0
176
     1
 90
        8
176
     1
 62
   257
176
     1
 40
1.0
176
     1
 90
        1
176
     1
 90
        6
176
     1
 90
        2
176
     1
 62
     7
176
     1
 90
        3
176
     1
 90
        0
176
     1
 90
        0
176
     1
290
     0
176
     1
 90
       13
176
     1
 40
0.0
176
     1
 90
        0
176
     1
290
     0
176
     1
290
     1
176
     1
290
     1
176
     1
290
     0
176
     1
290
     0
176
     1
290
     0
176
     1
290
     0
176
     1
290
     0
176
     1
290
     0
176
     1
 90
       50
176
     1
 40
0.0
176
     1
 40
1.0
176
     1
 90
        0
176
     1
 62
    18
420
        0
176
     1
 90
       50
176
     1
 90
        3
176
     1
 62
     5
420
      255
176
     1
290
     0
176
     1
 90
       50
176
     1
 90
       50
176
     1
 90
       50
176
     1
290
     0
176
     1
 90
       50
176
     1
 62
   256
176
     0
 40
1.0
176
     0
 90
        2
176
     1
  1
strokes_ogs.tif
176
     1
290
     0
176
     1
 40
1.0
176
     1
 40
1.0
176
     1
  0
VISUALSTYLE
  5
259A
102
{ACAD_REACTORS
330
2585
102
}
330
2585
100
AcDbVisualStyle
  2
Shaded
 70
    27
177
     3
291
     0
 70
    58
 90
        2
176
     1
 90
        2
176
     1
 90
        1
176
     1
 90
        2
176
     1
 40
0.6
176
     1
 40
30.0
176
     1
 62
     7
420
 16777215
176
     1
 90
        0
176
     1
 90
        4
176
     1
 62
     7
176
     1
 62
   257
176
     1
 90
        1
176
     1
 90
        1
176
     1
 40
1.0
176
     1
 90
        8
176
     1
 62
   257
176
     1
 40
1.0
176
     1
 90
        1
176
     1
 90
        6
176
     1
 90
        2
176
     1
 62
     8
420
  7895160
176
     1
 90
        3
176
     1
 90
        0
176
     1
 90
        0
176
     1
290
     0
176
     1
 90
        5
176
     1
 40
0.0
176
     1
 90
        0
176
     1
290
     0
176
     1
290
     1
176
     1
290
     1
176
     1
290
     0
176
     1
290
     0
176
     1
290
     0
176
     1
290
     0
176
     1
290
     0
176
     1
290
     0
176
     1
 90
       50
176
     1
 40
0.0
176
     1
 40
1.0
176
     1
 90
        0
176
     1
 62
    18
420
        0
176
     1
 90
       50
176
     1
 90
        3
176
     1
 62
     5
420
      255
176
     1
290
     0
176
     1
 90
       50
176
     1
 90
       50
176
     1
 90
       50
176
     1
290
     0
176
     1
 90
       50
176
     1
 62
   256
176
     0
 40
1.0
176
     0
 90
        2
176
     1
  1
strokes_ogs.tif
176
     1
290
     0
176
     1
 40
1.0
176
     1
 40
1.0
176
     1
  0
VISUALSTYLE
  5
2599
102
{ACAD_REACTORS
330
2585
102
}
330
2585
100
AcDbVisualStyle
  2
Shaded with edges
 70
    26
177
     3
291
     0
 70
    58
 90
        2
176
     1
 90
        2
176
     1
 90
        1
176
     1
 90
        2
176
     1
 40
0.6
176
     1
 40
30.0
176
     1
 62
     7
420
 16777215
176
     1
 90
        1
176
     1
 90
        2
176
     1
 62
     7
176
     1
 62
   257
176
     1
 90
        2
176
     1
 90
        1
176
     1
 40
1.0
176
     1
 90
        8
176
     1
 62
   257
176
     1
 40
1.0
176
     1
 90
        1
176
     1
 90
        6
176
     1
 90
        2
176
     1
 62
     7
176
     1
 90
        3
176
     1
 90
        0
176
     1
 90
        0
176
     1
290
     0
176
     1
 90
        5
176
     1
 40
0.0
176
     1
 90
        0
176
     1
290
     0
176
     1
290
     1
176
     1
290
     1
176
     1
290
     0
176
     1
290
     0
176
     1
290
     0
176
     1
290
     0
176
     1
290
     0
176
     1
290
     0
176
     1
 90
       50
176
     1
 40
0.0
176
     1
 40
1.0
176
     1
 90
        0
176
     1
 62
    18
420
        0
176
     1
 90
       50
176
     1
 90
        3
176
     1
 62
     5
420
      255
176
     1
290
     0
176
     1
 90
       50
176
     1
 90
       50
176
     1
 90
       50
176
     1
290
     0
176
     1
 90
       50
176
     1
 62
   256
176
     0
 40
1.0
176
     0
 90
        2
176
     1
  1
strokes_ogs.tif
176
     1
290
     0
176
     1
 40
1.0
176
     1
 40
1.0
176
     1
  0
VISUALSTYLE
  5
2596
102
{ACAD_REACTORS
330
2585
102
}
330
2585
100
AcDbVisualStyle
  2
Shades of Gray
 70
    23
177
     3
291
     0
 70
    58
 90
        2
176
     1
 90
        2
176
     1
 90
        3
176
     1
 90
        0
176
     1
 40
0.6
176
     1
 40
30.0
176
     1
 62
     7
420
 16777215
176
     1
 90
        2
176
     1
 90
        2
176
     1
 62
     7
176
     1
 62
     7
176
     1
 90
        1
176
     1
 90
        1
176
     1
 40
40.0
176
     1
 90
        8
176
     1
 62
     7
176
     1
 40
1.0
176
     1
 90
        1
176
     1
 90
        6
176
     1
 90
        2
176
     1
 62
     7
176
     1
 90
        3
176
     1
 90
        0
176
     1
 90
        0
176
     1
290
     0
176
     1
 90
        1
176
     1
 40
0.0
176
     1
 90
        0
176
     1
290
     0
176
     1
290
     1
176
     1
290
     1
176
     1
290
     0
176
     1
290
     0
176
     1
290
     0
176
     1
290
     0
176
     1
290
     0
176
     1
290
     0
176
     1
 90
       50
176
     1
 40
0.0
176
     1
 40
1.0
176
     1
 90
        0
176
     1
 62
    18
420
        0
176
     1
 90
       50
176
     1
 90
        3
176
     1
 62
     5
420
      255
176
     1
290
     0
176
     1
 90
       50
176
     1
 90
       50
176
     1
 90
       50
176
     1
290
     0
176
     1
 90
       50
176
     1
 62
   256
176
     0
 40
1.0
176
     0
 90
        2
176
     1
  1
strokes_ogs.tif
176
     1
290
     0
176
     1
 40
1.0
176
     1
 40
1.0
176
     1
  0
VISUALSTYLE
  5
2597
102
{ACAD_REACTORS
330
2585
102
}
330
2585
100
AcDbVisualStyle
  2
Sketchy
 70
    24
177
     3
291
     0
 70
    58
 90
        1
176
     1
 90
        2
176
     1
 90
        2
176
     1
 90
        0
176
     1
 40
0.6
176
     1
 40
30.0
176
     1
 62
     7
420
 16777215
176
     1
 90
        2
176
     1
 90
        2
176
     1
 62
     7
176
     1
 62
     7
176
     1
 90
        1
176
     1
 90
        1
176
     1
 40
40.0
176
     1
 90
       11
176
     1
 62
     7
176
     1
 40
1.0
176
     1
 90
        1
176
     1
 90
        6
176
     1
 90
        2
176
     1
 62
     7
176
     1
 90
        6
176
     1
 90
        0
176
     1
 90
        0
176
     1
290
     0
176
     1
 90
        1
176
     1
 40
0.0
176
     1
 90
        0
176
     1
290
     0
176
     1
290
     1
176
     1
290
     1
176
     1
290
     0
176
     1
290
     0
176
     1
290
     0
176
     1
290
     0
176
     1
290
     0
176
     1
290
     0
176
     1
 90
       50
176
     1
 40
0.0
176
     1
 40
1.0
176
     1
 90
        0
176
     1
 62
    18
420
        0
176
     1
 90
       50
176
     1
 90
        3
176
     1
 62
     5
420
      255
176
     1
290
     0
176
     1
 90
       50
176
     1
 90
       50
176
     1
 90
       50
176
     1
290
     0
176
     1
 90
       50
176
     1
 62
   256
176
     0
 40
1.0
176
     0
 90
        2
176
     1
  1
strokes_ogs.tif
176
     1
290
     0
176
     1
 40
1.0
176
     1
 40
1.0
176
     1
  0
VISUALSTYLE
  5
2592
102
{ACAD_REACTORS
330
2585
102
}
330
2585
100
AcDbVisualStyle
  2
Thicken
 70
    13
177
     3
291
     1
 70
    58
 90
        2
176
     1
 90
        2
176
     1
 90
        0
176
     1
 90
        0
176
     1
 40
0.6
176
     1
 40
30.0
176
     1
 62
     7
420
 16777215
176
     1
 90
        1
176
     1
 90
        4
176
     1
 62
     7
176
     1
 62
   257
176
     1
 90
        1
176
     1
 90
        1
176
     1
 40
1.0
176
     1
 90
       12
176
     1
 62
     7
176
     1
 40
1.0
176
     1
 90
        1
176
     1
 90
        6
176
     1
 90
        2
176
     1
 62
     7
176
     1
 90
        5
176
     1
 90
        0
176
     1
 90
        0
176
     1
290
     0
176
     1
 90
        1
176
     1
 40
0.0
176
     1
 90
        0
176
     1
290
     0
176
     1
290
     1
176
     1
290
     1
176
     1
290
     0
176
     1
290
     0
176
     1
290
     0
176
     1
290
     0
176
     1
290
     0
176
     1
290
     0
176
     1
 90
       50
176
     1
 40
0.0
176
     1
 40
1.0
176
     1
 90
        0
176
     1
 62
    18
420
        0
176
     1
 90
       50
176
     1
 90
        3
176
     1
 62
     5
420
      255
176
     1
290
     0
176
     1
 90
       50
176
     1
 90
       50
176
     1
 90
       50
176
     1
290
     0
176
     1
 90
       50
176
     1
 62
   256
176
     0
 40
1.0
176
     0
 90
        2
176
     1
  1
strokes_ogs.tif
176
     1
290
     0
176
     1
 40
1.0
176
     1
 40
1.0
176
     1
  0
VISUALSTYLE
  5
258C
102
{ACAD_REACTORS
330
2585
102
}
330
2585
100
AcDbVisualStyle
  2
Wireframe
 70
     5
177
     3
291
     0
 70
    58
 90
        0
176
     1
 90
        2
176
     1
 90
        0
176
     1
 90
        0
176
     1
 40
0.6
176
     1
 40
30.0
176
     1
 62
     7
420
 16777215
176
     1
 90
        1
176
     1
 90
        4
176
     1
 62
     7
176
     1
 62
   257
176
     1
 90
        1
176
     1
 90
        1
176
     1
 40
1.0
176
     1
 90
        0
176
     1
 62
   257
176
     1
 40
1.0
176
     1
 90
        1
176
     1
 90
        6
176
     1
 90
        2
176
     1
 62
     7
176
     1
 90
        3
176
     1
 90
        0
176
     1
 90
        0
176
     1
290
     0
176
     1
 90
        1
176
     1
 40
0.0
176
     1
 90
        0
176
     1
290
     0
176
     1
290
     1
176
     1
290
     1
176
     1
290
     0
176
     1
290
     0
176
     1
290
     0
176
     1
290
     0
176
     1
290
     0
176
     1
290
     0
176
     1
 90
       50
176
     1
 40
0.0
176
     1
 40
1.0
176
     1
 90
        0
176
     1
 62
    18
420
        0
176
     1
 90
       50
176
     1
 90
        3
176
     1
 62
     5
420
      255
176
     1
290
     0
176
     1
 90
       50
176
     1
 90
       50
176
     1
 90
       50
176
     1
290
     0
176
     1
 90
       50
176
     1
 62
   256
176
     0
 40
1.0
176
     0
 90
        2
176
     1
  1
strokes_ogs.tif
176
     1
290
     0
176
     1
 40
1.0
176
     1
 40
1.0
176
     1
  0
VISUALSTYLE
  5
2598
102
{ACAD_REACTORS
330
2585
102
}
330
2585
100
AcDbVisualStyle
  2
X-Ray
 70
    25
177
     3
291
     0
 70
    58
 90
        2
176
     1
 90
        2
176
     1
 90
        1
176
     1
 90
        1
176
     1
 40
0.5
176
     1
 40
30.0
176
     1
 62
     7
420
 16777215
176
     1
 90
        1
176
     1
 90
        0
176
     1
 62
     7
176
     1
 62
   257
176
     1
 90
        1
176
     1
 90
        1
176
     1
 40
1.0
176
     1
 90
        8
176
     1
 62
     7
176
     1
 40
1.0
176
     1
 90
        1
176
     1
 90
        6
176
     1
 90
        2
176
     1
 62
     7
176
     1
 90
        3
176
     1
 90
        0
176
     1
 90
        0
176
     1
290
     0
176
     1
 90
       13
176
     1
 40
0.0
176
     1
 90
        0
176
     1
290
     0
176
     1
290
     1
176
     1
290
     1
176
     1
290
     0
176
     1
290
     0
176
     1
290
     0
176
     1
290
     0
176
     1
290
     0
176
     1
290
     0
176
     1
 90
       50
176
     1
 40
0.0
176
     1
 40
1.0
176
     1
 90
        0
176
     1
 62
    18
420
        0
176
     1
 90
       50
176
     1
 90
        3
176
     1
 62
     5
420
      255
176
     1
290
     0
176
     1
 90
       50
176
     1
 90
       50
176
     1
 90
       50
176
     1
290
     0
176
     1
 90
       50
176
     1
 62
   256
176
     0
 40
1.0
176
     0
 90
        2
176
     1
  1
strokes_ogs.tif
176
     1
290
     0
176
     1
 40
1.0
176
     1
 40
1.0
176
     1
  0
DICTIONARYVAR
  5
25D4
102
{ACAD_REACTORS
330
7B
102
}
330
7B
100
DictionaryVariables
280
     0
  1
1:1
  0
DICTIONARYVAR
  5
25D0
102
{ACAD_REACTORS
330
7B
102
}
330
7B
100
DictionaryVariables
280
     0
  1
STANDARD
  0
DICTIONARYVAR
  5
AFB
102
{ACAD_REACTORS
330
7B
102
}
330
7B
100
DictionaryVariables
280
     0
  1
STANDARD
  0
DICTIONARYVAR
  5
25D1
102
{ACAD_REACTORS
330
7B
102
}
330
7B
100
DictionaryVariables
280
     0
  1
Imperial24
  0
DICTIONARYVAR
  5
25D2
102
{ACAD_REACTORS
330
7B
102
}
330
7B
100
DictionaryVariables
280
     0
  1
Imperial24
  0
DICTIONARYVAR
  5
AFC
102
{ACAD_REACTORS
330
7B
102
}
330
7B
100
DictionaryVariables
280
     0
  1
1
  0
DICTIONARYVAR
  5
25D6
102
{ACAD_REACTORS
330
7B
102
}
330
7B
100
DictionaryVariables
280
     0
  1
1
  0
DICTIONARYVAR
  5
25D7
102
{ACAD_REACTORS
330
7B
102
}
330
7B
100
DictionaryVariables
280
     0
  1
15
  0
DICTIONARYVAR
  5
25D5
102
{ACAD_REACTORS
330
7B
102
}
330
7B
100
DictionaryVariables
280
     0
  1
0
  0
DICTIONARYVAR
  5
25D3
102
{ACAD_REACTORS
330
7B
102
}
330
7B
100
DictionaryVariables
280
     0
  1
0
  0
DICTIONARYVAR
  5
AFD
102
{ACAD_REACTORS
330
7B
102
}
330
7B
100
DictionaryVariables
280
     0
  1

  0
DICTIONARYVAR
  5
7C
102
{ACAD_REACTORS
330
7B
102
}
330
7B
100
DictionaryVariables
280
     0
  1
96
  0
DICTIONARY
  5
25DC
330
25B5
100
AcDbDictionary
280
     1
281
     1
  3
ACAD_XREC_ROUNDTRIP
360
25DD
  0
DICTIONARY
  5
2576
330
2575
100
AcDbDictionary
280
     1
281
     1
  3
BUMPTILE
360
2578
  3
DIFFUSETILE
360
2577
  3
OPACITYTILE
360
257B
  3
REFLECTIONTILE
360
257A
  3
REFRACTIONTILE
360
257C
  3
SPECULARTILE
360
2579
  0
DICTIONARY
  5
256E
330
256D
100
AcDbDictionary
280
     1
281
     1
  3
BUMPTILE
360
2570
  3
DIFFUSETILE
360
256F
  3
OPACITYTILE
360
2573
  3
REFLECTIONTILE
360
2572
  3
REFRACTIONTILE
360
2574
  3
SPECULARTILE
360
2571
  0
DICTIONARY
  5
257E
330
257D
100
AcDbDictionary
280
     1
281
     1
  3
BUMPTILE
360
2580
  3
DIFFUSETILE
360
257F
  3
OPACITYTILE
360
2583
  3
REFLECTIONTILE
360
2582
  3
REFRACTIONTILE
360
2584
  3
SPECULARTILE
360
2581
  0
DICTIONARY
  5
25DA
330
25B3
100
AcDbDictionary
280
     1
281
     1
  3
ACAD_XREC_ROUNDTRIP
360
25DB
  0
DICTIONARY
  5
25D8
330
972
100
AcDbDictionary
280
     1
281
     1
  3
ACAD_ROUNDTRIP_2008_TABLESTYLE_CELLSTYLEMAP
360
25D9
  0
XRECORD
  5
25DD
102
{ACAD_REACTORS
330
25DC
102
}
330
25DC
100
AcDbXrecord
280
     1
102
DISPLAYNAME
  1
Imperial24
102
FLAGS
 90
        0
  0
XRECORD
  5
2578
102
{ACAD_REACTORS
330
2576
102
}
330
2576
100
AcDbXrecord
280
     1
270
     1
271
     1
  0
XRECORD
  5
2577
102
{ACAD_REACTORS
330
2576
102
}
330
2576
100
AcDbXrecord
280
     1
270
     1
271
     1
  0
XRECORD
  5
257B
102
{ACAD_REACTORS
330
2576
102
}
330
2576
100
AcDbXrecord
280
     1
270
     1
271
     1
  0
XRECORD
  5
257A
102
{ACAD_REACTORS
330
2576
102
}
330
2576
100
AcDbXrecord
280
     1
270
     1
271
     1
  0
XRECORD
  5
257C
102
{ACAD_REACTORS
330
2576
102
}
330
2576
100
AcDbXrecord
280
     1
270
     1
271
     1
  0
XRECORD
  5
2579
102
{ACAD_REACTORS
330
2576
102
}
330
2576
100
AcDbXrecord
280
     1
270
     1
271
     1
  0
XRECORD
  5
2570
102
{ACAD_REACTORS
330
256E
102
}
330
256E
100
AcDbXrecord
280
     1
270
     1
271
     1
  0
XRECORD
  5
256F
102
{ACAD_REACTORS
330
256E
102
}
330
256E
100
AcDbXrecord
280
     1
270
     1
271
     1
  0
XRECORD
  5
2573
102
{ACAD_REACTORS
330
256E
102
}
330
256E
100
AcDbXrecord
280
     1
270
     1
271
     1
  0
XRECORD
  5
2572
102
{ACAD_REACTORS
330
256E
102
}
330
256E
100
AcDbXrecord
280
     1
270
     1
271
     1
  0
XRECORD
  5
2574
102
{ACAD_REACTORS
330
256E
102
}
330
256E
100
AcDbXrecord
280
     1
270
     1
271
     1
  0
XRECORD
  5
2571
102
{ACAD_REACTORS
330
256E
102
}
330
256E
100
AcDbXrecord
280
     1
270
     1
271
     1
  0
XRECORD
  5
2580
102
{ACAD_REACTORS
330
257E
102
}
330
257E
100
AcDbXrecord
280
     1
270
     1
271
     1
  0
XRECORD
  5
257F
102
{ACAD_REACTORS
330
257E
102
}
330
257E
100
AcDbXrecord
280
     1
270
     1
271
     1
  0
XRECORD
  5
2583
102
{ACAD_REACTORS
330
257E
102
}
330
257E
100
AcDbXrecord
280
     1
270
     1
271
     1
  0
XRECORD
  5
2582
102
{ACAD_REACTORS
330
257E
102
}
330
257E
100
AcDbXrecord
280
     1
270
     1
271
     1
  0
XRECORD
  5
2584
102
{ACAD_REACTORS
330
257E
102
}
330
257E
100
AcDbXrecord
280
     1
270
     1
271
     1
  0
XRECORD
  5
2581
102
{ACAD_REACTORS
330
257E
102
}
330
257E
100
AcDbXrecord
280
     1
270
     1
271
     1
  0
XRECORD
  5
25DB
102
{ACAD_REACTORS
330
25DA
102
}
330
25DA
100
AcDbXrecord
280
     1
102
DISPLAYNAME
  1
Imperial24
102
FLAGS
 90
        0
  0
CELLSTYLEMAP
  5
25D9
102
{ACAD_REACTORS
330
25D8
102
}
330
25D8
100
AcDbCellStyleMap
 90
        3
300
CELLSTYLE
  1
TABLEFORMAT_BEGIN
 90
        5
170
     1
 91
        0
 92
    32768
 62
   257
 93
        1
300
CONTENTFORMAT
  1
CONTENTFORMAT_BEGIN
 90
        0
 91
        0
 92
        4
 93
        0
300

 40
0.0
140
1.0
 94
        5
 62
     0
340
11
144
0.25
309
CONTENTFORMAT_END
171
     0
 94
        6
 95
        1
302
GRIDFORMAT
  1
GRIDFORMAT_BEGIN
 90
        0
 91
        1
 62
     0
 92
       -2
340
0
 93
        0
 40
0.045
309
GRIDFORMAT_END
 95
        2
302
GRIDFORMAT
  1
GRIDFORMAT_BEGIN
 90
        0
 91
        1
 62
     0
 92
       -2
340
0
 93
        0
 40
0.045
309
GRIDFORMAT_END
 95
        4
302
GRIDFORMAT
  1
GRIDFORMAT_BEGIN
 90
        0
 91
        1
 62
     0
 92
       -2
340
0
 93
        0
 40
0.045
309
GRIDFORMAT_END
 95
        8
302
GRIDFORMAT
  1
GRIDFORMAT_BEGIN
 90
        0
 91
        1
 62
     0
 92
       -2
340
0
 93
        0
 40
0.045
309
GRIDFORMAT_END
 95
       16
302
GRIDFORMAT
  1
GRIDFORMAT_BEGIN
 90
        0
 91
        1
 62
     0
 92
       -2
340
0
 93
        0
 40
0.045
309
GRIDFORMAT_END
 95
       32
302
GRIDFORMAT
  1
GRIDFORMAT_BEGIN
 90
        0
 91
        1
 62
     0
 92
       -2
340
0
 93
        0
 40
0.045
309
GRIDFORMAT_END
309
TABLEFORMAT_END
  1
CELLSTYLE_BEGIN
 90
        1
 91
        1
300
_TITLE
309
CELLSTYLE_END
300
CELLSTYLE
  1
TABLEFORMAT_BEGIN
 90
        5
170
     1
 91
        0
 92
        0
 62
   257
 93
        1
300
CONTENTFORMAT
  1
CONTENTFORMAT_BEGIN
 90
        0
 91
        0
 92
        4
 93
        0
300

 40
0.0
140
1.0
 94
        5
 62
     0
340
11
144
0.18
309
CONTENTFORMAT_END
171
     0
 94
        6
 95
        1
302
GRIDFORMAT
  1
GRIDFORMAT_BEGIN
 90
        0
 91
        1
 62
     0
 92
       -2
340
0
 93
        0
 40
0.045
309
GRIDFORMAT_END
 95
        2
302
GRIDFORMAT
  1
GRIDFORMAT_BEGIN
 90
        0
 91
        1
 62
     0
 92
       -2
340
0
 93
        0
 40
0.045
309
GRIDFORMAT_END
 95
        4
302
GRIDFORMAT
  1
GRIDFORMAT_BEGIN
 90
        0
 91
        1
 62
     0
 92
       -2
340
0
 93
        0
 40
0.045
309
GRIDFORMAT_END
 95
        8
302
GRIDFORMAT
  1
GRIDFORMAT_BEGIN
 90
        0
 91
        1
 62
     0
 92
       -2
340
0
 93
        0
 40
0.045
309
GRIDFORMAT_END
 95
       16
302
GRIDFORMAT
  1
GRIDFORMAT_BEGIN
 90
        0
 91
        1
 62
     0
 92
       -2
340
0
 93
        0
 40
0.045
309
GRIDFORMAT_END
 95
       32
302
GRIDFORMAT
  1
GRIDFORMAT_BEGIN
 90
        0
 91
        1
 62
     0
 92
       -2
340
0
 93
        0
 40
0.045
309
GRIDFORMAT_END
309
TABLEFORMAT_END
  1
CELLSTYLE_BEGIN
 90
        2
 91
        1
300
_HEADER
309
CELLSTYLE_END
300
CELLSTYLE
  1
TABLEFORMAT_BEGIN
 90
        5
170
     1
 91
        0
 92
        0
 62
   257
 93
        1
300
CONTENTFORMAT
  1
CONTENTFORMAT_BEGIN
 90
        0
 91
        0
 92
        4
 93
        0
300

 40
0.0
140
1.0
 94
        2
 62
     0
340
11
144
0.18
309
CONTENTFORMAT_END
171
     0
 94
        6
 95
        1
302
GRIDFORMAT
  1
GRIDFORMAT_BEGIN
 90
        0
 91
        1
 62
     0
 92
       -2
340
0
 93
        0
 40
0.045
309
GRIDFORMAT_END
 95
        2
302
GRIDFORMAT
  1
GRIDFORMAT_BEGIN
 90
        0
 91
        1
 62
     0
 92
       -2
340
0
 93
        0
 40
0.045
309
GRIDFORMAT_END
 95
        4
302
GRIDFORMAT
  1
GRIDFORMAT_BEGIN
 90
        0
 91
        1
 62
     0
 92
       -2
340
0
 93
        0
 40
0.045
309
GRIDFORMAT_END
 95
        8
302
GRIDFORMAT
  1
GRIDFORMAT_BEGIN
 90
        0
 91
        1
 62
     0
 92
       -2
340
0
 93
        0
 40
0.045
309
GRIDFORMAT_END
 95
       16
302
GRIDFORMAT
  1
GRIDFORMAT_BEGIN
 90
        0
 91
        1
 62
     0
 92
       -2
340
0
 93
        0
 40
0.045
309
GRIDFORMAT_END
 95
       32
302
GRIDFORMAT
  1
GRIDFORMAT_BEGIN
 90
        0
 91
        1
 62
     0
 92
       -2
340
0
 93
        0
 40
0.045
309
GRIDFORMAT_END
309
TABLEFORMAT_END
  1
CELLSTYLE_BEGIN
 90
        3
 91
        2
300
_DATA
309
CELLSTYLE_END
  0
ENDSEC
  0
EOF
