  0
SECTION
  2
HEADER
  9
$ACADVER
  1
AC1014
  9
$ACADMAINTVER
 70
     9
  9
$DWGCODEPAGE
  3
ANSI_1252
  9
$INSBASE
 10
0.0
 20
0.0
 30
0.0
  9
$EXTMIN
 10
0.0
 20
0.0
 30
0.0
  9
$EXTMAX
 10
2100.0
 20
2970.0
 30
0.0
  9
$LIMMIN
 10
0.0
 20
0.0
  9
$LIMMAX
 10
0.0
 20
0.0
  9
$ORTHOMODE
 70
     0
  9
$REGENMODE
 70
     1
  9
$FILLMODE
 70
     1
  9
$QTEXTMODE
 70
     0
  9
$MIRRTEXT
 70
     1
  9
$DRAGMODE
 70
     2
  9
$LTSCALE
 40
1.0
  9
$OSMODE
 70
    37
  9
$ATTMODE
 70
     1
  9
$TEXTSIZE
 40
35.0
  9
$TRACEWID
 40
1.0
  9
$TEXTSTYLE
  7
STANDARD
  9
$CLAYER
  8
0
  9
$CELTYPE
  6
BYLAYER
  9
$CECOLOR
 62
   256
  9
$CELTSCALE
 40
1.0
  9
$DELOBJ
 70
     1
  9
$DISPSILH
 70
     0
  9
$DIMSCALE
 40
1.0
  9
$DIMASZ
 40
25.0
  9
$DIMEXO
 40
0.05
  9
$DIMDLI
 40
3.75
  9
$DIMRND
 40
0.0
  9
$DIMDLE
 40
0.0
  9
$DIMEXE
 40
10.0
  9
$DIMTP
 40
0.0
  9
$DIMTM
 40
0.0
  9
$DIMTXT
 40
35.0
  9
$DIMCEN
 40
2.5
  9
$DIMTSZ
 40
0.0
  9
$DIMTOL
 70
     0
  9
$DIMLIM
 70
     0
  9
$DIMTIH
 70
     1
  9
$DIMTOH
 70
     1
  9
$DIMSE1
 70
     0
  9
$DIMSE2
 70
     0
  9
$DIMTAD
 70
     1
  9
$DIMZIN
 70
     0
  9
$DIMBLK
  1

  9
$DIMASO
 70
     1
  9
$DIMSHO
 70
     1
  9
$DIMPOST
  1

  9
$DIMAPOST
  1

  9
$DIMALT
 70
     0
  9
$DIMALTD
 70
     3
  9
$DIMALTF
 40
0.0393700787
  9
$DIMLFAC
 40
1.0
  9
$DIMTOFL
 70
     1
  9
$DIMTVP
 40
0.0
  9
$DIMTIX
 70
     0
  9
$DIMSOXD
 70
     0
  9
$DIMSAH
 70
     0
  9
$DIMBLK1
  1

  9
$DIMBLK2
  1

  9
$DIMSTYLE
  2
ISO-25
  9
$DIMCLRD
 70
     0
  9
$DIMCLRE
 70
     0
  9
$DIMCLRT
 70
     0
  9
$DIMTFAC
 40
1.0
  9
$DIMGAP
 40
15.24
  9
$DIMJUST
 70
     0
  9
$DIMSD1
 70
     0
  9
$DIMSD2
 70
     0
  9
$DIMTOLJ
 70
     0
  9
$DIMTZIN
 70
     0
  9
$DIMALTZ
 70
     0
  9
$DIMALTTZ
 70
     0
  9
$DIMFIT
 70
     3
  9
$DIMUPT
 70
     0
  9
$DIMUNIT
 70
     2
  9
$DIMDEC
 70
     2
  9
$DIMTDEC
 70
     2
  9
$DIMALTU
 70
     2
  9
$DIMALTTD
 70
     3
  9
$DIMTXSTY
  7
STANDARD
  9
$DIMAUNIT
 70
     0
  9
$LUNITS
 70
     2
  9
$LUPREC
 70
     2
  9
$SKETCHINC
 40
1.0
  9
$FILLETRAD
 40
10.0
  9
$AUNITS
 70
     0
  9
$AUPREC
 70
     0
  9
$MENU
  1
.
  9
$ELEVATION
 40
0.0
  9
$PELEVATION
 40
0.0
  9
$THICKNESS
 40
0.0
  9
$LIMCHECK
 70
     0
  9
$CHAMFERA
 40
10.0
  9
$CHAMFERB
 40
10.0
  9
$CHAMFERC
 40
20.0
  9
$CHAMFERD
 40
0.0
  9
$SKPOLY
 70
     0
  9
$TDCREATE
 40
2454937.604516076
  9
$TDUPDATE
 40
2454937.604516088
  9
$TDINDWG
 40
0.0000000116
  9
$TDUSRTIMER
 40
0.0000000116
  9
$USRTIMER
 70
     1
  9
$ANGBASE
 50
0.0
  9
$ANGDIR
 70
     0
  9
$PDMODE
 70
     0
  9
$PDSIZE
 40
-1.0
  9
$PLINEWID
 40
0.0
  9
$COORDS
 70
     1
  9
$SPLFRAME
 70
     0
  9
$SPLINETYPE
 70
     6
  9
$SPLINESEGS
 70
     8
  9
$ATTDIA
 70
     0
  9
$ATTREQ
 70
     1
  9
$HANDLING
 70
     1
  9
$HANDSEED
  5
223
  9
$SURFTAB1
 70
     6
  9
$SURFTAB2
 70
     6
  9
$SURFTYPE
 70
     6
  9
$SURFU
 70
     6
  9
$SURFV
 70
     6
  9
$UCSNAME
  2

  9
$UCSORG
 10
0.0
 20
0.0
 30
0.0
  9
$UCSXDIR
 10
1.0
 20
0.0
 30
0.0
  9
$UCSYDIR
 10
0.0
 20
1.0
 30
0.0
  9
$PUCSNAME
  2

  9
$PUCSORG
 10
0.0
 20
0.0
 30
0.0
  9
$PUCSXDIR
 10
1.0
 20
0.0
 30
0.0
  9
$PUCSYDIR
 10
0.0
 20
1.0
 30
0.0
  9
$USERI1
 70
     0
  9
$USERI2
 70
     0
  9
$USERI3
 70
     0
  9
$USERI4
 70
     0
  9
$USERI5
 70
     0
  9
$USERR1
 40
0.0
  9
$USERR2
 40
0.0
  9
$USERR3
 40
0.0
  9
$USERR4
 40
0.0
  9
$USERR5
 40
0.0
  9
$WORLDVIEW
 70
     1
  9
$SHADEDGE
 70
     3
  9
$SHADEDIF
 70
    70
  9
$TILEMODE
 70
     1
  9
$MAXACTVP
 70
    64
  9
$PINSBASE
 10
0.0
 20
0.0
 30
0.0
  9
$PLIMCHECK
 70
     0
  9
$PEXTMIN
 10
1.0000000000E+20
 20
1.0000000000E+20
 30
1.0000000000E+20
  9
$PEXTMAX
 10
-1.0000000000E+20
 20
-1.0000000000E+20
 30
-1.0000000000E+20
  9
$PLIMMIN
 10
0.0
 20
0.0
  9
$PLIMMAX
 10
420.0
 20
297.0
  9
$UNITMODE
 70
     0
  9
$VISRETAIN
 70
     1
  9
$PLINEGEN
 70
     0
  9
$PSLTSCALE
 70
     1
  9
$TREEDEPTH
 70
  3020
  9
$PICKSTYLE
 70
     1
  9
$CMLSTYLE
  2
STANDARD
  9
$CMLJUST
 70
     0
  9
$CMLSCALE
 40
20.0
  9
$PROXYGRAPHICS
 70
     1
  9
$MEASUREMENT
 70
     1
  0
ENDSEC
  0
SECTION
  2
CLASSES
  0
CLASS
  1
ACDBDICTIONARYWDFLT
  2
AcDbDictionaryWithDefault
  3
ObjectDBX Classes
 90
        0
280
     0
281
     0
  0
CLASS
  1
XRECORD
  2
AcDbXrecord
  3
AutoCAD 2000
 90
        0
280
     0
281
     0
  0
CLASS
  1
LWPOLYLINE
  2
AcDbPolyline
  3
AutoCAD 2000
 90
        0
280
     0
281
     1
  0
CLASS
  1
HATCH
  2
AcDbHatch
  3
AutoCAD 2000
 90
        0
280
     0
281
     1
  0
CLASS
  1
ACDBPLACEHOLDER
  2
AcDbPlaceHolder
  3
ObjectDBX Classes
 90
        0
280
     0
281
     0
  0
CLASS
  1
LAYOUT
  2
AcDbLayout
  3
ObjectDBX Classes
 90
        0
280
     0
281
     0
  0
ENDSEC
  0
SECTION
  2
TABLES
  0
TABLE
  2
VPORT
  5
8
330
0
100
AcDbSymbolTable
 70
     1
  0
VPORT
  5
29
330
8
100
AcDbSymbolTableRecord
100
AcDbViewportTableRecord
  2
*ACTIVE
 70
     0
 10
0.0
 20
0.0
 11
1.0
 21
1.0
 12
1050.0
 22
1485.0
 13
0.0
 23
0.0
 14
10.0
 24
10.0
 15
10.0
 25
10.0
 16
0.0
 26
0.0
 36
1.0
 17
0.0
 27
0.0
 37
0.0
 40
2970.0
 41
0.7070707071
 42
50.0
 43
0.0
 44
0.0
 50
0.0
 51
0.0
 71
     0
 72
  2000
 73
     1
 74
     3
 75
     0
 76
     0
 77
     0
 78
     0
  0
ENDTAB
  0
TABLE
  2
LTYPE
  5
5
330
0
100
AcDbSymbolTable
 70
     6
  0
LTYPE
  5
14
330
5
100
AcDbSymbolTableRecord
100
AcDbLinetypeTableRecord
  2
BYBLOCK
 70
     0
  3

 72
    65
 73
     0
 40
0.0
  0
LTYPE
  5
15
330
5
100
AcDbSymbolTableRecord
100
AcDbLinetypeTableRecord
  2
BYLAYER
 70
     0
  3

 72
    65
 73
     0
 40
0.0
  0
LTYPE
  5
16
330
5
100
AcDbSymbolTableRecord
100
AcDbLinetypeTableRecord
  2
CONTINUOUS
 70
     0
  3
Solid line
 72
    65
 73
     0
 40
0.0
  0
LTYPE
  5
2A
330
5
100
AcDbSymbolTableRecord
100
AcDbLinetypeTableRecord
  2
HIDDEN
 70
     0
  3
Hidden __ __ __ __ __ __ __ __ __ __ __ __ __ __
 72
    65
 73
     2
 40
1.905
 49
1.27
 74
     0
 49
-0.635
 74
     0
  0
LTYPE
  5
2B
330
5
100
AcDbSymbolTableRecord
100
AcDbLinetypeTableRecord
  2
PHANTOM
 70
     0
  3
Phantom ______  __  __  ______  __  __  ______
 72
    65
 73
     6
 40
12.7
 49
6.35
 74
     0
 49
-1.27
 74
     0
 49
1.27
 74
     0
 49
-1.27
 74
     0
 49
1.27
 74
     0
 49
-1.27
 74
     0
  0
LTYPE
  5
2C
330
5
100
AcDbSymbolTableRecord
100
AcDbLinetypeTableRecord
  2
CENTER
 70
     0
  3
Center ____ _ ____ _ ____ _ ____ _ ____ _ ____
 72
    65
 73
     4
 40
10.16
 49
6.35
 74
     0
 49
-1.27
 74
     0
 49
1.27
 74
     0
 49
-1.27
 74
     0
  0
LTYPE
  5
2D
330
5
100
AcDbSymbolTableRecord
100
AcDbLinetypeTableRecord
  2
CENTERX2
 70
     0
  3
Center (2x) ________  __  ________  __  _____
 72
    65
 73
     4
 40
20.32
 49
12.7
 74
     0
 49
-2.54
 74
     0
 49
2.54
 74
     0
 49
-2.54
 74
     0
  0
LTYPE
  5
2E
330
5
100
AcDbSymbolTableRecord
100
AcDbLinetypeTableRecord
  2
DOT2
 70
     0
  3
Dot (.5x) ........................................
 72
    65
 73
     2
 40
0.635
 49
0.0
 74
     0
 49
-0.635
 74
     0
  0
ENDTAB
  0
TABLE
  2
LAYER
  5
2
330
0
100
AcDbSymbolTable
 70
     1
  0
LAYER
  5
10
330
2
100
AcDbSymbolTableRecord
100
AcDbLayerTableRecord
  2
0
 70
     0
 62
     7
  6
CONTINUOUS
  0
ENDTAB
  0
TABLE
  2
STYLE
  5
3
330
0
100
AcDbSymbolTable
 70
     6
  0
STYLE
  5
11
330
3
100
AcDbSymbolTableRecord
100
AcDbTextStyleTableRecord
  2
STANDARD
 70
     0
 40
0.0
 41
1.0
 50
0.0
 71
     0
 42
2.5
  3
txt
  4

  0
STYLE
  5
5E
330
3
100
AcDbSymbolTableRecord
100
AcDbTextStyleTableRecord
  2
SLDTEXTSTYLE0
 70
     0
 40
0.0
 41
0.605
 50
0.0
 71
     0
 42
0.2
  3
TXT
  4

  0
STYLE
  5
66
330
3
100
AcDbSymbolTableRecord
100
AcDbTextStyleTableRecord
  2
SLDTEXTSTYLE1
 70
     0
 40
0.0
 41
0.5160294118
 50
0.0
 71
     0
 42
0.2
  3
TXT
  4

  0
STYLE
  5
7B
330
3
100
AcDbSymbolTableRecord
100
AcDbTextStyleTableRecord
  2
SLDTEXTSTYLE2
 70
     0
 40
0.0
 41
0.5243333333
 50
0.0
 71
     0
 42
0.2
  3
TXT
  4

  0
STYLE
  5
7E
330
3
100
AcDbSymbolTableRecord
100
AcDbTextStyleTableRecord
  2
SLDTEXTSTYLE3
 70
     0
 40
0.0
 41
0.5646666667
 50
0.0
 71
     0
 42
0.2
  3
TXT
  4

  0
STYLE
  5
99
330
3
100
AcDbSymbolTableRecord
100
AcDbTextStyleTableRecord
  2
SLDTEXTSTYLE4
 70
     0
 40
0.0
 41
0.5584615385
 50
0.0
 71
     0
 42
0.2
  3
TXT
  4

  0
ENDTAB
  0
TABLE
  2
VIEW
  5
6
330
0
100
AcDbSymbolTable
 70
     0
  0
ENDTAB
  0
TABLE
  2
UCS
  5
7
330
0
100
AcDbSymbolTable
 70
     0
  0
ENDTAB
  0
TABLE
  2
APPID
  5
9
330
0
100
AcDbSymbolTable
 70
     1
  0
APPID
  5
12
330
9
100
AcDbSymbolTableRecord
100
AcDbRegAppTableRecord
  2
ACAD
 70
     0
  0
ENDTAB
  0
TABLE
  2
DIMSTYLE
  5
A
330
0
100
AcDbSymbolTable
 70
     3
  0
DIMSTYLE
105
27
330
A
100
AcDbSymbolTableRecord
100
AcDbDimStyleTableRecord
  2
ISO-25
 70
     0
  3

  4

  5

  6

  7

 40
1.0
 41
2.5
 42
0.625
 43
3.75
 44
1.25
 45
0.0
 46
0.0
 47
0.0
 48
0.0
140
2.5
141
2.5
142
0.0
143
0.0393700787
144
1.0
145
0.0
146
1.0
147
0.625
 71
     0
 72
     0
 73
     0
 74
     0
 75
     0
 76
     0
 77
     1
 78
     8
170
     0
171
     3
172
     1
173
     0
174
     0
175
     0
176
     0
177
     0
178
     0
270
     2
271
     2
272
     2
273
     2
274
     3
340
11
275
     0
280
     0
281
     0
282
     0
283
     0
284
     8
285
     0
286
     0
287
     3
288
     0
  0
DIMSTYLE
105
DD
102
{ACAD_REACTORS
330
DC
102
}
330
A
100
AcDbSymbolTableRecord
100
AcDbDimStyleTableRecord
  2
SLDDIMSTYLE0
 70
     0
  3

  4

  5

  6

  7

 40
1.0
 41
25.0
 42
0.0625
 43
0.38
 44
0.0
 45
0.0
 46
0.0
 47
0.0
 48
0.0
140
35.0
141
0.09
142
0.0
143
25.4
144
1.0
145
0.0
146
1.0
147
8.75
 71
     0
 72
     0
 73
     0
 74
     0
 75
     0
 76
     0
 77
     1
 78
    12
170
     0
171
     2
172
     0
173
     1
174
     0
175
     0
176
     0
177
     0
178
     0
270
     2
271
     1
272
     2
273
     2
274
     2
340
5E
275
     0
280
     0
281
     0
282
     0
283
     1
284
    12
285
     0
286
     0
287
     3
288
     0
  0
DIMSTYLE
105
E8
102
{ACAD_REACTORS
330
E7
330
F2
330
19D
330
1D9
330
1E3
330
1EE
330
1F8
102
}
330
A
100
AcDbSymbolTableRecord
100
AcDbDimStyleTableRecord
  2
SLDDIMSTYLE1
 70
     0
  3

  4

  5

  6

  7

 40
1.0
 41
25.0
 42
0.0625
 43
0.38
 44
0.0
 45
0.0
 46
0.0
 47
0.0
 48
0.0
140
35.0
141
0.09
142
0.0
143
25.4
144
1.0
145
0.0
146
1.0
147
8.75
 71
     0
 72
     0
 73
     0
 74
     0
 75
     0
 76
     0
 77
     1
 78
    12
170
     0
171
     2
172
     0
173
     1
174
     0
175
     0
176
     0
177
     0
178
     0
270
     2
271
     2
272
     2
273
     2
274
     2
340
5E
275
     0
280
     0
281
     0
282
     0
283
     1
284
    12
285
     0
286
     0
287
     3
288
     0
  0
ENDTAB
  0
TABLE
  2
BLOCK_RECORD
  5
1
330
0
100
AcDbSymbolTable
 70
    11
  0
BLOCK_RECORD
  5
1F
330
1
100
AcDbSymbolTableRecord
100
AcDbBlockTableRecord
  2
*MODEL_SPACE
  0
BLOCK_RECORD
  5
1B
330
1
100
AcDbSymbolTableRecord
100
AcDbBlockTableRecord
  2
*PAPER_SPACE
  0
BLOCK_RECORD
  5
62
330
1
100
AcDbSymbolTableRecord
100
AcDbBlockTableRecord
  2
SW_NOTE_0
1001
ACAD
1000
DesignCenter Data
1002
{
1070
     1
1070
     0
1002
}
  0
BLOCK_RECORD
  5
77
330
1
100
AcDbSymbolTableRecord
100
AcDbBlockTableRecord
  2
SW_NOTE_1
1001
ACAD
1000
DesignCenter Data
1002
{
1070
     1
1070
     0
1002
}
  0
BLOCK_RECORD
  5
DE
330
1
100
AcDbSymbolTableRecord
100
AcDbBlockTableRecord
  2
*D3
  0
BLOCK_RECORD
  5
E9
330
1
100
AcDbSymbolTableRecord
100
AcDbBlockTableRecord
  2
*D4
  0
BLOCK_RECORD
  5
F3
330
1
100
AcDbSymbolTableRecord
100
AcDbBlockTableRecord
  2
*D5
  0
BLOCK_RECORD
  5
19E
330
1
100
AcDbSymbolTableRecord
100
AcDbBlockTableRecord
  2
*D6
  0
BLOCK_RECORD
  5
1DA
330
1
100
AcDbSymbolTableRecord
100
AcDbBlockTableRecord
  2
*D7
  0
BLOCK_RECORD
  5
1E4
330
1
100
AcDbSymbolTableRecord
100
AcDbBlockTableRecord
  2
*D8
  0
BLOCK_RECORD
  5
1EF
330
1
100
AcDbSymbolTableRecord
100
AcDbBlockTableRecord
  2
*D9
  0
BLOCK_RECORD
  5
1F9
330
1
100
AcDbSymbolTableRecord
100
AcDbBlockTableRecord
  2
*D10
  0
ENDTAB
  0
ENDSEC
  0
SECTION
  2
BLOCKS
  0
BLOCK
  5
20
330
1F
100
AcDbEntity
  8
0
100
AcDbBlockBegin
  2
*MODEL_SPACE
 70
     0
 71
     0
 10
0.0
 20
0.0
 30
0.0
  3
*MODEL_SPACE
  1

  0
ENDBLK
  5
21
330
1F
100
AcDbEntity
  8
0
100
AcDbBlockEnd
  0
BLOCK
  5
1C
330
1B
100
AcDbEntity
 67
     1
  8
0
100
AcDbBlockBegin
  2
*PAPER_SPACE
 70
     0
 71
     0
 10
0.0
 20
0.0
 30
0.0
  3
*PAPER_SPACE
  1

  0
ENDBLK
  5
1D
330
1B
100
AcDbEntity
 67
     1
  8
0
100
AcDbBlockEnd
  0
BLOCK
  5
63
330
62
100
AcDbEntity
  8
0
100
AcDbBlockBegin
  2
SW_NOTE_0
 70
     0
 71
     0
 10
0.0
 20
0.0
 30
0.0
  3
SW_NOTE_0
  1

  0
MTEXT
  5
65
330
62
100
AcDbEntity
  8
0
  6
CONTINUOUS
 62
     0
100
AcDbMText
 10
0.0
 20
23.2032193159
 30
0.0
 40
18.0
 41
0.0
 71
     1
 72
     1
  1
Schutzvermerk nach
  7
SLDTEXTSTYLE0
  0
MTEXT
  5
67
330
62
100
AcDbEntity
  8
0
  6
CONTINUOUS
 62
     0
100
AcDbMText
 10
0.0
 20
-4.7967796857
 30
0.0
 40
18.0
 41
0.0
 71
     1
 72
     1
  1
   DIN 34 beachten.
  7
SLDTEXTSTYLE1
  0
ENDBLK
  5
64
330
62
100
AcDbEntity
  8
0
100
AcDbBlockEnd
  0
BLOCK
  5
78
330
77
100
AcDbEntity
  8
0
100
AcDbBlockBegin
  2
SW_NOTE_1
 70
     0
 71
     0
 10
0.0
 20
0.0
 30
0.0
  3
SW_NOTE_1
  1

  0
MTEXT
  5
7A
330
77
100
AcDbEntity
  8
0
  6
CONTINUOUS
 62
     0
100
AcDbMText
 10
0.0
 20
19.3360160966
 30
0.0
 40
15.0
 41
0.0
 71
     1
 72
     1
  1
Alape GmbH
  7
SLDTEXTSTYLE0
  0
MTEXT
  5
7C
330
77
100
AcDbEntity
  8
0
  6
CONTINUOUS
 62
     0
100
AcDbMText
 10
0.0
 20
-2.6639837842
 30
0.0
 40
15.0
 41
0.0
 71
     1
 72
     1
  1
Am Gräbicht 1 - 9
  7
SLDTEXTSTYLE2
  0
MTEXT
  5
7D
330
77
100
AcDbEntity
  8
0
  6
CONTINUOUS
 62
     0
100
AcDbMText
 10
0.0
 20
-24.663983665
 30
0.0
 40
15.0
 41
0.0
 71
     1
 72
     1
  1
D-38644    Goslar
  7
SLDTEXTSTYLE2
  0
MTEXT
  5
7F
330
77
100
AcDbEntity
  8
0
  6
CONTINUOUS
 62
     0
100
AcDbMText
 10
0.0
 20
-46.6639835458
 30
0.0
 40
15.0
 41
0.0
 71
     1
 72
     1
  1
Tel.: 05321-558 0
  7
SLDTEXTSTYLE3
  0
MTEXT
  5
80
330
77
100
AcDbEntity
  8
0
  6
CONTINUOUS
 62
     0
100
AcDbMText
 10
0.0
 20
-68.6639834266
 30
0.0
 40
15.0
 41
0.0
 71
     1
 72
     1
  1
info@alape.com
  7
SLDTEXTSTYLE0
  0
MTEXT
  5
81
330
77
100
AcDbEntity
  8
0
  6
CONTINUOUS
 62
     0
100
AcDbMText
 10
0.0
 20
-90.6639833074
 30
0.0
 40
15.0
 41
0.0
 71
     1
 72
     1
  1
www.alape.com
  7
SLDTEXTSTYLE0
  0
ENDBLK
  5
79
330
77
100
AcDbEntity
  8
0
100
AcDbBlockEnd
  0
BLOCK
  5
DF
330
DE
100
AcDbEntity
  8
0
100
AcDbBlockBegin
  2
*D3
 70
     1
 71
     0
 10
0.0
 20
0.0
 30
0.0
  3
*D3
  1

  0
SOLID
  5
E1
330
DE
100
AcDbEntity
  8
0
  6
CONTINUOUS
 62
     7
100
AcDbTrace
 10
613.4617021277
 20
2784.7123652525
 30
0.0
 11
588.4617021277
 21
2787.8123652525
 31
0.0
 12
588.4617021277
 22
2781.6123652525
 32
0.0
 13
588.4617021277
 23
2781.6123652525
 33
0.0
  0
SOLID
  5
E2
330
DE
100
AcDbEntity
  8
0
  6
CONTINUOUS
 62
     7
100
AcDbTrace
 10
425.9617021277
 20
2784.7123652525
 30
0.0
 11
450.9617021277
 21
2781.6123652525
 31
0.0
 12
450.9617021277
 22
2787.8123652525
 32
0.0
 13
450.9617021277
 23
2787.8123652525
 33
0.0
  0
LINE
  5
E3
330
DE
100
AcDbEntity
  8
0
  6
CONTINUOUS
 62
     7
100
AcDbLine
 10
613.4617021277
 20
2753.0398965048
 30
0.0
 11
613.4617021277
 21
2794.7123652525
 31
0.0
  0
LINE
  5
E4
330
DE
100
AcDbEntity
  8
0
  6
CONTINUOUS
 62
     7
100
AcDbLine
 10
425.9617021277
 20
2731.6844257473
 30
0.0
 11
425.9617021277
 21
2794.7123652525
 31
0.0
  0
LINE
  5
E5
330
DE
100
AcDbEntity
  8
0
  6
CONTINUOUS
 62
     7
100
AcDbLine
 10
613.4617021277
 20
2784.7123652525
 30
0.0
 11
425.9617021277
 21
2784.7123652525
 31
0.0
  0
MTEXT
  5
E6
330
DE
100
AcDbEntity
  8
0
  6
CONTINUOUS
 62
     7
100
AcDbMText
 10
466.3868936866
 20
2829.8297338162
 30
0.0
 40
35.0
 41
0.0
 71
     1
 72
     1
  1
187,5
  7
SLDTEXTSTYLE0
  0
ENDBLK
  5
E0
330
DE
100
AcDbEntity
  8
0
100
AcDbBlockEnd
  0
BLOCK
  5
EA
330
E9
100
AcDbEntity
  8
0
100
AcDbBlockBegin
  2
*D4
 70
     1
 71
     0
 10
0.0
 20
0.0
 30
0.0
  3
*D4
  1

  0
SOLID
  5
EC
330
E9
100
AcDbEntity
  8
0
  6
CONTINUOUS
 62
     7
100
AcDbTrace
 10
882.5611547926
 20
2731.6344257473
 30
0.0
 11
879.4611547926
 21
2706.6344257473
 31
0.0
 12
885.6611547926
 22
2706.6344257473
 32
0.0
 13
885.6611547926
 23
2706.6344257473
 33
0.0
  0
SOLID
  5
ED
330
E9
100
AcDbEntity
  8
0
  6
CONTINUOUS
 62
     7
100
AcDbTrace
 10
882.5611547926
 20
2631.6344257473
 30
0.0
 11
885.6611547926
 21
2656.6344257473
 31
0.0
 12
879.4611547926
 22
2656.6344257473
 32
0.0
 13
879.4611547926
 23
2656.6344257473
 33
0.0
  0
LINE
  5
EE
330
E9
100
AcDbEntity
  8
0
  6
CONTINUOUS
 62
     7
100
AcDbLine
 10
797.4813720418
 20
2731.6344257473
 30
0.0
 11
892.5611547926
 21
2731.6344257473
 31
0.0
  0
LINE
  5
EF
330
E9
100
AcDbEntity
  8
0
  6
CONTINUOUS
 62
     7
100
AcDbLine
 10
796.0117021277
 20
2631.6344257473
 30
0.0
 11
892.5611547926
 21
2631.6344257473
 31
0.0
  0
LINE
  5
F0
330
E9
100
AcDbEntity
  8
0
  6
CONTINUOUS
 62
     7
100
AcDbLine
 10
882.5611547926
 20
2731.6344257473
 30
0.0
 11
882.5611547926
 21
2631.6344257473
 31
0.0
  0
MTEXT
  5
F1
330
E9
100
AcDbEntity
  8
0
  6
CONTINUOUS
 62
     7
100
AcDbMText
 10
837.4437862289
 20
2649.7320063436
 30
0.0
 40
35.0
 41
0.0
 71
     1
 72
     1
  1
100
  7
SLDTEXTSTYLE0
 11
-7.044197039909883E-15
 21
1.0
 31
0.0
  0
ENDBLK
  5
EB
330
E9
100
AcDbEntity
  8
0
100
AcDbBlockEnd
  0
BLOCK
  5
F4
330
F3
100
AcDbEntity
  8
0
100
AcDbBlockBegin
  2
*D5
 70
     1
 71
     0
 10
0.0
 20
0.0
 30
0.0
  3
*D5
  1

  0
SOLID
  5
F6
330
F3
100
AcDbEntity
  8
0
  6
CONTINUOUS
 62
     7
100
AcDbTrace
 10
882.5611547926
 20
2631.6344257473
 30
0.0
 11
879.4611547926
 21
2606.6344257473
 31
0.0
 12
885.6611547926
 22
2606.6344257473
 32
0.0
 13
885.6611547926
 23
2606.6344257473
 33
0.0
  0
SOLID
  5
F7
330
F3
100
AcDbEntity
  8
0
  6
CONTINUOUS
 62
     7
100
AcDbTrace
 10
882.5611547926
 20
2621.6344257473
 30
0.0
 11
885.6611547926
 21
2646.6344257473
 31
0.0
 12
879.4611547926
 22
2646.6344257473
 32
0.0
 13
879.4611547926
 23
2646.6344257473
 33
0.0
  0
LINE
  5
F8
330
F3
100
AcDbEntity
  8
0
  6
CONTINUOUS
 62
     7
100
AcDbLine
 10
783.0117021277
 20
2631.6344257473
 30
0.0
 11
892.5611547926
 21
2631.6344257473
 31
0.0
  0
LINE
  5
F9
330
F3
100
AcDbEntity
  8
0
  6
CONTINUOUS
 62
     7
100
AcDbLine
 10
783.0117021277
 20
2621.6344257473
 30
0.0
 11
892.5611547926
 21
2621.6344257473
 31
0.0
  0
LINE
  5
FA
330
F3
100
AcDbEntity
  8
0
  6
CONTINUOUS
 62
     7
100
AcDbLine
 10
882.5611547926
 20
2631.6344257473
 30
0.0
 11
882.5611547926
 21
2621.6344257473
 31
0.0
  0
LINE
  5
FB
330
F3
100
AcDbEntity
  8
0
  6
CONTINUOUS
 62
     7
100
AcDbLine
 10
882.5611547926
 20
2621.6344257473
 30
0.0
 11
882.5611547926
 21
2549.1193898634
 31
0.0
  0
MTEXT
  5
FC
330
F3
100
AcDbEntity
  8
0
  6
CONTINUOUS
 62
     7
100
AcDbMText
 10
837.4437862289
 20
2564.9943898634
 30
0.0
 40
35.0
 41
0.0
 71
     1
 72
     1
  1
10
  7
SLDTEXTSTYLE0
 11
-7.044197039909883E-15
 21
1.0
 31
0.0
  0
ENDBLK
  5
F5
330
F3
100
AcDbEntity
  8
0
100
AcDbBlockEnd
  0
BLOCK
  5
19F
330
19E
100
AcDbEntity
  8
0
100
AcDbBlockBegin
  2
*D6
 70
     1
 71
     0
 10
0.0
 20
0.0
 30
0.0
  3
*D6
  1

  0
SOLID
  5
1A1
330
19E
100
AcDbEntity
  8
0
  6
CONTINUOUS
 62
     7
100
AcDbTrace
 10
1451.3808510638
 20
2792.1139912833
 30
0.0
 11
1426.3808510638
 21
2795.2139912833
 31
0.0
 12
1426.3808510638
 22
2789.0139912833
 32
0.0
 13
1426.3808510638
 23
2789.0139912833
 33
0.0
  0
SOLID
  5
1A2
330
19E
100
AcDbEntity
  8
0
  6
CONTINUOUS
 62
     7
100
AcDbTrace
 10
951.3808510638
 20
2792.1139912833
 30
0.0
 11
976.3808510638
 21
2789.0139912833
 31
0.0
 12
976.3808510638
 22
2795.2139912833
 32
0.0
 13
976.3808510638
 23
2795.2139912833
 33
0.0
  0
LINE
  5
1A3
330
19E
100
AcDbEntity
  8
0
  6
CONTINUOUS
 62
     7
100
AcDbLine
 10
1451.3808510638
 20
2758.5704140692
 30
0.0
 11
1451.3808510638
 21
2802.1139912833
 31
0.0
  0
LINE
  5
1A4
330
19E
100
AcDbEntity
  8
0
  6
CONTINUOUS
 62
     7
100
AcDbLine
 10
951.3808510638
 20
2731.6844257473
 30
0.0
 11
951.3808510638
 21
2802.1139912833
 31
0.0
  0
LINE
  5
1A5
330
19E
100
AcDbEntity
  8
0
  6
CONTINUOUS
 62
     7
100
AcDbLine
 10
1451.3808510638
 20
2792.1139912833
 30
0.0
 11
951.3808510638
 21
2792.1139912833
 31
0.0
  0
MTEXT
  5
1A6
330
19E
100
AcDbEntity
  8
0
  6
CONTINUOUS
 62
     7
100
AcDbMText
 10
1158.4945374761
 20
2837.231359847
 30
0.0
 40
35.0
 41
0.0
 71
     1
 72
     1
  1
500
  7
SLDTEXTSTYLE0
  0
ENDBLK
  5
1A0
330
19E
100
AcDbEntity
  8
0
100
AcDbBlockEnd
  0
BLOCK
  5
1DB
330
1DA
100
AcDbEntity
  8
0
100
AcDbBlockBegin
  2
*D7
 70
     1
 71
     0
 10
0.0
 20
0.0
 30
0.0
  3
*D7
  1

  0
SOLID
  5
1DD
330
1DA
100
AcDbEntity
  8
0
  6
CONTINUOUS
 62
     7
100
AcDbTrace
 10
425.9617021277
 20
2393.5578329704
 30
0.0
 11
450.9617021277
 21
2390.4578329704
 31
0.0
 12
450.9617021277
 22
2396.6578329704
 32
0.0
 13
450.9617021277
 23
2396.6578329704
 33
0.0
  0
SOLID
  5
1DE
330
1DA
100
AcDbEntity
  8
0
  6
CONTINUOUS
 62
     7
100
AcDbTrace
 10
800.9617021277
 20
2393.5578329704
 30
0.0
 11
775.9617021277
 21
2396.6578329704
 31
0.0
 12
775.9617021277
 22
2390.4578329704
 32
0.0
 13
775.9617021277
 23
2390.4578329704
 33
0.0
  0
LINE
  5
1DF
330
1DA
100
AcDbEntity
  8
0
  6
CONTINUOUS
 62
     7
100
AcDbLine
 10
425.9617021277
 20
2324.3047762971
 30
0.0
 11
425.9617021277
 21
2403.5578329704
 31
0.0
  0
LINE
  5
1E0
330
1DA
100
AcDbEntity
  8
0
  6
CONTINUOUS
 62
     7
100
AcDbLine
 10
800.9617021277
 20
2324.3047762971
 30
0.0
 11
800.9617021277
 21
2403.5578329704
 31
0.0
  0
LINE
  5
1E1
330
1DA
100
AcDbEntity
  8
0
  6
CONTINUOUS
 62
     7
100
AcDbLine
 10
425.9617021277
 20
2393.5578329704
 30
0.0
 11
800.9617021277
 21
2393.5578329704
 31
0.0
  0
MTEXT
  5
1E2
330
1DA
100
AcDbEntity
  8
0
  6
CONTINUOUS
 62
     7
100
AcDbMText
 10
579.8459936865
 20
2438.6752015342
 30
0.0
 40
35.0
 41
0.0
 71
     1
 72
     1
  1
375
  7
SLDTEXTSTYLE0
  0
ENDBLK
  5
1DC
330
1DA
100
AcDbEntity
  8
0
100
AcDbBlockEnd
  0
BLOCK
  5
1E5
330
1E4
100
AcDbEntity
  8
0
100
AcDbBlockBegin
  2
*D8
 70
     1
 71
     0
 10
0.0
 20
0.0
 30
0.0
  3
*D8
  1

  0
SOLID
  5
1E7
330
1E4
100
AcDbEntity
  8
0
  6
CONTINUOUS
 62
     7
100
AcDbTrace
 10
881.042990662
 20
2324.785106383
 30
0.0
 11
884.142990662
 21
2349.785106383
 31
0.0
 12
877.942990662
 22
2349.785106383
 32
0.0
 13
877.942990662
 23
2349.785106383
 33
0.0
  0
SOLID
  5
1E8
330
1E4
100
AcDbEntity
  8
0
  6
CONTINUOUS
 62
     7
100
AcDbTrace
 10
881.042990662
 20
2327.785106383
 30
0.0
 11
877.942990662
 21
2302.785106383
 31
0.0
 12
884.142990662
 22
2302.785106383
 32
0.0
 13
884.142990662
 23
2302.785106383
 33
0.0
  0
LINE
  5
1E9
330
1E4
100
AcDbEntity
  8
0
  6
CONTINUOUS
 62
     7
100
AcDbLine
 10
797.4813720418
 20
2324.785106383
 30
0.0
 11
891.042990662
 21
2324.785106383
 31
0.0
  0
LINE
  5
1EA
330
1E4
100
AcDbEntity
  8
0
  6
CONTINUOUS
 62
     7
100
AcDbLine
 10
797.4813720418
 20
2327.785106383
 30
0.0
 11
891.042990662
 21
2327.785106383
 31
0.0
  0
LINE
  5
1EB
330
1E4
100
AcDbEntity
  8
0
  6
CONTINUOUS
 62
     7
100
AcDbLine
 10
881.042990662
 20
2324.785106383
 30
0.0
 11
881.042990662
 21
2263.3997558478
 31
0.0
  0
LINE
  5
1EC
330
1E4
100
AcDbEntity
  8
0
  6
CONTINUOUS
 62
     7
100
AcDbLine
 10
881.042990662
 20
2324.785106383
 30
0.0
 11
881.042990662
 21
2327.785106383
 31
0.0
  0
MTEXT
  5
1ED
330
1E4
100
AcDbEntity
  8
0
  6
CONTINUOUS
 62
     7
100
AcDbMText
 10
835.9256220983
 20
2279.2747558478
 30
0.0
 40
35.0
 41
0.0
 71
     1
 72
     1
  1
3
  7
SLDTEXTSTYLE0
 11
6.123031769111886E-17
 21
1.0
 31
0.0
  0
ENDBLK
  5
1E6
330
1E4
100
AcDbEntity
  8
0
100
AcDbBlockEnd
  0
BLOCK
  5
1F0
330
1EF
100
AcDbEntity
  8
0
100
AcDbBlockBegin
  2
*D9
 70
     1
 71
     0
 10
0.0
 20
0.0
 30
0.0
  3
*D9
  1

  0
SOLID
  5
1F2
330
1EF
100
AcDbEntity
  8
0
  6
CONTINUOUS
 62
     7
100
AcDbTrace
 10
993.316639306
 20
2327.785106383
 30
0.0
 11
990.216639306
 21
2302.785106383
 31
0.0
 12
996.416639306
 22
2302.785106383
 32
0.0
 13
996.416639306
 23
2302.785106383
 33
0.0
  0
SOLID
  5
1F3
330
1EF
100
AcDbEntity
  8
0
  6
CONTINUOUS
 62
     7
100
AcDbTrace
 10
993.316639306
 20
1327.785106383
 30
0.0
 11
996.416639306
 21
1352.785106383
 31
0.0
 12
990.216639306
 22
1352.785106383
 32
0.0
 13
990.216639306
 23
1352.785106383
 33
0.0
  0
LINE
  5
1F4
330
1EF
100
AcDbEntity
  8
0
  6
CONTINUOUS
 62
     7
100
AcDbLine
 10
797.4813720418
 20
2327.785106383
 30
0.0
 11
1003.316639306
 21
2327.785106383
 31
0.0
  0
LINE
  5
1F5
330
1EF
100
AcDbEntity
  8
0
  6
CONTINUOUS
 62
     7
100
AcDbLine
 10
797.4813720418
 20
1327.785106383
 30
0.0
 11
1003.316639306
 21
1327.785106383
 31
0.0
  0
LINE
  5
1F6
330
1EF
100
AcDbEntity
  8
0
  6
CONTINUOUS
 62
     7
100
AcDbLine
 10
993.316639306
 20
2327.785106383
 30
0.0
 11
993.316639306
 21
1327.785106383
 31
0.0
  0
MTEXT
  5
1F7
330
1EF
100
AcDbEntity
  8
0
  6
CONTINUOUS
 62
     7
100
AcDbMText
 10
948.1992707423
 20
1771.1531435699
 30
0.0
 40
35.0
 41
0.0
 71
     1
 72
     1
  1
1000
  7
SLDTEXTSTYLE0
 11
-7.044197039909883E-15
 21
1.0
 31
0.0
  0
ENDBLK
  5
1F1
330
1EF
100
AcDbEntity
  8
0
100
AcDbBlockEnd
  0
BLOCK
  5
1FA
330
1F9
100
AcDbEntity
  8
0
100
AcDbBlockBegin
  2
*D10
 70
     1
 71
     0
 10
0.0
 20
0.0
 30
0.0
  3
*D10
  1

  0
SOLID
  5
1FC
330
1F9
100
AcDbEntity
  8
0
  6
CONTINUOUS
 62
     7
100
AcDbTrace
 10
881.042990662
 20
1330.785106383
 30
0.0
 11
877.942990662
 21
1305.785106383
 31
0.0
 12
884.142990662
 22
1305.785106383
 32
0.0
 13
884.142990662
 23
1305.785106383
 33
0.0
  0
SOLID
  5
1FD
330
1F9
100
AcDbEntity
  8
0
  6
CONTINUOUS
 62
     7
100
AcDbTrace
 10
881.042990662
 20
1327.785106383
 30
0.0
 11
884.142990662
 21
1352.785106383
 31
0.0
 12
877.942990662
 22
1352.785106383
 32
0.0
 13
877.942990662
 23
1352.785106383
 33
0.0
  0
LINE
  5
1FE
330
1F9
100
AcDbEntity
  8
0
  6
CONTINUOUS
 62
     7
100
AcDbLine
 10
797.4813720418
 20
1330.785106383
 30
0.0
 11
891.042990662
 21
1330.785106383
 31
0.0
  0
LINE
  5
1FF
330
1F9
100
AcDbEntity
  8
0
  6
CONTINUOUS
 62
     7
100
AcDbLine
 10
797.4813720418
 20
1327.785106383
 30
0.0
 11
891.042990662
 21
1327.785106383
 31
0.0
  0
LINE
  5
200
330
1F9
100
AcDbEntity
  8
0
  6
CONTINUOUS
 62
     7
100
AcDbLine
 10
881.042990662
 20
1330.785106383
 30
0.0
 11
881.042990662
 21
1400.9148358898
 31
0.0
  0
LINE
  5
201
330
1F9
100
AcDbEntity
  8
0
  6
CONTINUOUS
 62
     7
100
AcDbLine
 10
881.042990662
 20
1330.785106383
 30
0.0
 11
881.042990662
 21
1327.785106383
 31
0.0
  0
MTEXT
  5
202
330
1F9
100
AcDbEntity
  8
0
  6
CONTINUOUS
 62
     7
100
AcDbMText
 10
835.9256220983
 20
1363.1250273792
 30
0.0
 40
35.0
 41
0.0
 71
     1
 72
     1
  1
3
  7
SLDTEXTSTYLE0
 11
-7.044197039909883E-15
 21
1.0
 31
0.0
  0
ENDBLK
  5
1FB
330
1F9
100
AcDbEntity
  8
0
100
AcDbBlockEnd
  0
ENDSEC
  0
SECTION
  2
ENTITIES
  0
LINE
  5
2F
330
1F
100
AcDbEntity
  8
0
  6
CONTINUOUS
 62
     7
100
AcDbLine
 10
178.0
 20
611.9648888889
 30
0.0
 11
178.0
 21
59.4648888889
 31
0.0
  0
LINE
  5
30
330
1F
100
AcDbEntity
  8
0
  6
CONTINUOUS
 62
     7
100
AcDbLine
 10
256.0
 20
441.9648888889
 30
0.0
 11
256.0
 21
59.4648888889
 31
0.0
  0
LINE
  5
31
330
1F
100
AcDbEntity
  8
0
  6
CONTINUOUS
 62
     7
100
AcDbLine
 10
506.0
 20
441.9648888889
 30
0.0
 11
506.0
 21
59.4648888889
 31
0.0
  0
LINE
  5
32
330
1F
100
AcDbEntity
  8
0
  6
CONTINUOUS
 62
     7
100
AcDbLine
 10
178.0
 20
97.3527580974
 30
0.0
 11
724.0
 21
97.3527580974
 31
0.0
  0
LINE
  5
33
330
1F
100
AcDbEntity
  8
0
  6
CONTINUOUS
 62
     7
100
AcDbLine
 10
724.0
 20
229.4648888889
 30
0.0
 11
2050.0
 21
229.4648888889
 31
0.0
  0
LINE
  5
34
330
1F
100
AcDbEntity
  8
0
  6
CONTINUOUS
 62
     7
100
AcDbLine
 10
2050.0
 20
441.9648888889
 30
0.0
 11
178.0
 21
441.9648888889
 31
0.0
  0
LINE
  5
35
330
1F
100
AcDbEntity
  8
0
  6
CONTINUOUS
 62
     7
100
AcDbLine
 10
178.0
 20
611.9648888889
 30
0.0
 11
2050.0
 21
611.9648888889
 31
0.0
  0
LINE
  5
36
330
1F
100
AcDbEntity
  8
0
  6
CONTINUOUS
 62
     7
100
AcDbLine
 10
1166.0
 20
97.3527580974
 30
0.0
 11
2050.0
 21
97.3527580974
 31
0.0
  0
LINE
  5
37
330
1F
100
AcDbEntity
  8
0
  6
CONTINUOUS
 62
     7
100
AcDbLine
 10
724.0
 20
59.4648888889
 30
0.0
 11
724.0
 21
611.9648888889
 31
0.0
  0
LINE
  5
38
330
1F
100
AcDbEntity
  8
0
  6
CONTINUOUS
 62
     7
100
AcDbLine
 10
1166.0
 20
611.9648888889
 30
0.0
 11
1166.0
 21
59.4648888889
 31
0.0
  0
LINE
  5
39
330
1F
100
AcDbEntity
  8
0
  6
CONTINUOUS
 62
     7
100
AcDbLine
 10
606.0
 20
441.9648888889
 30
0.0
 11
606.0
 21
59.4648888889
 31
0.0
  0
LINE
  5
3A
330
1F
100
AcDbEntity
  8
0
  6
CONTINUOUS
 62
     7
100
AcDbLine
 10
828.0
 20
271.9648888889
 30
0.0
 11
828.0
 21
441.9648888889
 31
0.0
  0
LINE
  5
3B
330
1F
100
AcDbEntity
  8
0
  6
CONTINUOUS
 62
     7
100
AcDbLine
 10
724.0
 20
144.4648888889
 30
0.0
 11
178.0
 21
144.4648888889
 31
0.0
  0
LINE
  5
3C
330
1F
100
AcDbEntity
  8
0
  6
CONTINUOUS
 62
     7
100
AcDbLine
 10
984.0
 20
611.9648888889
 30
0.0
 11
984.0
 21
229.4648888889
 31
0.0
  0
LINE
  5
3D
330
1F
100
AcDbEntity
  8
0
  6
CONTINUOUS
 62
     7
100
AcDbLine
 10
1608.0
 20
59.4648888889
 30
0.0
 11
1608.0
 21
97.3527580974
 31
0.0
  0
LINE
  5
3E
330
1F
100
AcDbEntity
  8
0
  6
CONTINUOUS
 62
     7
100
AcDbLine
 10
1686.0
 20
548.2148888889
 30
0.0
 11
1686.0
 21
611.9648888889
 31
0.0
  0
LINE
  5
3F
330
1F
100
AcDbEntity
  8
0
  6
CONTINUOUS
 62
     7
100
AcDbLine
 10
724.0
 20
526.9648888889
 30
0.0
 11
1166.0
 21
526.9648888889
 31
0.0
  0
LINE
  5
40
330
1F
100
AcDbEntity
  8
0
  6
CONTINUOUS
 62
     7
100
AcDbLine
 10
1920.0
 20
97.3527580974
 30
0.0
 11
1920.0
 21
229.4648888889
 31
0.0
  0
LINE
  5
41
330
1F
100
AcDbEntity
  8
0
  6
CONTINUOUS
 62
     7
100
AcDbLine
 10
2050.0
 20
548.2148888889
 30
0.0
 11
1166.0
 21
548.2148888889
 31
0.0
  0
LINE
  5
42
330
1F
100
AcDbEntity
  8
0
  6
CONTINUOUS
 62
     7
100
AcDbLine
 10
128.0
 20
2961.9648888889
 30
0.0
 11
128.0
 21
611.9648888889
 31
0.0
  0
LINE
  5
43
330
1F
100
AcDbEntity
  8
0
  6
CONTINUOUS
 62
     7
100
AcDbLine
 10
178.0
 20
2911.9648888889
 30
0.0
 11
178.0
 21
611.9648888889
 31
0.0
  0
LINE
  5
44
330
1F
100
AcDbEntity
  8
0
  6
CONTINUOUS
 62
     7
100
AcDbLine
 10
2050.0
 20
59.4648888889
 30
0.0
 11
2050.0
 21
611.9648888889
 31
0.0
  0
LINE
  5
45
330
1F
100
AcDbEntity
  8
0
  6
CONTINUOUS
 62
     7
100
AcDbLine
 10
178.0
 20
59.4648888889
 30
0.0
 11
2050.0
 21
59.4648888889
 31
0.0
  0
LINE
  5
46
330
1F
100
AcDbEntity
  8
0
  6
CONTINUOUS
 62
     7
100
AcDbLine
 10
724.0
 20
186.9648888889
 30
0.0
 11
178.0
 21
186.9648888889
 31
0.0
  0
LINE
  5
47
330
1F
100
AcDbEntity
  8
0
  6
CONTINUOUS
 62
     7
100
AcDbLine
 10
724.0
 20
229.4648888889
 30
0.0
 11
178.0
 21
229.4648888889
 31
0.0
  0
LINE
  5
48
330
1F
100
AcDbEntity
  8
0
  6
CONTINUOUS
 62
     7
100
AcDbLine
 10
1166.0
 20
271.9648888889
 30
0.0
 11
178.0
 21
271.9648888889
 31
0.0
  0
LINE
  5
49
330
1F
100
AcDbEntity
  8
0
  6
CONTINUOUS
 62
     7
100
AcDbLine
 10
1166.0
 20
314.4648888889
 30
0.0
 11
178.0
 21
314.4648888889
 31
0.0
  0
LINE
  5
4A
330
1F
100
AcDbEntity
  8
0
  6
CONTINUOUS
 62
     7
100
AcDbLine
 10
1166.0
 20
356.9648888889
 30
0.0
 11
178.0
 21
356.9648888889
 31
0.0
  0
LINE
  5
4B
330
1F
100
AcDbEntity
  8
0
  6
CONTINUOUS
 62
     7
100
AcDbLine
 10
1166.0
 20
399.4648888889
 30
0.0
 11
178.0
 21
399.4648888889
 31
0.0
  0
LINE
  5
4C
330
1F
100
AcDbEntity
  8
0
  6
CONTINUOUS
 62
     7
100
AcDbLine
 10
2050.0
 20
144.4648888889
 30
0.0
 11
1920.0
 21
144.4648888889
 31
0.0
  0
LINE
  5
4D
330
1F
100
AcDbEntity
  8
0
  6
CONTINUOUS
 62
     7
100
AcDbLine
 10
178.0
 20
1071.9648888889
 30
0.0
 11
128.0
 21
1071.9648888889
 31
0.0
  0
LINE
  5
4E
330
1F
100
AcDbEntity
  8
0
  6
CONTINUOUS
 62
     7
100
AcDbLine
 10
128.0
 20
1531.9648888889
 30
0.0
 11
178.0
 21
1531.9648888889
 31
0.0
  0
LINE
  5
4F
330
1F
100
AcDbEntity
  8
0
  6
CONTINUOUS
 62
     7
100
AcDbLine
 10
128.0
 20
1991.9648888889
 30
0.0
 11
178.0
 21
1991.9648888889
 31
0.0
  0
LINE
  5
50
330
1F
100
AcDbEntity
  8
0
  6
CONTINUOUS
 62
     7
100
AcDbLine
 10
128.0
 20
2451.9648888889
 30
0.0
 11
178.0
 21
2451.9648888889
 31
0.0
  0
LINE
  5
51
330
1F
100
AcDbEntity
  8
0
  6
CONTINUOUS
 62
     7
100
AcDbLine
 10
645.5
 20
2961.9648888889
 30
0.0
 11
645.5
 21
2911.9648888889
 31
0.0
  0
LINE
  5
52
330
1F
100
AcDbEntity
  8
0
  6
CONTINUOUS
 62
     7
100
AcDbLine
 10
1113.0
 20
2961.9648888889
 30
0.0
 11
1113.0
 21
2911.9648888889
 31
0.0
  0
LINE
  5
53
330
1F
100
AcDbEntity
  8
0
  6
CONTINUOUS
 62
     7
100
AcDbLine
 10
128.0
 20
2961.9648888889
 30
0.0
 11
2050.0
 21
2961.9648888889
 31
0.0
  0
LINE
  5
54
330
1F
100
AcDbEntity
  8
0
  6
CONTINUOUS
 62
     7
100
AcDbLine
 10
2050.0
 20
2911.9648888889
 30
0.0
 11
2050.0
 21
611.9648888889
 31
0.0
  0
LINE
  5
55
330
1F
100
AcDbEntity
  8
0
  6
CONTINUOUS
 62
     7
100
AcDbLine
 10
178.0
 20
2911.9648888889
 30
0.0
 11
2050.0
 21
2911.9648888889
 31
0.0
  0
LINE
  5
56
330
1F
100
AcDbEntity
  8
0
  6
CONTINUOUS
 62
     7
100
AcDbLine
 10
1580.5
 20
2961.9648888889
 30
0.0
 11
1580.5
 21
2911.9648888889
 31
0.0
  0
LINE
  5
57
330
1F
100
AcDbEntity
  8
0
  6
CONTINUOUS
 62
     7
100
AcDbLine
 10
2050.0
 20
2961.9648888889
 30
0.0
 11
2050.0
 21
2911.9648888889
 31
0.0
  0
LINE
  5
58
330
1F
100
AcDbEntity
  8
0
  6
CONTINUOUS
 62
     7
100
AcDbLine
 10
128.0
 20
611.9648888889
 30
0.0
 11
178.0
 21
611.9648888889
 31
0.0
  0
LINE
  5
59
330
1F
100
AcDbEntity
  8
0
  6
CONTINUOUS
 62
     7
100
AcDbLine
 10
2100.0
 20
2961.9648888889
 30
0.0
 11
2100.0
 21
9.4648888889
 31
0.0
  0
LINE
  5
5A
330
1F
100
AcDbEntity
  8
0
  6
CONTINUOUS
 62
     7
100
AcDbLine
 10
2100.0
 20
9.4648888889
 30
0.0
 11
3.0
 21
9.4648888889
 31
0.0
  0
LINE
  5
5B
330
1F
100
AcDbEntity
  8
0
  6
CONTINUOUS
 62
     7
100
AcDbLine
 10
3.0
 20
9.4648888889
 30
0.0
 11
3.0
 21
2961.9648888889
 31
0.0
  0
LINE
  5
5C
330
1F
100
AcDbEntity
  8
0
  6
CONTINUOUS
 62
     7
100
AcDbLine
 10
3.0
 20
2961.9648888889
 30
0.0
 11
2100.0
 21
2961.9648888889
 31
0.0
  0
ARC
  5
5D
330
1F
100
AcDbEntity
  8
0
  6
CONTINUOUS
 62
     7
100
AcDbCircle
 10
1144.2790264777
 20
179.5558961975
 30
0.0
 40
14.21146949138165
100
AcDbArc
 50
180.0
 51
0.0
  0
MTEXT
  5
5F
330
1F
100
AcDbEntity
  8
0
  6
CONTINUOUS
 62
     7
100
AcDbMText
 10
1001.866114271
 20
507.3657725829
 30
0.0
 40
18.0
 41
0.0
 71
     1
 72
     1
  1
Werkstückkanten
  7
SLDTEXTSTYLE0
  0
MTEXT
  5
60
330
1F
100
AcDbEntity
  8
0
  6
CONTINUOUS
 62
     7
100
AcDbMText
 10
741.2329342285
 20
508.0953097765
 30
0.0
 40
18.0
 41
0.0
 71
     1
 72
     1
  1
Allgemeintoleranzen
  7
SLDTEXTSTYLE0
  0
MTEXT
  5
61
330
1F
100
AcDbEntity
  8
0
  6
CONTINUOUS
 62
     7
100
AcDbMText
 10
1002.260503761
 20
595.4984997076
 30
0.0
 40
18.0
 41
0.0
 71
     1
 72
     1
  1
 Oberflächen
  7
SLDTEXTSTYLE0
  0
INSERT
  5
68
330
1F
100
AcDbEntity
  8
0
  6
CONTINUOUS
 62
     7
100
AcDbBlockReference
  2
SW_NOTE_0
 10
741.4609723973
 20
572.2099196998
 30
0.0
  0
MTEXT
  5
69
330
1F
100
AcDbEntity
  8
0
  6
CONTINUOUS
 62
     7
100
AcDbMText
 10
834.5570552235
 20
433.2295769538
 30
0.0
 40
18.0
 41
0.0
 71
     1
 72
     1
  1
Datum
  7
SLDTEXTSTYLE0
  0
MTEXT
  5
6A
330
1F
100
AcDbEntity
  8
0
  6
CONTINUOUS
 62
     7
100
AcDbMText
 10
990.0482574197
 20
433.1878737719
 30
0.0
 40
18.0
 41
0.0
 71
     1
 72
     1
  1
Name
  7
SLDTEXTSTYLE0
  0
MTEXT
  5
6B
330
1F
100
AcDbEntity
  8
0
  6
CONTINUOUS
 62
     7
100
AcDbMText
 10
729.9942931855
 20
388.5774933557
 30
0.0
 40
18.0
 41
0.0
 71
     1
 72
     1
  1
Bearb.
  7
SLDTEXTSTYLE0
  0
MTEXT
  5
6C
330
1F
100
AcDbEntity
  8
0
  6
CONTINUOUS
 62
     7
100
AcDbMText
 10
730.0241080765
 20
344.9741674525
 30
0.0
 40
18.0
 41
0.0
 71
     1
 72
     1
  1
Gepr.
  7
SLDTEXTSTYLE0
  0
MTEXT
  5
6D
330
1F
100
AcDbEntity
  8
0
  6
CONTINUOUS
 62
     7
100
AcDbMText
 10
730.0241080765
 20
302.6450473666
 30
0.0
 40
18.0
 41
0.0
 71
     1
 72
     1
  1
Freigabe
  7
SLDTEXTSTYLE0
  0
MTEXT
  5
6E
330
1F
100
AcDbEntity
  8
0
  6
CONTINUOUS
 62
     7
100
AcDbMText
 10
1173.1967557727
 20
594.7494385311
 30
0.0
 40
18.0
 41
0.0
 71
     1
 72
     1
  1
Maßstab
  7
SLDTEXTSTYLE0
  0
MTEXT
  5
6F
330
1F
100
AcDbEntity
  8
0
  6
CONTINUOUS
 62
     7
100
AcDbMText
 10
1695.0427154453
 20
594.0500090479
 30
0.0
 40
18.0
 41
0.0
 71
     1
 72
     1
  1
Gewicht
  7
SLDTEXTSTYLE0
  0
MTEXT
  5
70
330
1F
100
AcDbEntity
  8
0
  6
CONTINUOUS
 62
     7
100
AcDbMText
 10
1172.3498791808
 20
532.9840223793
 30
0.0
 40
18.0
 41
0.0
 71
     1
 72
     1
  1
Werkstoff
  7
SLDTEXTSTYLE0
  0
MTEXT
  5
71
330
1F
100
AcDbEntity
  8
0
  6
CONTINUOUS
 62
     7
100
AcDbMText
 10
1171.7968375726
 20
433.1282583672
 30
0.0
 40
18.0
 41
0.0
 71
     1
 72
     1
  1
Benennung
  7
SLDTEXTSTYLE0
  0
MTEXT
  5
72
330
1F
100
AcDbEntity
  8
0
  6
CONTINUOUS
 62
     7
100
AcDbMText
 10
1173.3614733249
 20
221.37483921
 30
0.0
 40
18.0
 41
0.0
 71
     1
 72
     1
  1
Zeichnungs-Nr.
  7
SLDTEXTSTYLE0
  0
MTEXT
  5
73
330
1F
100
AcDbEntity
  8
0
  6
CONTINUOUS
 62
     7
100
AcDbMText
 10
1929.1803388485
 20
212.6948179662
 30
0.0
 40
18.0
 41
0.0
 71
     1
 72
     1
  1
Blatt
  7
SLDTEXTSTYLE0
  0
MTEXT
  5
74
330
1F
100
AcDbEntity
  8
0
  6
CONTINUOUS
 62
     7
100
AcDbMText
 10
2018.0969978698
 20
127.6982546133
 30
0.0
 40
18.0
 41
0.0
 71
     1
 72
     1
  1
Bl.
  7
SLDTEXTSTYLE0
  0
MTEXT
  5
75
330
1F
100
AcDbEntity
  8
0
  6
CONTINUOUS
 62
     7
100
AcDbMText
 10
1174.6668592817
 20
87.4549030772
 30
0.0
 40
18.0
 41
0.0
 71
     1
 72
     1
  1
Ers. f.:
  7
SLDTEXTSTYLE0
  0
MTEXT
  5
76
330
1F
100
AcDbEntity
  8
0
  6
CONTINUOUS
 62
     7
100
AcDbMText
 10
1619.2007214728
 20
87.4435098117
 30
0.0
 40
18.0
 41
0.0
 71
     1
 72
     1
  1
Ers.d.:
  7
SLDTEXTSTYLE0
  0
INSERT
  5
82
330
1F
100
AcDbEntity
  8
0
  6
CONTINUOUS
 62
     7
100
AcDbBlockReference
  2
SW_NOTE_1
 10
737.2537837524
 20
187.7803307423
 30
0.0
  0
MTEXT
  5
83
330
1F
100
AcDbEntity
  8
0
  6
CONTINUOUS
 62
     7
100
AcDbMText
 10
188.9126280003
 20
87.9469530416
 30
0.0
 40
18.0
 41
0.0
 71
     1
 72
     1
  1
Zust.
  7
SLDTEXTSTYLE0
  0
MTEXT
  5
84
330
1F
100
AcDbEntity
  8
0
  6
CONTINUOUS
 62
     7
100
AcDbMText
 10
278.6703693015
 20
88.0638668116
 30
0.0
 40
18.0
 41
0.0
 71
     1
 72
     1
  1
Änder.-Mittlg.Nr.
  7
SLDTEXTSTYLE0
  0
MTEXT
  5
85
330
1F
100
AcDbEntity
  8
0
  6
CONTINUOUS
 62
     7
100
AcDbMText
 10
513.5123929092
 20
87.7900593302
 30
0.0
 40
18.0
 41
0.0
 71
     1
 72
     1
  1
Datum
  7
SLDTEXTSTYLE0
  0
MTEXT
  5
86
330
1F
100
AcDbEntity
  8
0
  6
CONTINUOUS
 62
     7
100
AcDbMText
 10
630.8647509777
 20
87.7900593302
 30
0.0
 40
18.0
 41
0.0
 71
     1
 72
     1
  1
Name
  7
SLDTEXTSTYLE0
  0
MTEXT
  5
87
330
1F
100
AcDbEntity
  8
0
  6
CONTINUOUS
 62
     7
100
AcDbMText
 10
398.422293125
 20
2950.5148166911
 30
0.0
 40
21.1666666667
 41
0.0
 71
     1
 72
     1
  1
1
  7
SLDTEXTSTYLE0
  0
MTEXT
  5
88
330
1F
100
AcDbEntity
  8
0
  6
CONTINUOUS
 62
     7
100
AcDbMText
 10
867.5407155486
 20
2949.8615395072
 30
0.0
 40
21.1666666667
 41
0.0
 71
     1
 72
     1
  1
2
  7
SLDTEXTSTYLE0
  0
MTEXT
  5
89
330
1F
100
AcDbEntity
  8
0
  6
CONTINUOUS
 62
     7
100
AcDbMText
 10
1335.3829425856
 20
2948.4080731089
 30
0.0
 40
21.1666666667
 41
0.0
 71
     1
 72
     1
  1
3
  7
SLDTEXTSTYLE0
  0
MTEXT
  5
8A
330
1F
100
AcDbEntity
  8
0
  6
CONTINUOUS
 62
     7
100
AcDbMText
 10
1800.9058849482
 20
2949.7146274766
 30
0.0
 40
21.1666666667
 41
0.0
 71
     1
 72
     1
  1
4
  7
SLDTEXTSTYLE0
  0
MTEXT
  5
8B
330
1F
100
AcDbEntity
  8
0
  6
CONTINUOUS
 62
     7
100
AcDbMText
 10
145.0802845236
 20
2702.8133151663
 30
0.0
 40
21.1666666667
 41
0.0
 71
     1
 72
     1
  1
A
  7
SLDTEXTSTYLE0
  0
MTEXT
  5
8C
330
1F
100
AcDbEntity
  8
0
  6
CONTINUOUS
 62
     7
100
AcDbMText
 10
144.5552754657
 20
2240.6320601449
 30
0.0
 40
21.1666666667
 41
0.0
 71
     1
 72
     1
  1
B
  7
SLDTEXTSTYLE0
  0
MTEXT
  5
8D
330
1F
100
AcDbEntity
  8
0
  6
CONTINUOUS
 62
     7
100
AcDbMText
 10
143.1025836798
 20
1783.958590071
 30
0.0
 40
21.1666666667
 41
0.0
 71
     1
 72
     1
  1
C
  7
SLDTEXTSTYLE0
  0
MTEXT
  5
8E
330
1F
100
AcDbEntity
  8
0
  6
CONTINUOUS
 62
     7
100
AcDbMText
 10
144.5389977141
 20
1321.7221356327
 30
0.0
 40
21.1666666667
 41
0.0
 71
     1
 72
     1
  1
D
  7
SLDTEXTSTYLE0
  0
MTEXT
  5
8F
330
1F
100
AcDbEntity
  8
0
  6
CONTINUOUS
 62
     7
100
AcDbMText
 10
143.8110602807
 20
864.6161860427
 30
0.0
 40
21.1666666667
 41
0.0
 71
     1
 72
     1
  1
E
  7
SLDTEXTSTYLE0
  0
MTEXT
  5
90
330
1F
100
AcDbEntity
  8
0
  6
CONTINUOUS
 62
     7
100
AcDbMText
 10
835.2552951786
 20
395.7395344926
 30
0.0
 40
25.0
 41
0.0
 71
     1
 72
     1
  1
27.02.2009
  7
SLDTEXTSTYLE0
  0
MTEXT
  5
91
330
1F
100
AcDbEntity
  8
0
  6
CONTINUOUS
 62
     7
100
AcDbMText
 10
990.4549606022
 20
395.2015019495
 30
0.0
 40
25.0
 41
0.0
 71
     1
 72
     1
  1
Matweber
  7
SLDTEXTSTYLE0
  0
MTEXT
  5
92
330
1F
100
AcDbEntity
  8
0
  6
CONTINUOUS
 62
     7
100
AcDbMText
 10
1322.8175848598
 20
410.2932391429
 30
0.0
 40
50.0
 41
0.0
 71
     1
 72
     1
  1
AB.ME1000
  7
SLDTEXTSTYLE0
  0
MTEXT
  5
93
330
1F
100
AcDbEntity
  8
0
  6
CONTINUOUS
 62
     7
100
AcDbMText
 10
1367.2025742174
 20
516.9122828248
 30
0.0
 40
35.0
 41
0.0
 71
     1
 72
     1
  1
Baugruppe
  7
SLDTEXTSTYLE0
  0
MTEXT
  5
94
330
1F
100
AcDbEntity
  8
0
  6
CONTINUOUS
 62
     7
100
AcDbMText
 10
1404.6612035267
 20
187.4282814573
 30
0.0
 40
50.0
 41
0.0
 71
     1
 72
     1
  1
3214000
  7
SLDTEXTSTYLE0
  0
MTEXT
  5
95
330
1F
100
AcDbEntity
  8
0
  6
CONTINUOUS
 62
     7
100
AcDbMText
 10
1368.4246549826
 20
598.8729230486
 30
0.0
 40
30.0
 41
0.0
 71
     1
 72
     1
  1
1:10
  7
SLDTEXTSTYLE0
  0
MTEXT
  5
96
330
1F
100
AcDbEntity
  8
0
  6
CONTINUOUS
 62
     7
100
AcDbMText
 10
1831.7270293839
 20
597.6546326072
 30
0.0
 40
30.0
 41
0.0
 71
     1
 72
     1
  1
0
  7
SLDTEXTSTYLE0
  0
MTEXT
  5
97
330
1F
100
AcDbEntity
  8
0
  6
CONTINUOUS
 62
     7
100
AcDbMText
 10
1957.1087262161
 20
184.2445624829
 30
0.0
 40
25.0
 41
0.0
 71
     1
 72
     1
  1
1
  7
SLDTEXTSTYLE0
  0
MTEXT
  5
98
330
1F
100
AcDbEntity
  8
0
  6
CONTINUOUS
 62
     7
100
AcDbMText
 10
1960.3948365819
 20
134.4197998008
 30
0.0
 40
25.0
 41
0.0
 71
     1
 72
     1
  1
1
  7
SLDTEXTSTYLE0
  0
MTEXT
  5
9A
330
1F
100
AcDbEntity
  8
0
  6
CONTINUOUS
 62
     7
100
AcDbMText
 10
750.2400926104
 20
477.2187744315
 30
0.0
 40
18.0
 41
0.0
 71
     1
 72
     1
  1
DIN ISO 2768-mK
  7
SLDTEXTSTYLE4
  0
MTEXT
  5
9B
330
1F
100
AcDbEntity
  8
0
  6
CONTINUOUS
 62
     7
100
AcDbMText
 10
881.6074585385
 20
183.4834663212
 30
0.0
 40
70.0
 41
0.0
 71
     1
 72
     1
  1
Alape
  7
SLDTEXTSTYLE0
  0
LINE
  5
9C
330
1F
100
AcDbEntity
  8
0
  6
CENTERX2
 62
     7
100
AcDbLine
 10
613.4617021277
 20
2504.1166061101
 30
0.0
 11
613.4617021277
 21
2752.9898965048
 31
0.0
  0
LINE
  5
9D
330
1F
100
AcDbEntity
  8
0
  6
CONTINUOUS
 62
     7
100
AcDbLine
 10
653.3121606304
 20
2621.6267765268
 30
0.0
 11
653.4189758792
 21
2621.6344254791
 31
0.0
  0
LINE
  5
9E
330
1F
100
AcDbEntity
  8
0
  6
CONTINUOUS
 62
     7
100
AcDbLine
 10
782.9616954519
 20
2630.910668173
 30
0.0
 11
793.0689742758
 21
2631.6344257212
 31
0.0
  0
LINE
  5
9F
330
1F
100
AcDbEntity
  8
0
  6
CONTINUOUS
 62
     7
100
AcDbLine
 10
433.8544299795
 20
2631.6344257212
 30
0.0
 11
443.9617088034
 21
2630.910668173
 31
0.0
  0
LINE
  5
A0
330
1F
100
AcDbEntity
  8
0
  6
CONTINUOUS
 62
     7
100
AcDbLine
 10
573.5044283762
 20
2621.6344254791
 30
0.0
 11
573.6112436249
 21
2621.6267765268
 31
0.0
  0
ARC
  5
A1
330
1F
100
AcDbEntity
  8
0
  6
CONTINUOUS
 62
     7
100
AcDbCircle
 10
572.5745143354
 20
2612.7849996934
 30
0.0
 40
8.909999999999949
100
AcDbArc
 50
52.1480946784
 51
83.3152054855
  0
ARC
  5
A2
330
1F
100
AcDbEntity
  8
0
  6
CONTINUOUS
 62
     7
100
AcDbCircle
 10
654.3488899199
 20
2612.7849996934
 30
0.0
 40
8.909999999999949
100
AcDbArc
 50
96.6847945145
 51
127.8519053216
  0
LINE
  5
A3
330
1F
100
AcDbEntity
  8
0
  6
CONTINUOUS
 62
     7
100
AcDbLine
 10
578.0418915643
 20
2619.820331107
 30
0.0
 11
585.7799658521
 21
2613.8068287402
 31
0.0
  0
LINE
  5
A4
330
1F
100
AcDbEntity
  8
0
  6
CONTINUOUS
 62
     7
100
AcDbLine
 10
641.1434384032
 20
2613.8068287402
 30
0.0
 11
648.881512691
 21
2619.820331107
 31
0.0
  0
ARC
  5
A5
330
1F
100
AcDbEntity
  8
0
  6
CONTINUOUS
 62
     7
100
AcDbCircle
 10
589.4617021277
 20
2618.5444257473
 30
0.0
 40
6.000000000000067
100
AcDbArc
 50
232.1480946784
 51
255.7661053653
  0
ARC
  5
A6
330
1F
100
AcDbEntity
  8
0
  6
CONTINUOUS
 62
     7
100
AcDbCircle
 10
637.4617021277
 20
2618.5444257473
 30
0.0
 40
6.000000000000039
100
AcDbArc
 50
284.2338946347
 51
307.8519053216
  0
LINE
  5
A7
330
1F
100
AcDbEntity
  8
0
  6
CONTINUOUS
 62
     7
100
AcDbLine
 10
643.4617014571
 20
2610.7286250918
 30
0.0
 11
643.4617014571
 21
2612.7286254197
 31
0.0
  0
LINE
  5
A8
330
1F
100
AcDbEntity
  8
0
  6
CONTINUOUS
 62
     7
100
AcDbLine
 10
583.4617027982
 20
2612.7286254197
 30
0.0
 11
583.4617027982
 21
2610.7286250918
 31
0.0
  0
LINE
  5
A9
330
1F
100
AcDbEntity
  8
0
  6
CONTINUOUS
 62
     7
100
AcDbLine
 10
582.4617026343
 20
2610.7286250918
 30
0.0
 11
582.4617026343
 21
2609.7286249279
 31
0.0
  0
LINE
  5
AA
330
1F
100
AcDbEntity
  8
0
  6
CONTINUOUS
 62
     7
100
AcDbLine
 10
644.461701621
 20
2609.7286249279
 30
0.0
 11
644.461701621
 21
2610.7286250918
 31
0.0
  0
ARC
  5
AB
330
1F
100
AcDbEntity
  8
0
  6
CONTINUOUS
 62
     7
100
AcDbCircle
 10
648.4617021277
 20
2592.228625369
 30
0.0
 40
0.5
100
AcDbArc
 50
270.0
 51
0.0
  0
ARC
  5
AC
330
1F
100
AcDbEntity
  8
0
  6
CONTINUOUS
 62
     7
100
AcDbCircle
 10
578.4617021277
 20
2592.228625369
 30
0.0
 40
0.5
100
AcDbArc
 50
180.0
 51
270.0
  0
ARC
  5
AD
330
1F
100
AcDbEntity
  8
0
  6
CONTINUOUS
 62
     7
100
AcDbCircle
 10
648.4617021277
 20
2609.228625369
 30
0.0
 40
0.5
100
AcDbArc
 50
0.0
 51
90.0
  0
ARC
  5
AE
330
1F
100
AcDbEntity
  8
0
  6
CONTINUOUS
 62
     7
100
AcDbCircle
 10
578.4617021277
 20
2609.228625369
 30
0.0
 40
0.5
100
AcDbArc
 50
90.0
 51
180.0
  0
LINE
  5
AF
330
1F
100
AcDbEntity
  8
0
  6
CONTINUOUS
 62
     7
100
AcDbLine
 10
648.9617032899
 20
2592.2286267161
 30
0.0
 11
648.9617032899
 21
2609.2286257773
 31
0.0
  0
LINE
  5
B0
330
1F
100
AcDbEntity
  8
0
  6
CONTINUOUS
 62
     7
100
AcDbLine
 10
577.9617009654
 20
2609.2286257773
 30
0.0
 11
577.9617009654
 21
2592.2286267161
 31
0.0
  0
LINE
  5
B1
330
1F
100
AcDbEntity
  8
0
  6
CONTINUOUS
 62
     7
100
AcDbLine
 10
634.4167022004
 20
2530.4591635942
 30
0.0
 11
634.4167022004
 21
2591.7286257028
 31
0.0
  0
LINE
  5
B2
330
1F
100
AcDbEntity
  8
0
  6
CONTINUOUS
 62
     7
100
AcDbLine
 10
592.5067020549
 20
2591.7286257028
 30
0.0
 11
592.5067020549
 21
2530.4591635942
 31
0.0
  0
LINE
  5
B3
330
1F
100
AcDbEntity
  8
0
  6
CONTINUOUS
 62
     7
100
AcDbLine
 10
632.9367021068
 20
2529.4591690182
 30
0.0
 11
632.9367021068
 21
2530.4591635942
 31
0.0
  0
LINE
  5
B4
330
1F
100
AcDbEntity
  8
0
  6
CONTINUOUS
 62
     7
100
AcDbLine
 10
593.9867021485
 20
2530.4591635942
 30
0.0
 11
593.9867021485
 21
2529.4591690182
 31
0.0
  0
LINE
  5
B5
330
1F
100
AcDbEntity
  8
0
  6
CONTINUOUS
 62
     7
100
AcDbLine
 10
429.4920256331
 20
2636.6344258423
 30
0.0
 11
797.4313786223
 21
2636.6344258423
 31
0.0
  0
SPLINE
  5
B6
330
1F
100
AcDbEntity
  8
0
  6
CONTINUOUS
 62
     7
100
AcDbSpline
210
0.0
220
0.0
230
1.0
 70
     8
 71
     3
 72
    14
 73
    10
 74
     0
 42
0.00000001
 43
0.00000001
 40
0.0
 40
0.0
 40
0.0
 40
0.0
 40
0.25
 40
0.25
 40
0.5
 40
0.5
 40
0.75
 40
0.75
 40
1.0
 40
1.0
 40
1.0
 40
1.0
 10
797.4313720417695
 20
2636.634425747317
 30
0.0
 10
797.3088782145046
 20
2635.979813265714
 30
0.0
 10
797.1864270560844
 20
2635.32568632552
 30
0.0
 10
796.9414820703994
 20
2634.116330845462
 30
0.0
 10
796.8190095775568
 20
2633.561692147442
 30
0.0
 10
796.5740645918719
 20
2632.636091535326
 30
0.0
 10
796.4515920990293
 20
2632.265493805546
 30
0.0
 10
796.2066471133443
 20
2631.764562363975
 30
0.0
 10
796.0841959549242
 20
2631.634425747317
 30
0.0
 10
795.9617021276592
 20
2631.634425747317
 30
0.0
  0
LINE
  5
B7
330
1F
100
AcDbEntity
  8
0
  6
CONTINUOUS
 62
     7
100
AcDbLine
 10
430.9616973593
 20
2631.6344257212
 30
0.0
 11
795.961706896
 21
2631.6344257212
 31
0.0
  0
SPLINE
  5
B8
330
1F
100
AcDbEntity
  8
0
  6
CONTINUOUS
 62
     7
100
AcDbSpline
210
0.0
220
0.0
230
1.0
 70
     8
 71
     3
 72
    14
 73
    10
 74
     0
 42
0.00000001
 43
0.00000001
 40
0.0
 40
0.0
 40
0.0
 40
0.0
 40
0.25
 40
0.25
 40
0.5
 40
0.5
 40
0.75
 40
0.75
 40
1.0
 40
1.0
 40
1.0
 40
1.0
 10
430.9617021276592
 20
2631.634425747317
 30
0.0
 10
430.8392083003944
 20
2631.634425747317
 30
0.0
 10
430.7167571419743
 20
2631.764562363975
 30
0.0
 10
430.4718121562892
 20
2632.265493805546
 30
0.0
 10
430.3493396634467
 20
2632.636091535326
 30
0.0
 10
430.1043946777617
 20
2633.561692147442
 30
0.0
 10
429.9819221849191
 20
2634.116330845462
 30
0.0
 10
429.7369771992342
 20
2635.32568632552
 30
0.0
 10
429.6145260408139
 20
2635.979813265714
 30
0.0
 10
429.4920322135491
 20
2636.634425747317
 30
0.0
  0
LINE
  5
B9
330
1F
100
AcDbEntity
  8
0
  6
CONTINUOUS
 62
     7
100
AcDbLine
 10
429.4920256331
 20
2731.6344286083
 30
0.0
 11
797.4313786223
 21
2731.6344286083
 31
0.0
  0
LINE
  5
BA
330
1F
100
AcDbEntity
  8
0
  6
CONTINUOUS
 62
     7
100
AcDbLine
 10
797.4313786223
 20
2731.6344286083
 30
0.0
 11
797.4313786223
 21
2636.6344258423
 31
0.0
  0
LINE
  5
BB
330
1F
100
AcDbEntity
  8
0
  6
CONTINUOUS
 62
     7
100
AcDbLine
 10
429.4920256331
 20
2636.6344258423
 30
0.0
 11
429.4920256331
 21
2731.6344286083
 31
0.0
  0
SPLINE
  5
BC
330
1F
100
AcDbEntity
  8
0
  6
CONTINUOUS
 62
     7
100
AcDbSpline
210
0.0
220
0.0
230
1.0
 70
     8
 71
     3
 72
    14
 73
    10
 74
     0
 42
0.00000001
 43
0.00000001
 40
0.0
 40
0.0
 40
0.0
 40
0.0
 40
0.25
 40
0.25
 40
0.5
 40
0.5
 40
0.75
 40
0.75
 40
1.0
 40
1.0
 40
1.0
 40
1.0
 10
425.9617021276592
 20
2636.634425747317
 30
0.0
 10
425.9617021276592
 20
2635.979813265714
 30
0.0
 10
426.0918387443177
 20
2635.32568632552
 30
0.0
 10
426.5927701858879
 20
2634.116330845462
 30
0.0
 10
426.9633679156684
 20
2633.561692147442
 30
0.0
 10
427.8889685277846
 20
2632.636091535326
 30
0.0
 10
428.4436072258048
 20
2632.265493805546
 30
0.0
 10
429.6529627058628
 20
2631.764562363975
 30
0.0
 10
430.3070896460559
 20
2631.634425747317
 30
0.0
 10
430.9617021276592
 20
2631.634425747317
 30
0.0
  0
SPLINE
  5
BD
330
1F
100
AcDbEntity
  8
0
  6
CONTINUOUS
 62
     7
100
AcDbSpline
210
0.0
220
0.0
230
1.0
 70
    24
 71
     3
 72
     8
 73
     4
 74
     0
 42
0.00000001
 43
0.00000001
 40
0.0
 40
0.0
 40
0.0
 40
0.0
 40
1.0
 40
1.0
 40
1.0
 40
1.0
 10
428.9617021276593
 20
2636.634425747317
 30
0.0
 10
427.9617021276592
 20
2636.634425747317
 30
0.0
 10
426.9617021276592
 20
2636.634425747317
 30
0.0
 10
425.9617021276592
 20
2636.634425747317
 30
0.0
  0
SPLINE
  5
BE
330
1F
100
AcDbEntity
  8
0
  6
CONTINUOUS
 62
     7
100
AcDbSpline
210
0.0
220
0.0
230
1.0
 70
     8
 71
     3
 72
    10
 73
     6
 74
     0
 42
0.00000001
 43
0.00000001
 40
0.0
 40
0.0
 40
0.0
 40
0.0
 40
0.4198021071243672
 40
0.8395998557792762
 40
1.0
 40
1.0
 40
1.0
 40
1.0
 10
428.9617082073329
 20
2636.634425842312
 30
0.0
 10
428.9938123803154
 20
2636.375765232973
 30
0.0
 10
429.0580203929684
 20
2635.858446699763
 30
0.0
 10
429.4008940413096
 20
2635.292868418198
 30
0.0
 10
429.7099558683465
 20
2635.106175688583
 30
0.0
 10
429.7953983738063
 20
2635.054563055855
 30
0.0
  0
LINE
  5
BF
330
1F
100
AcDbEntity
  8
0
  6
CONTINUOUS
 62
     7
100
AcDbLine
 10
425.9617021277
 20
2731.6344286083
 30
0.0
 11
425.9617021277
 21
2636.6344258423
 31
0.0
  0
LINE
  5
C0
330
1F
100
AcDbEntity
  8
0
  6
CONTINUOUS
 62
     7
100
AcDbLine
 10
428.9617082073
 20
2731.6344286083
 30
0.0
 11
425.9617021277
 21
2731.6344286083
 31
0.0
  0
LINE
  5
C1
330
1F
100
AcDbEntity
  8
0
  6
CONTINUOUS
 62
     7
100
AcDbLine
 10
428.9617082073
 20
2731.6344286083
 30
0.0
 11
428.9617082073
 21
2636.6344258423
 31
0.0
  0
LINE
  5
C2
330
1F
100
AcDbEntity
  8
0
  6
CONTINUOUS
 62
     7
100
AcDbLine
 10
797.961696048
 20
2636.6344258423
 30
0.0
 11
797.961696048
 21
2731.6344286083
 31
0.0
  0
LINE
  5
C3
330
1F
100
AcDbEntity
  8
0
  6
CONTINUOUS
 62
     7
100
AcDbLine
 10
797.961696048
 20
2731.6344286083
 30
0.0
 11
800.9617021277
 21
2731.6344286083
 31
0.0
  0
LINE
  5
C4
330
1F
100
AcDbEntity
  8
0
  6
CONTINUOUS
 62
     7
100
AcDbLine
 10
800.9617021277
 20
2636.6344258423
 30
0.0
 11
800.9617021277
 21
2731.6344286083
 31
0.0
  0
SPLINE
  5
C5
330
1F
100
AcDbEntity
  8
0
  6
CONTINUOUS
 62
     7
100
AcDbSpline
210
0.0
220
0.0
230
1.0
 70
    24
 71
     3
 72
     8
 73
     4
 74
     0
 42
0.00000001
 43
0.00000001
 40
0.0
 40
0.0
 40
0.0
 40
0.0
 40
1.0
 40
1.0
 40
1.0
 40
1.0
 10
797.9617021276579
 20
2636.634425747317
 30
0.0
 10
798.961702127658
 20
2636.634425747317
 30
0.0
 10
799.9617021276579
 20
2636.634425747317
 30
0.0
 10
800.9617021276579
 20
2636.634425747317
 30
0.0
  0
SPLINE
  5
C6
330
1F
100
AcDbEntity
  8
0
  6
CONTINUOUS
 62
     7
100
AcDbSpline
210
0.0
220
0.0
230
1.0
 70
     8
 71
     3
 72
    14
 73
    10
 74
     0
 42
0.00000001
 43
0.00000001
 40
0.0
 40
0.0
 40
0.0
 40
0.0
 40
0.25
 40
0.25
 40
0.5
 40
0.5
 40
0.75
 40
0.75
 40
1.0
 40
1.0
 40
1.0
 40
1.0
 10
795.9617021276592
 20
2631.634425747317
 30
0.0
 10
796.6163146092628
 20
2631.634425747317
 30
0.0
 10
797.2704415494557
 20
2631.764562363975
 30
0.0
 10
798.4797970295137
 20
2632.265493805546
 30
0.0
 10
799.034435727534
 20
2632.636091535326
 30
0.0
 10
799.9600363396502
 20
2633.561692147442
 30
0.0
 10
800.3306340694305
 20
2634.116330845462
 30
0.0
 10
800.8315655110008
 20
2635.32568632552
 30
0.0
 10
800.9617021276592
 20
2635.979813265714
 30
0.0
 10
800.9617021276592
 20
2636.634425747317
 30
0.0
  0
SPLINE
  5
C7
330
1F
100
AcDbEntity
  8
0
  6
CONTINUOUS
 62
     7
100
AcDbSpline
210
0.0
220
0.0
230
1.0
 70
     8
 71
     3
 72
    10
 73
     6
 74
     0
 42
0.00000001
 43
0.00000001
 40
0.0
 40
0.0
 40
0.0
 40
0.0
 40
0.1604001442207238
 40
0.5801978928756327
 40
0.9999999999999999
 40
0.9999999999999999
 40
0.9999999999999999
 40
0.9999999999999999
 10
797.1280058815121
 20
2635.054563055855
 30
0.0
 10
797.2134483869719
 20
2635.106175688583
 30
0.0
 10
797.5225102140087
 20
2635.292868418198
 30
0.0
 10
797.8653838623497
 20
2635.858446699763
 30
0.0
 10
797.9295918750029
 20
2636.375765232973
 30
0.0
 10
797.9616960479855
 20
2636.634425842312
 30
0.0
  0
SPLINE
  5
C8
330
1F
100
AcDbEntity
  8
0
  6
CONTINUOUS
 62
     7
100
AcDbSpline
210
0.0
220
0.0
230
1.0
 70
    24
 71
     1
 72
     4
 73
     2
 74
     0
 42
0.00000001
 43
0.00000001
 40
0.0
 40
0.0
 40
1.0
 40
1.0
 10
793.0520614578365
 20
2631.63442572124
 30
0.0
 10
782.9616954519389
 20
2631.026096060049
 30
0.0
  0
SPLINE
  5
C9
330
1F
100
AcDbEntity
  8
0
  6
CONTINUOUS
 62
     7
100
AcDbSpline
210
0.0
220
0.0
230
1.0
 70
    24
 71
     1
 72
     4
 73
     2
 74
     0
 42
0.00000001
 43
0.00000001
 40
0.0
 40
0.0
 40
1.0
 40
1.0
 10
433.8713427974818
 20
2631.63442572124
 30
0.0
 10
443.9617088033794
 20
2631.026096060049
 30
0.0
  0
LINE
  5
CA
330
1F
100
AcDbEntity
  8
0
  6
CONTINUOUS
 62
     7
100
AcDbLine
 10
643.4617014571
 20
2612.7286254197
 30
0.0
 11
583.4617027982
 21
2612.7286254197
 31
0.0
  0
LINE
  5
CB
330
1F
100
AcDbEntity
  8
0
  6
CONTINUOUS
 62
     7
100
AcDbLine
 10
640.2788264646
 20
2610.7286250918
 30
0.0
 11
582.4617026343
 21
2610.7286250918
 31
0.0
  0
LINE
  5
CC
330
1F
100
AcDbEntity
  8
0
  6
CONTINUOUS
 62
     7
100
AcDbLine
 10
644.461701621
 20
2610.7286250918
 30
0.0
 11
640.2788264646
 21
2610.7286250918
 31
0.0
  0
SPLINE
  5
CD
330
1F
100
AcDbEntity
  8
0
  6
CONTINUOUS
 62
     7
100
AcDbSpline
210
0.0
220
0.0
230
1.0
 70
    24
 71
     3
 72
    13
 73
     9
 74
     0
 42
0.00000001
 43
0.00000001
 40
0.0
 40
0.0
 40
0.0
 40
0.0
 40
0.0612198768907621
 40
0.2250641629284076
 40
0.3888840287928961
 40
0.5984597588209529
 40
0.8022899819024341
 40
1.0
 40
1.0
 40
1.0
 40
1.0
 10
578.504732806885
 20
2591.72862570278
 30
0.0
 10
578.4933655272803
 20
2591.72862570278
 30
0.0
 10
578.4515757132692
 20
2591.72862570278
 30
0.0
 10
578.7534651662842
 20
2591.72862570278
 30
0.0
 10
579.4615216699773
 20
2591.72862570278
 30
0.0
 10
580.7220294696762
 20
2591.72862570278
 30
0.0
 10
582.5402134860843
 20
2591.72862570278
 30
0.0
 10
584.128653456024
 20
2591.72862570278
 30
0.0
 10
584.9107680811524
 20
2591.72862570278
 30
0.0
  0
SPLINE
  5
CE
330
1F
100
AcDbEntity
  8
0
  6
CONTINUOUS
 62
     7
100
AcDbSpline
210
0.0
220
0.0
230
1.0
 70
    24
 71
     3
 72
    30
 73
    26
 74
     0
 42
0.00000001
 43
0.00000001
 40
0.0
 40
0.0
 40
0.0
 40
0.0
 40
0.0482992302944277
 40
0.0980934662929929
 40
0.1492833081173974
 40
0.1893071639058012
 40
0.2293250676840635
 40
0.2702005578187485
 40
0.3110699542014369
 40
0.3519454466235297
 40
0.3928148495735614
 40
0.4328387060317259
 40
0.4728565971338273
 40
0.5240517235469065
 40
0.5738460280253637
 40
0.6221399323374687
 40
0.6704391626318963
 40
0.7202333986304615
 40
0.7714232404548661
 40
0.8114470962432699
 40
0.8514650000215322
 40
0.8923404901562172
 40
0.9332098865389057
 40
0.9740853789609986
 40
1.0
 40
1.0
 40
1.0
 40
1.0
 10
584.9107680811524
 20
2591.72862570278
 30
0.0
 10
585.7746945319863
 20
2591.72862570278
 30
0.0
 10
587.529288542448
 20
2591.72862570278
 30
0.0
 10
590.7202434837217
 20
2591.72862570278
 30
0.0
 10
594.049355108491
 20
2591.72862570278
 30
0.0
 10
597.3958457916347
 20
2591.72862570278
 30
0.0
 10
600.6440400802022
 20
2591.72862570278
 30
0.0
 10
604.0486728588089
 20
2591.72862570278
 30
0.0
 10
607.5780633810873
 20
2591.72862570278
 30
0.0
 10
611.1694097409272
 20
2591.72862570278
 30
0.0
 10
614.7603976938648
 20
2591.72862570278
 30
0.0
 10
618.3124205677526
 20
2591.72862570278
 30
0.0
 10
622.1130125075159
 20
2591.72862570278
 30
0.0
 10
626.0851659421223
 20
2591.72862570278
 30
0.0
 10
630.0867766899113
 20
2591.72862570278
 30
0.0
 10
633.7566002379988
 20
2591.72862570278
 30
0.0
 10
637.1223364824323
 20
2591.72862570278
 30
0.0
 10
640.1874888688075
 20
2591.72862570278
 30
0.0
 10
642.678617190878
 20
2591.72862570278
 30
0.0
 10
644.6245852636276
 20
2591.72862570278
 30
0.0
 10
646.0944907771042
 20
2591.72862570278
 30
0.0
 10
647.2402838223944
 20
2591.72862570278
 30
0.0
 10
648.0165974037294
 20
2591.72862570278
 30
0.0
 10
648.4284312997319
 20
2591.72862570278
 30
0.0
 10
648.4213997109018
 20
2591.72862570278
 30
0.0
 10
648.4186714484333
 20
2591.72862570278
 30
0.0
  0
SPLINE
  5
CF
330
1F
100
AcDbEntity
  8
0
  6
CONTINUOUS
 62
     7
100
AcDbSpline
210
0.0
220
0.0
230
1.0
 70
    24
 71
     3
 72
    13
 73
     9
 74
     0
 42
0.00000001
 43
0.00000001
 40
0.0
 40
0.0
 40
0.0
 40
0.0
 40
0.1977100221638837
 40
0.4015401771456474
 40
0.611115963235239
 40
0.7749358324690238
 40
0.9387801218764679
 40
1.0
 40
1.0
 40
1.0
 40
1.0
 10
584.9107680811524
 20
2609.72862492792
 30
0.0
 10
584.1286530187776
 20
2609.72862492792
 30
0.0
 10
582.5402124467873
 20
2609.72862492792
 30
0.0
 10
580.7220352666828
 20
2609.72862492792
 30
0.0
 10
579.4615205596892
 20
2609.72862492792
 30
0.0
 10
578.7534654560626
 20
2609.72862492792
 30
0.0
 10
578.4515756903171
 20
2609.72862492792
 30
0.0
 10
578.4933655223749
 20
2609.72862492792
 30
0.0
 10
578.504732806885
 20
2609.72862492792
 30
0.0
  0
SPLINE
  5
D0
330
1F
100
AcDbEntity
  8
0
  6
CONTINUOUS
 62
     7
100
AcDbSpline
210
0.0
220
0.0
230
1.0
 70
    24
 71
     3
 72
    30
 73
    26
 74
     0
 42
0.00000001
 43
0.00000001
 40
0.0
 40
0.0
 40
0.0
 40
0.0
 40
0.0259146212348733
 40
0.0667901139557666
 40
0.107659510637211
 40
0.1485350010706966
 40
0.1885529051414904
 40
0.2285767612224693
 40
0.2797666034210725
 40
0.3295608397836344
 40
0.3778600704311303
 40
0.4261539639677717
 40
0.4759482599804978
 40
0.5271433994095828
 40
0.5671612908042156
 40
0.6071851475549551
 40
0.6480545508037429
 40
0.6889300435246363
 40
0.7297994402060807
 40
0.7706749306395663
 40
0.8106928347103601
 40
0.850716690791339
 40
0.9019065329899422
 40
0.9517007693525041
 40
0.9999999999999999
 40
0.9999999999999999
 40
0.9999999999999999
 40
0.9999999999999999
 10
648.4186714484333
 20
2609.72862492792
 30
0.0
 10
648.4213997109083
 20
2609.72862492792
 30
0.0
 10
648.4284312997536
 20
2609.72862492792
 30
0.0
 10
648.0165974037142
 20
2609.72862492792
 30
0.0
 10
647.240283822456
 20
2609.72862492792
 30
0.0
 10
646.0944907768745
 20
2609.72862492792
 30
0.0
 10
644.6245852644648
 20
2609.72862492792
 30
0.0
 10
642.6786171873819
 20
2609.72862492792
 30
0.0
 10
640.1874888857654
 20
2609.72862492792
 30
0.0
 10
637.1223364223207
 20
2609.72862492792
 30
0.0
 10
633.7566007107806
 20
2609.72862492792
 30
0.0
 10
630.0867766602279
 20
2609.72862492792
 30
0.0
 10
626.0851647792282
 20
2609.72862492792
 30
0.0
 10
622.1130132077171
 20
2609.72862492792
 30
0.0
 10
618.3124204877246
 20
2609.72862492792
 30
0.0
 10
614.7603977158145
 20
2609.72862492792
 30
0.0
 10
611.1694097349929
 20
2609.72862492792
 30
0.0
 10
607.5780633826773
 20
2609.72862492792
 30
0.0
 10
604.0486728583826
 20
2609.72862492792
 30
0.0
 10
600.6440400803139
 20
2609.72862492792
 30
0.0
 10
597.3958457916052
 20
2609.72862492792
 30
0.0
 10
594.0493551085015
 20
2609.72862492792
 30
0.0
 10
590.7202434837187
 20
2609.72862492792
 30
0.0
 10
587.5292885424486
 20
2609.72862492792
 30
0.0
 10
585.7746945319865
 20
2609.72862492792
 30
0.0
 10
584.9107680811524
 20
2609.72862492792
 30
0.0
  0
LINE
  5
D1
330
1F
100
AcDbEntity
  8
0
  6
CONTINUOUS
 62
     7
100
AcDbLine
 10
592.5067020549
 20
2530.4591635942
 30
0.0
 11
634.4167022004
 21
2530.4591635942
 31
0.0
  0
LINE
  5
D2
330
1F
100
AcDbEntity
  8
0
  6
CONTINUOUS
 62
     7
100
AcDbLine
 10
593.9867021485
 20
2529.4591690182
 30
0.0
 11
632.9367021068
 21
2529.4591690182
 31
0.0
  0
LINE
  5
D3
330
1F
100
AcDbEntity
  8
0
  6
CONTINUOUS
 62
     7
100
AcDbLine
 10
443.9617088034
 20
2631.4136279981
 30
0.0
 11
443.9617088034
 21
2621.6344254791
 31
0.0
  0
LINE
  5
D4
330
1F
100
AcDbEntity
  8
0
  6
CONTINUOUS
 62
     7
100
AcDbLine
 10
443.9617088034
 20
2621.6344254791
 30
0.0
 11
782.9616954519
 21
2621.6344254791
 31
0.0
  0
LINE
  5
D5
330
1F
100
AcDbEntity
  8
0
  6
CONTINUOUS
 62
     7
100
AcDbLine
 10
782.9616954519
 20
2631.4136279981
 30
0.0
 11
782.9616954519
 21
2621.6344254791
 31
0.0
  0
LINE
  5
D6
330
1F
100
AcDbEntity
  8
0
  6
CONTINUOUS
 62
     7
100
AcDbLine
 10
613.4617021277
 20
2619.820331107
 30
0.0
 11
648.881512691
 21
2619.820331107
 31
0.0
  0
LINE
  5
D7
330
1F
100
AcDbEntity
  8
0
  6
CONTINUOUS
 62
     7
100
AcDbLine
 10
578.0418915643
 20
2619.820331107
 30
0.0
 11
613.4617021277
 21
2619.820331107
 31
0.0
  0
LINE
  5
D8
330
1F
100
AcDbEntity
  8
0
  6
CONTINUOUS
 62
     7
100
AcDbLine
 10
613.4617021277
 20
2613.8068287402
 30
0.0
 11
641.1434384032
 21
2613.8068287402
 31
0.0
  0
LINE
  5
D9
330
1F
100
AcDbEntity
  8
0
  6
CONTINUOUS
 62
     7
100
AcDbLine
 10
585.7799658521
 20
2613.8068287402
 30
0.0
 11
613.4617021277
 21
2613.8068287402
 31
0.0
  0
LINE
  5
DA
330
1F
100
AcDbEntity
  8
0
  6
CONTINUOUS
 62
     7
100
AcDbLine
 10
577.9617009654
 20
2592.2286267161
 30
0.0
 11
648.9617032899
 21
2592.2286267161
 31
0.0
  0
LINE
  5
DB
330
1F
100
AcDbEntity
  8
0
  6
CONTINUOUS
 62
     7
100
AcDbLine
 10
648.9617032899
 20
2609.2286257773
 30
0.0
 11
577.9617009654
 21
2609.2286257773
 31
0.0
  0
DIMENSION
  5
DC
330
1F
100
AcDbEntity
  8
0
  6
CONTINUOUS
 62
     7
100
AcDbDimension
  2
*D3
 10
425.9617021277
 20
2784.7123652525
 30
0.0
 11
515.7245107078
 21
2784.7123652525
 31
0.0
 70
   160
  3
SLDDIMSTYLE0
100
AcDbAlignedDimension
 13
613.4617021277
 23
2752.9898965049
 33
0.0
 14
425.9617021277
 24
2731.6344257473
 34
0.0
100
AcDbRotatedDimension
  0
DIMENSION
  5
E7
330
1F
100
AcDbEntity
  8
0
  6
CONTINUOUS
 62
     7
100
AcDbDimension
  2
*D4
 10
882.5611547926
 20
2631.6344257473
 30
0.0
 11
882.5611547926
 21
2682.6042191096
 31
0.0
 70
   160
  3
SLDDIMSTYLE1
100
AcDbAlignedDimension
 13
797.4313720418
 23
2731.6344257473
 33
0.0
 14
795.9617021277
 24
2631.6344257473
 34
0.0
 50
90.0
100
AcDbRotatedDimension
  0
DIMENSION
  5
F2
330
1F
100
AcDbEntity
  8
0
  6
CONTINUOUS
 62
     7
100
AcDbDimension
  2
*D5
 10
882.5611547926
 20
2621.6344257473
 30
0.0
 11
882.5611547926
 21
2586.909198374
 31
0.0
 70
   160
  3
SLDDIMSTYLE1
100
AcDbAlignedDimension
 13
782.9617021277
 23
2631.6344257473
 33
0.0
 14
782.9617021277
 24
2621.6344257473
 34
0.0
 50
90.0
100
AcDbRotatedDimension
  0
LINE
  5
FD
330
1F
100
AcDbEntity
  8
0
  6
CONTINUOUS
 62
     7
100
AcDbLine
 10
1039.6115461397
 20
816.3660727012
 30
0.0
 11
1298.7446374929
 21
666.7717232683
 31
0.0
  0
LINE
  5
FE
330
1F
100
AcDbEntity
  8
0
  6
CONTINUOUS
 62
     7
100
AcDbLine
 10
1302.7051241639
 20
666.771729351
 30
0.0
 11
2003.7799326853
 21
1071.4936015631
 31
0.0
  0
LWPOLYLINE
  5
FF
330
1F
100
AcDbEntity
  8
0
  6
CONTINUOUS
 62
     7
100
AcDbPolyline
 90
       65
 70
   128
 43
0.0
 10
1511.1722396632
 20
924.86937466
 10
1512.7839127598
 20
924.5736928978
 10
1515.9036969021
 20
924.1492147384
 10
1519.0796384273
 20
923.9065550082
 10
1522.2804979596
 20
923.8479456589
 10
1525.4756887408
 20
923.9738809052
 10
1528.6345686949
 20
924.2832415402
 10
1531.7269310439
 20
924.7733150851
 10
1534.7232769451
 20
925.4398619418
 10
1537.5950071276
 20
926.2771876289
 10
1540.3146530414
 20
927.2782366903
 10
1542.8560505486
 20
928.4346861294
 10
1545.1944533576
 20
929.7370242078
 10
1547.3065455354
 20
931.1745588152
 10
1549.1702564567
 20
932.7350973626
 10
1550.7646789799
 20
934.4042555105
 10
1552.0710870625
 20
936.1652481046
 10
1553.0736677338
 20
937.9981220617
 10
1553.7612184932
 20
939.8800654917
 10
1554.1285743761
 20
941.7873122588
 10
1554.1762964624
 20
943.6980670724
 10
1553.9082464571
 20
945.5943679654
 10
1553.3298520841
 20
947.4588927236
 10
1552.4463494307
 20
949.2780675634
 10
1551.263368394
 20
951.0376526132
 10
1549.7895089067
 20
952.7211690785
 10
1548.0380152865
 20
954.3109071596
 10
1546.026706431
 20
955.7896965936
 10
1543.7768483061
 20
957.1421161417
 10
1541.3121981521
 20
958.3547980183
 10
1538.6582232845
 20
959.416414286
 10
1535.8411983943
 20
960.3176176441
 10
1532.8885805069
 20
961.0505913603
 10
1529.8288694532
 20
961.6090104536
 10
1526.6914448792
 20
961.9880599483
 10
1523.5063482682
 20
962.1844715659
 10
1520.3040333525
 20
962.1965573728
 10
1517.1150934758
 20
962.0242259396
 10
1513.970156226
 20
961.6690062913
 10
1510.8992413545
 20
961.1340017158
 10
1507.9316461895
 20
960.4238239914
 10
1505.0957036205
 20
959.5445203892
 10
1502.4185670839
 20
958.5034761531
 10
1499.9260503721
 20
957.3093187843
 10
1497.6425430924
 20
955.9718517402
 10
1495.5909932985
 20
954.5020852718
 10
1493.7932659026
 20
952.9127469049
 10
1492.2697521594
 20
951.2187450927
 10
1491.038570933
 20
949.437628779
 10
1490.1145460604
 20
947.5901544102
 10
1489.5074523178
 20
945.6996213514
 10
1489.220884041
 20
943.7895736265
 10
1489.2531619415
 20
941.8809242067
 10
1489.599990992
 20
939.9909973146
 10
1490.2557524909
 20
938.1366668766
 10
1491.2153387669
 20
936.3310796519
 10
1492.4726115267
 20
934.5890361841
 10
1494.0178872025
 20
932.9274780701
 10
1495.8367011935
 20
931.364139033
 10
1497.9102476911
 20
929.9158301159
 10
1500.216582099
 20
928.5974418465
 10
1502.7313566274
 20
927.4218655743
 10
1505.4289511784
 20
926.3998591843
 10
1508.2827814626
 20
925.5403778912
 10
1511.1722396632
 20
924.86937466
  0
LINE
  5
100
330
1F
100
AcDbEntity
  8
0
  6
CONTINUOUS
 62
     7
100
AcDbLine
 10
1512.8602802151
 20
924.5633018251
 30
0.0
 11
1512.8602802151
 21
923.4624709531
 31
0.0
  0
ARC
  5
101
330
1F
100
AcDbEntity
  8
0
  6
CONTINUOUS
 62
     7
100
AcDbCircle
 10
1514.1595137803
 20
922.9501525757
 30
0.0
 40
1.335501233712523
100
AcDbArc
 50
260.0720549013
 51
337.5311563612
  0
LWPOLYLINE
  5
102
330
1F
100
AcDbEntity
  8
0
  6
CONTINUOUS
 62
     7
100
AcDbPolyline
 90
        6
 70
   128
 43
0.0
 10
1512.8602802151
 20
923.4624709531
 10
1512.8785903866
 20
923.0572704651
 10
1513.0292153206
 20
922.3964892143
 10
1513.3188860006
 20
921.9452107045
 10
1513.6962234426
 20
921.6838238163
 10
1513.9292606121
 20
921.6346500011
  0
LINE
  5
103
330
1F
100
AcDbEntity
  8
0
  6
CONTINUOUS
 62
     7
100
AcDbLine
 10
1551.7117555444
 20
934.503515438
 30
0.0
 11
1551.6751444211
 21
935.0735266092
 31
0.0
  0
LINE
  5
104
330
1F
100
AcDbEntity
  8
0
  6
CONTINUOUS
 62
     7
100
AcDbLine
 10
1491.7163449406
 20
935.0735266092
 30
0.0
 11
1491.6797338173
 21
934.503515438
 31
0.0
  0
ARC
  5
105
330
1F
100
AcDbEntity
  8
0
  6
CONTINUOUS
 62
     7
100
AcDbCircle
 10
1521.5899684359
 20
957.7552881415
 30
0.0
 40
36.7183509665855
100
AcDbArc
 50
259.0768978246
 51
270.1650548195
  0
ARC
  5
106
330
1F
100
AcDbEntity
  8
0
  6
CONTINUOUS
 62
     7
100
AcDbCircle
 10
1517.4042490956
 20
943.649870373
 30
0.0
 40
22.04227356896322
100
AcDbArc
 50
226.6202643427
 51
259.2332989875
  0
LWPOLYLINE
  5
107
330
1F
100
AcDbEntity
  8
0
  6
CONTINUOUS
 62
     7
100
AcDbPolyline
 90
       13
 70
   128
 43
0.0
 10
1541.1213318681
 20
927.6170590476
 10
1541.0088264536
 20
927.4858228601
 10
1539.760469728
 20
926.3568538436
 10
1538.3018199022
 20
925.3065406281
 10
1536.6517359625
 20
924.3489968393
 10
1534.8337278653
 20
923.4974739749
 10
1532.8792515654
 20
922.7645611874
 10
1530.8336055407
 20
922.1617328524
 10
1528.7763790107
 20
921.6997419148
 10
1526.7802772649
 20
921.3743575936
 10
1525.3193311768
 20
921.2072541282
 10
1523.7327426991
 20
921.0906172696
 10
1521.6957446809
 20
921.0370895324
  0
LINE
  5
108
330
1F
100
AcDbEntity
  8
0
  6
CONTINUOUS
 62
     7
100
AcDbLine
 10
1038.0561483056
 20
896.5266692424
 30
0.0
 11
1298.2285598696
 21
746.3323330228
 31
0.0
  0
LINE
  5
109
330
1F
100
AcDbEntity
  8
0
  6
CONTINUOUS
 62
     7
100
AcDbLine
 10
1298.2285598696
 20
746.3323330228
 30
0.0
 11
1298.2285598696
 21
668.7609536351
 31
0.0
  0
LINE
  5
10A
330
1F
100
AcDbEntity
  8
0
  6
CONTINUOUS
 62
     7
100
AcDbLine
 10
1038.0561483056
 20
818.9552898547
 30
0.0
 11
1298.2285598696
 21
668.7609536351
 31
0.0
  0
LINE
  5
10B
330
1F
100
AcDbEntity
  8
0
  6
CONTINUOUS
 62
     7
100
AcDbLine
 10
1038.0561483056
 20
818.9552898547
 30
0.0
 11
1038.0561483056
 21
896.5266692424
 31
0.0
  0
LINE
  5
10C
330
1F
100
AcDbEntity
  8
0
  6
CONTINUOUS
 62
     7
100
AcDbLine
 10
1300.3498739754
 20
747.5569415896
 30
0.0
 11
1300.3498739754
 21
669.9855622019
 31
0.0
  0
SPLINE
  5
10D
330
1F
100
AcDbEntity
  8
0
  6
CONTINUOUS
 62
     7
100
AcDbSpline
210
0.0
220
0.0
230
1.0
 70
    24
 71
     3
 72
     8
 73
     4
 74
     0
 42
0.00000001
 43
0.00000001
 40
0.0
 40
0.0
 40
0.0
 40
0.0
 40
1.0
 40
1.0
 40
1.0
 40
1.0
 10
1300.349875560054
 20
669.9855684114592
 30
0.0
 10
1299.642768778867
 20
669.5773643555477
 30
0.0
 10
1298.93566199768
 20
669.1691602996364
 30
0.0
 10
1298.228555216494
 20
668.760956243725
 30
0.0
  0
LINE
  5
10E
330
1F
100
AcDbEntity
  8
0
  6
CONTINUOUS
 62
     7
100
AcDbLine
 10
1300.3498739754
 20
747.5569415896
 30
0.0
 11
1298.2285598696
 21
746.3323330228
 31
0.0
  0
LINE
  5
10F
330
1F
100
AcDbEntity
  8
0
  6
CONTINUOUS
 62
     7
100
AcDbLine
 10
1303.2211912505
 20
746.3323330228
 30
0.0
 11
2005.3353410562
 21
1151.654204187
 31
0.0
  0
LINE
  5
110
330
1F
100
AcDbEntity
  8
0
  6
CONTINUOUS
 62
     7
100
AcDbLine
 10
2005.3353410562
 20
1151.654204187
 30
0.0
 11
2005.3353410562
 21
1074.0828247993
 31
0.0
  0
LINE
  5
111
330
1F
100
AcDbEntity
  8
0
  6
CONTINUOUS
 62
     7
100
AcDbLine
 10
1303.2211912505
 20
668.7609536351
 30
0.0
 11
2005.3353410562
 21
1074.0828247993
 31
0.0
  0
LINE
  5
112
330
1F
100
AcDbEntity
  8
0
  6
CONTINUOUS
 62
     7
100
AcDbLine
 10
1303.2211912505
 20
668.7609536351
 30
0.0
 11
1303.2211912505
 21
746.3323330228
 31
0.0
  0
LINE
  5
113
330
1F
100
AcDbEntity
  8
0
  6
CONTINUOUS
 62
     7
100
AcDbLine
 10
1301.099866608
 20
669.9855682846
 30
0.0
 11
1301.099866608
 21
747.5569476723
 31
0.0
  0
LINE
  5
114
330
1F
100
AcDbEntity
  8
0
  6
CONTINUOUS
 62
     7
100
AcDbLine
 10
1301.099866608
 20
747.5569476723
 30
0.0
 11
1303.2211912505
 21
746.3323330228
 31
0.0
  0
SPLINE
  5
115
330
1F
100
AcDbEntity
  8
0
  6
CONTINUOUS
 62
     7
100
AcDbSpline
210
0.0
220
0.0
230
1.0
 70
    24
 71
     3
 72
     8
 73
     4
 74
     0
 42
0.00000001
 43
0.00000001
 40
0.0
 40
0.0
 40
0.0
 40
0.0
 40
1.0
 40
1.0
 40
1.0
 40
1.0
 10
1301.099875560053
 20
669.9855684114598
 30
0.0
 10
1301.806982341239
 20
669.5773643555484
 30
0.0
 10
1302.514089122426
 20
669.1691602996372
 30
0.0
 10
1303.221195903612
 20
668.7609562437258
 30
0.0
  0
LINE
  5
116
330
1F
100
AcDbEntity
  8
0
  6
CONTINUOUS
 62
     7
100
AcDbLine
 10
1301.099866608
 20
747.5569476723
 30
0.0
 11
2003.2140164136
 21
1152.8788188365
 31
0.0
  0
LINE
  5
117
330
1F
100
AcDbEntity
  8
0
  6
CONTINUOUS
 62
     7
100
AcDbLine
 10
2003.2140164136
 20
1152.8788188365
 30
0.0
 11
2005.3353410562
 21
1151.654204187
 31
0.0
  0
LINE
  5
118
330
1F
100
AcDbEntity
  8
0
  6
CONTINUOUS
 62
     7
100
AcDbLine
 10
1040.1774624114
 20
897.7512778092
 30
0.0
 11
1300.3498739754
 21
747.5569415896
 31
0.0
  0
LINE
  5
119
330
1F
100
AcDbEntity
  8
0
  6
CONTINUOUS
 62
     7
100
AcDbLine
 10
1040.1774624114
 20
897.7512778092
 30
0.0
 11
1038.0561483056
 21
896.5266692424
 31
0.0
  0
SPLINE
  5
11A
330
1F
100
AcDbEntity
  8
0
  6
CONTINUOUS
 62
     7
100
AcDbSpline
210
0.0
220
0.0
230
1.0
 70
     8
 71
     3
 72
    14
 73
    10
 74
     0
 42
0.00000001
 43
0.00000001
 40
0.0
 40
0.0
 40
0.0
 40
0.0
 40
0.25
 40
0.25
 40
0.5
 40
0.5
 40
0.75
 40
0.75
 40
1.0
 40
1.0
 40
1.0
 40
1.0
 10
1298.228555216494
 20
668.760956243725
 30
0.0
 10
1298.141939000582
 20
668.2764409136398
 30
0.0
 10
1298.147373440218
 20
667.8454269250789
 30
0.0
 10
1298.328383199067
 20
667.1624086023481
 30
0.0
 10
1298.503834236689
 20
666.9107967342873
 30
0.0
 10
1298.985130445791
 20
666.6328275196397
 30
0.0
 10
1299.290718100072
 20
666.6066188828948
 30
0.0
 10
1299.972659300491
 20
666.7912392655261
 30
0.0
 10
1300.348610851175
 20
667.0019797364896
 30
0.0
 10
1300.724875560054
 20
667.3191976836439
 30
0.0
  0
SPLINE
  5
11B
330
1F
100
AcDbEntity
  8
0
  6
CONTINUOUS
 62
     7
100
AcDbSpline
210
0.0
220
0.0
230
1.0
 70
     8
 71
     3
 72
     9
 73
     5
 74
     0
 42
0.00000001
 43
0.00000001
 40
0.0
 40
0.0
 40
0.0
 40
0.0
 40
0.5000460860189414
 40
1.0
 40
1.0
 40
1.0
 40
1.0
 10
1039.611567213133
 20
816.3661386694118
 30
0.0
 10
1039.227946512936
 20
816.6664236708074
 30
0.0
 10
1038.46077582423
 20
817.2669383229388
 30
0.0
 10
1038.191015857002
 20
818.3925405937982
 30
0.0
 10
1038.05614830555
 20
818.9552898547004
 30
0.0
  0
SPLINE
  5
11C
330
1F
100
AcDbEntity
  8
0
  6
CONTINUOUS
 62
     7
100
AcDbSpline
210
0.0
220
0.0
230
1.0
 70
     8
 71
     3
 72
    14
 73
    10
 74
     0
 42
0.00000001
 43
0.00000001
 40
0.0
 40
0.0
 40
0.0
 40
0.0
 40
0.25
 40
0.25
 40
0.5
 40
0.5
 40
0.75
 40
0.75
 40
1.0
 40
1.0
 40
1.0
 40
1.0
 10
1300.349875560054
 20
669.9855684114592
 30
0.0
 10
1300.263274429856
 20
669.8217922951104
 30
0.0
 10
1300.213481493306
 20
669.6793492059797
 30
0.0
 10
1300.181964040608
 20
669.4661343988665
 30
0.0
 10
1300.200183777539
 20
669.3954859126318
 30
0.0
 10
1300.288780904942
 20
669.3442907487517
 30
0.0
 10
1300.359055288536
 20
669.3638035550434
 30
0.0
 10
1300.527910412466
 20
669.4976442300748
 30
0.0
 10
1300.626356567828
 20
669.6119587790506
 30
0.0
 10
1300.724875560054
 20
669.7688201193012
 30
0.0
  0
SPLINE
  5
11D
330
1F
100
AcDbEntity
  8
0
  6
CONTINUOUS
 62
     7
100
AcDbSpline
210
0.0
220
0.0
230
1.0
 70
    24
 71
     3
 72
     8
 73
     4
 74
     0
 42
0.00000001
 43
0.00000001
 40
0.0
 40
0.0
 40
0.0
 40
0.0
 40
1.0
 40
1.0
 40
1.0
 40
1.0
 10
1300.724875560054
 20
667.3191976836439
 30
0.0
 10
1300.724875560054
 20
668.1357384955296
 30
0.0
 10
1300.724875560054
 20
668.9522793074154
 30
0.0
 10
1300.724875560054
 20
669.7688201193012
 30
0.0
  0
SPLINE
  5
11E
330
1F
100
AcDbEntity
  8
0
  6
CONTINUOUS
 62
     7
100
AcDbSpline
210
0.0
220
0.0
230
1.0
 70
     8
 71
     3
 72
    10
 73
     6
 74
     0
 42
0.00000001
 43
0.00000001
 40
0.0
 40
0.0
 40
0.0
 40
0.0
 40
0.499949571278862
 40
0.9998978608909578
 40
1.0
 40
1.0
 40
1.0
 40
1.0
 10
2005.335341056151
 20
1074.082824799296
 30
0.0
 10
2005.186488507802
 20
1073.543511522581
 30
0.0
 10
2004.888783792703
 20
1072.464886351732
 30
0.0
 10
2004.261474634546
 20
1071.629909957587
 30
0.0
 10
2003.779999420124
 20
1071.493701435635
 30
0.0
 10
2003.779901075144
 20
1071.493673614007
 30
0.0
  0
SPLINE
  5
11F
330
1F
100
AcDbEntity
  8
0
  6
CONTINUOUS
 62
     7
100
AcDbSpline
210
0.0
220
0.0
230
1.0
 70
     8
 71
     3
 72
    14
 73
    10
 74
     0
 42
0.00000001
 43
0.00000001
 40
0.0
 40
0.0
 40
0.0
 40
0.0
 40
0.25
 40
0.25
 40
0.5
 40
0.5
 40
0.75
 40
0.75
 40
1.0
 40
1.0
 40
1.0
 40
1.0
 10
1300.724875560054
 20
667.3191976836439
 30
0.0
 10
1301.101140268932
 20
667.0019797364896
 30
0.0
 10
1301.477091819617
 20
666.7912392655261
 30
0.0
 10
1302.159033020035
 20
666.606618882895
 30
0.0
 10
1302.464620674316
 20
666.6328275196397
 30
0.0
 10
1302.945916883418
 20
666.9107967342875
 30
0.0
 10
1303.121367921041
 20
667.1624086023481
 30
0.0
 10
1303.302377679889
 20
667.845426925079
 30
0.0
 10
1303.307812119526
 20
668.2764409136399
 30
0.0
 10
1303.221195903613
 20
668.7609562437252
 30
0.0
  0
SPLINE
  5
120
330
1F
100
AcDbEntity
  8
0
  6
CONTINUOUS
 62
     7
100
AcDbSpline
210
0.0
220
0.0
230
1.0
 70
     8
 71
     3
 72
    14
 73
    10
 74
     0
 42
0.00000001
 43
0.00000001
 40
0.0
 40
0.0
 40
0.0
 40
0.0
 40
0.25
 40
0.25
 40
0.5
 40
0.5
 40
0.75
 40
0.75
 40
1.0
 40
1.0
 40
1.0
 40
1.0
 10
1300.724875560054
 20
669.7688201193012
 30
0.0
 10
1300.823394552279
 20
669.6119587790506
 30
0.0
 10
1300.921840707641
 20
669.4976442300748
 30
0.0
 10
1301.090695831572
 20
669.3638035550434
 30
0.0
 10
1301.160970215165
 20
669.3442907487517
 30
0.0
 10
1301.249567342569
 20
669.3954859126318
 30
0.0
 10
1301.267787079499
 20
669.4661343988665
 30
0.0
 10
1301.236269626801
 20
669.6793492059797
 30
0.0
 10
1301.186476690252
 20
669.8217922951105
 30
0.0
 10
1301.099875560054
 20
669.9855684114593
 30
0.0
  0
LINE
  5
121
330
1F
100
AcDbEntity
  8
0
  6
CONTINUOUS
 62
     7
100
AcDbLine
 10
1300.7248650233
 20
672.2180394426
 30
0.0
 11
1300.3498634387
 21
672.4345232494
 31
0.0
  0
LINE
  5
122
330
1F
100
AcDbEntity
  8
0
  6
CONTINUOUS
 62
     7
100
AcDbLine
 10
1301.099866608
 20
672.4345232494
 30
0.0
 11
1300.7248650233
 21
672.2180394426
 31
0.0
  0
LINE
  5
123
330
1F
100
AcDbEntity
  8
0
  6
CONTINUOUS
 62
     7
100
AcDbLine
 10
1742.6666243384
 20
1220.4360965559
 30
0.0
 11
1931.4529850928
 21
1111.452050283
 31
0.0
  0
LINE
  5
124
330
1F
100
AcDbEntity
  8
0
  6
CONTINUOUS
 62
     7
100
AcDbLine
 10
1111.9385095372
 20
856.3245062143
 30
0.0
 11
1742.6666243384
 21
1220.4360965559
 31
0.0
  0
LINE
  5
125
330
1F
100
AcDbEntity
  8
0
  6
CONTINUOUS
 62
     7
100
AcDbLine
 10
1137.6745237396
 20
841.4674340119
 30
0.0
 11
1485.5664974183
 21
928.4553262703
 31
0.0
  0
ARC
  5
126
330
1F
100
AcDbEntity
  8
0
  6
CONTINUOUS
 62
     7
100
AcDbCircle
 10
1507.2554490624
 20
946.6426175331
 30
0.0
 40
28.30526782945866
100
AcDbArc
 50
219.9815473571
 51
240.9647142109
  0
SPLINE
  5
127
330
1F
100
AcDbEntity
  8
0
  6
CONTINUOUS
 62
     7
100
AcDbSpline
210
0.0
220
0.0
230
1.0
 70
     8
 71
     3
 72
    10
 73
     6
 74
     0
 42
0.00000001
 43
0.00000001
 40
0.0
 40
0.0
 40
0.0
 40
0.0
 40
0.5000000000000001
 40
0.5000000000000001
 40
1.0
 40
1.0
 40
1.0
 40
1.0
 10
1493.517539290707
 20
921.8947281641166
 30
0.0
 10
1495.160475952795
 20
920.9462810173585
 30
0.0
 10
1496.947439942492
 20
920.0810086281622
 30
0.0
 10
1500.754999288502
 20
918.5431658651268
 30
0.0
 10
1502.775535328028
 20
917.8706194488636
 30
0.0
 10
1504.882059286404
 20
917.3046894431002
 30
0.0
  0
LINE
  5
128
330
1F
100
AcDbEntity
  8
0
  6
CONTINUOUS
 62
     7
100
AcDbLine
 10
1300.7248650233
 20
672.2180394426
 30
0.0
 11
1301.0998771447
 21
672.6682288093
 31
0.0
  0
LINE
  5
129
330
1F
100
AcDbEntity
  8
0
  6
CONTINUOUS
 62
     7
100
AcDbLine
 10
1421.269372014
 20
816.9293218291
 30
0.0
 11
1504.882059599
 21
917.3046895714
 31
0.0
  0
ARC
  5
12A
330
1F
100
AcDbEntity
  8
0
  6
CONTINUOUS
 62
     7
100
AcDbCircle
 10
1521.3305663159
 20
979.5282242359
 30
0.0
 40
64.36087040556231
100
AcDbArc
 50
255.1928220757
 51
267.8873930569
  0
ARC
  5
12B
330
1F
100
AcDbEntity
  8
0
  6
CONTINUOUS
 62
     7
100
AcDbCircle
 10
1521.7063817667
 20
983.1235191191
 30
0.0
 40
67.96800997618651
100
AcDbArc
 50
267.6825274253
 51
278.9400128583
  0
LWPOLYLINE
  5
12C
330
1F
100
AcDbEntity
  8
0
  6
CONTINUOUS
 62
     7
100
AcDbPolyline
 90
       10
 70
   128
 43
0.0
 10
1532.2686306584
 20
915.9812129443
 10
1535.8994012164
 20
916.6676434668
 10
1539.3996199355
 20
917.5516363724
 10
1542.7371083555
 20
918.6250685761
 10
1545.8811983877
 20
919.8780703034
 10
1548.8029867609
 20
921.2991263582
 10
1551.4756172889
 20
922.8751752042
 10
1553.8745240392
 20
924.5917310945
 10
1555.9776586946
 20
926.4330153254
 10
1557.7656913275
 20
928.3821025539
  0
ARC
  5
12D
330
1F
100
AcDbEntity
  8
0
  6
CONTINUOUS
 62
     7
100
AcDbCircle
 10
1546.7503364354
 20
938.1586610172
 30
0.0
 40
14.72817499846571
100
AcDbArc
 50
318.4096909323
 51
41.2415783404
  0
LINE
  5
12E
330
1F
100
AcDbEntity
  8
0
  6
CONTINUOUS
 62
     7
100
AcDbLine
 10
1557.8249919434
 20
947.8679938555
 30
0.0
 11
1737.4919291086
 21
999.480718324
 31
0.0
  0
LINE
  5
12F
330
1F
100
AcDbEntity
  8
0
  6
CONTINUOUS
 62
     7
100
AcDbLine
 10
1742.6666243384
 20
1220.4360965559
 30
0.0
 11
1538.781556817
 21
959.3670802396
 31
0.0
  0
ARC
  5
130
330
1F
100
AcDbEntity
  8
0
  6
CONTINUOUS
 62
     7
100
AcDbCircle
 10
1510.7980280908
 20
925.5292596933
 30
0.0
 40
33.70366481517946
100
AcDbArc
 50
108.779747912
 51
138.3199035051
  0
ARC
  5
131
330
1F
100
AcDbEntity
  8
0
  6
CONTINUOUS
 62
     7
100
AcDbCircle
 10
1496.6411529263
 20
938.1646591086
 30
0.0
 40
14.72817499846503
100
AcDbArc
 50
138.4096909323
 51
221.2415783404
  0
LINE
  5
132
330
1F
100
AcDbEntity
  8
0
  6
CONTINUOUS
 62
     7
100
AcDbLine
 10
1040.1774729481
 20
898.1842393401
 30
0.0
 11
1040.1774729481
 21
897.7512682721
 31
0.0
  0
LINE
  5
133
330
1F
100
AcDbEntity
  8
0
  6
CONTINUOUS
 62
     7
100
AcDbLine
 10
1742.2916227537
 20
1303.5061105043
 30
0.0
 11
1040.1774729481
 21
898.1842393401
 31
0.0
  0
LINE
  5
134
330
1F
100
AcDbEntity
  8
0
  6
CONTINUOUS
 62
     7
100
AcDbLine
 10
1742.2916227537
 20
1225.9347311166
 30
0.0
 11
1742.2916227537
 21
1303.5061105043
 31
0.0
  0
LINE
  5
135
330
1F
100
AcDbEntity
  8
0
  6
CONTINUOUS
 62
     7
100
AcDbLine
 10
1038.0561483056
 20
899.4088539896
 30
0.0
 11
1038.0561483056
 21
896.5281658044
 31
0.0
  0
LINE
  5
136
330
1F
100
AcDbEntity
  8
0
  6
CONTINUOUS
 62
     7
100
AcDbLine
 10
1040.1774729481
 20
898.1842393401
 30
0.0
 11
1038.0561483056
 21
899.4088539896
 31
0.0
  0
LINE
  5
137
330
1F
100
AcDbEntity
  8
0
  6
CONTINUOUS
 62
     7
100
AcDbLine
 10
1740.1702981112
 20
1304.7307251538
 30
0.0
 11
1038.0561483056
 21
899.4088539896
 31
0.0
  0
LINE
  5
138
330
1F
100
AcDbEntity
  8
0
  6
CONTINUOUS
 62
     7
100
AcDbLine
 10
1742.2916227537
 20
1303.5061105043
 30
0.0
 11
1740.1702981112
 21
1304.7307251538
 31
0.0
  0
SPLINE
  5
139
330
1F
100
AcDbEntity
  8
0
  6
CONTINUOUS
 62
     7
100
AcDbSpline
210
0.0
220
0.0
230
1.0
 70
     8
 71
     3
 72
    14
 73
    10
 74
     0
 42
0.00000001
 43
0.00000001
 40
0.0
 40
0.0
 40
0.0
 40
0.0
 40
0.25
 40
0.25
 40
0.5
 40
0.5
 40
0.75
 40
0.75
 40
1.0
 40
1.0
 40
1.0
 40
1.0
 10
1742.291613801648
 20
1225.934730834571
 30
0.0
 10
1742.204999861021
 20
1225.670928164484
 30
0.0
 10
1742.1552197349
 20
1225.386038720034
 30
0.0
 10
1742.123702282202
 20
1224.809263042711
 30
0.0
 10
1742.141922019132
 20
1224.517603422718
 30
0.0
 10
1742.230519146536
 20
1223.964166046359
 30
0.0
 10
1742.30079353013
 20
1223.702566703141
 30
0.0
 10
1742.46964865406
 20
1223.24150125531
 30
0.0
 10
1742.568080236049
 20
1223.042200423072
 30
0.0
 10
1742.666613801648
 20
1222.885315879186
 30
0.0
  0
ARC
  5
13A
330
1F
100
AcDbEntity
  8
0
  6
CONTINUOUS
 62
     7
100
AcDbCircle
 10
1531.7918406965
 20
924.413838424
 30
0.0
 40
35.04029638641649
100
AcDbArc
 50
42.0167699367
 51
71.9433121499
  0
LWPOLYLINE
  5
13B
330
1F
100
AcDbEntity
  8
0
  6
CONTINUOUS
 62
     7
100
AcDbPolyline
 90
       28
 70
   128
 43
0.0
 10
1497.3908952083
 20
922.5813571565
 10
1499.9744779242
 20
921.2338644521
 10
1502.7809476631
 20
920.0441733274
 10
1505.7815102247
 20
919.0244933109
 10
1508.9453747022
 20
918.185288192
 10
1512.2400728757
 20
917.535167673
 10
1515.6318009969
 20
917.0808041113
 10
1519.0857536716
 20
916.8268599076
 10
1522.5664867173
 20
916.7759407448
 10
1526.0382859482
 20
916.9285682154
 10
1529.4655254235
 20
917.283176781
 10
1532.8130355737
 20
917.8361285981
 10
1536.0464680345
 20
918.5817477338
 10
1539.1326407236
 20
919.5123855549
 10
1542.0398881871
 20
920.618490679
 10
1544.7383772061
 20
921.8887136163
 10
1547.2004179598
 20
923.3100194901
 10
1549.4007470345
 20
924.867824042
 10
1551.3167849147
 20
926.5461422786
 10
1552.9288715772
 20
928.3277518495
 10
1554.2204617498
 20
930.1943726769
 10
1555.1783061756
 20
932.1268491527
 10
1555.792572785
 20
934.1053523882
 10
1556.0569599657
 20
936.109579423
 10
1555.9687558314
 20
938.1189638393
 10
1555.5288639052
 20
940.1128882766
 10
1554.741797851
 20
942.0708912437
 10
1554.2860369777
 20
942.9182852169
  0
LWPOLYLINE
  5
13C
330
1F
100
AcDbEntity
  8
0
  6
CONTINUOUS
 62
     7
100
AcDbPolyline
 90
       12
 70
   128
 43
0.0
 10
1489.084272934
 20
942.881689706
 10
1488.2131831861
 20
941.0976470494
 10
1487.5989165767
 20
939.1191438139
 10
1487.334529396
 20
937.1149167791
 10
1487.4227335303
 20
935.1055323628
 10
1487.8626254565
 20
933.1116079255
 10
1488.6496915107
 20
931.1536049584
 10
1489.7758553029
 20
929.2516161878
 10
1491.2295587185
 20
927.4251561023
 10
1492.9958877
 20
925.6929682061
 10
1495.0567164684
 20
924.0728277115
 10
1497.3908952083
 20
922.5813571565
  0
LINE
  5
13D
330
1F
100
AcDbEntity
  8
0
  6
CONTINUOUS
 62
     7
100
AcDbLine
 10
2003.2140269503
 20
1152.8788092994
 30
0.0
 11
2003.2140269503
 21
1153.3117803674
 31
0.0
  0
LINE
  5
13E
330
1F
100
AcDbEntity
  8
0
  6
CONTINUOUS
 62
     7
100
AcDbLine
 10
2003.2140269503
 20
1153.3117803674
 30
0.0
 11
2005.3353410562
 21
1154.5363889342
 31
0.0
  0
LINE
  5
13F
330
1F
100
AcDbEntity
  8
0
  6
CONTINUOUS
 62
     7
100
AcDbLine
 10
2005.3353410562
 20
1151.655700749
 30
0.0
 11
2005.3353410562
 21
1154.5363889342
 31
0.0
  0
LINE
  5
140
330
1F
100
AcDbEntity
  8
0
  6
CONTINUOUS
 62
     7
100
AcDbLine
 10
1743.0416153863
 20
1303.506116587
 30
0.0
 11
1743.0416153863
 21
1225.9347371993
 31
0.0
  0
LINE
  5
141
330
1F
100
AcDbEntity
  8
0
  6
CONTINUOUS
 62
     7
100
AcDbLine
 10
2003.2140269503
 20
1153.3117803674
 30
0.0
 11
1743.0416153863
 21
1303.506116587
 31
0.0
  0
LINE
  5
142
330
1F
100
AcDbEntity
  8
0
  6
CONTINUOUS
 62
     7
100
AcDbLine
 10
1743.0416153863
 20
1303.506116587
 30
0.0
 11
1745.1629294921
 21
1304.7307251538
 31
0.0
  0
LINE
  5
143
330
1F
100
AcDbEntity
  8
0
  6
CONTINUOUS
 62
     7
100
AcDbLine
 10
2005.3353410562
 20
1154.5363889342
 30
0.0
 11
1745.1629294921
 21
1304.7307251538
 31
0.0
  0
SPLINE
  5
144
330
1F
100
AcDbEntity
  8
0
  6
CONTINUOUS
 62
     7
100
AcDbSpline
210
0.0
220
0.0
230
1.0
 70
     8
 71
     3
 72
    14
 73
    10
 74
     0
 42
0.00000001
 43
0.00000001
 40
0.0
 40
0.0
 40
0.0
 40
0.0
 40
0.25
 40
0.25
 40
0.5
 40
0.5
 40
0.75
 40
0.75
 40
1.0
 40
1.0
 40
1.0
 40
1.0
 10
1742.666613801648
 20
1222.885315879186
 30
0.0
 10
1742.765147367246
 20
1223.042200423072
 30
0.0
 10
1742.863578949235
 20
1223.24150125531
 30
0.0
 10
1743.032434073166
 20
1223.702566703141
 30
0.0
 10
1743.102708456759
 20
1223.964166046359
 30
0.0
 10
1743.191305584163
 20
1224.517603422718
 30
0.0
 10
1743.209525321093
 20
1224.809263042711
 30
0.0
 10
1743.178007868395
 20
1225.386038720034
 30
0.0
 10
1743.128227742274
 20
1225.670928164484
 30
0.0
 10
1743.041613801647
 20
1225.934730834571
 30
0.0
  0
LWPOLYLINE
  5
145
330
1F
100
AcDbEntity
  8
0
  6
CONTINUOUS
 62
     7
100
AcDbPolyline
 90
       60
 70
   128
 43
0.0
 10
1511.3146150102
 20
926.5653383732
 10
1514.5531775327
 20
926.0261673258
 10
1517.8726672727
 20
925.6887751231
 10
1521.2354734362
 20
925.5569847511
 10
1524.6034952723
 20
925.6322895161
 10
1527.9385727608
 20
925.9138355573
 10
1531.202914008
 20
926.3984328709
 10
1534.3595371301
 20
927.080591427
 10
1537.3726732821
 20
927.9525819965
 10
1540.2081835166
 20
929.0045247304
 10
1542.833940493
 20
930.2245000271
 10
1545.2201940514
 20
931.5986850605
 10
1547.3399057538
 20
933.1115104102
 10
1549.1690579057
 20
934.7458354147
 10
1550.6869279226
 20
936.4831415349
 10
1551.8763146217
 20
938.3037451069
 10
1552.7237448411
 20
940.187016985
 10
1553.2196143677
 20
942.1116205275
 10
1553.3583077923
 20
944.0557480627
 10
1553.1382485595
 20
945.9973718005
 10
1552.5619351872
 20
947.9144928439
 10
1551.6358958269
 20
949.7853894394
 10
1550.3706224099
 20
951.5888633273
 10
1548.7804507916
 20
953.3044807689
 10
1546.8833987496
 20
954.9128029294
 10
1544.7009616706
 20
956.3956072322
 10
1542.2578629619
 20
957.7360907486
 10
1539.5817907979
 20
958.9190693128
 10
1536.7030606165
 20
959.9311358618
 10
1533.6542919383
 20
960.7608241937
 10
1530.4700290447
 20
961.3987351842
 10
1527.1863489794
 20
961.8376383866
 10
1523.8404581901
 20
962.072563463
 10
1520.4702671085
 20
962.1008465644
 10
1517.1139620963
 20
961.9221675882
 10
1513.8095701477
 20
961.5385520781
 10
1510.5945301765
 20
960.9543457536
 10
1507.5052728649
 20
960.1761681285
 10
1504.5767988656
 20
959.2128362876
 10
1501.8422882851
 20
958.0752656619
 10
1499.3327270112
 20
956.7763440323
 10
1497.0765475485
 20
955.3307895778
 10
1495.099312115
 20
953.7549816168
 10
1493.4234253313
 20
952.0667734567
 10
1492.0678766575
 20
950.2852935237
 10
1491.0480223638
 20
948.4307267354
 10
1490.3754192477
 20
946.5240877297
 10
1490.0576886447
 20
944.5869766057
 10
1490.0984275251
 20
942.6413435987
 10
1490.4971788588
 20
940.7092317055
 10
1491.2494210794
 20
938.8125348965
 10
1492.346633938
 20
936.9727426414
 10
1493.7763827971
 20
935.2106996423
 10
1495.5224681204
 20
933.5463705084
 10
1497.5651085481
 20
931.9986139354
 10
1499.8811582985
 20
930.5849659615
 10
1502.4443757725
 20
929.3214438469
 10
1505.2257200627
 20
928.222364258
 10
1508.1936764394
 20
927.3001796992
 10
1511.3146150102
 20
926.5653383732
  0
ARC
  5
146
330
1F
100
AcDbEntity
  8
0
  6
CONTINUOUS
 62
     7
100
AcDbCircle
 10
1513.877599181
 20
924.1354687289
 30
0.0
 40
1.266327592494946
100
AcDbArc
 50
254.1828034971
 51
317.0850501157
  0
LINE
  5
147
330
1F
100
AcDbEntity
  8
0
  6
CONTINUOUS
 62
     7
100
AcDbLine
 10
1515.4681889066
 20
922.7434575859
 30
0.0
 11
1515.4681889066
 21
921.9268101753
 31
0.0
  0
LWPOLYLINE
  5
148
330
1F
100
AcDbEntity
  8
0
  6
CONTINUOUS
 62
     7
100
AcDbPolyline
 90
        9
 70
   128
 43
0.0
 10
1514.8050135136
 20
923.2732110951
 10
1514.817795204
 20
922.9735894423
 10
1514.855643074
 20
922.7281778334
 10
1514.9170819838
 20
922.5465425301
 10
1514.9997148316
 20
922.4357671315
 10
1515.1003213346
 20
922.4001688961
 10
1515.2149778847
 20
922.4411367294
 10
1515.3392155989
 20
922.557073347
 10
1515.4681889066
 20
922.7434575859
  0
LINE
  5
149
330
1F
100
AcDbEntity
  8
0
  6
CONTINUOUS
 62
     7
100
AcDbLine
 10
1515.4681889066
 20
921.9268101753
 30
0.0
 11
1516.7645950152
 21
924.0834377195
 31
0.0
  0
ARC
  5
14A
330
1F
100
AcDbEntity
  8
0
  6
CONTINUOUS
 62
     7
100
AcDbCircle
 10
1518.043189639
 20
945.0943015811
 30
0.0
 40
23.20430785250477
100
AcDbArc
 50
231.1398231222
 51
257.4065711766
  0
SPLINE
  5
14B
330
1F
100
AcDbEntity
  8
0
  6
CONTINUOUS
 62
     7
100
AcDbSpline
210
0.0
220
0.0
230
1.0
 70
     8
 71
     3
 72
     9
 73
     5
 74
     0
 42
0.00000001
 43
0.00000001
 40
0.0
 40
0.0
 40
0.0
 40
0.0
 40
0.7851926647680574
 40
1.0
 40
1.0
 40
1.0
 40
1.0
 10
1515.468188906609
 20
922.7434575858776
 30
0.0
 10
1515.463484159567
 20
922.6501515006937
 30
0.0
 10
1515.457492321827
 20
922.5313194109776
 30
0.0
 10
1515.386761429452
 20
922.4433347305119
 30
0.0
 10
1515.371567914942
 20
922.4244349757598
 30
0.0
  0
LWPOLYLINE
  5
14C
330
1F
100
AcDbEntity
  8
0
  6
CONTINUOUS
 62
     7
100
AcDbPolyline
 90
       11
 70
   128
 43
0.0
 10
1515.4681889066
 20
921.9268101753
 10
1518.3397570871
 20
921.5542055189
 10
1521.2719396798
 20
921.4072486588
 10
1524.2117758768
 20
921.4885935593
 10
1527.10616921
 20
921.7967716251
 10
1529.9028424407
 20
922.3262160319
 10
1532.551282571
 20
923.0673647527
 10
1535.0036539157
 20
924.0068318238
 10
1537.2156651173
 20
925.1276478265
 10
1539.1473619922
 20
926.409570081
 10
1540.0627416571
 20
927.1619274386
  0
ARC
  5
14D
330
1F
100
AcDbEntity
  8
0
  6
CONTINUOUS
 62
     7
100
AcDbCircle
 10
1525.6020156154
 20
952.2465966429
 30
0.0
 40
35.20856644334455
100
AcDbArc
 50
285.5820035996
 51
299.4912317786
  0
LWPOLYLINE
  5
14E
330
1F
100
AcDbEntity
  8
0
  6
CONTINUOUS
 62
     7
100
AcDbPolyline
 90
       13
 70
   128
 43
0.0
 10
1508.3318443455
 20
918.3320511334
 10
1506.9128659818
 20
918.7666987167
 10
1504.1725345265
 20
919.7778671149
 10
1501.6376472257
 20
920.9541481353
 10
1499.3379228759
 20
922.2817507436
 10
1497.3003236065
 20
923.7451100339
 10
1495.5487387779
 20
925.3270697101
 10
1494.1037024666
 20
927.0090816751
 10
1492.9821583641
 20
928.7714269091
 10
1492.1972549701
 20
930.5934431916
 10
1491.758194127
 20
932.45376917
 10
1491.6701243358
 20
934.3305945113
 10
1491.6797338173
 20
934.503515438
  0
LWPOLYLINE
  5
14F
330
1F
100
AcDbEntity
  8
0
  6
CONTINUOUS
 62
     7
100
AcDbPolyline
 90
        9
 70
   128
 43
0.0
 10
1551.7117555444
 20
934.503515438
 10
1551.7213650259
 20
933.3914933534
 10
1551.4574124846
 20
931.520173629
 10
1550.8445314528
 20
929.6762975915
 10
1549.8899079682
 20
927.8814847287
 10
1548.6047320191
 20
926.1567766704
 10
1547.0040757136
 20
924.5223935
 10
1545.1067006555
 20
922.9974978588
 10
1542.9348534661
 20
921.5999674149
  0
LWPOLYLINE
  5
150
330
1F
100
AcDbEntity
  8
0
  6
CONTINUOUS
 62
     7
100
AcDbPolyline
 90
       32
 70
   128
 43
0.0
 10
1551.6751444211
 20
935.0735266092
 10
1551.6847433658
 20
933.9628609699
 10
1551.4211121942
 20
932.0938237842
 10
1550.808979269
 20
930.2521968303
 10
1549.8555194325
 20
928.4595733645
 10
1548.571912795
 20
926.7369680246
 10
1546.9732067691
 20
925.104579034
 10
1545.0781466596
 20
923.5815428977
 10
1542.9089476423
 20
922.1857176098
 10
1540.4910453403
 20
920.933465672
 10
1537.8527835093
 20
919.8394707571
 10
1535.0250964542
 20
918.9165574131
 10
1532.0411331654
 20
918.1755470741
 10
1528.9358817833
 20
917.6251264266
 10
1525.7457446727
 20
917.2717496107
 10
1522.508126503
 20
917.1195585748
 10
1519.2609831456
 20
917.1703385956
 10
1516.0423850584
 20
917.4234943274
 10
1512.8900668417
 20
917.8760558849
 10
1509.8409893062
 20
918.5227202817
 10
1506.9308956134
 20
919.3559038934
 10
1504.1939069299
 20
920.3658390212
 10
1501.6621124011
 20
921.5406858991
 10
1499.365192957
 20
922.8666692698
 10
1497.3300779644
 20
924.3282431409
 10
1495.5806294543
 20
925.9082730759
 10
1494.1373567251
 20
927.5882344058
 10
1493.0171797611
 20
929.3484294003
 10
1492.2332352079
 20
931.1682239713
 10
1491.7947091029
 20
933.0262810972
 10
1491.7067459959
 20
934.9008170568
 10
1491.7163449406
 20
935.0735266092
  0
LINE
  5
151
330
1F
100
AcDbEntity
  8
0
  6
CONTINUOUS
 62
     7
100
AcDbLine
 10
1300.3497896817
 20
669.9853486949
 30
0.0
 11
1300.7248755601
 21
669.7688162264
 31
0.0
  0
LINE
  5
152
330
1F
100
AcDbEntity
  8
0
  6
CONTINUOUS
 62
     7
100
AcDbLine
 10
1300.7248755601
 20
669.7688162264
 30
0.0
 11
1301.0999614384
 21
669.9853486949
 31
0.0
  0
LINE
  5
153
330
1F
100
AcDbEntity
  8
0
  6
CONTINUOUS
 62
     7
100
AcDbLine
 10
1742.6666138016
 20
1222.8853197721
 30
0.0
 11
1109.8171848947
 21
857.5491208638
 31
0.0
  0
LINE
  5
154
330
1F
100
AcDbEntity
  8
0
  6
CONTINUOUS
 62
     7
100
AcDbLine
 10
1933.5742991987
 20
1112.6766588497
 30
0.0
 11
1742.6666138016
 21
1222.8853197721
 31
0.0
  0
LINE
  5
155
330
1F
100
AcDbEntity
  8
0
  6
CONTINUOUS
 62
     7
100
AcDbLine
 10
1742.2916227537
 20
1225.9347311166
 30
0.0
 11
1106.988530767
 21
859.1820626627
 31
0.0
  0
LINE
  5
156
330
1F
100
AcDbEntity
  8
0
  6
CONTINUOUS
 62
     7
100
AcDbLine
 10
1936.4029585947
 20
1114.3096097727
 30
0.0
 11
1743.0416153863
 21
1225.9347371993
 31
0.0
  0
LINE
  5
157
330
1F
100
AcDbEntity
  8
0
  6
CONTINUOUS
 62
     7
100
AcDbLine
 10
1513.5324374966
 20
922.9170890741
 30
0.0
 11
1513.5324374966
 21
924.471848611
 31
0.0
  0
LINE
  5
158
330
1F
100
AcDbEntity
  8
0
  6
CONTINUOUS
 62
     7
100
AcDbLine
 10
1514.8050135136
 20
924.298702148
 30
0.0
 11
1514.8050135136
 21
923.2732110951
 31
0.0
  0
ARC
  5
159
330
1F
100
AcDbEntity
  8
0
  6
CONTINUOUS
 62
     7
100
AcDbCircle
 10
1513.5615987922
 20
923.6399209005
 30
0.0
 40
0.723419816133471
100
AcDbArc
 50
194.1991604293
 51
267.6897619516
  0
LWPOLYLINE
  5
15A
330
1F
100
AcDbEntity
  8
0
  6
CONTINUOUS
 62
     7
100
AcDbPolyline
 90
        6
 70
   128
 43
0.0
 10
1513.9263063814
 20
921.611756007
 10
1513.8205065964
 20
921.6641603557
 10
1513.6981924907
 20
921.8318922265
 10
1513.6073047875
 20
922.1042032019
 10
1513.5513357484
 20
922.4706295088
 10
1513.5324374966
 20
922.9170890741
  0
ARC
  5
15B
330
1F
100
AcDbEntity
  8
0
  6
CONTINUOUS
 62
     7
100
AcDbCircle
 10
1529.8345105362
 20
939.2851144926
 30
0.0
 40
16.62249316638826
100
AcDbArc
 50
299.113686922
 51
317.1091583197
  0
ARC
  5
15C
330
1F
100
AcDbEntity
  8
0
  6
CONTINUOUS
 62
     7
100
AcDbCircle
 10
1517.5135549407
 20
944.5165134634
 30
0.0
 40
23.10735140343865
100
AcDbArc
 50
225.6129582192
 51
259.7693802791
  0
ARC
  5
15D
330
1F
100
AcDbEntity
  8
0
  6
CONTINUOUS
 62
     7
100
AcDbCircle
 10
1521.6728716903
 20
956.2139180947
 30
0.0
 40
35.40072727834221
100
AcDbArc
 50
257.9675046293
 51
297.3231098933
  0
LINE
  5
15E
330
1F
100
AcDbEntity
  8
0
  6
CENTERX2
 62
     7
100
AcDbLine
 10
1451.3808510638
 20
2507.8036178196
 30
0.0
 11
1451.3808510638
 21
2758.5204140692
 31
0.0
  0
LINE
  5
15F
330
1F
100
AcDbEntity
  8
0
  6
CONTINUOUS
 62
     7
100
AcDbLine
 10
959.3476674892
 20
2631.6344257212
 30
0.0
 11
969.3808577395
 21
2631.4125264763
 31
0.0
  0
LINE
  5
160
330
1F
100
AcDbEntity
  8
0
  6
CONTINUOUS
 62
     7
100
AcDbLine
 10
1411.4976807869
 20
2621.6344254791
 30
0.0
 11
1411.5592225827
 21
2621.6330648168
 31
0.0
  0
LINE
  5
161
330
1F
100
AcDbEntity
  8
0
  6
CONTINUOUS
 62
     7
100
AcDbLine
 10
1491.202479545
 20
2621.6330648168
 30
0.0
 11
1491.2640213407
 21
2621.6344254791
 31
0.0
  0
LINE
  5
162
330
1F
100
AcDbEntity
  8
0
  6
CONTINUOUS
 62
     7
100
AcDbLine
 10
1933.3808443881
 20
2631.4125264763
 30
0.0
 11
1943.4140346385
 21
2631.6344257212
 31
0.0
  0
ARC
  5
163
330
1F
100
AcDbEntity
  8
0
  6
CONTINUOUS
 62
     7
100
AcDbCircle
 10
1410.4936632716
 20
2612.7849996934
 30
0.0
 40
8.909999999999808
100
AcDbArc
 50
52.1480946784
 51
83.3152054855
  0
ARC
  5
164
330
1F
100
AcDbEntity
  8
0
  6
CONTINUOUS
 62
     7
100
AcDbCircle
 10
1492.268038856
 20
2612.7849996934
 30
0.0
 40
8.909999999999949
100
AcDbArc
 50
96.6847945145
 51
127.8519053216
  0
LINE
  5
165
330
1F
100
AcDbEntity
  8
0
  6
CONTINUOUS
 62
     7
100
AcDbLine
 10
1415.9610405005
 20
2619.820331107
 30
0.0
 11
1423.6991147883
 21
2613.8068287402
 31
0.0
  0
LINE
  5
166
330
1F
100
AcDbEntity
  8
0
  6
CONTINUOUS
 62
     7
100
AcDbLine
 10
1479.0625873394
 20
2613.8068287402
 30
0.0
 11
1486.8006616272
 21
2619.820331107
 31
0.0
  0
ARC
  5
167
330
1F
100
AcDbEntity
  8
0
  6
CONTINUOUS
 62
     7
100
AcDbCircle
 10
1427.3808510638
 20
2618.5444257473
 30
0.0
 40
6.000000000000039
100
AcDbArc
 50
232.1480946784
 51
255.7661053653
  0
ARC
  5
168
330
1F
100
AcDbEntity
  8
0
  6
CONTINUOUS
 62
     7
100
AcDbCircle
 10
1475.3808510638
 20
2618.5444257473
 30
0.0
 40
6.000000000000039
100
AcDbArc
 50
284.2338946347
 51
307.8519053216
  0
LINE
  5
169
330
1F
100
AcDbEntity
  8
0
  6
CONTINUOUS
 62
     7
100
AcDbLine
 10
1481.3808503933
 20
2610.7286250918
 30
0.0
 11
1481.3808503933
 21
2612.7286254197
 31
0.0
  0
LINE
  5
16A
330
1F
100
AcDbEntity
  8
0
  6
CONTINUOUS
 62
     7
100
AcDbLine
 10
1421.3808517344
 20
2612.7286254197
 30
0.0
 11
1421.3808517344
 21
2610.7286250918
 31
0.0
  0
LINE
  5
16B
330
1F
100
AcDbEntity
  8
0
  6
CONTINUOUS
 62
     7
100
AcDbLine
 10
1420.3808515705
 20
2610.7286250918
 30
0.0
 11
1420.3808515705
 21
2609.7286249279
 31
0.0
  0
LINE
  5
16C
330
1F
100
AcDbEntity
  8
0
  6
CONTINUOUS
 62
     7
100
AcDbLine
 10
1482.3808505572
 20
2609.7286249279
 30
0.0
 11
1482.3808505572
 21
2610.7286250918
 31
0.0
  0
ARC
  5
16D
330
1F
100
AcDbEntity
  8
0
  6
CONTINUOUS
 62
     7
100
AcDbCircle
 10
1486.3808510638
 20
2592.228625369
 30
0.0
 40
0.5
100
AcDbArc
 50
270.0
 51
0.0
  0
ARC
  5
16E
330
1F
100
AcDbEntity
  8
0
  6
CONTINUOUS
 62
     7
100
AcDbCircle
 10
1416.3808510638
 20
2592.228625369
 30
0.0
 40
0.5
100
AcDbArc
 50
180.0
 51
270.0
  0
ARC
  5
16F
330
1F
100
AcDbEntity
  8
0
  6
CONTINUOUS
 62
     7
100
AcDbCircle
 10
1486.3808510638
 20
2609.228625369
 30
0.0
 40
0.5
100
AcDbArc
 50
0.0
 51
90.0
  0
ARC
  5
170
330
1F
100
AcDbEntity
  8
0
  6
CONTINUOUS
 62
     7
100
AcDbCircle
 10
1416.3808510638
 20
2609.228625369
 30
0.0
 40
0.5000000000002274
100
AcDbArc
 50
90.0
 51
180.0
  0
LINE
  5
171
330
1F
100
AcDbEntity
  8
0
  6
CONTINUOUS
 62
     7
100
AcDbLine
 10
1486.8808522261
 20
2592.2286267161
 30
0.0
 11
1486.8808522261
 21
2609.2286257773
 31
0.0
  0
LINE
  5
172
330
1F
100
AcDbEntity
  8
0
  6
CONTINUOUS
 62
     7
100
AcDbLine
 10
1415.8808499015
 20
2609.2286257773
 30
0.0
 11
1415.8808499015
 21
2592.2286267161
 31
0.0
  0
LINE
  5
173
330
1F
100
AcDbEntity
  8
0
  6
CONTINUOUS
 62
     7
100
AcDbLine
 10
1472.3358511365
 20
2530.4591635942
 30
0.0
 11
1472.3358511365
 21
2591.7286257028
 31
0.0
  0
LINE
  5
174
330
1F
100
AcDbEntity
  8
0
  6
CONTINUOUS
 62
     7
100
AcDbLine
 10
1430.4258509911
 20
2591.7286257028
 30
0.0
 11
1430.4258509911
 21
2530.4591635942
 31
0.0
  0
LINE
  5
175
330
1F
100
AcDbEntity
  8
0
  6
CONTINUOUS
 62
     7
100
AcDbLine
 10
1470.855851043
 20
2529.4591690182
 30
0.0
 11
1470.855851043
 21
2530.4591635942
 31
0.0
  0
LINE
  5
176
330
1F
100
AcDbEntity
  8
0
  6
CONTINUOUS
 62
     7
100
AcDbLine
 10
1431.9058510847
 20
2530.4591635942
 30
0.0
 11
1431.9058510847
 21
2529.4591690182
 31
0.0
  0
LINE
  5
177
330
1F
100
AcDbEntity
  8
0
  6
CONTINUOUS
 62
     7
100
AcDbLine
 10
954.9111745692
 20
2731.6344286083
 30
0.0
 11
1947.8505275584
 21
2731.6344286083
 31
0.0
  0
LINE
  5
178
330
1F
100
AcDbEntity
  8
0
  6
CONTINUOUS
 62
     7
100
AcDbLine
 10
1947.8505275584
 20
2731.6344286083
 30
0.0
 11
1947.8505275584
 21
2636.6344258423
 31
0.0
  0
LINE
  5
179
330
1F
100
AcDbEntity
  8
0
  6
CONTINUOUS
 62
     7
100
AcDbLine
 10
954.9111745692
 20
2636.6344258423
 30
0.0
 11
1947.8505275584
 21
2636.6344258423
 31
0.0
  0
LINE
  5
17A
330
1F
100
AcDbEntity
  8
0
  6
CONTINUOUS
 62
     7
100
AcDbLine
 10
954.9111745692
 20
2636.6344258423
 30
0.0
 11
954.9111745692
 21
2731.6344286083
 31
0.0
  0
SPLINE
  5
17B
330
1F
100
AcDbEntity
  8
0
  6
CONTINUOUS
 62
     7
100
AcDbSpline
210
0.0
220
0.0
230
1.0
 70
     8
 71
     3
 72
    14
 73
    10
 74
     0
 42
0.00000001
 43
0.00000001
 40
0.0
 40
0.0
 40
0.0
 40
0.0
 40
0.25
 40
0.25
 40
0.5
 40
0.5
 40
0.75
 40
0.75
 40
1.0
 40
1.0
 40
1.0
 40
1.0
 10
1947.85052097794
 20
2636.634425747317
 30
0.0
 10
1947.728027150675
 20
2635.979813265714
 30
0.0
 10
1947.605575992255
 20
2635.32568632552
 30
0.0
 10
1947.36063100657
 20
2634.116330845462
 30
0.0
 10
1947.238158513728
 20
2633.561692147442
 30
0.0
 10
1946.993213528043
 20
2632.636091535326
 30
0.0
 10
1946.8707410352
 20
2632.265493805546
 30
0.0
 10
1946.625796049515
 20
2631.764562363975
 30
0.0
 10
1946.503344891095
 20
2631.634425747317
 30
0.0
 10
1946.38085106383
 20
2631.634425747317
 30
0.0
  0
LINE
  5
17C
330
1F
100
AcDbEntity
  8
0
  6
CONTINUOUS
 62
     7
100
AcDbLine
 10
956.3808462955
 20
2631.6344257212
 30
0.0
 11
1946.3808558322
 21
2631.6344257212
 31
0.0
  0
SPLINE
  5
17D
330
1F
100
AcDbEntity
  8
0
  6
CONTINUOUS
 62
     7
100
AcDbSpline
210
0.0
220
0.0
230
1.0
 70
     8
 71
     3
 72
    14
 73
    10
 74
     0
 42
0.00000001
 43
0.00000001
 40
0.0
 40
0.0
 40
0.0
 40
0.0
 40
0.25
 40
0.25
 40
0.5
 40
0.5
 40
0.75
 40
0.75
 40
1.0
 40
1.0
 40
1.0
 40
1.0
 10
954.9111811497196
 20
2636.634425747317
 30
0.0
 10
955.0336536425623
 20
2635.979927277819
 30
0.0
 10
955.1561261354045
 20
2635.32568632552
 30
0.0
 10
955.4010711210898
 20
2634.116330845462
 30
0.0
 10
955.5235436139321
 20
2633.561692147442
 30
0.0
 10
955.7684885996172
 20
2632.636091535326
 30
0.0
 10
955.8909610924596
 20
2632.265493805546
 30
0.0
 10
956.1359060781447
 20
2631.764562363975
 30
0.0
 10
956.2583785709871
 20
2631.634425747317
 30
0.0
 10
956.3808510638297
 20
2631.634425747317
 30
0.0
  0
LINE
  5
17E
330
1F
100
AcDbEntity
  8
0
  6
CONTINUOUS
 62
     7
100
AcDbLine
 10
954.3808422423
 20
2731.6344286083
 30
0.0
 11
954.3808422423
 21
2636.6344258423
 31
0.0
  0
SPLINE
  5
17F
330
1F
100
AcDbEntity
  8
0
  6
CONTINUOUS
 62
     7
100
AcDbSpline
210
0.0
220
0.0
230
1.0
 70
    24
 71
     3
 72
     8
 73
     4
 74
     0
 42
0.00000001
 43
0.00000001
 40
0.0
 40
0.0
 40
0.0
 40
0.0
 40
1.0
 40
1.0
 40
1.0
 40
1.0
 10
954.3808510638298
 20
2636.634425747317
 30
0.0
 10
953.3808510638297
 20
2636.634425747317
 30
0.0
 10
952.3808510638298
 20
2636.634425747317
 30
0.0
 10
951.3808510638298
 20
2636.634425747317
 30
0.0
  0
LINE
  5
180
330
1F
100
AcDbEntity
  8
0
  6
CONTINUOUS
 62
     7
100
AcDbLine
 10
954.3808422423
 20
2731.6344286083
 30
0.0
 11
951.3808510638
 21
2731.6344286083
 31
0.0
  0
LINE
  5
181
330
1F
100
AcDbEntity
  8
0
  6
CONTINUOUS
 62
     7
100
AcDbLine
 10
951.3808510638
 20
2731.6344286083
 30
0.0
 11
951.3808510638
 21
2636.6344258423
 31
0.0
  0
SPLINE
  5
182
330
1F
100
AcDbEntity
  8
0
  6
CONTINUOUS
 62
     7
100
AcDbSpline
210
0.0
220
0.0
230
1.0
 70
     8
 71
     3
 72
    14
 73
    10
 74
     0
 42
0.00000001
 43
0.00000001
 40
0.0
 40
0.0
 40
0.0
 40
0.0
 40
0.25
 40
0.25
 40
0.5
 40
0.5
 40
0.75
 40
0.75
 40
1.0
 40
1.0
 40
1.0
 40
1.0
 10
956.3808510638297
 20
2631.634425747317
 30
0.0
 10
955.726352594332
 20
2631.634425747317
 30
0.0
 10
955.0721116420333
 20
2631.764562363975
 30
0.0
 10
953.8627561619753
 20
2632.265493805546
 30
0.0
 10
953.3081174639551
 20
2632.636091535326
 30
0.0
 10
952.3825168518388
 20
2633.561692147442
 30
0.0
 10
952.0119191220585
 20
2634.116330845462
 30
0.0
 10
951.5109876804883
 20
2635.32568632552
 30
0.0
 10
951.3808510638298
 20
2635.979927277819
 30
0.0
 10
951.3808510638298
 20
2636.634425747317
 30
0.0
  0
SPLINE
  5
183
330
1F
100
AcDbEntity
  8
0
  6
CONTINUOUS
 62
     7
100
AcDbSpline
210
0.0
220
0.0
230
1.0
 70
     8
 71
     3
 72
    10
 73
     6
 74
     0
 42
0.00000001
 43
0.00000001
 40
0.0
 40
0.0
 40
0.0
 40
0.0
 40
0.160402305009768
 40
0.5801989598322597
 40
1.0
 40
1.0
 40
1.0
 40
1.0
 10
955.2145622111383
 20
2635.054563055855
 30
0.0
 10
955.1291136044174
 20
2635.106175455166
 30
0.0
 10
954.8200333032617
 20
2635.292865168837
 30
0.0
 10
954.4772007594304
 20
2635.858447331403
 30
0.0
 10
954.4129618598815
 20
2636.375765437999
 30
0.0
 10
954.3808422423425
 20
2636.634425842312
 30
0.0
  0
SPLINE
  5
184
330
1F
100
AcDbEntity
  8
0
  6
CONTINUOUS
 62
     7
100
AcDbSpline
210
0.0
220
0.0
230
1.0
 70
     8
 71
     3
 72
    14
 73
    10
 74
     0
 42
0.00000001
 43
0.00000001
 40
0.0
 40
0.0
 40
0.0
 40
0.0
 40
0.25
 40
0.25
 40
0.5
 40
0.5
 40
0.75
 40
0.75
 40
1.0
 40
1.0
 40
1.0
 40
1.0
 10
1946.38085106383
 20
2631.634425747317
 30
0.0
 10
1947.035463545433
 20
2631.634425747317
 30
0.0
 10
1947.689590485626
 20
2631.764562363975
 30
0.0
 10
1948.898945965684
 20
2632.265493805546
 30
0.0
 10
1949.453584663705
 20
2632.636091535326
 30
0.0
 10
1950.379185275821
 20
2633.561692147442
 30
0.0
 10
1950.749783005601
 20
2634.116330845462
 30
0.0
 10
1951.250714447171
 20
2635.32568632552
 30
0.0
 10
1951.38085106383
 20
2635.979813265714
 30
0.0
 10
1951.38085106383
 20
2636.634425747317
 30
0.0
  0
SPLINE
  5
185
330
1F
100
AcDbEntity
  8
0
  6
CONTINUOUS
 62
     7
100
AcDbSpline
210
0.0
220
0.0
230
1.0
 70
     8
 71
     3
 72
    10
 73
     6
 74
     0
 42
0.00000001
 43
0.00000001
 40
0.0
 40
0.0
 40
0.0
 40
0.0
 40
0.160402305009768
 40
0.5801989598322597
 40
1.0
 40
1.0
 40
1.0
 40
1.0
 10
1947.547139916521
 20
2635.054563055855
 30
0.0
 10
1947.632588523242
 20
2635.106175455166
 30
0.0
 10
1947.941668824398
 20
2635.292865168837
 30
0.0
 10
1948.284501368229
 20
2635.858447331403
 30
0.0
 10
1948.348740267778
 20
2636.375765437999
 30
0.0
 10
1948.380859885317
 20
2636.634425842312
 30
0.0
  0
SPLINE
  5
186
330
1F
100
AcDbEntity
  8
0
  6
CONTINUOUS
 62
     7
100
AcDbSpline
210
0.0
220
0.0
230
1.0
 70
    24
 71
     3
 72
     8
 73
     4
 74
     0
 42
0.00000001
 43
0.00000001
 40
0.0
 40
0.0
 40
0.0
 40
0.0
 40
1.0
 40
1.0
 40
1.0
 40
1.0
 10
1948.38085106383
 20
2636.634425747317
 30
0.0
 10
1949.38085106383
 20
2636.634425747317
 30
0.0
 10
1950.38085106383
 20
2636.634425747317
 30
0.0
 10
1951.38085106383
 20
2636.634425747317
 30
0.0
  0
LINE
  5
187
330
1F
100
AcDbEntity
  8
0
  6
CONTINUOUS
 62
     7
100
AcDbLine
 10
1948.3808598853
 20
2636.6344258423
 30
0.0
 11
1948.3808598853
 21
2731.6344286083
 31
0.0
  0
LINE
  5
188
330
1F
100
AcDbEntity
  8
0
  6
CONTINUOUS
 62
     7
100
AcDbLine
 10
1948.3808598853
 20
2731.6344286083
 30
0.0
 11
1951.3808510638
 21
2731.6344286083
 31
0.0
  0
LINE
  5
189
330
1F
100
AcDbEntity
  8
0
  6
CONTINUOUS
 62
     7
100
AcDbLine
 10
1951.3808510638
 20
2636.6344258423
 30
0.0
 11
1951.3808510638
 21
2731.6344286083
 31
0.0
  0
SPLINE
  5
18A
330
1F
100
AcDbEntity
  8
0
  6
CONTINUOUS
 62
     7
100
AcDbSpline
210
0.0
220
0.0
230
1.0
 70
    24
 71
     1
 72
     4
 73
     2
 74
     0
 42
0.00000001
 43
0.00000001
 40
0.0
 40
0.0
 40
1.0
 40
1.0
 10
1943.413855824572
 20
2631.63442572124
 30
0.0
 10
1915.76004246245
 20
2631.026070448679
 30
0.0
  0
SPLINE
  5
18B
330
1F
100
AcDbEntity
  8
0
  6
CONTINUOUS
 62
     7
100
AcDbSpline
210
0.0
220
0.0
230
1.0
 70
    24
 71
     1
 72
     4
 73
     2
 74
     0
 42
0.00000001
 43
0.00000001
 40
0.0
 40
0.0
 40
1.0
 40
1.0
 10
959.3478463030876
 20
2631.63442572124
 30
0.0
 10
987.0016596652092
 20
2631.026070448679
 30
0.0
  0
LINE
  5
18C
330
1F
100
AcDbEntity
  8
0
  6
CONTINUOUS
 62
     7
100
AcDbLine
 10
1481.3808503933
 20
2612.7286254197
 30
0.0
 11
1421.3808517344
 21
2612.7286254197
 31
0.0
  0
LINE
  5
18D
330
1F
100
AcDbEntity
  8
0
  6
CONTINUOUS
 62
     7
100
AcDbLine
 10
1482.3808505572
 20
2610.7286250918
 30
0.0
 11
1420.3808515705
 21
2610.7286250918
 31
0.0
  0
SPLINE
  5
18E
330
1F
100
AcDbEntity
  8
0
  6
CONTINUOUS
 62
     7
100
AcDbSpline
210
0.0
220
0.0
230
1.0
 70
    24
 71
     3
 72
    27
 73
    23
 74
     0
 42
0.00000001
 43
0.00000001
 40
0.0
 40
0.0
 40
0.0
 40
0.0
 40
0.0172604346506619
 40
0.0634549671402211
 40
0.10964261456525
 40
0.1687307469861741
 40
0.2262020858220367
 40
0.2819417003723012
 40
0.3376874620379416
 40
0.3951587218360284
 40
0.454240754917088
 40
0.5004352866336262
 40
0.5466229486891626
 40
0.5938004154339541
 40
0.6409708489228453
 40
0.6881483183077056
 40
0.7353187593764601
 40
0.7815132918660193
 40
0.8277009392910483
 40
0.8867890717119724
 40
0.9442573062790794
 40
0.9999999999999999
 40
0.9999999999999999
 40
0.9999999999999999
 40
0.9999999999999999
 10
1416.423881743055
 20
2591.72862570278
 30
0.0
 10
1416.412519211888
 20
2591.72862570278
 30
0.0
 10
1416.370746854678
 20
2591.72862570278
 30
0.0
 10
1416.672333801021
 20
2591.72862570278
 30
0.0
 10
1417.381810579845
 20
2591.72862570278
 30
0.0
 10
1418.635684372252
 20
2591.72862570278
 30
0.0
 10
1420.478953971711
 20
2591.72862570278
 30
0.0
 10
1422.759364374797
 20
2591.72862570278
 30
0.0
 10
1425.468015393618
 20
2591.72862570278
 30
0.0
 10
1428.633869350244
 20
2591.72862570278
 30
0.0
 10
1431.969642729872
 20
2591.72862570278
 30
0.0
 10
1435.314721968596
 20
2591.72862570278
 30
0.0
 10
1438.563264093402
 20
2591.72862570278
 30
0.0
 10
1441.967800543621
 20
2591.72862570278
 30
0.0
 10
1445.497221580291
 20
2591.72862570278
 30
0.0
 10
1449.088542876999
 20
2591.72862570278
 30
0.0
 10
1452.67960007754
 20
2591.72862570278
 30
0.0
 10
1456.231375920697
 20
2591.72862570278
 30
0.0
 10
1460.032969224524
 20
2591.72862570278
 30
0.0
 10
1464.000320257386
 20
2591.72862570278
 30
0.0
 10
1468.019743545721
 20
2591.72862570278
 30
0.0
 10
1470.43582887343
 20
2591.72862570278
 30
0.0
 10
1471.625458765727
 20
2591.72862570278
 30
0.0
  0
SPLINE
  5
18F
330
1F
100
AcDbEntity
  8
0
  6
CONTINUOUS
 62
     7
100
AcDbSpline
210
0.0
220
0.0
230
1.0
 70
    24
 71
     3
 72
    16
 73
    12
 74
     0
 42
0.00000001
 43
0.00000001
 40
0.0
 40
0.0
 40
0.0
 40
0.0
 40
0.1278230605134067
 40
0.2596026272366009
 40
0.3950756401460317
 40
0.5009980680860736
 40
0.6069047441363264
 40
0.7150810073428187
 40
0.8232411435422042
 40
0.931417412802281
 40
1.0
 40
1.0
 40
1.0
 40
1.0
 10
1471.625458765727
 20
2591.72862570278
 30
0.0
 10
1472.757092457855
 20
2591.72862570278
 30
0.0
 10
1475.055387291089
 20
2591.72862570278
 30
0.0
 10
1478.102715992116
 20
2591.72862570278
 30
0.0
 10
1480.598574666431
 20
2591.72862570278
 30
0.0
 10
1482.543540568758
 20
2591.72862570278
 30
0.0
 10
1484.013692835455
 20
2591.72862570278
 30
0.0
 10
1485.159418388976
 20
2591.72862570278
 30
0.0
 10
1485.935750230276
 20
2591.72862570278
 30
0.0
 10
1486.347579665291
 20
2591.72862570278
 30
0.0
 10
1486.340548487564
 20
2591.72862570278
 30
0.0
 10
1486.337820384603
 20
2591.72862570278
 30
0.0
  0
SPLINE
  5
190
330
1F
100
AcDbEntity
  8
0
  6
CONTINUOUS
 62
     7
100
AcDbSpline
210
0.0
220
0.0
230
1.0
 70
    24
 71
     3
 72
    27
 73
    23
 74
     0
 42
0.00000001
 43
0.00000001
 40
0.0
 40
0.0
 40
0.0
 40
0.0
 40
0.0557426945148739
 40
0.1132109095184095
 40
0.1722990573717493
 40
0.2184867054546373
 40
0.2646812386021538
 40
0.3118516803427654
 40
0.3590291503995832
 40
0.4061995845603315
 40
0.4533770519770804
 40
0.4995647146904761
 40
0.5457592470649715
 40
0.6048412809875473
 40
0.6623125416042078
 40
0.7180583040638455
 40
0.7737979065637917
 40
0.8312692360271777
 40
0.8903573838805175
 40
0.9365450319634057
 40
0.9827395651109221
 40
1.0
 40
1.0
 40
1.0
 40
1.0
 10
1471.625458765727
 20
2609.72862492792
 30
0.0
 10
1470.43582906104
 20
2609.72862492792
 30
0.0
 10
1468.019744549343
 20
2609.72862492792
 30
0.0
 10
1464.000318504394
 20
2609.72862492792
 30
0.0
 10
1460.032969995081
 20
2609.72862492792
 30
0.0
 10
1456.231375823839
 20
2609.72862492792
 30
0.0
 10
1452.679600104106
 20
2609.72862492792
 30
0.0
 10
1449.088542869811
 20
2609.72862492792
 30
0.0
 10
1445.497221582236
 20
2609.72862492792
 30
0.0
 10
1441.967800543028
 20
2609.72862492792
 30
0.0
 10
1438.563264093822
 20
2609.72862492792
 30
0.0
 10
1435.314721967522
 20
2609.72862492792
 30
0.0
 10
1431.969642734218
 20
2609.72862492792
 30
0.0
 10
1428.633869329224
 20
2609.72862492792
 30
0.0
 10
1425.468015468116
 20
2609.72862492792
 30
0.0
 10
1422.759364311883
 20
2609.72862492792
 30
0.0
 10
1420.478955456578
 20
2609.72862492792
 30
0.0
 10
1418.63568955951
 20
2609.72862492792
 30
0.0
 10
1417.381809611752
 20
2609.72862492792
 30
0.0
 10
1416.67233405587
 20
2609.72862492792
 30
0.0
 10
1416.370746834493
 20
2609.72862492792
 30
0.0
 10
1416.412519207574
 20
2609.72862492792
 30
0.0
 10
1416.423881743055
 20
2609.72862492792
 30
0.0
  0
SPLINE
  5
191
330
1F
100
AcDbEntity
  8
0
  6
CONTINUOUS
 62
     7
100
AcDbSpline
210
0.0
220
0.0
230
1.0
 70
    24
 71
     3
 72
    16
 73
    12
 74
     0
 42
0.00000001
 43
0.00000001
 40
0.0
 40
0.0
 40
0.0
 40
0.0
 40
0.0685825872135821
 40
0.1767588564718165
 40
0.2849189926693599
 40
0.3930952558740098
 40
0.4990019319224589
 40
0.6049243598606967
 40
0.7403973727678204
 40
0.8721769394887703
 40
1.0
 40
1.0
 40
1.0
 40
1.0
 10
1486.337820384603
 20
2609.72862492792
 30
0.0
 10
1486.340548487569
 20
2609.72862492792
 30
0.0
 10
1486.34757966531
 20
2609.72862492792
 30
0.0
 10
1485.935750230278
 20
2609.72862492792
 30
0.0
 10
1485.159418388975
 20
2609.72862492792
 30
0.0
 10
1484.013692835455
 20
2609.72862492792
 30
0.0
 10
1482.543540568758
 20
2609.72862492792
 30
0.0
 10
1480.598574666431
 20
2609.72862492792
 30
0.0
 10
1478.102715992116
 20
2609.72862492792
 30
0.0
 10
1475.055387291089
 20
2609.72862492792
 30
0.0
 10
1472.757092457855
 20
2609.72862492792
 30
0.0
 10
1471.625458765727
 20
2609.72862492792
 30
0.0
  0
LINE
  5
192
330
1F
100
AcDbEntity
  8
0
  6
CONTINUOUS
 62
     7
100
AcDbLine
 10
1430.4258509911
 20
2530.4591635942
 30
0.0
 11
1472.3358511365
 21
2530.4591635942
 31
0.0
  0
LINE
  5
193
330
1F
100
AcDbEntity
  8
0
  6
CONTINUOUS
 62
     7
100
AcDbLine
 10
1431.9058510847
 20
2529.4591690182
 30
0.0
 11
1470.855851043
 21
2529.4591690182
 31
0.0
  0
LINE
  5
194
330
1F
100
AcDbEntity
  8
0
  6
CONTINUOUS
 62
     7
100
AcDbLine
 10
969.3808577395
 20
2631.4136279981
 30
0.0
 11
969.3808577395
 21
2621.6344254791
 31
0.0
  0
LINE
  5
195
330
1F
100
AcDbEntity
  8
0
  6
CONTINUOUS
 62
     7
100
AcDbLine
 10
1933.3808443881
 20
2631.4136279981
 30
0.0
 11
1933.3808443881
 21
2621.6344254791
 31
0.0
  0
LINE
  5
196
330
1F
100
AcDbEntity
  8
0
  6
CONTINUOUS
 62
     7
100
AcDbLine
 10
969.3808577395
 20
2621.6344254791
 30
0.0
 11
1933.3808443881
 21
2621.6344254791
 31
0.0
  0
LINE
  5
197
330
1F
100
AcDbEntity
  8
0
  6
CONTINUOUS
 62
     7
100
AcDbLine
 10
1415.9610405005
 20
2619.820331107
 30
0.0
 11
1486.8006616272
 21
2619.820331107
 31
0.0
  0
LINE
  5
198
330
1F
100
AcDbEntity
  8
0
  6
CONTINUOUS
 62
     7
100
AcDbLine
 10
1423.6991147883
 20
2613.8068287402
 30
0.0
 11
1479.0625873394
 21
2613.8068287402
 31
0.0
  0
LINE
  5
199
330
1F
100
AcDbEntity
  8
0
  6
CONTINUOUS
 62
     7
100
AcDbLine
 10
1422.4220461584
 20
2592.2286267161
 30
0.0
 11
1486.8808522261
 21
2592.2286267161
 31
0.0
  0
LINE
  5
19A
330
1F
100
AcDbEntity
  8
0
  6
CONTINUOUS
 62
     7
100
AcDbLine
 10
1415.8808499015
 20
2592.2286267161
 30
0.0
 11
1422.4220461584
 21
2592.2286267161
 31
0.0
  0
LINE
  5
19B
330
1F
100
AcDbEntity
  8
0
  6
CONTINUOUS
 62
     7
100
AcDbLine
 10
1422.4220461584
 20
2609.2286257773
 30
0.0
 11
1415.8808499015
 21
2609.2286257773
 31
0.0
  0
LINE
  5
19C
330
1F
100
AcDbEntity
  8
0
  6
CONTINUOUS
 62
     7
100
AcDbLine
 10
1486.8808522261
 20
2609.2286257773
 30
0.0
 11
1422.4220461584
 21
2609.2286257773
 31
0.0
  0
DIMENSION
  5
19D
330
1F
100
AcDbEntity
  8
0
  6
CONTINUOUS
 62
     7
100
AcDbDimension
  2
*D6
 10
951.3808510638
 20
2792.1139912833
 30
0.0
 11
1191.366750242
 21
2792.1139912833
 31
0.0
 70
   160
  3
SLDDIMSTYLE1
100
AcDbAlignedDimension
 13
1451.3808510638
 23
2758.5204140692
 33
0.0
 14
951.3808510638
 24
2731.6344257473
 34
0.0
100
AcDbRotatedDimension
  0
CIRCLE
  5
1A7
330
1F
100
AcDbEntity
  8
0
  6
CONTINUOUS
 62
     7
100
AcDbCircle
 10
613.4617021277
 20
1827.785106383
 30
0.0
 40
32.50000000000007
  0
LINE
  5
1A8
330
1F
100
AcDbEntity
  8
0
  6
CONTINUOUS
 62
     7
100
AcDbLine
 10
797.961696048
 20
1331.3154298884
 30
0.0
 11
800.9617021277
 21
1331.3154298884
 31
0.0
  0
LINE
  5
1A9
330
1F
100
AcDbEntity
  8
0
  6
CONTINUOUS
 62
     7
100
AcDbLine
 10
797.961696048
 20
2324.2547828776
 30
0.0
 11
800.9617021277
 21
2324.2547828776
 31
0.0
  0
LINE
  5
1AA
330
1F
100
AcDbEntity
  8
0
  6
CONTINUOUS
 62
     7
100
AcDbLine
 10
797.961696048
 20
1331.3154298884
 30
0.0
 11
797.961696048
 21
2324.2547828776
 31
0.0
  0
LINE
  5
1AB
330
1F
100
AcDbEntity
  8
0
  6
CONTINUOUS
 62
     7
100
AcDbLine
 10
800.9617021277
 20
1331.3154298884
 30
0.0
 11
800.9617021277
 21
2324.2547828776
 31
0.0
  0
LINE
  5
1AC
330
1F
100
AcDbEntity
  8
0
  6
CONTINUOUS
 62
     7
100
AcDbLine
 10
428.9617082073
 20
1331.3154298884
 30
0.0
 11
425.9617021277
 21
1331.3154298884
 31
0.0
  0
LINE
  5
1AD
330
1F
100
AcDbEntity
  8
0
  6
CONTINUOUS
 62
     7
100
AcDbLine
 10
425.9617021277
 20
2324.2547828776
 30
0.0
 11
425.9617021277
 21
1331.3154298884
 31
0.0
  0
LINE
  5
1AE
330
1F
100
AcDbEntity
  8
0
  6
CONTINUOUS
 62
     7
100
AcDbLine
 10
428.9617082073
 20
2324.2547828776
 30
0.0
 11
428.9617082073
 21
1331.3154298884
 31
0.0
  0
LINE
  5
1AF
330
1F
100
AcDbEntity
  8
0
  6
CONTINUOUS
 62
     7
100
AcDbLine
 10
428.9617082073
 20
2324.2547828776
 30
0.0
 11
425.9617021277
 21
2324.2547828776
 31
0.0
  0
LINE
  5
1B0
330
1F
100
AcDbEntity
  8
0
  6
CONTINUOUS
 62
     7
100
AcDbLine
 10
797.4313786223
 20
2324.7851152045
 30
0.0
 11
429.4920256331
 21
2324.7851152045
 31
0.0
  0
LINE
  5
1B1
330
1F
100
AcDbEntity
  8
0
  6
CONTINUOUS
 62
     7
100
AcDbLine
 10
429.4920256331
 20
2324.7851152045
 30
0.0
 11
429.4920256331
 21
2327.785106383
 31
0.0
  0
LINE
  5
1B2
330
1F
100
AcDbEntity
  8
0
  6
CONTINUOUS
 62
     7
100
AcDbLine
 10
797.4313786223
 20
2324.7851152045
 30
0.0
 11
797.4313786223
 21
2327.785106383
 31
0.0
  0
LINE
  5
1B3
330
1F
100
AcDbEntity
  8
0
  6
CONTINUOUS
 62
     7
100
AcDbLine
 10
797.4313786223
 20
2327.785106383
 30
0.0
 11
429.4920256331
 21
2327.785106383
 31
0.0
  0
LINE
  5
1B4
330
1F
100
AcDbEntity
  8
0
  6
CONTINUOUS
 62
     7
100
AcDbLine
 10
429.4920256331
 20
1330.7850975615
 30
0.0
 11
797.4313786223
 21
1330.7850975615
 31
0.0
  0
LINE
  5
1B5
330
1F
100
AcDbEntity
  8
0
  6
CONTINUOUS
 62
     7
100
AcDbLine
 10
429.4920256331
 20
1330.7850975615
 30
0.0
 11
429.4920256331
 21
1327.785106383
 31
0.0
  0
LINE
  5
1B6
330
1F
100
AcDbEntity
  8
0
  6
CONTINUOUS
 62
     7
100
AcDbLine
 10
429.4920256331
 20
1327.785106383
 30
0.0
 11
797.4313786223
 21
1327.785106383
 31
0.0
  0
LINE
  5
1B7
330
1F
100
AcDbEntity
  8
0
  6
CONTINUOUS
 62
     7
100
AcDbLine
 10
797.4313786223
 20
1330.7850975615
 30
0.0
 11
797.4313786223
 21
1327.785106383
 31
0.0
  0
LINE
  5
1B8
330
1F
100
AcDbEntity
  8
0
  6
CONTINUOUS
 62
     7
100
AcDbLine
 10
795.961706896
 20
2322.7851111513
 30
0.0
 11
430.9616973593
 21
2322.7851111513
 31
0.0
  0
SPLINE
  5
1B9
330
1F
100
AcDbEntity
  8
0
  6
CONTINUOUS
 62
     7
100
AcDbSpline
210
0.0
220
0.0
230
1.0
 70
     8
 71
     3
 72
    14
 73
    10
 74
     0
 42
0.00000001
 43
0.00000001
 40
0.0
 40
0.0
 40
0.0
 40
0.0
 40
0.25
 40
0.25
 40
0.5
 40
0.5
 40
0.75
 40
0.75
 40
1.0
 40
1.0
 40
1.0
 40
1.0
 10
430.9617021276592
 20
2322.785106382978
 30
0.0
 10
430.8392115181346
 20
2323.046944497321
 30
0.0
 10
430.7167571419743
 20
2323.308602151697
 30
0.0
 10
430.4718121562892
 20
2323.79234434372
 30
0.0
 10
430.3493396634467
 20
2324.014199822928
 30
0.0
 10
430.1043946777617
 20
2324.384440067774
 30
0.0
 10
429.9819221849191
 20
2324.532679159687
 30
0.0
 10
429.7369771992342
 20
2324.733051736315
 30
0.0
 10
429.6145228230739
 20
2324.785106382978
 30
0.0
 10
429.4920322135491
 20
2324.785106382978
 30
0.0
  0
SPLINE
  5
1BA
330
1F
100
AcDbEntity
  8
0
  6
CONTINUOUS
 62
     7
100
AcDbSpline
210
0.0
220
0.0
230
1.0
 70
     8
 71
     3
 72
    14
 73
    10
 74
     0
 42
0.00000001
 43
0.00000001
 40
0.0
 40
0.0
 40
0.0
 40
0.0
 40
0.25
 40
0.25
 40
0.5
 40
0.5
 40
0.75
 40
0.75
 40
1.0
 40
1.0
 40
1.0
 40
1.0
 10
795.9617021276591
 20
2322.785106382978
 30
0.0
 10
796.0841746205015
 20
2323.046905770777
 30
0.0
 10
796.2066471133442
 20
2323.308602151697
 30
0.0
 10
796.4515920990291
 20
2323.79234434372
 30
0.0
 10
796.5740645918714
 20
2324.014199822928
 30
0.0
 10
796.8190095775564
 20
2324.384440067774
 30
0.0
 10
796.941482070399
 20
2324.532679159687
 30
0.0
 10
797.186427056084
 20
2324.733051736315
 30
0.0
 10
797.3088995489265
 20
2324.785106382978
 30
0.0
 10
797.4313720417689
 20
2324.785106382978
 30
0.0
  0
LINE
  5
1BB
330
1F
100
AcDbEntity
  8
0
  6
CONTINUOUS
 62
     7
100
AcDbLine
 10
795.961706896
 20
1332.7851016146
 30
0.0
 11
795.961706896
 21
2322.7851111513
 31
0.0
  0
SPLINE
  5
1BC
330
1F
100
AcDbEntity
  8
0
  6
CONTINUOUS
 62
     7
100
AcDbSpline
210
0.0
220
0.0
230
1.0
 70
     8
 71
     3
 72
    14
 73
    10
 74
     0
 42
0.00000001
 43
0.00000001
 40
0.0
 40
0.0
 40
0.0
 40
0.0
 40
0.25
 40
0.25
 40
0.5
 40
0.5
 40
0.75
 40
0.75
 40
1.0
 40
1.0
 40
1.0
 40
1.0
 10
795.9617021276592
 20
1332.785106382978
 30
0.0
 10
796.2235015154585
 20
1332.662633890136
 30
0.0
 10
796.4851978963778
 20
1332.540161397293
 30
0.0
 10
796.9689400884012
 20
1332.295216411608
 30
0.0
 10
797.1907955676091
 20
1332.172743918765
 30
0.0
 10
797.5610358124557
 20
1331.927798933081
 30
0.0
 10
797.7092749043678
 20
1331.805326440238
 30
0.0
 10
797.9096474809959
 20
1331.560381454553
 30
0.0
 10
797.9617021276594
 20
1331.437908961711
 30
0.0
 10
797.9617021276594
 20
1331.315436468868
 30
0.0
  0
SPLINE
  5
1BD
330
1F
100
AcDbEntity
  8
0
  6
CONTINUOUS
 62
     7
100
AcDbSpline
210
0.0
220
0.0
230
1.0
 70
     8
 71
     3
 72
    14
 73
    10
 74
     0
 42
0.00000001
 43
0.00000001
 40
0.0
 40
0.0
 40
0.0
 40
0.0
 40
0.25
 40
0.25
 40
0.5
 40
0.5
 40
0.75
 40
0.75
 40
1.0
 40
1.0
 40
1.0
 40
1.0
 10
797.961702127659
 20
2324.254776297088
 30
0.0
 10
797.9617021276589
 20
2324.132303804246
 30
0.0
 10
797.9096474809957
 20
2324.009831311404
 30
0.0
 10
797.7092749043674
 20
2323.764886325718
 30
0.0
 10
797.5610358124553
 20
2323.642413832876
 30
0.0
 10
797.1907955676088
 20
2323.397468847191
 30
0.0
 10
796.9689400884007
 20
2323.274996354348
 30
0.0
 10
796.4851978963775
 20
2323.030051368663
 30
0.0
 10
796.2235015154581
 20
2322.907578875821
 30
0.0
 10
795.961702127659
 20
2322.785106382978
 30
0.0
  0
LINE
  5
1BE
330
1F
100
AcDbEntity
  8
0
  6
CONTINUOUS
 62
     7
100
AcDbLine
 10
430.9616973593
 20
2322.7851111513
 30
0.0
 11
430.9616973593
 21
1332.7851016146
 31
0.0
  0
SPLINE
  5
1BF
330
1F
100
AcDbEntity
  8
0
  6
CONTINUOUS
 62
     7
100
AcDbSpline
210
0.0
220
0.0
230
1.0
 70
     8
 71
     3
 72
    14
 73
    10
 74
     0
 42
0.00000001
 43
0.00000001
 40
0.0
 40
0.0
 40
0.0
 40
0.0
 40
0.25
 40
0.25
 40
0.5
 40
0.5
 40
0.75
 40
0.75
 40
1.0
 40
1.0
 40
1.0
 40
1.0
 10
428.9617021276593
 20
1331.315436468868
 30
0.0
 10
428.9617021276593
 20
1331.437908961711
 30
0.0
 10
429.0137567743225
 20
1331.560381454553
 30
0.0
 10
429.2141293509508
 20
1331.805326440238
 30
0.0
 10
429.3623684428629
 20
1331.927798933081
 30
0.0
 10
429.7326086877094
 20
1332.172743918765
 30
0.0
 10
429.9544641669174
 20
1332.295216411608
 30
0.0
 10
430.4382063589407
 20
1332.540161397293
 30
0.0
 10
430.69990273986
 20
1332.662633890135
 30
0.0
 10
430.9617021276592
 20
1332.785106382978
 30
0.0
  0
SPLINE
  5
1C0
330
1F
100
AcDbEntity
  8
0
  6
CONTINUOUS
 62
     7
100
AcDbSpline
210
0.0
220
0.0
230
1.0
 70
     8
 71
     3
 72
    14
 73
    10
 74
     0
 42
0.00000001
 43
0.00000001
 40
0.0
 40
0.0
 40
0.0
 40
0.0
 40
0.25
 40
0.25
 40
0.5
 40
0.5
 40
0.75
 40
0.75
 40
1.0
 40
1.0
 40
1.0
 40
1.0
 10
428.9617021276593
 20
2324.254776297088
 30
0.0
 10
428.9617021276593
 20
2324.132285687564
 30
0.0
 10
429.0137567743225
 20
2324.009831311404
 30
0.0
 10
429.2141293509507
 20
2323.764886325719
 30
0.0
 10
429.3623684428628
 20
2323.642413832876
 30
0.0
 10
429.7326086877094
 20
2323.397468847191
 30
0.0
 10
429.9544641669174
 20
2323.274996354348
 30
0.0
 10
430.4382063589407
 20
2323.030051368663
 30
0.0
 10
430.6998640133168
 20
2322.907596992503
 30
0.0
 10
430.9617021276592
 20
2322.785106382978
 30
0.0
  0
LINE
  5
1C1
330
1F
100
AcDbEntity
  8
0
  6
CONTINUOUS
 62
     7
100
AcDbLine
 10
430.9616973593
 20
1332.7851016146
 30
0.0
 11
795.961706896
 21
1332.7851016146
 31
0.0
  0
SPLINE
  5
1C2
330
1F
100
AcDbEntity
  8
0
  6
CONTINUOUS
 62
     7
100
AcDbSpline
210
0.0
220
0.0
230
1.0
 70
     8
 71
     3
 72
    14
 73
    10
 74
     0
 42
0.00000001
 43
0.00000001
 40
0.0
 40
0.0
 40
0.0
 40
0.0
 40
0.25
 40
0.25
 40
0.5
 40
0.5
 40
0.75
 40
0.75
 40
1.0
 40
1.0
 40
1.0
 40
1.0
 10
430.9617021276592
 20
1332.785106382978
 30
0.0
 10
430.8392296348168
 20
1332.523306995179
 30
0.0
 10
430.7167571419743
 20
1332.26161061426
 30
0.0
 10
430.4718121562893
 20
1331.777868422236
 30
0.0
 10
430.3493396634467
 20
1331.556012943028
 30
0.0
 10
430.1043946777616
 20
1331.185772698182
 30
0.0
 10
429.9819221849191
 20
1331.03753360627
 30
0.0
 10
429.7369771992341
 20
1330.837161029641
 30
0.0
 10
429.6145047063916
 20
1330.785106382978
 30
0.0
 10
429.4920322135491
 20
1330.785106382978
 30
0.0
  0
SPLINE
  5
1C3
330
1F
100
AcDbEntity
  8
0
  6
CONTINUOUS
 62
     7
100
AcDbSpline
210
0.0
220
0.0
230
1.0
 70
     8
 71
     3
 72
    14
 73
    10
 74
     0
 42
0.00000001
 43
0.00000001
 40
0.0
 40
0.0
 40
0.0
 40
0.0
 40
0.25
 40
0.25
 40
0.5
 40
0.5
 40
0.75
 40
0.75
 40
1.0
 40
1.0
 40
1.0
 40
1.0
 10
797.4313720417695
 20
1330.785106382978
 30
0.0
 10
797.3088995489269
 20
1330.785106382978
 30
0.0
 10
797.1864270560844
 20
1330.837161029641
 30
0.0
 10
796.9414820703994
 20
1331.03753360627
 30
0.0
 10
796.8190095775568
 20
1331.185772698182
 30
0.0
 10
796.5740645918719
 20
1331.556012943029
 30
0.0
 10
796.4515920990293
 20
1331.777868422236
 30
0.0
 10
796.2066471133443
 20
1332.26161061426
 30
0.0
 10
796.0841746205018
 20
1332.523306995179
 30
0.0
 10
795.9617021276592
 20
1332.785106382978
 30
0.0
  0
LINE
  5
1C4
330
1F
100
AcDbEntity
  8
0
  6
CONTINUOUS
 62
     7
100
AcDbLine
 10
792.9617008164
 20
1335.7850927931
 30
0.0
 11
433.961703439
 21
1335.7850927931
 31
0.0
  0
LINE
  5
1C5
330
1F
100
AcDbEntity
  8
0
  6
CONTINUOUS
 62
     7
100
AcDbLine
 10
792.9617008164
 20
2319.7851199728
 30
0.0
 11
792.9617008164
 21
1335.7850927931
 31
0.0
  0
LINE
  5
1C6
330
1F
100
AcDbEntity
  8
0
  6
CONTINUOUS
 62
     7
100
AcDbLine
 10
433.961703439
 20
2319.7851199728
 30
0.0
 11
792.9617008164
 21
2319.7851199728
 31
0.0
  0
LINE
  5
1C7
330
1F
100
AcDbEntity
  8
0
  6
CONTINUOUS
 62
     7
100
AcDbLine
 10
433.961703439
 20
1335.7850927931
 30
0.0
 11
433.961703439
 21
2319.7851199728
 31
0.0
  0
LINE
  5
1C8
330
1F
100
AcDbEntity
  8
0
  6
CONTINUOUS
 62
     7
100
AcDbLine
 10
627.119867128
 20
1865.2214128596
 30
0.0
 11
792.9617008164
 21
2319.7851199728
 31
0.0
  0
ARC
  5
1C9
330
1F
100
AcDbEntity
  8
0
  6
CONTINUOUS
 62
     7
100
AcDbCircle
 10
613.4617021277
 20
1827.785106383
 30
0.0
 40
39.85000000000014
100
AcDbArc
 50
69.9561394118
 51
110.0438605883
  0
LINE
  5
1CA
330
1F
100
AcDbEntity
  8
0
  6
CONTINUOUS
 62
     7
100
AcDbLine
 10
433.961703439
 20
2319.7851199728
 30
0.0
 11
599.8035371273
 21
1865.2214128596
 31
0.0
  0
LINE
  5
1CB
330
1F
100
AcDbEntity
  8
0
  6
CONTINUOUS
 62
     7
100
AcDbLine
 10
792.9617008164
 20
1335.7850927931
 30
0.0
 11
627.119867128
 21
1790.3487999064
 31
0.0
  0
ARC
  5
1CC
330
1F
100
AcDbEntity
  8
0
  6
CONTINUOUS
 62
     7
100
AcDbCircle
 10
613.4617021277
 20
1827.785106383
 30
0.0
 40
39.84999999999984
100
AcDbArc
 50
290.0438605883
 51
311.0605967458
  0
ARC
  5
1CD
330
1F
100
AcDbEntity
  8
0
  6
CONTINUOUS
 62
     7
100
AcDbCircle
 10
613.4617021277
 20
1827.785106383
 30
0.0
 40
39.85000000000005
100
AcDbArc
 50
311.0605967458
 51
330.3857959168
  0
ARC
  5
1CE
330
1F
100
AcDbEntity
  8
0
  6
CONTINUOUS
 62
     7
100
AcDbCircle
 10
613.4617021277
 20
1827.785106383
 30
0.0
 40
39.85000000000005
100
AcDbArc
 50
330.3857959168
 51
19.842544526
  0
ARC
  5
1CF
330
1F
100
AcDbEntity
  8
0
  6
CONTINUOUS
 62
     7
100
AcDbCircle
 10
613.4617021277
 20
1827.785106383
 30
0.0
 40
39.85000000000014
100
AcDbArc
 50
19.842544526
 51
69.9561394118
  0
ARC
  5
1D0
330
1F
100
AcDbEntity
  8
0
  6
CONTINUOUS
 62
     7
100
AcDbCircle
 10
613.4617021277
 20
1827.785106383
 30
0.0
 40
39.85000000000011
100
AcDbArc
 50
110.0438605883
 51
131.0605967458
  0
ARC
  5
1D1
330
1F
100
AcDbEntity
  8
0
  6
CONTINUOUS
 62
     7
100
AcDbCircle
 10
613.4617021277
 20
1827.785106383
 30
0.0
 40
39.85000000000011
100
AcDbArc
 50
131.0605967458
 51
150.3857959168
  0
ARC
  5
1D2
330
1F
100
AcDbEntity
  8
0
  6
CONTINUOUS
 62
     7
100
AcDbCircle
 10
613.4617021277
 20
1827.785106383
 30
0.0
 40
39.85000000000002
100
AcDbArc
 50
150.3857959168
 51
199.842544526
  0
ARC
  5
1D3
330
1F
100
AcDbEntity
  8
0
  6
CONTINUOUS
 62
     7
100
AcDbCircle
 10
613.4617021277
 20
1827.785106383
 30
0.0
 40
39.84999999999992
100
AcDbArc
 50
199.842544526
 51
249.9561394118
  0
LINE
  5
1D4
330
1F
100
AcDbEntity
  8
0
  6
CONTINUOUS
 62
     7
100
AcDbLine
 10
433.961703439
 20
1335.7850927931
 30
0.0
 11
599.8035371273
 21
1790.3487999064
 31
0.0
  0
ARC
  5
1D5
330
1F
100
AcDbEntity
  8
0
  6
CONTINUOUS
 62
     7
100
AcDbCircle
 10
613.4617021277
 20
1827.785106383
 30
0.0
 40
39.84999999999992
100
AcDbArc
 50
249.9561394118
 51
270.0
  0
SPLINE
  5
1D6
330
1F
100
AcDbEntity
  8
0
  6
CONTINUOUS
 62
     7
100
AcDbSpline
210
0.0
220
0.0
230
1.0
 70
     8
 71
     3
 72
    10
 73
     6
 74
     0
 42
0.00000001
 43
0.00000001
 40
0.0
 40
0.0
 40
0.0
 40
0.0
 40
0.5000000000000001
 40
0.5000000000000001
 40
1.0
 40
1.0
 40
1.0
 40
1.0
 10
613.4617021276591
 20
1787.935106156903
 30
0.0
 10
615.7851654373035
 20
1787.935106156903
 30
0.0
 10
618.1085925504331
 20
1788.138827753475
 30
0.0
 10
622.6846127202749
 20
1788.947509650301
 30
0.0
 10
624.9371344885874
 20
1789.55245735235
 30
0.0
 10
627.119866845533
 20
1790.348799746805
 30
0.0
  0
CIRCLE
  5
1D7
330
1F
100
AcDbEntity
  8
0
  6
CONTINUOUS
 62
     7
100
AcDbCircle
 10
613.4617021277
 20
1827.785106383
 30
0.0
 40
34.37224703925654
  0
CIRCLE
  5
1D8
330
1F
100
AcDbEntity
  8
0
  6
CONTINUOUS
 62
     7
100
AcDbCircle
 10
613.4617021277
 20
1827.785106383
 30
0.0
 40
31.66487566133207
  0
DIMENSION
  5
1D9
330
1F
100
AcDbEntity
  8
0
  6
CONTINUOUS
 62
     7
100
AcDbDimension
  2
*D7
 10
800.9617021277
 20
2393.5578329704
 30
0.0
 11
612.7182064524
 21
2393.5578329704
 31
0.0
 70
   160
  3
SLDDIMSTYLE1
100
AcDbAlignedDimension
 13
425.9617021277
 23
2324.2547762971
 33
0.0
 14
800.9617021277
 24
2324.2547762971
 34
0.0
100
AcDbRotatedDimension
  0
DIMENSION
  5
1E3
330
1F
100
AcDbEntity
  8
0
  6
CONTINUOUS
 62
     7
100
AcDbDimension
  2
*D8
 10
881.042990662
 20
2327.785106383
 30
0.0
 11
881.042990662
 21
2290.2321601031
 31
0.0
 70
   160
  3
SLDDIMSTYLE1
100
AcDbAlignedDimension
 13
797.4313720418
 23
2324.785106383
 33
0.0
 14
797.4313720418
 24
2327.785106383
 34
0.0
 50
90.0
100
AcDbRotatedDimension
  0
DIMENSION
  5
1EE
330
1F
100
AcDbEntity
  8
0
  6
CONTINUOUS
 62
     7
100
AcDbDimension
  2
*D9
 10
993.316639306
 20
1327.785106383
 30
0.0
 11
993.316639306
 21
1814.9974095273
 31
0.0
 70
   160
  3
SLDDIMSTYLE1
100
AcDbAlignedDimension
 13
797.4313720418
 23
2327.785106383
 33
0.0
 14
797.4313720418
 24
1327.785106383
 34
0.0
 50
90.0
100
AcDbRotatedDimension
  0
DIMENSION
  5
1F8
330
1F
100
AcDbEntity
  8
0
  6
CONTINUOUS
 62
     7
100
AcDbDimension
  2
*D10
 10
881.042990662
 20
1327.785106383
 30
0.0
 11
881.042990662
 21
1374.0824316345
 31
0.0
 70
   160
  3
SLDDIMSTYLE1
100
AcDbAlignedDimension
 13
797.4313720418
 23
1330.785106383
 33
0.0
 14
797.4313720418
 24
1327.785106383
 34
0.0
 50
90.0
100
AcDbRotatedDimension
  0
ENDSEC
  0
SECTION
  2
OBJECTS
  0
DICTIONARY
  5
C
330
0
100
AcDbDictionary
  3
ACAD_GROUP
350
D
  3
ACAD_LAYOUT
350
1A
  3
ACAD_MLINESTYLE
350
17
  3
ACAD_PLOTSETTINGS
350
19
  3
ACDBHEADERROUNDTRIPXREC
350
203
  0
DICTIONARY
  5
D
102
{ACAD_REACTORS
330
C
102
}
330
C
100
AcDbDictionary
  0
DICTIONARY
  5
1A
102
{ACAD_REACTORS
330
C
102
}
330
C
100
AcDbDictionary
  0
DICTIONARY
  5
17
102
{ACAD_REACTORS
330
C
102
}
330
C
100
AcDbDictionary
  3
STANDARD
350
18
  0
DICTIONARY
  5
19
102
{ACAD_REACTORS
330
C
102
}
330
C
100
AcDbDictionary
  0
DICTIONARY
  5
203
102
{ACAD_REACTORS
330
C
102
}
330
C
100
AcDbDictionary
  3
CEPSNTYPE
350
20C
  3
DIMSTYLEDATA
350
222
  3
FINGERPRINTGUID
350
20D
  3
HYPERLINKBASE
350
206
  3
INSUNITS
350
20B
  3
LAYOUTDICT
350
208
  3
LWETCUNION
350
20A
  3
PLOTSETDICT
350
209
  3
PSVPSCALE
350
20F
  3
PUCSBASE
350
212
  3
PUCSORGBACK
350
218
  3
PUCSORGBOTTOM
350
214
  3
PUCSORGFRONT
350
217
  3
PUCSORGLEFT
350
215
  3
PUCSORGRIGHT
350
216
  3
PUCSORGTOP
350
213
  3
PUCSORTHOREF
350
210
  3
PUCSORTHOVIEW
350
211
  3
STYLESHEET
350
207
  3
TSTACKALIGN
350
204
  3
TSTACKSIZE
350
205
  3
UCSBASE
350
21B
  3
UCSORGBACK
350
221
  3
UCSORGBOTTOM
350
21D
  3
UCSORGFRONT
350
220
  3
UCSORGLEFT
350
21E
  3
UCSORGRIGHT
350
21F
  3
UCSORGTOP
350
21C
  3
UCSORTHOREF
350
219
  3
UCSORTHOVIEW
350
21A
  3
VERSIONGUID
350
20E
  0
MLINESTYLE
  5
18
102
{ACAD_REACTORS
330
17
102
}
330
17
100
AcDbMlineStyle
  2
Standard
 70
     0
  3

 62
   256
 51
90.0
 52
90.0
 71
     2
 49
0.5
 62
   256
  6
BYLAYER
 49
-0.5
 62
   256
  6
BYLAYER
  0
XRECORD
  5
20C
102
{ACAD_REACTORS
330
203
102
}
330
203
100
AcDbXrecord
 90
        0
  0
XRECORD
  5
222
102
{ACAD_REACTORS
330
203
102
}
330
203
100
AcDbXrecord
1000
DSTYLE
1002
{
1070
   143
 40
0.0393700787
1070
    41
 40
25.0
1070
    44
 40
10.0
1070
    42
 40
0.05
1070
   147
 40
15.24
1070
    73
 70
     1
1070
    74
 70
     1
1070
   340
340
11
1070
   140
 40
35.0
1070
   284
 70
     0
1070
    78
 70
     0
1002
}
  0
XRECORD
  5
20D
102
{ACAD_REACTORS
330
203
102
}
330
203
100
AcDbXrecord
  1
{4B8965C3-33AF-4DB2-8DCE-19F6792AC66F}
  0
XRECORD
  5
206
102
{ACAD_REACTORS
330
203
102
}
330
203
100
AcDbXrecord
  1

  0
XRECORD
  5
20B
102
{ACAD_REACTORS
330
203
102
}
330
203
100
AcDbXrecord
 90
        4
  0
XRECORD
  5
208
102
{ACAD_REACTORS
330
203
102
}
330
203
100
AcDbXrecord
340
1A
  0
XRECORD
  5
20A
102
{ACAD_REACTORS
330
203
102
}
330
203
100
AcDbXrecord
 90
    10269
  0
XRECORD
  5
209
102
{ACAD_REACTORS
330
203
102
}
330
203
100
AcDbXrecord
340
19
  0
XRECORD
  5
20F
102
{ACAD_REACTORS
330
203
102
}
330
203
100
AcDbXrecord
 40
0.0
  0
XRECORD
  5
212
102
{ACAD_REACTORS
330
203
102
}
330
203
100
AcDbXrecord
340
0
  0
XRECORD
  5
218
102
{ACAD_REACTORS
330
203
102
}
330
203
100
AcDbXrecord
 10
0.0
 20
0.0
 30
0.0
  0
XRECORD
  5
214
102
{ACAD_REACTORS
330
203
102
}
330
203
100
AcDbXrecord
 10
0.0
 20
0.0
 30
0.0
  0
XRECORD
  5
217
102
{ACAD_REACTORS
330
203
102
}
330
203
100
AcDbXrecord
 10
0.0
 20
0.0
 30
0.0
  0
XRECORD
  5
215
102
{ACAD_REACTORS
330
203
102
}
330
203
100
AcDbXrecord
 10
0.0
 20
0.0
 30
0.0
  0
XRECORD
  5
216
102
{ACAD_REACTORS
330
203
102
}
330
203
100
AcDbXrecord
 10
0.0
 20
0.0
 30
0.0
  0
XRECORD
  5
213
102
{ACAD_REACTORS
330
203
102
}
330
203
100
AcDbXrecord
 10
0.0
 20
0.0
 30
0.0
  0
XRECORD
  5
210
102
{ACAD_REACTORS
330
203
102
}
330
203
100
AcDbXrecord
340
0
  0
XRECORD
  5
211
102
{ACAD_REACTORS
330
203
102
}
330
203
100
AcDbXrecord
 70
     0
  0
XRECORD
  5
207
102
{ACAD_REACTORS
330
203
102
}
330
203
100
AcDbXrecord
  1

  0
XRECORD
  5
204
102
{ACAD_REACTORS
330
203
102
}
330
203
100
AcDbXrecord
 90
        1
  0
XRECORD
  5
205
102
{ACAD_REACTORS
330
203
102
}
330
203
100
AcDbXrecord
 90
       70
  0
XRECORD
  5
21B
102
{ACAD_REACTORS
330
203
102
}
330
203
100
AcDbXrecord
340
0
  0
XRECORD
  5
221
102
{ACAD_REACTORS
330
203
102
}
330
203
100
AcDbXrecord
 10
0.0
 20
0.0
 30
0.0
  0
XRECORD
  5
21D
102
{ACAD_REACTORS
330
203
102
}
330
203
100
AcDbXrecord
 10
0.0
 20
0.0
 30
0.0
  0
XRECORD
  5
220
102
{ACAD_REACTORS
330
203
102
}
330
203
100
AcDbXrecord
 10
0.0
 20
0.0
 30
0.0
  0
XRECORD
  5
21E
102
{ACAD_REACTORS
330
203
102
}
330
203
100
AcDbXrecord
 10
0.0
 20
0.0
 30
0.0
  0
XRECORD
  5
21F
102
{ACAD_REACTORS
330
203
102
}
330
203
100
AcDbXrecord
 10
0.0
 20
0.0
 30
0.0
  0
XRECORD
  5
21C
102
{ACAD_REACTORS
330
203
102
}
330
203
100
AcDbXrecord
 10
0.0
 20
0.0
 30
0.0
  0
XRECORD
  5
219
102
{ACAD_REACTORS
330
203
102
}
330
203
100
AcDbXrecord
340
0
  0
XRECORD
  5
21A
102
{ACAD_REACTORS
330
203
102
}
330
203
100
AcDbXrecord
 70
     0
  0
XRECORD
  5
20E
102
{ACAD_REACTORS
330
203
102
}
330
203
100
AcDbXrecord
  1
{FAEB1C32-E019-11D5-929B-00C0DF256EC4}
  0
ENDSEC
  0
EOF
