  0
SECTION
  2
HEADER
  9
$ACADVER
  1
AC1027
  9
$ACADMAINTVER
 70
   125
  9
$DWGCODEPAGE
  3
ANSI_1252
  9
$LASTSAVEDBY
  1
fleminab
  9
$REQUIREDVERSIONS
160
                 0
  9
$INSBASE
 10
0.0
 20
0.0
 30
0.0
  9
$EXTMIN
 10
1152.388939401212
 20
693.3969741166852
 30
-0.0015258207003583
  9
$EXTMAX
 10
2001.83593333707
 20
1704.059197635461
 30
0.0000000349246037
  9
$LIMMIN
 10
0.0
 20
0.0
  9
$LIMMAX
 10
420.0
 20
297.0
  9
$ORTHOMODE
 70
     0
  9
$REGENMODE
 70
     1
  9
$FILLMODE
 70
     1
  9
$QTEXTMODE
 70
     0
  9
$MIRRTEXT
 70
     0
  9
$LTSCALE
 40
1.0
  9
$ATTMODE
 70
     1
  9
$TEXTSIZE
 40
2.5
  9
$TRACEWID
 40
1.0
  9
$TEXTSTYLE
  7
Standard
  9
$CLAYER
  8
0
  9
$CELTYPE
  6
ByLayer
  9
$CECOLOR
 62
   256
  9
$CELTSCALE
 40
1.0
  9
$DISPSILH
 70
     0
  9
$DIMSCALE
 40
1.0
  9
$DIMASZ
 40
2.5
  9
$DIMEXO
 40
0.625
  9
$DIMDLI
 40
3.75
  9
$DIMRND
 40
0.0
  9
$DIMDLE
 40
0.0
  9
$DIMEXE
 40
1.25
  9
$DIMTP
 40
0.0
  9
$DIMTM
 40
0.0
  9
$DIMTXT
 40
2.5
  9
$DIMCEN
 40
2.5
  9
$DIMTSZ
 40
0.0
  9
$DIMTOL
 70
     0
  9
$DIMLIM
 70
     0
  9
$DIMTIH
 70
     0
  9
$DIMTOH
 70
     0
  9
$DIMSE1
 70
     0
  9
$DIMSE2
 70
     0
  9
$DIMTAD
 70
     1
  9
$DIMZIN
 70
     8
  9
$DIMBLK
  1

  9
$DIMASO
 70
     1
  9
$DIMSHO
 70
     1
  9
$DIMPOST
  1

  9
$DIMAPOST
  1

  9
$DIMALT
 70
     0
  9
$DIMALTD
 70
     3
  9
$DIMALTF
 40
0.03937007874016
  9
$DIMLFAC
 40
1.0
  9
$DIMTOFL
 70
     1
  9
$DIMTVP
 40
0.0
  9
$DIMTIX
 70
     0
  9
$DIMSOXD
 70
     0
  9
$DIMSAH
 70
     0
  9
$DIMBLK1
  1

  9
$DIMBLK2
  1

  9
$DIMSTYLE
  2
ISO-25
  9
$DIMCLRD
 70
     0
  9
$DIMCLRE
 70
     0
  9
$DIMCLRT
 70
     0
  9
$DIMTFAC
 40
1.0
  9
$DIMGAP
 40
0.625
  9
$DIMJUST
 70
     0
  9
$DIMSD1
 70
     0
  9
$DIMSD2
 70
     0
  9
$DIMTOLJ
 70
     0
  9
$DIMTZIN
 70
     8
  9
$DIMALTZ
 70
     0
  9
$DIMALTTZ
 70
     0
  9
$DIMUPT
 70
     0
  9
$DIMDEC
 70
     2
  9
$DIMTDEC
 70
     2
  9
$DIMALTU
 70
     2
  9
$DIMALTTD
 70
     3
  9
$DIMTXSTY
  7
Standard
  9
$DIMAUNIT
 70
     0
  9
$DIMADEC
 70
     0
  9
$DIMALTRND
 40
0.0
  9
$DIMAZIN
 70
     0
  9
$DIMDSEP
 70
    44
  9
$DIMATFIT
 70
     3
  9
$DIMFRAC
 70
     0
  9
$DIMLDRBLK
  1

  9
$DIMLUNIT
 70
     2
  9
$DIMLWD
 70
    -2
  9
$DIMLWE
 70
    -2
  9
$DIMTMOVE
 70
     0
  9
$DIMFXL
 40
1.0
  9
$DIMFXLON
 70
     0
  9
$DIMJOGANG
 40
0.7853981633974483
  9
$DIMTFILL
 70
     0
  9
$DIMTFILLCLR
 70
     0
  9
$DIMARCSYM
 70
     0
  9
$DIMLTYPE
  6

  9
$DIMLTEX1
  6

  9
$DIMLTEX2
  6

  9
$DIMTXTDIRECTION
 70
     0
  9
$LUNITS
 70
     2
  9
$LUPREC
 70
     4
  9
$SKETCHINC
 40
1.0
  9
$FILLETRAD
 40
0.0
  9
$AUNITS
 70
     0
  9
$AUPREC
 70
     0
  9
$MENU
  1
.
  9
$ELEVATION
 40
0.0
  9
$PELEVATION
 40
0.0
  9
$THICKNESS
 40
0.0
  9
$LIMCHECK
 70
     0
  9
$CHAMFERA
 40
0.0
  9
$CHAMFERB
 40
0.0
  9
$CHAMFERC
 40
0.0
  9
$CHAMFERD
 40
0.0
  9
$SKPOLY
 70
     0
  9
$TDCREATE
 40
2456540.722222222
  9
$TDUCREATE
 40
2456540.305558079
  9
$TDUPDATE
 40
2458019.687534722
  9
$TDUUPDATE
 40
2458019.270868056
  9
$TDINDWG
 40
0.0007342361
  9
$TDUSRTIMER
 40
0.0007338773
  9
$USRTIMER
 70
     1
  9
$ANGBASE
 50
0.0
  9
$ANGDIR
 70
     0
  9
$PDMODE
 70
     0
  9
$PDSIZE
 40
0.0
  9
$PLINEWID
 40
0.0
  9
$SPLFRAME
 70
     0
  9
$SPLINETYPE
 70
     6
  9
$SPLINESEGS
 70
     8
  9
$HANDSEED
  5
399
  9
$SURFTAB1
 70
     6
  9
$SURFTAB2
 70
     6
  9
$SURFTYPE
 70
     6
  9
$SURFU
 70
     6
  9
$SURFV
 70
     6
  9
$UCSBASE
  2

  9
$UCSNAME
  2

  9
$UCSORG
 10
0.0
 20
0.0
 30
0.0
  9
$UCSXDIR
 10
1.0
 20
0.0
 30
0.0
  9
$UCSYDIR
 10
0.0
 20
1.0
 30
0.0
  9
$UCSORTHOREF
  2

  9
$UCSORTHOVIEW
 70
     0
  9
$UCSORGTOP
 10
0.0
 20
0.0
 30
0.0
  9
$UCSORGBOTTOM
 10
0.0
 20
0.0
 30
0.0
  9
$UCSORGLEFT
 10
0.0
 20
0.0
 30
0.0
  9
$UCSORGRIGHT
 10
0.0
 20
0.0
 30
0.0
  9
$UCSORGFRONT
 10
0.0
 20
0.0
 30
0.0
  9
$UCSORGBACK
 10
0.0
 20
0.0
 30
0.0
  9
$PUCSBASE
  2

  9
$PUCSNAME
  2

  9
$PUCSORG
 10
0.0
 20
0.0
 30
0.0
  9
$PUCSXDIR
 10
1.0
 20
0.0
 30
0.0
  9
$PUCSYDIR
 10
0.0
 20
1.0
 30
0.0
  9
$PUCSORTHOREF
  2

  9
$PUCSORTHOVIEW
 70
     0
  9
$PUCSORGTOP
 10
0.0
 20
0.0
 30
0.0
  9
$PUCSORGBOTTOM
 10
0.0
 20
0.0
 30
0.0
  9
$PUCSORGLEFT
 10
0.0
 20
0.0
 30
0.0
  9
$PUCSORGRIGHT
 10
0.0
 20
0.0
 30
0.0
  9
$PUCSORGFRONT
 10
0.0
 20
0.0
 30
0.0
  9
$PUCSORGBACK
 10
0.0
 20
0.0
 30
0.0
  9
$USERI1
 70
     0
  9
$USERI2
 70
     0
  9
$USERI3
 70
     0
  9
$USERI4
 70
     0
  9
$USERI5
 70
     0
  9
$USERR1
 40
0.0
  9
$USERR2
 40
0.0
  9
$USERR3
 40
0.0
  9
$USERR4
 40
0.0
  9
$USERR5
 40
2.5
  9
$WORLDVIEW
 70
     1
  9
$SHADEDGE
 70
     3
  9
$SHADEDIF
 70
    70
  9
$TILEMODE
 70
     1
  9
$MAXACTVP
 70
    64
  9
$PINSBASE
 10
0.0
 20
0.0
 30
0.0
  9
$PLIMCHECK
 70
     0
  9
$PEXTMIN
 10
0.0
 20
0.0
 30
0.0
  9
$PEXTMAX
 10
0.0
 20
0.0
 30
0.0
  9
$PLIMMIN
 10
0.0
 20
0.0
  9
$PLIMMAX
 10
12.0
 20
9.0
  9
$UNITMODE
 70
     0
  9
$VISRETAIN
 70
     1
  9
$PLINEGEN
 70
     0
  9
$PSLTSCALE
 70
     1
  9
$TREEDEPTH
 70
  3020
  9
$CMLSTYLE
  2
Standard
  9
$CMLJUST
 70
     0
  9
$CMLSCALE
 40
20.0
  9
$PROXYGRAPHICS
 70
     1
  9
$MEASUREMENT
 70
     1
  9
$CELWEIGHT
370
    -1
  9
$ENDCAPS
280
     0
  9
$JOINSTYLE
280
     0
  9
$LWDISPLAY
290
     0
  9
$INSUNITS
 70
     4
  9
$HYPERLINKBASE
  1

  9
$STYLESHEET
  1

  9
$XEDIT
290
     1
  9
$CEPSNTYPE
380
     0
  9
$PSTYLEMODE
290
     1
  9
$FINGERPRINTGUID
  2
{DAFD402A-F3E2-47A0-A93E-C40EA00955E3}
  9
$VERSIONGUID
  2
{1BE09804-9FCF-8B4F-9454-E1883632277C}
  9
$EXTNAMES
290
     1
  9
$PSVPSCALE
 40
0.0
  9
$OLESTARTUP
290
     0
  9
$SORTENTS
280
   127
  9
$INDEXCTL
280
     0
  9
$HIDETEXT
280
     1
  9
$XCLIPFRAME
280
     0
  9
$HALOGAP
280
     0
  9
$OBSCOLOR
 70
   257
  9
$OBSLTYPE
280
     0
  9
$INTERSECTIONDISPLAY
280
     0
  9
$INTERSECTIONCOLOR
 70
   257
  9
$DIMASSOC
280
     2
  9
$PROJECTNAME
  1

  9
$CAMERADISPLAY
290
     0
  9
$LENSLENGTH
 40
50.0
  9
$CAMERAHEIGHT
 40
0.0
  9
$STEPSPERSEC
 40
2.0
  9
$STEPSIZE
 40
6.0
  9
$3DDWFPREC
 40
2.0
  9
$PSOLWIDTH
 40
5.0
  9
$PSOLHEIGHT
 40
80.0
  9
$LOFTANG1
 40
1.570796326794896
  9
$LOFTANG2
 40
1.570796326794896
  9
$LOFTMAG1
 40
0.0
  9
$LOFTMAG2
 40
0.0
  9
$LOFTPARAM
 70
     7
  9
$LOFTNORMALS
280
     1
  9
$LATITUDE
 40
37.795
  9
$LONGITUDE
 40
-122.394
  9
$NORTHDIRECTION
 40
0.0
  9
$TIMEZONE
 70
 -8000
  9
$LIGHTGLYPHDISPLAY
280
     1
  9
$TILEMODELIGHTSYNCH
280
     1
  9
$CMATERIAL
347
EC
  9
$SOLIDHIST
280
     1
  9
$SHOWHIST
280
     1
  9
$DWFFRAME
280
     2
  9
$DGNFRAME
280
     0
  9
$REALWORLDSCALE
290
     1
  9
$INTERFERECOLOR
 62
     1
  9
$INTERFEREOBJVS
345
F9
  9
$INTERFEREVPVS
346
F6
  9
$CSHADOW
280
     0
  9
$SHADOWPLANELOCATION
 40
0.0
  0
ENDSEC
  0
SECTION
  2
CLASSES
  0
CLASS
  1
ACDBDICTIONARYWDFLT
  2
AcDbDictionaryWithDefault
  3
ObjectDBX Classes
 90
        0
 91
        1
280
     0
281
     0
  0
CLASS
  1
DICTIONARYVAR
  2
AcDbDictionaryVar
  3
ObjectDBX Classes
 90
        0
 91
       13
280
     0
281
     0
  0
CLASS
  1
TABLESTYLE
  2
AcDbTableStyle
  3
ObjectDBX Classes
 90
     4095
 91
        1
280
     0
281
     0
  0
CLASS
  1
MATERIAL
  2
AcDbMaterial
  3
ObjectDBX Classes
 90
     1153
 91
        3
280
     0
281
     0
  0
CLASS
  1
VISUALSTYLE
  2
AcDbVisualStyle
  3
ObjectDBX Classes
 90
     4095
 91
       26
280
     0
281
     0
  0
CLASS
  1
SCALE
  2
AcDbScale
  3
ObjectDBX Classes
 90
     1153
 91
       33
280
     0
281
     0
  0
CLASS
  1
MLEADERSTYLE
  2
AcDbMLeaderStyle
  3
ACDB_MLEADERSTYLE_CLASS
 90
     4095
 91
        2
280
     0
281
     0
  0
CLASS
  1
CELLSTYLEMAP
  2
AcDbCellStyleMap
  3
ObjectDBX Classes
 90
     1152
 91
        2
280
     0
281
     0
  0
CLASS
  1
VLO-VL
  2
vlo_VL
  3
VL|AutoLISP based application
 90
      129
 91
        1
280
     0
281
     0
  0
CLASS
  1
DIMASSOC
  2
AcDbDimAssoc
  3
"AcDbDimAssoc|Product Desc:     AcDim ARX App For Dimension|Company:          Autodesk, Inc.|WEB Address:      www.autodesk.com"
 90
        0
 91
        2
280
     0
281
     0
  0
CLASS
  1
SORTENTSTABLE
  2
AcDbSortentsTable
  3
ObjectDBX Classes
 90
        0
 91
        0
280
     0
281
     0
  0
CLASS
  1
ACDBSECTIONVIEWSTYLE
  2
AcDbSectionViewStyle
  3
ObjectDBX Classes
 90
     1025
 91
        1
280
     0
281
     0
  0
CLASS
  1
ACDBDETAILVIEWSTYLE
  2
AcDbDetailViewStyle
  3
ObjectDBX Classes
 90
     1025
 91
        1
280
     0
281
     0
  0
ENDSEC
  0
SECTION
  2
TABLES
  0
TABLE
  2
VPORT
  5
8
330
0
100
AcDbSymbolTable
 70
     1
1001
ACAD
1000
DbSaveVer
1071
        5
  0
VPORT
  5
EA
330
8
100
AcDbSymbolTableRecord
100
AcDbViewportTableRecord
  2
*Active
 70
     0
 10
0.0
 20
0.0
 11
1.0
 21
1.0
 12
1577.112436369141
 22
1198.728085876073
 13
0.0
 23
0.0
 14
10.0
 24
10.0
 15
10.0
 25
10.0
 16
0.0
 26
0.0
 36
1.0
 17
0.0
 27
0.0
 37
0.0
 40
1017.898468555903
 41
2.292712066905615
 42
50.0
 43
0.0
 44
0.0
 50
0.0
 51
0.0
 71
     0
 72
  1000
 73
     1
 74
     3
 75
     0
 76
     0
 77
     0
 78
     0
281
     0
 65
     1
110
0.0
120
0.0
130
0.0
111
1.0
121
0.0
131
0.0
112
0.0
122
1.0
132
0.0
 79
     0
146
0.0
348
F5
 60
     2
 61
     5
292
     1
282
     1
141
0.0
142
0.0
 63
   250
421
  3355443
1001
ACAD_NAV_VCDISPLAY
1070
     3
  0
ENDTAB
  0
TABLE
  2
LTYPE
  5
5
330
0
100
AcDbSymbolTable
 70
     1
  0
LTYPE
  5
14
330
5
100
AcDbSymbolTableRecord
100
AcDbLinetypeTableRecord
  2
ByBlock
 70
     0
  3

 72
    65
 73
     0
 40
0.0
  0
LTYPE
  5
15
330
5
100
AcDbSymbolTableRecord
100
AcDbLinetypeTableRecord
  2
ByLayer
 70
     0
  3

 72
    65
 73
     0
 40
0.0
  0
LTYPE
  5
16
330
5
100
AcDbSymbolTableRecord
100
AcDbLinetypeTableRecord
  2
Continuous
 70
     0
  3
Solid line
 72
    65
 73
     0
 40
0.0
  0
ENDTAB
  0
TABLE
  2
LAYER
  5
2
102
{ACAD_XDICTIONARY
360
245
102
}
330
0
100
AcDbSymbolTable
 70
     4
  0
LAYER
  5
10
102
{ACAD_XDICTIONARY
360
13C
102
}
330
2
100
AcDbSymbolTableRecord
100
AcDbLayerTableRecord
  2
0
 70
     0
 62
     7
  6
Continuous
370
    -3
390
F
347
EE
348
0
  0
LAYER
  5
237
330
2
100
AcDbSymbolTableRecord
100
AcDbLayerTableRecord
  2
Defpoints
 70
     0
 62
     8
  6
Continuous
290
     0
370
    -3
390
F
347
EE
348
0
  0
LAYER
  5
238
102
{ACAD_XDICTIONARY
360
239
102
}
330
2
100
AcDbSymbolTableRecord
100
AcDbLayerTableRecord
  2
标注
 70
     0
 62
     1
  6
Continuous
370
    -3
390
F
347
EE
348
0
1001
AcAecLayerStandard
1000

1000

  0
LAYER
  5
23A
102
{ACAD_XDICTIONARY
360
23B
102
}
330
2
100
AcDbSymbolTableRecord
100
AcDbLayerTableRecord
  2
文字
 70
     0
 62
     7
  6
Continuous
370
    -3
390
F
347
EE
348
0
1001
AcAecLayerStandard
1000

1000

  0
ENDTAB
  0
TABLE
  2
STYLE
  5
3
330
0
100
AcDbSymbolTable
 70
     3
  0
STYLE
  5
11
330
3
100
AcDbSymbolTableRecord
100
AcDbTextStyleTableRecord
  2
Standard
 70
     0
 40
0.0
 41
1.0
 50
0.0
 71
     0
 42
2.5
  3
txt
  4
gbcbig.shx
  0
STYLE
  5
132
330
3
100
AcDbSymbolTableRecord
100
AcDbTextStyleTableRecord
  2
Annotative
 70
     0
 40
0.0
 41
1.0
 50
0.0
 71
     0
 42
2.5
  3
txt.shx
  4
gbcbig.shx
1001
AcadAnnotative
1000
AnnotativeData
1002
{
1070
     1
1070
     1
1002
}
  0
STYLE
  5
23C
330
3
100
AcDbSymbolTableRecord
100
AcDbTextStyleTableRecord
  2
Arial
 70
     0
 40
0.0
 41
1.0
 50
0.0
 71
     0
 42
0.2
  3
ARIAL.TTF
  4

1001
ACAD
1000
Arial
1071
       34
  0
ENDTAB
  0
TABLE
  2
VIEW
  5
6
330
0
100
AcDbSymbolTable
 70
     0
  0
ENDTAB
  0
TABLE
  2
UCS
  5
7
330
0
100
AcDbSymbolTable
 70
     0
  0
ENDTAB
  0
TABLE
  2
APPID
  5
9
330
0
100
AcDbSymbolTable
 70
    10
  0
APPID
  5
12
330
9
100
AcDbSymbolTableRecord
100
AcDbRegAppTableRecord
  2
ACAD
 70
     0
  0
APPID
  5
9E
330
9
100
AcDbSymbolTableRecord
100
AcDbRegAppTableRecord
  2
ACAD_PSEXT
 70
     0
  0
APPID
  5
133
330
9
100
AcDbSymbolTableRecord
100
AcDbRegAppTableRecord
  2
AcadAnnoPO
 70
     0
  0
APPID
  5
134
330
9
100
AcDbSymbolTableRecord
100
AcDbRegAppTableRecord
  2
AcadAnnotative
 70
     0
  0
APPID
  5
135
330
9
100
AcDbSymbolTableRecord
100
AcDbRegAppTableRecord
  2
ACAD_DSTYLE_DIMJAG
 70
     0
  0
APPID
  5
136
330
9
100
AcDbSymbolTableRecord
100
AcDbRegAppTableRecord
  2
ACAD_DSTYLE_DIMTALN
 70
     0
  0
APPID
  5
165
330
9
100
AcDbSymbolTableRecord
100
AcDbRegAppTableRecord
  2
ACAD_MLEADERVER
 70
     0
  0
APPID
  5
243
330
9
100
AcDbSymbolTableRecord
100
AcDbRegAppTableRecord
  2
AcAecLayerStandard
 70
     0
  0
APPID
  5
244
330
9
100
AcDbSymbolTableRecord
100
AcDbRegAppTableRecord
  2
DCO15
 70
     0
  0
APPID
  5
385
330
9
100
AcDbSymbolTableRecord
100
AcDbRegAppTableRecord
  2
ACAD_NAV_VCDISPLAY
 70
     0
  0
ENDTAB
  0
TABLE
  2
DIMSTYLE
  5
A
330
0
100
AcDbSymbolTable
 70
     8
100
AcDbDimStyleTable
 71
     2
340
27
340
137
  0
DIMSTYLE
105
27
330
A
100
AcDbSymbolTableRecord
100
AcDbDimStyleTableRecord
  2
ISO-25
 70
     0
 41
2.5
 42
0.625
 43
3.75
 44
1.25
 73
     0
 74
     0
 77
     1
 78
     8
140
2.5
141
2.5
143
0.03937007874016
147
0.625
171
     3
172
     1
271
     2
272
     2
274
     3
278
    44
283
     0
284
     8
340
11
  0
DIMSTYLE
105
137
330
A
100
AcDbSymbolTableRecord
100
AcDbDimStyleTableRecord
  2
Annotative
 70
     0
 40
0.0
 41
2.5
 42
0.625
 43
3.75
 44
1.25
 73
     0
 74
     0
 77
     1
 78
     8
140
2.5
141
2.5
143
0.03937007874016
147
0.625
171
     3
172
     1
271
     2
272
     2
274
     3
278
    44
283
     0
284
     8
340
11
1001
AcadAnnotative
1000
AnnotativeData
1002
{
1070
     1
1070
     1
1002
}
1001
ACAD_DSTYLE_DIMJAG
1070
   388
1040
1.5
1001
ACAD_DSTYLE_DIMTALN
1070
   392
1070
     0
  0
DIMSTYLE
105
23D
330
A
100
AcDbSymbolTableRecord
100
AcDbDimStyleTableRecord
  2
Standard
 70
     0
 41
25.0
 42
2.0
140
25.0
147
1.0
176
   256
177
   256
178
   256
271
     2
272
     2
340
11
345
15
346
15
347
15
371
    -1
372
    -1
  0
DIMSTYLE
105
23E
330
A
100
AcDbSymbolTableRecord
100
AcDbDimStyleTableRecord
  2
0-ISO-40
 70
     0
 41
35.0
 42
5.0
 43
3.75
 44
1.25
 73
     0
 77
     1
 78
     8
140
40.0
141
2.5
143
0.03937007874016
147
5.0
171
     3
172
     1
176
   256
177
   256
178
   256
271
     2
272
     2
274
     3
283
     0
284
     8
340
11
345
15
346
15
347
15
371
    -1
372
    -1
  0
DIMSTYLE
105
23F
330
A
100
AcDbSymbolTableRecord
100
AcDbDimStyleTableRecord
  2
ISO-30
 70
     0
 41
28.0
 42
8.0
 43
3.75
 44
1.25
 73
     0
 77
     1
 78
     8
140
30.0
141
2.5
143
0.03937007874016
147
3.0
171
     3
172
     1
176
   256
177
   256
178
   256
271
     2
272
     2
274
     3
283
     0
284
     8
340
11
345
15
346
15
347
15
371
    -1
372
    -1
  0
DIMSTYLE
105
240
102
{ACAD_REACTORS
330
27E
102
}
330
A
100
AcDbSymbolTableRecord
100
AcDbDimStyleTableRecord
  2
0-ISO-20
 70
     0
 41
16.0
 42
0.5
 43
3.75
 44
0.2
 73
     0
 77
     1
 78
     8
140
20.0
141
0.5
143
0.03937007874016
147
1.0
171
     3
172
     1
176
   256
177
   256
178
   256
271
     2
272
     2
274
     3
283
     0
284
     8
340
11
345
15
346
15
347
15
371
    -1
372
    -1
  0
DIMSTYLE
105
241
102
{ACAD_REACTORS
330
27B
102
}
330
A
100
AcDbSymbolTableRecord
100
AcDbDimStyleTableRecord
  2
0-ISO-30
 70
     0
 41
28.0
 42
5.0
 43
3.75
 44
1.25
 73
     0
 77
     1
 78
     8
140
30.0
141
2.5
143
0.03937007874016
147
5.0
171
     3
172
     1
271
     2
272
     2
274
     3
283
     0
284
     8
340
11
  0
DIMSTYLE
105
242
102
{ACAD_REACTORS
330
275
330
276
330
277
330
278
330
279
330
27A
330
27C
330
27D
330
287
102
}
330
A
100
AcDbSymbolTableRecord
100
AcDbDimStyleTableRecord
  2
ISO-45
 70
     0
 41
35.0
 42
2.0
 43
3.75
 44
2.0
 73
     0
 77
     1
 78
     8
140
45.0
141
2.5
143
0.03937007874016
147
3.0
171
     3
176
   256
177
   256
178
   256
271
     2
272
     2
274
     3
283
     0
284
     8
340
11
345
15
346
15
347
15
371
    -1
372
    -1
  0
ENDTAB
  0
TABLE
  2
BLOCK_RECORD
  5
1
330
0
100
AcDbSymbolTable
 70
    23
  0
BLOCK_RECORD
  5
1F
330
1
100
AcDbSymbolTableRecord
100
AcDbBlockTableRecord
  2
*Model_Space
340
22
 70
     0
280
     1
281
     0
  0
BLOCK_RECORD
  5
D2
330
1
100
AcDbSymbolTableRecord
100
AcDbBlockTableRecord
  2
*Paper_Space
340
D3
 70
     0
280
     1
281
     0
  0
BLOCK_RECORD
  5
D6
330
1
100
AcDbSymbolTableRecord
100
AcDbBlockTableRecord
  2
*Paper_Space0
340
D7
 70
     0
280
     1
281
     0
  0
BLOCK_RECORD
  5
1B3
330
1
100
AcDbSymbolTableRecord
100
AcDbBlockTableRecord
  2
*D1
340
0
 70
     0
280
     1
281
     0
  0
BLOCK_RECORD
  5
1BF
330
1
100
AcDbSymbolTableRecord
100
AcDbBlockTableRecord
  2
*D2
340
0
 70
     0
280
     1
281
     0
  0
BLOCK_RECORD
  5
1CB
330
1
100
AcDbSymbolTableRecord
100
AcDbBlockTableRecord
  2
*D3
340
0
 70
     0
280
     1
281
     0
  0
BLOCK_RECORD
  5
1D7
330
1
100
AcDbSymbolTableRecord
100
AcDbBlockTableRecord
  2
*D4
340
0
 70
     0
280
     1
281
     0
  0
BLOCK_RECORD
  5
1E3
330
1
100
AcDbSymbolTableRecord
100
AcDbBlockTableRecord
  2
*D5
340
0
 70
     0
280
     1
281
     0
  0
BLOCK_RECORD
  5
1EF
330
1
100
AcDbSymbolTableRecord
100
AcDbBlockTableRecord
  2
*D6
340
0
 70
     0
280
     1
281
     0
  0
BLOCK_RECORD
  5
1FB
330
1
100
AcDbSymbolTableRecord
100
AcDbBlockTableRecord
  2
*D7
340
0
 70
     0
280
     1
281
     0
  0
BLOCK_RECORD
  5
207
330
1
100
AcDbSymbolTableRecord
100
AcDbBlockTableRecord
  2
*D8
340
0
 70
     0
280
     1
281
     0
  0
BLOCK_RECORD
  5
213
330
1
100
AcDbSymbolTableRecord
100
AcDbBlockTableRecord
  2
*D9
340
0
 70
     0
280
     1
281
     0
  0
BLOCK_RECORD
  5
21F
330
1
100
AcDbSymbolTableRecord
100
AcDbBlockTableRecord
  2
*D10
340
0
 70
     0
280
     1
281
     0
  0
BLOCK_RECORD
  5
22B
330
1
100
AcDbSymbolTableRecord
100
AcDbBlockTableRecord
  2
*D11
340
0
 70
     0
280
     1
281
     0
  0
BLOCK_RECORD
  5
28D
330
1
100
AcDbSymbolTableRecord
100
AcDbBlockTableRecord
  2
*D12
340
0
 70
     0
280
     1
281
     0
  0
BLOCK_RECORD
  5
299
330
1
100
AcDbSymbolTableRecord
100
AcDbBlockTableRecord
  2
*D13
340
0
 70
     0
280
     1
281
     0
  0
BLOCK_RECORD
  5
2A5
330
1
100
AcDbSymbolTableRecord
100
AcDbBlockTableRecord
  2
*D14
340
0
 70
     0
280
     1
281
     0
  0
BLOCK_RECORD
  5
2B1
330
1
100
AcDbSymbolTableRecord
100
AcDbBlockTableRecord
  2
*D15
340
0
 70
     0
280
     1
281
     0
  0
BLOCK_RECORD
  5
2BD
330
1
100
AcDbSymbolTableRecord
100
AcDbBlockTableRecord
  2
*D16
340
0
 70
     0
280
     1
281
     0
  0
BLOCK_RECORD
  5
2C9
330
1
100
AcDbSymbolTableRecord
100
AcDbBlockTableRecord
  2
*D17
340
0
 70
     0
280
     1
281
     0
  0
BLOCK_RECORD
  5
2D5
330
1
100
AcDbSymbolTableRecord
100
AcDbBlockTableRecord
  2
*D18
340
0
 70
     0
280
     1
281
     0
  0
BLOCK_RECORD
  5
2E1
330
1
100
AcDbSymbolTableRecord
100
AcDbBlockTableRecord
  2
*D19
340
0
 70
     0
280
     1
281
     0
  0
BLOCK_RECORD
  5
2ED
330
1
100
AcDbSymbolTableRecord
100
AcDbBlockTableRecord
  2
*D20
340
0
 70
     0
280
     1
281
     0
  0
BLOCK_RECORD
  5
34A
330
1
100
AcDbSymbolTableRecord
100
AcDbBlockTableRecord
  2
*D21
340
0
 70
     0
280
     1
281
     0
  0
BLOCK_RECORD
  5
356
330
1
100
AcDbSymbolTableRecord
100
AcDbBlockTableRecord
  2
*D22
340
0
 70
     0
280
     1
281
     0
  0
ENDTAB
  0
ENDSEC
  0
SECTION
  2
BLOCKS
  0
BLOCK
  5
20
330
1F
100
AcDbEntity
  8
0
100
AcDbBlockBegin
  2
*Model_Space
 70
     0
 10
0.0
 20
0.0
 30
0.0
  3
*Model_Space
  1

  0
ENDBLK
  5
21
330
1F
100
AcDbEntity
  8
0
100
AcDbBlockEnd
  0
BLOCK
  5
D4
330
D2
100
AcDbEntity
 67
     1
  8
0
100
AcDbBlockBegin
  2
*Paper_Space
 70
     0
 10
0.0
 20
0.0
 30
0.0
  3
*Paper_Space
  1

  0
ENDBLK
  5
D5
330
D2
100
AcDbEntity
 67
     1
  8
0
100
AcDbBlockEnd
  0
BLOCK
  5
D8
330
D6
100
AcDbEntity
 67
     1
  8
0
100
AcDbBlockBegin
  2
*Paper_Space0
 70
     0
 10
0.0
 20
0.0
 30
0.0
  3
*Paper_Space0
  1

  0
ENDBLK
  5
D9
330
D6
100
AcDbEntity
 67
     1
  8
0
100
AcDbBlockEnd
  0
BLOCK
  5
1B4
330
1B3
100
AcDbEntity
  8
0
100
AcDbBlockBegin
  2
*D1
 70
     1
 10
0.0
 20
0.0
 30
0.0
  3
*D1
  1

  0
LINE
  5
1B5
330
1B3
100
AcDbEntity
  8
标注
 48
80.0
100
AcDbLine
 10
-12464.37530926716
 20
21835.35012398484
 30
0.0
 11
-12464.37530926716
 21
21629.82046600085
 31
0.0
  0
LINE
  5
1B6
330
1B3
100
AcDbEntity
  8
标注
 48
80.0
100
AcDbLine
 10
-11865.37530926716
 20
21832.85012398484
 30
0.0
 11
-11865.37530926716
 21
21629.82046600085
 31
0.0
  0
LINE
  5
1B7
330
1B3
100
AcDbEntity
  8
标注
 48
80.0
100
AcDbLine
 10
-12429.37530926716
 20
21631.82046600085
 30
0.0
 11
-11900.37530926716
 21
21631.82046600085
 31
0.0
  0
SOLID
  5
1B8
330
1B3
100
AcDbEntity
  8
标注
 48
80.0
100
AcDbTrace
 10
-12429.37530926716
 20
21637.65379933418
 30
0.0
 11
-12429.37530926716
 21
21625.98713266752
 31
0.0
 12
-12464.37530926716
 22
21631.82046600085
 32
0.0
 13
-12464.37530926716
 23
21631.82046600085
 33
0.0
  0
SOLID
  5
1B9
330
1B3
100
AcDbEntity
  8
标注
 48
80.0
100
AcDbTrace
 10
-11900.37530926716
 20
21637.65379933418
 30
0.0
 11
-11900.37530926716
 21
21625.98713266752
 31
0.0
 12
-11865.37530926716
 22
21631.82046600085
 32
0.0
 13
-11865.37530926716
 23
21631.82046600085
 33
0.0
  0
MTEXT
  5
1BA
330
1B3
100
AcDbEntity
  8
标注
 48
80.0
100
AcDbMText
 10
-12164.87530926716
 20
21657.77468373697
 30
0.0
 40
45.0
 41
0.0
 46
0.0
 71
     5
 72
     1
  1
599
 73
     1
 44
1.0
  0
POINT
  5
1BB
330
1B3
100
AcDbEntity
  8
Defpoints
 62
     0
 48
80.0
100
AcDbPoint
 10
-12464.37530926716
 20
21837.35012398484
 30
0.0
  0
POINT
  5
1BC
330
1B3
100
AcDbEntity
  8
Defpoints
 62
     0
 48
80.0
100
AcDbPoint
 10
-11865.37530926716
 20
21834.85012398484
 30
0.0
  0
POINT
  5
1BD
330
1B3
100
AcDbEntity
  8
Defpoints
 62
     0
 48
80.0
100
AcDbPoint
 10
-11865.37530926716
 20
21631.82046600085
 30
0.0
  0
ENDBLK
  5
1BE
330
1B3
100
AcDbEntity
  8
0
100
AcDbBlockEnd
  0
BLOCK
  5
1C0
330
1BF
100
AcDbEntity
  8
0
100
AcDbBlockBegin
  2
*D2
 70
     1
 10
0.0
 20
0.0
 30
0.0
  3
*D2
  1

  0
LINE
  5
1C1
330
1BF
100
AcDbEntity
  8
标注
 48
80.0
100
AcDbLine
 10
-12358.37530926715
 20
22203.35012398484
 30
0.0
 11
-12539.55960650986
 21
22203.35012398484
 31
0.0
  0
LINE
  5
1C2
330
1BF
100
AcDbEntity
  8
标注
 48
80.0
100
AcDbLine
 10
-12358.37530926715
 20
21749.35012398484
 30
0.0
 11
-12539.55960650986
 21
21749.35012398484
 31
0.0
  0
LINE
  5
1C3
330
1BF
100
AcDbEntity
  8
标注
 48
80.0
100
AcDbLine
 10
-12537.55960650986
 20
22168.35012398484
 30
0.0
 11
-12537.55960650986
 21
21784.35012398484
 31
0.0
  0
SOLID
  5
1C4
330
1BF
100
AcDbEntity
  8
标注
 48
80.0
100
AcDbTrace
 10
-12543.39293984319
 20
22168.35012398484
 30
0.0
 11
-12531.72627317653
 21
22168.35012398484
 31
0.0
 12
-12537.55960650986
 22
22203.35012398484
 32
0.0
 13
-12537.55960650986
 23
22203.35012398484
 33
0.0
  0
SOLID
  5
1C5
330
1BF
100
AcDbEntity
  8
标注
 48
80.0
100
AcDbTrace
 10
-12543.39293984319
 20
21784.35012398484
 30
0.0
 11
-12531.72627317653
 21
21784.35012398484
 31
0.0
 12
-12537.55960650986
 22
21749.35012398484
 32
0.0
 13
-12537.55960650986
 23
21749.35012398484
 33
0.0
  0
MTEXT
  5
1C6
330
1BF
100
AcDbEntity
  8
标注
 48
80.0
100
AcDbMText
 10
-12563.44893599797
 20
21976.35012398484
 30
0.0
 40
45.0
 41
0.0
 46
0.0
 71
     5
 72
     1
  1
454
 11
0.0000000000000001
 21
1.0
 31
0.0
 73
     1
 44
1.0
  0
POINT
  5
1C7
330
1BF
100
AcDbEntity
  8
Defpoints
 62
     0
 48
80.0
100
AcDbPoint
 10
-12356.37530926716
 20
22203.35012398484
 30
0.0
  0
POINT
  5
1C8
330
1BF
100
AcDbEntity
  8
Defpoints
 62
     0
 48
80.0
100
AcDbPoint
 10
-12356.37530926716
 20
21749.35012398484
 30
0.0
  0
POINT
  5
1C9
330
1BF
100
AcDbEntity
  8
Defpoints
 62
     0
 48
80.0
100
AcDbPoint
 10
-12537.55960650986
 20
21749.35012398484
 30
0.0
  0
ENDBLK
  5
1CA
330
1BF
100
AcDbEntity
  8
0
100
AcDbBlockEnd
  0
BLOCK
  5
1CC
330
1CB
100
AcDbEntity
  8
0
100
AcDbBlockBegin
  2
*D3
 70
     1
 10
0.0
 20
0.0
 30
0.0
  3
*D3
  1

  0
LINE
  5
1CD
330
1CB
100
AcDbEntity
  8
标注
 48
80.0
100
AcDbLine
 10
-12358.37530926715
 20
22175.35012398484
 30
0.0
 11
-12479.89957077364
 21
22175.35012398484
 31
0.0
  0
LINE
  5
1CE
330
1CB
100
AcDbEntity
  8
标注
 48
80.0
100
AcDbLine
 10
-12358.37530926715
 20
21777.35012398484
 30
0.0
 11
-12479.89957077364
 21
21777.35012398484
 31
0.0
  0
LINE
  5
1CF
330
1CB
100
AcDbEntity
  8
标注
 48
80.0
100
AcDbLine
 10
-12477.89957077364
 20
22140.35012398484
 30
0.0
 11
-12477.89957077364
 21
21812.35012398484
 31
0.0
  0
SOLID
  5
1D0
330
1CB
100
AcDbEntity
  8
标注
 48
80.0
100
AcDbTrace
 10
-12483.73290410697
 20
22140.35012398484
 30
0.0
 11
-12472.06623744031
 21
22140.35012398484
 31
0.0
 12
-12477.89957077364
 22
22175.35012398484
 32
0.0
 13
-12477.89957077364
 23
22175.35012398484
 33
0.0
  0
SOLID
  5
1D1
330
1CB
100
AcDbEntity
  8
标注
 48
80.0
100
AcDbTrace
 10
-12483.73290410697
 20
21812.35012398484
 30
0.0
 11
-12472.06623744031
 21
21812.35012398484
 31
0.0
 12
-12477.89957077364
 22
21777.35012398484
 32
0.0
 13
-12477.89957077364
 23
21777.35012398484
 33
0.0
  0
MTEXT
  5
1D2
330
1CB
100
AcDbEntity
  8
标注
 48
80.0
100
AcDbMText
 10
-12503.85378850977
 20
21976.35012398484
 30
0.0
 40
45.0
 41
0.0
 46
0.0
 71
     5
 72
     1
  1
398
 11
0.0000000000000001
 21
1.0
 31
0.0
 73
     1
 44
1.0
  0
POINT
  5
1D3
330
1CB
100
AcDbEntity
  8
Defpoints
 62
     0
 48
80.0
100
AcDbPoint
 10
-12356.37530926716
 20
22175.35012398484
 30
0.0
  0
POINT
  5
1D4
330
1CB
100
AcDbEntity
  8
Defpoints
 62
     0
 48
80.0
100
AcDbPoint
 10
-12356.37530926716
 20
21777.35012398484
 30
0.0
  0
POINT
  5
1D5
330
1CB
100
AcDbEntity
  8
Defpoints
 62
     0
 48
80.0
100
AcDbPoint
 10
-12477.89957077364
 20
21777.35012398484
 30
0.0
  0
ENDBLK
  5
1D6
330
1CB
100
AcDbEntity
  8
0
100
AcDbBlockEnd
  0
BLOCK
  5
1D8
330
1D7
100
AcDbEntity
  8
0
100
AcDbBlockBegin
  2
*D4
 70
     1
 10
0.0
 20
0.0
 30
0.0
  3
*D4
  1

  0
LINE
  5
1D9
330
1D7
100
AcDbEntity
  8
标注
 48
80.0
100
AcDbLine
 10
-12436.37530926716
 20
21855.35012398484
 30
0.0
 11
-12436.37530926716
 21
21687.67578452299
 31
0.0
  0
LINE
  5
1DA
330
1D7
100
AcDbEntity
  8
标注
 48
80.0
100
AcDbLine
 10
-12078.37530926715
 20
21855.35012398484
 30
0.0
 11
-12078.37530926715
 21
21687.67578452299
 31
0.0
  0
LINE
  5
1DB
330
1D7
100
AcDbEntity
  8
标注
 48
80.0
100
AcDbLine
 10
-12401.37530926715
 20
21689.67578452299
 30
0.0
 11
-12113.37530926716
 21
21689.67578452299
 31
0.0
  0
SOLID
  5
1DC
330
1D7
100
AcDbEntity
  8
标注
 48
80.0
100
AcDbTrace
 10
-12401.37530926715
 20
21695.50911785632
 30
0.0
 11
-12401.37530926715
 21
21683.84245118966
 31
0.0
 12
-12436.37530926716
 22
21689.67578452299
 32
0.0
 13
-12436.37530926716
 23
21689.67578452299
 33
0.0
  0
SOLID
  5
1DD
330
1D7
100
AcDbEntity
  8
标注
 48
80.0
100
AcDbTrace
 10
-12113.37530926716
 20
21695.50911785632
 30
0.0
 11
-12113.37530926716
 21
21683.84245118966
 31
0.0
 12
-12078.37530926715
 22
21689.67578452299
 32
0.0
 13
-12078.37530926715
 23
21689.67578452299
 33
0.0
  0
MTEXT
  5
1DE
330
1D7
100
AcDbEntity
  8
标注
 48
80.0
100
AcDbMText
 10
-12227.37530926716
 20
21715.56511401109
 30
0.0
 40
45.0
 41
0.0
 46
0.0
 71
     5
 72
     1
  1
358
 73
     1
 44
1.0
  0
POINT
  5
1DF
330
1D7
100
AcDbEntity
  8
Defpoints
 62
     0
 48
80.0
100
AcDbPoint
 10
-12436.37530926716
 20
21857.35012398484
 30
0.0
  0
POINT
  5
1E0
330
1D7
100
AcDbEntity
  8
Defpoints
 62
     0
 48
80.0
100
AcDbPoint
 10
-12078.37530926715
 20
21857.35012398484
 30
0.0
  0
POINT
  5
1E1
330
1D7
100
AcDbEntity
  8
Defpoints
 62
     0
 48
80.0
100
AcDbPoint
 10
-12078.37530926715
 20
21689.67578452299
 30
0.0
  0
ENDBLK
  5
1E2
330
1D7
100
AcDbEntity
  8
0
100
AcDbBlockEnd
  0
BLOCK
  5
1E4
330
1E3
100
AcDbEntity
  8
0
100
AcDbBlockBegin
  2
*D5
 70
     1
 10
0.0
 20
0.0
 30
0.0
  3
*D5
  1

  0
LINE
  5
1E5
330
1E3
100
AcDbEntity
  8
标注
 48
80.0
100
AcDbLine
 10
-12048.37530926716
 20
21852.85012398484
 30
0.0
 11
-12048.37530926716
 21
21688.92578452299
 31
0.0
  0
LINE
  5
1E6
330
1E3
100
AcDbEntity
  8
标注
 48
80.0
100
AcDbLine
 10
-11893.37530926716
 20
21852.85012398484
 30
0.0
 11
-11893.37530926716
 21
21688.92578452299
 31
0.0
  0
LINE
  5
1E7
330
1E3
100
AcDbEntity
  8
标注
 48
80.0
100
AcDbLine
 10
-12013.37530926716
 20
21690.92578452299
 30
0.0
 11
-11928.37530926716
 21
21690.92578452299
 31
0.0
  0
SOLID
  5
1E8
330
1E3
100
AcDbEntity
  8
标注
 48
80.0
100
AcDbTrace
 10
-12013.37530926716
 20
21696.75911785632
 30
0.0
 11
-12013.37530926716
 21
21685.09245118966
 31
0.0
 12
-12048.37530926716
 22
21690.92578452299
 32
0.0
 13
-12048.37530926716
 23
21690.92578452299
 33
0.0
  0
SOLID
  5
1E9
330
1E3
100
AcDbEntity
  8
标注
 48
80.0
100
AcDbTrace
 10
-11928.37530926716
 20
21696.75911785632
 30
0.0
 11
-11928.37530926716
 21
21685.09245118966
 31
0.0
 12
-11893.37530926716
 22
21690.92578452299
 32
0.0
 13
-11893.37530926716
 23
21690.92578452299
 33
0.0
  0
MTEXT
  5
1EA
330
1E3
100
AcDbEntity
  8
标注
 48
80.0
100
AcDbMText
 10
-11970.87530926716
 20
21716.81511401109
 30
0.0
 40
45.0
 41
0.0
 46
0.0
 71
     5
 72
     1
  1
155
 73
     1
 44
1.0
  0
POINT
  5
1EB
330
1E3
100
AcDbEntity
  8
Defpoints
 62
     0
 48
80.0
100
AcDbPoint
 10
-12048.37530926716
 20
21854.85012398484
 30
0.0
  0
POINT
  5
1EC
330
1E3
100
AcDbEntity
  8
Defpoints
 62
     0
 48
80.0
100
AcDbPoint
 10
-11893.37530926716
 20
21854.85012398484
 30
0.0
  0
POINT
  5
1ED
330
1E3
100
AcDbEntity
  8
Defpoints
 62
     0
 48
80.0
100
AcDbPoint
 10
-11893.37530926716
 20
21690.92578452299
 30
0.0
  0
ENDBLK
  5
1EE
330
1E3
100
AcDbEntity
  8
0
100
AcDbBlockEnd
  0
BLOCK
  5
1F0
330
1EF
100
AcDbEntity
  8
0
100
AcDbBlockBegin
  2
*D6
 70
     1
 10
0.0
 20
0.0
 30
0.0
  3
*D6
  1

  0
LINE
  5
1F1
330
1EF
100
AcDbEntity
  8
标注
 48
80.0
100
AcDbLine
 10
-11968.87530926715
 20
22077.35012398484
 30
0.0
 11
-11796.97755324333
 21
22077.35012398484
 31
0.0
  0
LINE
  5
1F2
330
1EF
100
AcDbEntity
  8
标注
 48
80.0
100
AcDbLine
 10
-11968.87530926715
 20
21777.35012398484
 30
0.0
 11
-11796.97755324333
 21
21777.35012398484
 31
0.0
  0
LINE
  5
1F3
330
1EF
100
AcDbEntity
  8
标注
 48
80.0
100
AcDbLine
 10
-11798.97755324334
 20
22042.35012398484
 30
0.0
 11
-11798.97755324334
 21
21812.35012398484
 31
0.0
  0
SOLID
  5
1F4
330
1EF
100
AcDbEntity
  8
标注
 48
80.0
100
AcDbTrace
 10
-11804.81088657667
 20
22042.35012398484
 30
0.0
 11
-11793.14421991
 21
22042.35012398484
 31
0.0
 12
-11798.97755324334
 22
22077.35012398484
 32
0.0
 13
-11798.97755324334
 23
22077.35012398484
 33
0.0
  0
SOLID
  5
1F5
330
1EF
100
AcDbEntity
  8
标注
 48
80.0
100
AcDbTrace
 10
-11804.81088657667
 20
21812.35012398484
 30
0.0
 11
-11793.14421991
 21
21812.35012398484
 31
0.0
 12
-11798.97755324334
 22
21777.35012398484
 32
0.0
 13
-11798.97755324334
 23
21777.35012398484
 33
0.0
  0
MTEXT
  5
1F6
330
1EF
100
AcDbEntity
  8
标注
 48
80.0
100
AcDbMText
 10
-11824.86688273144
 20
21920.70045985345
 30
0.0
 40
45.0
 41
0.0
 46
0.0
 71
     5
 72
     1
  1
300
 11
0.0000000000000001
 21
1.0
 31
0.0
 73
     1
 44
1.0
  0
POINT
  5
1F7
330
1EF
100
AcDbEntity
  8
Defpoints
 62
     0
 48
80.0
100
AcDbPoint
 10
-11970.87530926716
 20
22077.35012398484
 30
0.0
  0
POINT
  5
1F8
330
1EF
100
AcDbEntity
  8
Defpoints
 62
     0
 48
80.0
100
AcDbPoint
 10
-11970.87530926716
 20
21777.35012398484
 30
0.0
  0
POINT
  5
1F9
330
1EF
100
AcDbEntity
  8
Defpoints
 62
     0
 48
80.0
100
AcDbPoint
 10
-11798.97755324334
 20
21777.35012398484
 30
0.0
  0
ENDBLK
  5
1FA
330
1EF
100
AcDbEntity
  8
0
100
AcDbBlockEnd
  0
BLOCK
  5
1FC
330
1FB
100
AcDbEntity
  8
0
100
AcDbBlockBegin
  2
*D7
 70
     1
 10
0.0
 20
0.0
 30
0.0
  3
*D7
  1

  0
LINE
  5
1FD
330
1FB
100
AcDbEntity
  8
标注
 62
     0
 48
80.0
370
    -2
100
AcDbLine
 10
-12362.1063784347
 20
21899.9294794578
 30
0.0
 11
-12299.68394384179
 21
21899.9294794578
 31
0.0
  0
LINE
  5
1FE
330
1FB
100
AcDbEntity
  8
标注
 62
     0
 48
80.0
370
    -2
100
AcDbLine
 10
-12299.68394384179
 20
21899.9294794578
 30
0.0
 11
-12280.54292145175
 21
21957.1239602484
 31
0.0
  0
LINE
  5
1FF
330
1FB
100
AcDbEntity
  8
标注
 62
     0
 48
80.0
370
    -2
100
AcDbLine
 10
-12234.20769708257
 20
22095.57628772128
 30
0.0
 11
-12225.3214896693
 21
22122.12878888047
 31
0.0
  0
MTEXT
  5
200
330
1FB
100
AcDbEntity
  8
标注
 62
     0
 48
80.0
100
AcDbMText
 10
-12333.39516113824
 20
21921.08568682479
 30
0.0
 40
30.0
 41
0.0
 46
0.0
 71
     5
 72
     1
  1
∅90
 73
     1
 44
1.0
  0
LINE
  5
201
330
1FB
100
AcDbEntity
  8
标注
 62
     0
 48
80.0
370
    -2
100
AcDbLine
 10
-12243.09390449584
 20
22069.0237865621
 30
0.0
 11
-12271.65671403849
 21
21983.67646140758
 31
0.0
  0
SOLID
  5
202
330
1FB
100
AcDbEntity
  8
标注
 62
     0
 48
80.0
100
AcDbTrace
 10
-12238.63311394243
 20
22097.05732229016
 30
0.0
 11
-12229.7822802227
 21
22094.09525315241
 31
0.0
 12
-12243.09390449584
 22
22069.0237865621
 32
0.0
 13
-12243.09390449584
 23
22069.0237865621
 33
0.0
  0
SOLID
  5
203
330
1FB
100
AcDbEntity
  8
标注
 62
     0
 48
80.0
100
AcDbTrace
 10
-12284.96833831162
 20
21958.60499481728
 30
0.0
 11
-12276.11750459189
 21
21955.64292567953
 31
0.0
 12
-12271.65671403849
 22
21983.67646140758
 32
0.0
 13
-12271.65671403849
 23
21983.67646140758
 33
0.0
  0
POINT
  5
204
330
1FB
100
AcDbEntity
  8
Defpoints
 62
     0
 48
80.0
100
AcDbPoint
 10
-12271.65671403849
 20
21983.67646140758
 30
0.0
  0
POINT
  5
205
330
1FB
100
AcDbEntity
  8
Defpoints
 62
     0
 48
80.0
100
AcDbPoint
 10
-12243.09390449584
 20
22069.0237865621
 30
0.0
  0
ENDBLK
  5
206
330
1FB
100
AcDbEntity
  8
0
100
AcDbBlockEnd
  0
BLOCK
  5
208
330
207
100
AcDbEntity
  8
0
100
AcDbBlockBegin
  2
*D8
 70
     1
 10
0.0
 20
0.0
 30
0.0
  3
*D8
  1

  0
LINE
  5
209
330
207
100
AcDbEntity
  8
标注
 48
80.0
100
AcDbLine
 10
-12304.37530926716
 20
21192.82186470569
 30
0.0
 11
-12471.83839467377
 21
21192.82186470569
 31
0.0
  0
LINE
  5
20A
330
207
100
AcDbEntity
  8
标注
 48
80.0
100
AcDbLine
 10
-12466.37530926716
 20
21382.82186470569
 30
0.0
 11
-12471.83839467377
 21
21382.82186470569
 31
0.0
  0
LINE
  5
20B
330
207
100
AcDbEntity
  8
标注
 48
80.0
100
AcDbLine
 10
-12469.83839467377
 20
21227.8218647057
 30
0.0
 11
-12469.83839467377
 21
21347.8218647057
 31
0.0
  0
SOLID
  5
20C
330
207
100
AcDbEntity
  8
标注
 48
80.0
100
AcDbTrace
 10
-12475.67172800711
 20
21227.8218647057
 30
0.0
 11
-12464.00506134044
 21
21227.8218647057
 31
0.0
 12
-12469.83839467377
 22
21192.82186470569
 32
0.0
 13
-12469.83839467377
 23
21192.82186470569
 33
0.0
  0
SOLID
  5
20D
330
207
100
AcDbEntity
  8
标注
 48
80.0
100
AcDbTrace
 10
-12475.67172800711
 20
21347.8218647057
 30
0.0
 11
-12464.00506134044
 21
21347.8218647057
 31
0.0
 12
-12469.83839467377
 22
21382.82186470569
 32
0.0
 13
-12469.83839467377
 23
21382.82186470569
 33
0.0
  0
MTEXT
  5
20E
330
207
100
AcDbEntity
  8
标注
 48
80.0
100
AcDbMText
 10
-12495.7926124099
 20
21287.82186470569
 30
0.0
 40
45.0
 41
0.0
 46
0.0
 71
     5
 72
     1
  1
190
 11
0.0000000000000001
 21
1.0
 31
0.0
 73
     1
 44
1.0
  0
POINT
  5
20F
330
207
100
AcDbEntity
  8
Defpoints
 62
     0
 48
80.0
100
AcDbPoint
 10
-12302.37530926715
 20
21192.82186470569
 30
0.0
  0
POINT
  5
210
330
207
100
AcDbEntity
  8
Defpoints
 62
     0
 48
80.0
100
AcDbPoint
 10
-12464.37530926716
 20
21382.82186470569
 30
0.0
  0
POINT
  5
211
330
207
100
AcDbEntity
  8
Defpoints
 62
     0
 48
80.0
100
AcDbPoint
 10
-12469.83839467377
 20
21382.82186470569
 30
0.0
  0
ENDBLK
  5
212
330
207
100
AcDbEntity
  8
0
100
AcDbBlockEnd
  0
BLOCK
  5
214
330
213
100
AcDbEntity
  8
0
100
AcDbBlockBegin
  2
*D9
 70
     1
 10
0.0
 20
0.0
 30
0.0
  3
*D9
  1

  0
LINE
  5
215
330
213
100
AcDbEntity
  8
标注
 48
80.0
100
AcDbLine
 10
-11968.87530926715
 20
21749.35012398484
 30
0.0
 11
-11740.03135838691
 21
21749.35012398484
 31
0.0
  0
LINE
  5
216
330
213
100
AcDbEntity
  8
标注
 48
80.0
100
AcDbLine
 10
-11968.87530926715
 20
22105.35012398484
 30
0.0
 11
-11740.03135838691
 21
22105.35012398484
 31
0.0
  0
LINE
  5
217
330
213
100
AcDbEntity
  8
标注
 48
80.0
100
AcDbLine
 10
-11742.03135838691
 20
21784.35012398484
 30
0.0
 11
-11742.03135838691
 21
22070.35012398484
 31
0.0
  0
SOLID
  5
218
330
213
100
AcDbEntity
  8
标注
 48
80.0
100
AcDbTrace
 10
-11747.86469172024
 20
21784.35012398484
 30
0.0
 11
-11736.19802505357
 21
21784.35012398484
 31
0.0
 12
-11742.03135838691
 22
21749.35012398484
 32
0.0
 13
-11742.03135838691
 23
21749.35012398484
 33
0.0
  0
SOLID
  5
219
330
213
100
AcDbEntity
  8
标注
 48
80.0
100
AcDbTrace
 10
-11747.86469172024
 20
22070.35012398484
 30
0.0
 11
-11736.19802505357
 21
22070.35012398484
 31
0.0
 12
-11742.03135838691
 22
22105.35012398484
 32
0.0
 13
-11742.03135838691
 23
22105.35012398484
 33
0.0
  0
MTEXT
  5
21A
330
213
100
AcDbEntity
  8
标注
 48
80.0
100
AcDbMText
 10
-11767.92068787501
 20
21927.35012398485
 30
0.0
 40
45.0
 41
0.0
 46
0.0
 71
     5
 72
     1
  1
356
 11
0.0000000000000001
 21
1.0
 31
0.0
 73
     1
 44
1.0
  0
POINT
  5
21B
330
213
100
AcDbEntity
  8
Defpoints
 62
     0
 48
80.0
100
AcDbPoint
 10
-11970.87530926716
 20
21749.35012398484
 30
0.0
  0
POINT
  5
21C
330
213
100
AcDbEntity
  8
Defpoints
 62
     0
 48
80.0
100
AcDbPoint
 10
-11970.87530926716
 20
22105.35012398484
 30
0.0
  0
POINT
  5
21D
330
213
100
AcDbEntity
  8
Defpoints
 62
     0
 48
80.0
100
AcDbPoint
 10
-11742.03135838691
 20
22105.35012398484
 30
0.0
  0
ENDBLK
  5
21E
330
213
100
AcDbEntity
  8
0
100
AcDbBlockEnd
  0
BLOCK
  5
220
330
21F
100
AcDbEntity
  8
0
100
AcDbBlockBegin
  2
*D10
 70
     1
 10
0.0
 20
0.0
 30
0.0
  3
*D10
  1

  0
LINE
  5
221
330
21F
100
AcDbEntity
  8
标注
100
AcDbLine
 10
-12013.46806657427
 20
22016.84760982447
 30
0.0
 11
-11974.18644351233
 21
22016.84760982447
 31
0.0
  0
LINE
  5
222
330
21F
100
AcDbEntity
  8
标注
100
AcDbLine
 10
-11974.18644351233
 20
22016.84760982447
 30
0.0
 11
-11973.13058042728
 21
21988.30841917093
 31
0.0
  0
LINE
  5
223
330
21F
100
AcDbEntity
  8
标注
100
AcDbLine
 10
-11968.62003810703
 20
21866.39182879875
 30
0.0
 11
-11968.02849157322
 21
21850.40276776633
 31
0.0
  0
MTEXT
  5
224
330
21F
100
AcDbEntity
  8
标注
100
AcDbMText
 10
-11994.3272550433
 20
22028.6184147358
 30
0.0
 40
20.0
 41
0.0
 46
0.0
 71
     5
 72
     1
  1
∅90
 73
     1
 44
1.0
  0
LINE
  5
225
330
21F
100
AcDbEntity
  8
标注
100
AcDbLine
 10
-11969.21158464083
 20
21882.38088983117
 30
0.0
 11
-11972.53903389348
 21
21972.31935813852
 31
0.0
  0
SOLID
  5
226
330
21F
100
AcDbEntity
  8
标注
100
AcDbTrace
 10
-11965.95519460163
 20
21866.49041988772
 30
0.0
 11
-11971.28488161243
 21
21866.29323770978
 31
0.0
 12
-11969.21158464083
 22
21882.38088983117
 32
0.0
 13
-11969.21158464083
 23
21882.38088983117
 33
0.0
  0
SOLID
  5
227
330
21F
100
AcDbEntity
  8
标注
100
AcDbTrace
 10
-11970.46573692188
 20
21988.4070102599
 30
0.0
 11
-11975.79542393269
 21
21988.20982808197
 31
0.0
 12
-11972.53903389348
 22
21972.31935813852
 32
0.0
 13
-11972.53903389348
 23
21972.31935813852
 33
0.0
  0
POINT
  5
228
330
21F
100
AcDbEntity
  8
Defpoints
 62
     0
100
AcDbPoint
 10
-11972.53903389348
 20
21972.31935813852
 30
0.0
  0
POINT
  5
229
330
21F
100
AcDbEntity
  8
Defpoints
 62
     0
100
AcDbPoint
 10
-11969.21158464083
 20
21882.38088983117
 30
0.0
  0
ENDBLK
  5
22A
330
21F
100
AcDbEntity
  8
0
100
AcDbBlockEnd
  0
BLOCK
  5
22C
330
22B
100
AcDbEntity
  8
0
100
AcDbBlockBegin
  2
*D11
 70
     1
 10
0.0
 20
0.0
 30
0.0
  3
*D11
  1

  0
LINE
  5
22D
330
22B
100
AcDbEntity
  8
标注
100
AcDbLine
 10
-11923.87530926716
 20
21252.82186470569
 30
0.0
 11
-11834.15147883282
 21
21252.82186470569
 31
0.0
  0
LINE
  5
22E
330
22B
100
AcDbEntity
  8
标注
100
AcDbLine
 10
-11863.37530926716
 20
21382.82186470569
 30
0.0
 11
-11834.15147883282
 21
21382.82186470569
 31
0.0
  0
LINE
  5
22F
330
22B
100
AcDbEntity
  8
标注
100
AcDbLine
 10
-11836.15147883282
 20
21287.82186470569
 30
0.0
 11
-11836.15147883282
 21
21347.8218647057
 31
0.0
  0
SOLID
  5
230
330
22B
100
AcDbEntity
  8
标注
100
AcDbTrace
 10
-11841.98481216615
 20
21287.82186470569
 30
0.0
 11
-11830.31814549948
 21
21287.82186470569
 31
0.0
 12
-11836.15147883282
 22
21252.82186470569
 32
0.0
 13
-11836.15147883282
 23
21252.82186470569
 33
0.0
  0
SOLID
  5
231
330
22B
100
AcDbEntity
  8
标注
100
AcDbTrace
 10
-11841.98481216615
 20
21347.8218647057
 30
0.0
 11
-11830.31814549948
 21
21347.8218647057
 31
0.0
 12
-11836.15147883282
 22
21382.82186470569
 32
0.0
 13
-11836.15147883282
 23
21382.82186470569
 33
0.0
  0
MTEXT
  5
232
330
22B
100
AcDbEntity
  8
标注
100
AcDbMText
 10
-11862.04080832093
 20
21317.82186470569
 30
0.0
 40
45.0
 41
0.0
 46
0.0
 71
     5
 72
     1
  1
130
 11
0.0000000000000001
 21
1.0
 31
0.0
 73
     1
 44
1.0
  0
POINT
  5
233
330
22B
100
AcDbEntity
  8
Defpoints
 62
     0
100
AcDbPoint
 10
-11925.87530926715
 20
21252.82186470569
 30
0.0
  0
POINT
  5
234
330
22B
100
AcDbEntity
  8
Defpoints
 62
     0
100
AcDbPoint
 10
-11865.37530926716
 20
21382.82186470569
 30
0.0
  0
POINT
  5
235
330
22B
100
AcDbEntity
  8
Defpoints
 62
     0
100
AcDbPoint
 10
-11836.15147883282
 20
21382.82186470569
 30
0.0
  0
ENDBLK
  5
236
330
22B
100
AcDbEntity
  8
0
100
AcDbBlockEnd
  0
BLOCK
  5
28E
330
28D
100
AcDbEntity
  8
0
100
AcDbBlockBegin
  2
*D12
 70
     1
 10
0.0
 20
0.0
 30
0.0
  3
*D12
  1

  0
LINE
  5
2F9
330
28D
100
AcDbEntity
  8
标注
440
 16777216
 48
80.0
100
AcDbLine
 10
1273.597555142619
 20
1336.007191495357
 30
0.0
 11
1273.597555142619
 21
1130.477533511364
 31
0.0
  0
LINE
  5
2FA
330
28D
100
AcDbEntity
  8
标注
440
 16777216
 48
80.0
100
AcDbLine
 10
1872.597555142619
 20
1333.507191495357
 30
0.0
 11
1872.597555142619
 21
1130.477533511364
 31
0.0
  0
LINE
  5
2FB
330
28D
100
AcDbEntity
  8
标注
440
 16777216
 48
80.0
100
AcDbLine
 10
1308.597555142619
 20
1132.477533511364
 30
0.0
 11
1837.597555142619
 21
1132.477533511364
 31
0.0
  0
SOLID
  5
2FC
330
28D
100
AcDbEntity
  8
标注
440
 16777216
 48
80.0
100
AcDbTrace
 10
1308.597555142619
 20
1138.310866844697
 30
0.0
 11
1308.597555142619
 21
1126.644200178031
 31
0.0
 12
1273.597555142619
 22
1132.477533511364
 32
0.0
 13
1273.597555142619
 23
1132.477533511364
 33
0.0
  0
SOLID
  5
2FD
330
28D
100
AcDbEntity
  8
标注
440
 16777216
 48
80.0
100
AcDbTrace
 10
1837.597555142619
 20
1138.310866844697
 30
0.0
 11
1837.597555142619
 21
1126.644200178031
 31
0.0
 12
1872.597555142619
 22
1132.477533511364
 32
0.0
 13
1872.597555142619
 23
1132.477533511364
 33
0.0
  0
MTEXT
  5
2FE
330
28D
100
AcDbEntity
  8
标注
440
 16777216
 48
80.0
100
AcDbMText
 10
1573.097555142619
 20
1157.977533511364
 30
0.0
 40
45.0
 41
0.0
 46
0.0
 71
     5
 72
     1
  1
599
 73
     1
 44
1.0
  0
POINT
  5
2FF
330
28D
100
AcDbEntity
  8
Defpoints
 62
     0
440
 16777216
 48
80.0
100
AcDbPoint
 10
1273.597555142619
 20
1338.007191495357
 30
0.0
  0
POINT
  5
300
330
28D
100
AcDbEntity
  8
Defpoints
 62
     0
440
 16777216
 48
80.0
100
AcDbPoint
 10
1872.597555142619
 20
1335.507191495357
 30
0.0
  0
POINT
  5
301
330
28D
100
AcDbEntity
  8
Defpoints
 62
     0
440
 16777216
 48
80.0
100
AcDbPoint
 10
1872.597555142619
 20
1132.477533511364
 30
0.0
  0
ENDBLK
  5
28F
330
28D
100
AcDbEntity
  8
0
100
AcDbBlockEnd
  0
BLOCK
  5
29A
330
299
100
AcDbEntity
  8
0
100
AcDbBlockBegin
  2
*D13
 70
     1
 10
0.0
 20
0.0
 30
0.0
  3
*D13
  1

  0
LINE
  5
302
330
299
100
AcDbEntity
  8
标注
440
 16777216
 48
80.0
100
AcDbLine
 10
1379.597555142619
 20
1704.007191495357
 30
0.0
 11
1198.413257899916
 21
1704.007191495357
 31
0.0
  0
LINE
  5
303
330
299
100
AcDbEntity
  8
标注
440
 16777216
 48
80.0
100
AcDbLine
 10
1379.597555142619
 20
1250.007191495357
 30
0.0
 11
1198.413257899915
 21
1250.007191495357
 31
0.0
  0
LINE
  5
304
330
299
100
AcDbEntity
  8
标注
440
 16777216
 48
80.0
100
AcDbLine
 10
1200.413257899916
 20
1669.007191495357
 30
0.0
 11
1200.413257899915
 21
1285.007191495357
 31
0.0
  0
SOLID
  5
305
330
299
100
AcDbEntity
  8
标注
440
 16777216
 48
80.0
100
AcDbTrace
 10
1194.579924566582
 20
1669.007191495357
 30
0.0
 11
1206.246591233249
 21
1669.007191495357
 31
0.0
 12
1200.413257899916
 22
1704.007191495357
 32
0.0
 13
1200.413257899916
 23
1704.007191495357
 33
0.0
  0
SOLID
  5
306
330
299
100
AcDbEntity
  8
标注
440
 16777216
 48
80.0
100
AcDbTrace
 10
1194.579924566582
 20
1285.007191495357
 30
0.0
 11
1206.246591233248
 21
1285.007191495357
 31
0.0
 12
1200.413257899915
 22
1250.007191495357
 32
0.0
 13
1200.413257899915
 23
1250.007191495357
 33
0.0
  0
MTEXT
  5
307
330
299
100
AcDbEntity
  8
标注
440
 16777216
 48
80.0
100
AcDbMText
 10
1174.913257899915
 20
1477.007191495357
 30
0.0
 40
45.0
 41
0.0
 46
0.0
 71
     5
 72
     1
  1
454
 11
0.0000000000000001
 21
1.0
 31
0.0
 73
     1
 44
1.0
  0
POINT
  5
308
330
299
100
AcDbEntity
  8
Defpoints
 62
     0
440
 16777216
 48
80.0
100
AcDbPoint
 10
1381.597555142619
 20
1704.007191495357
 30
0.0
  0
POINT
  5
309
330
299
100
AcDbEntity
  8
Defpoints
 62
     0
440
 16777216
 48
80.0
100
AcDbPoint
 10
1381.597555142619
 20
1250.007191495357
 30
0.0
  0
POINT
  5
30A
330
299
100
AcDbEntity
  8
Defpoints
 62
     0
440
 16777216
 48
80.0
100
AcDbPoint
 10
1200.413257899915
 20
1250.007191495357
 30
0.0
  0
ENDBLK
  5
29B
330
299
100
AcDbEntity
  8
0
100
AcDbBlockEnd
  0
BLOCK
  5
2A6
330
2A5
100
AcDbEntity
  8
0
100
AcDbBlockBegin
  2
*D14
 70
     1
 10
0.0
 20
0.0
 30
0.0
  3
*D14
  1

  0
LINE
  5
30B
330
2A5
100
AcDbEntity
  8
标注
440
 16777216
 48
80.0
100
AcDbLine
 10
1379.597555142619
 20
1676.007191495357
 30
0.0
 11
1258.073293636134
 21
1676.007191495357
 31
0.0
  0
LINE
  5
30C
330
2A5
100
AcDbEntity
  8
标注
440
 16777216
 48
80.0
100
AcDbLine
 10
1379.597555142619
 20
1278.007191495357
 30
0.0
 11
1258.073293636134
 21
1278.007191495357
 31
0.0
  0
LINE
  5
30D
330
2A5
100
AcDbEntity
  8
标注
440
 16777216
 48
80.0
100
AcDbLine
 10
1260.073293636134
 20
1641.007191495357
 30
0.0
 11
1260.073293636134
 21
1313.007191495357
 31
0.0
  0
SOLID
  5
30E
330
2A5
100
AcDbEntity
  8
标注
440
 16777216
 48
80.0
100
AcDbTrace
 10
1254.239960302801
 20
1641.007191495357
 30
0.0
 11
1265.906626969467
 21
1641.007191495357
 31
0.0
 12
1260.073293636134
 22
1676.007191495357
 32
0.0
 13
1260.073293636134
 23
1676.007191495357
 33
0.0
  0
SOLID
  5
30F
330
2A5
100
AcDbEntity
  8
标注
440
 16777216
 48
80.0
100
AcDbTrace
 10
1254.239960302801
 20
1313.007191495357
 30
0.0
 11
1265.906626969467
 21
1313.007191495357
 31
0.0
 12
1260.073293636134
 22
1278.007191495357
 32
0.0
 13
1260.073293636134
 23
1278.007191495357
 33
0.0
  0
MTEXT
  5
310
330
2A5
100
AcDbEntity
  8
标注
440
 16777216
 48
80.0
100
AcDbMText
 10
1234.573293636133
 20
1477.007191495357
 30
0.0
 40
45.0
 41
0.0
 46
0.0
 71
     5
 72
     1
  1
398
 11
0.0000000000000001
 21
1.0
 31
0.0
 73
     1
 44
1.0
  0
POINT
  5
311
330
2A5
100
AcDbEntity
  8
Defpoints
 62
     0
440
 16777216
 48
80.0
100
AcDbPoint
 10
1381.597555142619
 20
1676.007191495357
 30
0.0
  0
POINT
  5
312
330
2A5
100
AcDbEntity
  8
Defpoints
 62
     0
440
 16777216
 48
80.0
100
AcDbPoint
 10
1381.597555142619
 20
1278.007191495357
 30
0.0
  0
POINT
  5
313
330
2A5
100
AcDbEntity
  8
Defpoints
 62
     0
440
 16777216
 48
80.0
100
AcDbPoint
 10
1260.073293636134
 20
1278.007191495357
 30
0.0
  0
ENDBLK
  5
2A7
330
2A5
100
AcDbEntity
  8
0
100
AcDbBlockEnd
  0
BLOCK
  5
2B2
330
2B1
100
AcDbEntity
  8
0
100
AcDbBlockBegin
  2
*D15
 70
     1
 10
0.0
 20
0.0
 30
0.0
  3
*D15
  1

  0
LINE
  5
314
330
2B1
100
AcDbEntity
  8
标注
440
 16777216
 48
80.0
100
AcDbLine
 10
1301.597555142619
 20
1356.007191495357
 30
0.0
 11
1301.597555142619
 21
1188.332852033503
 31
0.0
  0
LINE
  5
315
330
2B1
100
AcDbEntity
  8
标注
440
 16777216
 48
80.0
100
AcDbLine
 10
1659.597555142619
 20
1356.007191495357
 30
0.0
 11
1659.597555142619
 21
1188.332852033503
 31
0.0
  0
LINE
  5
316
330
2B1
100
AcDbEntity
  8
标注
440
 16777216
 48
80.0
100
AcDbLine
 10
1336.597555142619
 20
1190.332852033503
 30
0.0
 11
1624.597555142619
 21
1190.332852033503
 31
0.0
  0
SOLID
  5
317
330
2B1
100
AcDbEntity
  8
标注
440
 16777216
 48
80.0
100
AcDbTrace
 10
1336.597555142619
 20
1196.166185366837
 30
0.0
 11
1336.597555142619
 21
1184.49951870017
 31
0.0
 12
1301.597555142619
 22
1190.332852033503
 32
0.0
 13
1301.597555142619
 23
1190.332852033503
 33
0.0
  0
SOLID
  5
318
330
2B1
100
AcDbEntity
  8
标注
440
 16777216
 48
80.0
100
AcDbTrace
 10
1624.597555142619
 20
1196.166185366837
 30
0.0
 11
1624.597555142619
 21
1184.49951870017
 31
0.0
 12
1659.597555142619
 22
1190.332852033503
 32
0.0
 13
1659.597555142619
 23
1190.332852033503
 33
0.0
  0
MTEXT
  5
319
330
2B1
100
AcDbEntity
  8
标注
440
 16777216
 48
80.0
100
AcDbMText
 10
1510.597555142619
 20
1215.832852033503
 30
0.0
 40
45.0
 41
0.0
 46
0.0
 71
     5
 72
     1
  1
358
 73
     1
 44
1.0
  0
POINT
  5
31A
330
2B1
100
AcDbEntity
  8
Defpoints
 62
     0
440
 16777216
 48
80.0
100
AcDbPoint
 10
1301.597555142619
 20
1358.007191495357
 30
0.0
  0
POINT
  5
31B
330
2B1
100
AcDbEntity
  8
Defpoints
 62
     0
440
 16777216
 48
80.0
100
AcDbPoint
 10
1659.597555142619
 20
1358.007191495357
 30
0.0
  0
POINT
  5
31C
330
2B1
100
AcDbEntity
  8
Defpoints
 62
     0
440
 16777216
 48
80.0
100
AcDbPoint
 10
1659.597555142619
 20
1190.332852033503
 30
0.0
  0
ENDBLK
  5
2B3
330
2B1
100
AcDbEntity
  8
0
100
AcDbBlockEnd
  0
BLOCK
  5
2BE
330
2BD
100
AcDbEntity
  8
0
100
AcDbBlockBegin
  2
*D16
 70
     1
 10
0.0
 20
0.0
 30
0.0
  3
*D16
  1

  0
LINE
  5
31D
330
2BD
100
AcDbEntity
  8
标注
440
 16777216
 48
80.0
100
AcDbLine
 10
1689.597555142619
 20
1353.507191495357
 30
0.0
 11
1689.597555142619
 21
1189.582852033503
 31
0.0
  0
LINE
  5
31E
330
2BD
100
AcDbEntity
  8
标注
440
 16777216
 48
80.0
100
AcDbLine
 10
1844.597555142619
 20
1353.507191495357
 30
0.0
 11
1844.597555142619
 21
1189.582852033503
 31
0.0
  0
LINE
  5
31F
330
2BD
100
AcDbEntity
  8
标注
440
 16777216
 48
80.0
100
AcDbLine
 10
1724.597555142619
 20
1191.582852033503
 30
0.0
 11
1809.597555142619
 21
1191.582852033503
 31
0.0
  0
SOLID
  5
320
330
2BD
100
AcDbEntity
  8
标注
440
 16777216
 48
80.0
100
AcDbTrace
 10
1724.597555142619
 20
1197.416185366837
 30
0.0
 11
1724.597555142619
 21
1185.74951870017
 31
0.0
 12
1689.597555142619
 22
1191.582852033503
 32
0.0
 13
1689.597555142619
 23
1191.582852033503
 33
0.0
  0
SOLID
  5
321
330
2BD
100
AcDbEntity
  8
标注
440
 16777216
 48
80.0
100
AcDbTrace
 10
1809.597555142619
 20
1197.416185366837
 30
0.0
 11
1809.597555142619
 21
1185.74951870017
 31
0.0
 12
1844.597555142619
 22
1191.582852033503
 32
0.0
 13
1844.597555142619
 23
1191.582852033503
 33
0.0
  0
MTEXT
  5
322
330
2BD
100
AcDbEntity
  8
标注
440
 16777216
 48
80.0
100
AcDbMText
 10
1767.097555142619
 20
1217.082852033503
 30
0.0
 40
45.0
 41
0.0
 46
0.0
 71
     5
 72
     1
  1
155
 73
     1
 44
1.0
  0
POINT
  5
323
330
2BD
100
AcDbEntity
  8
Defpoints
 62
     0
440
 16777216
 48
80.0
100
AcDbPoint
 10
1689.597555142619
 20
1355.507191495357
 30
0.0
  0
POINT
  5
324
330
2BD
100
AcDbEntity
  8
Defpoints
 62
     0
440
 16777216
 48
80.0
100
AcDbPoint
 10
1844.597555142619
 20
1355.507191495357
 30
0.0
  0
POINT
  5
325
330
2BD
100
AcDbEntity
  8
Defpoints
 62
     0
440
 16777216
 48
80.0
100
AcDbPoint
 10
1844.597555142619
 20
1191.582852033503
 30
0.0
  0
ENDBLK
  5
2BF
330
2BD
100
AcDbEntity
  8
0
100
AcDbBlockEnd
  0
BLOCK
  5
2CA
330
2C9
100
AcDbEntity
  8
0
100
AcDbBlockBegin
  2
*D17
 70
     1
 10
0.0
 20
0.0
 30
0.0
  3
*D17
  1

  0
LINE
  5
326
330
2C9
100
AcDbEntity
  8
标注
440
 16777216
 48
80.0
100
AcDbLine
 10
1769.097555142619
 20
1578.007191495357
 30
0.0
 11
1940.99531116644
 21
1578.007191495357
 31
0.0
  0
LINE
  5
327
330
2C9
100
AcDbEntity
  8
标注
440
 16777216
 48
80.0
100
AcDbLine
 10
1769.097555142619
 20
1278.007191495357
 30
0.0
 11
1940.995311166439
 21
1278.007191495357
 31
0.0
  0
LINE
  5
328
330
2C9
100
AcDbEntity
  8
标注
440
 16777216
 48
80.0
100
AcDbLine
 10
1938.995311166439
 20
1543.007191495357
 30
0.0
 11
1938.995311166439
 21
1313.007191495357
 31
0.0
  0
SOLID
  5
329
330
2C9
100
AcDbEntity
  8
标注
440
 16777216
 48
80.0
100
AcDbTrace
 10
1933.161977833106
 20
1543.007191495357
 30
0.0
 11
1944.828644499773
 21
1543.007191495357
 31
0.0
 12
1938.995311166439
 22
1578.007191495357
 32
0.0
 13
1938.995311166439
 23
1578.007191495357
 33
0.0
  0
SOLID
  5
32A
330
2C9
100
AcDbEntity
  8
标注
440
 16777216
 48
80.0
100
AcDbTrace
 10
1933.161977833106
 20
1313.007191495357
 30
0.0
 11
1944.828644499773
 21
1313.007191495357
 31
0.0
 12
1938.995311166439
 22
1278.007191495357
 32
0.0
 13
1938.995311166439
 23
1278.007191495357
 33
0.0
  0
MTEXT
  5
32B
330
2C9
100
AcDbEntity
  8
标注
440
 16777216
 48
80.0
100
AcDbMText
 10
1913.495311166439
 20
1421.357527363971
 30
0.0
 40
45.0
 41
0.0
 46
0.0
 71
     5
 72
     1
  1
300
 11
0.0000000000000001
 21
1.0
 31
0.0
 73
     1
 44
1.0
  0
POINT
  5
32C
330
2C9
100
AcDbEntity
  8
Defpoints
 62
     0
440
 16777216
 48
80.0
100
AcDbPoint
 10
1767.097555142619
 20
1578.007191495357
 30
0.0
  0
POINT
  5
32D
330
2C9
100
AcDbEntity
  8
Defpoints
 62
     0
440
 16777216
 48
80.0
100
AcDbPoint
 10
1767.097555142619
 20
1278.007191495357
 30
0.0
  0
POINT
  5
32E
330
2C9
100
AcDbEntity
  8
Defpoints
 62
     0
440
 16777216
 48
80.0
100
AcDbPoint
 10
1938.995311166439
 20
1278.007191495357
 30
0.0
  0
ENDBLK
  5
2CB
330
2C9
100
AcDbEntity
  8
0
100
AcDbBlockEnd
  0
BLOCK
  5
2D6
330
2D5
100
AcDbEntity
  8
0
100
AcDbBlockBegin
  2
*D18
 70
     1
 10
0.0
 20
0.0
 30
0.0
  3
*D18
  1

  0
LINE
  5
32F
330
2D5
100
AcDbEntity
  8
标注
 62
     0
440
 16777216
 48
80.0
370
    -2
100
AcDbLine
 10
1359.022799030541
 20
1402.779418214896
 30
0.0
 11
1439.022799030541
 21
1402.779418214896
 31
0.0
  0
LINE
  5
330
330
2D5
100
AcDbEntity
  8
标注
 62
     0
440
 16777216
 48
80.0
370
    -2
100
AcDbLine
 10
1439.022799030541
 20
1402.779418214896
 30
0.0
 11
1457.429942958025
 21
1457.781027758917
 31
0.0
  0
LINE
  5
331
330
2D5
100
AcDbEntity
  8
标注
 62
     0
440
 16777216
 48
80.0
370
    -2
100
AcDbLine
 10
1503.765167327209
 20
1596.233355231796
 30
0.0
 11
1512.651374740477
 21
1622.785856390979
 31
0.0
  0
MTEXT
  5
332
330
2D5
100
AcDbEntity
  8
标注
 62
     0
440
 16777216
 48
80.0
100
AcDbMText
 10
1396.522799030542
 20
1422.779418214896
 30
0.0
 40
30.0
 41
0.0
 46
0.0
 71
     5
 72
     1
  1
∅90
 73
     1
 44
1.0
  0
LINE
  5
333
330
2D5
100
AcDbEntity
  8
标注
 62
     0
440
 16777216
 48
80.0
370
    -2
100
AcDbLine
 10
1494.878959913941
 20
1569.680854072614
 30
0.0
 11
1466.316150371293
 21
1484.333528918099
 31
0.0
  0
SOLID
  5
334
330
2D5
100
AcDbEntity
  8
标注
 62
     0
440
 16777216
 48
80.0
100
AcDbTrace
 10
1499.339750467345
 20
1597.714389800675
 30
0.0
 11
1508.190584187072
 21
1594.752320662919
 31
0.0
 12
1494.878959913941
 22
1569.680854072614
 32
0.0
 13
1494.878959913941
 23
1569.680854072614
 33
0.0
  0
SOLID
  5
335
330
2D5
100
AcDbEntity
  8
标注
 62
     0
440
 16777216
 48
80.0
100
AcDbTrace
 10
1453.004526098161
 20
1459.262062327795
 30
0.0
 11
1461.855359817889
 21
1456.299993190039
 31
0.0
 12
1466.316150371293
 22
1484.333528918099
 32
0.0
 13
1466.316150371293
 23
1484.333528918099
 33
0.0
  0
POINT
  5
336
330
2D5
100
AcDbEntity
  8
Defpoints
 62
     0
440
 16777216
 48
80.0
100
AcDbPoint
 10
1466.316150371293
 20
1484.333528918099
 30
0.0
  0
POINT
  5
337
330
2D5
100
AcDbEntity
  8
Defpoints
 62
     0
440
 16777216
 48
80.0
100
AcDbPoint
 10
1494.878959913941
 20
1569.680854072614
 30
0.0
  0
ENDBLK
  5
2D7
330
2D5
100
AcDbEntity
  8
0
100
AcDbBlockEnd
  0
BLOCK
  5
2E2
330
2E1
100
AcDbEntity
  8
0
100
AcDbBlockBegin
  2
*D19
 70
     1
 10
0.0
 20
0.0
 30
0.0
  3
*D19
  1

  0
LINE
  5
338
330
2E1
100
AcDbEntity
  8
标注
440
 16777216
 48
80.0
100
AcDbLine
 10
1433.597555142621
 20
693.4789322162088
 30
0.0
 11
1266.134469736006
 21
693.4789322162088
 31
0.0
  0
LINE
  5
339
330
2E1
100
AcDbEntity
  8
标注
440
 16777216
 48
80.0
100
AcDbLine
 10
1271.597555142619
 20
883.4789322162087
 30
0.0
 11
1266.134469736006
 21
883.4789322162087
 31
0.0
  0
LINE
  5
33A
330
2E1
100
AcDbEntity
  8
标注
440
 16777216
 48
80.0
100
AcDbLine
 10
1268.134469736006
 20
728.4789322162088
 30
0.0
 11
1268.134469736006
 21
848.4789322162086
 31
0.0
  0
SOLID
  5
33B
330
2E1
100
AcDbEntity
  8
标注
440
 16777216
 48
80.0
100
AcDbTrace
 10
1262.301136402673
 20
728.4789322162088
 30
0.0
 11
1273.967803069339
 21
728.4789322162088
 31
0.0
 12
1268.134469736006
 22
693.4789322162088
 32
0.0
 13
1268.134469736006
 23
693.4789322162088
 33
0.0
  0
SOLID
  5
33C
330
2E1
100
AcDbEntity
  8
标注
440
 16777216
 48
80.0
100
AcDbTrace
 10
1262.301136402673
 20
848.4789322162086
 30
0.0
 11
1273.967803069339
 21
848.4789322162086
 31
0.0
 12
1268.134469736006
 22
883.4789322162087
 32
0.0
 13
1268.134469736006
 23
883.4789322162087
 33
0.0
  0
MTEXT
  5
33D
330
2E1
100
AcDbEntity
  8
标注
440
 16777216
 48
80.0
100
AcDbMText
 10
1242.634469736006
 20
788.4789322162088
 30
0.0
 40
45.0
 41
0.0
 46
0.0
 71
     5
 72
     1
  1
190
 11
0.0000000000000001
 21
1.0
 31
0.0
 73
     1
 44
1.0
  0
POINT
  5
33E
330
2E1
100
AcDbEntity
  8
Defpoints
 62
     0
440
 16777216
 48
80.0
100
AcDbPoint
 10
1435.597555142621
 20
693.4789322162088
 30
0.0
  0
POINT
  5
33F
330
2E1
100
AcDbEntity
  8
Defpoints
 62
     0
440
 16777216
 48
80.0
100
AcDbPoint
 10
1273.597555142619
 20
883.4789322162087
 30
0.0
  0
POINT
  5
340
330
2E1
100
AcDbEntity
  8
Defpoints
 62
     0
440
 16777216
 48
80.0
100
AcDbPoint
 10
1268.134469736006
 20
883.4789322162087
 30
0.0
  0
ENDBLK
  5
2E3
330
2E1
100
AcDbEntity
  8
0
100
AcDbBlockEnd
  0
BLOCK
  5
2EE
330
2ED
100
AcDbEntity
  8
0
100
AcDbBlockBegin
  2
*D20
 70
     1
 10
0.0
 20
0.0
 30
0.0
  3
*D20
  1

  0
LINE
  5
341
330
2ED
100
AcDbEntity
  8
标注
440
 16777216
 48
80.0
100
AcDbLine
 10
1769.097555142619
 20
1250.007191495357
 30
0.0
 11
1997.941506022867
 21
1250.007191495357
 31
0.0
  0
LINE
  5
342
330
2ED
100
AcDbEntity
  8
标注
440
 16777216
 48
80.0
100
AcDbLine
 10
1769.097555142619
 20
1606.007191495357
 30
0.0
 11
1997.941506022867
 21
1606.007191495357
 31
0.0
  0
LINE
  5
343
330
2ED
100
AcDbEntity
  8
标注
440
 16777216
 48
80.0
100
AcDbLine
 10
1995.941506022867
 20
1285.007191495357
 30
0.0
 11
1995.941506022867
 21
1571.007191495357
 31
0.0
  0
SOLID
  5
344
330
2ED
100
AcDbEntity
  8
标注
440
 16777216
 48
80.0
100
AcDbTrace
 10
1990.108172689534
 20
1285.007191495357
 30
0.0
 11
2001.7748393562
 21
1285.007191495357
 31
0.0
 12
1995.941506022867
 22
1250.007191495357
 32
0.0
 13
1995.941506022867
 23
1250.007191495357
 33
0.0
  0
SOLID
  5
345
330
2ED
100
AcDbEntity
  8
标注
440
 16777216
 48
80.0
100
AcDbTrace
 10
1990.108172689534
 20
1571.007191495357
 30
0.0
 11
2001.774839356201
 21
1571.007191495357
 31
0.0
 12
1995.941506022867
 22
1606.007191495357
 32
0.0
 13
1995.941506022867
 23
1606.007191495357
 33
0.0
  0
MTEXT
  5
346
330
2ED
100
AcDbEntity
  8
标注
440
 16777216
 48
80.0
100
AcDbMText
 10
1970.441506022866
 20
1428.007191495364
 30
0.0
 40
45.0
 41
0.0
 46
0.0
 71
     5
 72
     1
  1
356
 11
0.0000000000000001
 21
1.0
 31
0.0
 73
     1
 44
1.0
  0
POINT
  5
347
330
2ED
100
AcDbEntity
  8
Defpoints
 62
     0
440
 16777216
 48
80.0
100
AcDbPoint
 10
1767.097555142619
 20
1250.007191495357
 30
0.0
  0
POINT
  5
348
330
2ED
100
AcDbEntity
  8
Defpoints
 62
     0
440
 16777216
 48
80.0
100
AcDbPoint
 10
1767.097555142619
 20
1606.007191495357
 30
0.0
  0
POINT
  5
349
330
2ED
100
AcDbEntity
  8
Defpoints
 62
     0
440
 16777216
 48
80.0
100
AcDbPoint
 10
1995.941506022867
 20
1606.007191495357
 30
0.0
  0
ENDBLK
  5
2EF
330
2ED
100
AcDbEntity
  8
0
100
AcDbBlockEnd
  0
BLOCK
  5
34B
330
34A
100
AcDbEntity
  8
0
100
AcDbBlockBegin
  2
*D21
 70
     1
 10
0.0
 20
0.0
 30
0.0
  3
*D21
  1

  0
LINE
  5
362
330
34A
100
AcDbEntity
  8
标注
440
 16777216
100
AcDbLine
 10
1712.786420897445
 20
1517.504677334983
 30
0.0
 11
1763.786420897445
 21
1517.504677334983
 31
0.0
  0
LINE
  5
363
330
34A
100
AcDbEntity
  8
标注
440
 16777216
100
AcDbLine
 10
1763.786420897445
 20
1517.504677334983
 30
0.0
 11
1764.842283982491
 21
1488.965486681446
 31
0.0
  0
LINE
  5
364
330
34A
100
AcDbEntity
  8
标注
440
 16777216
100
AcDbLine
 10
1769.352826302748
 20
1367.048896309261
 30
0.0
 11
1769.944372836552
 21
1351.059835276844
 31
0.0
  0
MTEXT
  5
365
330
34A
100
AcDbEntity
  8
标注
440
 16777216
100
AcDbMText
 10
1737.786420897444
 20
1528.504677334983
 30
0.0
 40
20.0
 41
0.0
 46
0.0
 71
     5
 72
     1
  1
∅90
 73
     1
 44
1.0
  0
LINE
  5
366
330
34A
100
AcDbEntity
  8
标注
440
 16777216
100
AcDbLine
 10
1768.761279768944
 20
1383.037957341677
 30
0.0
 11
1765.433830516295
 21
1472.976425649029
 31
0.0
  0
SOLID
  5
367
330
34A
100
AcDbEntity
  8
标注
440
 16777216
100
AcDbTrace
 10
1772.017669808151
 20
1367.147487398228
 30
0.0
 11
1766.687982797345
 21
1366.950305220294
 31
0.0
 12
1768.761279768944
 22
1383.037957341677
 32
0.0
 13
1768.761279768944
 23
1383.037957341677
 33
0.0
  0
SOLID
  5
368
330
34A
100
AcDbEntity
  8
标注
440
 16777216
100
AcDbTrace
 10
1767.507127487894
 20
1489.064077770413
 30
0.0
 11
1762.177440477088
 21
1488.866895592478
 31
0.0
 12
1765.433830516295
 22
1472.976425649029
 32
0.0
 13
1765.433830516295
 23
1472.976425649029
 33
0.0
  0
POINT
  5
369
330
34A
100
AcDbEntity
  8
Defpoints
 62
     0
440
 16777216
100
AcDbPoint
 10
1765.433830516295
 20
1472.976425649029
 30
0.0
  0
POINT
  5
36A
330
34A
100
AcDbEntity
  8
Defpoints
 62
     0
440
 16777216
100
AcDbPoint
 10
1768.761279768944
 20
1383.037957341677
 30
0.0
  0
ENDBLK
  5
34C
330
34A
100
AcDbEntity
  8
0
100
AcDbBlockEnd
  0
BLOCK
  5
357
330
356
100
AcDbEntity
  8
0
100
AcDbBlockBegin
  2
*D22
 70
     1
 10
0.0
 20
0.0
 30
0.0
  3
*D22
  1

  0
LINE
  5
359
330
356
100
AcDbEntity
  8
标注
440
 16777216
100
AcDbLine
 10
1814.097555142621
 20
753.4789322162088
 30
0.0
 11
1903.82138557696
 21
753.4789322162088
 31
0.0
  0
LINE
  5
35A
330
356
100
AcDbEntity
  8
标注
440
 16777216
100
AcDbLine
 10
1874.597555142619
 20
883.4789322162087
 30
0.0
 11
1903.82138557696
 21
883.4789322162087
 31
0.0
  0
LINE
  5
35B
330
356
100
AcDbEntity
  8
标注
440
 16777216
100
AcDbLine
 10
1901.82138557696
 20
788.4789322162086
 30
0.0
 11
1901.82138557696
 21
848.4789322162086
 31
0.0
  0
SOLID
  5
35C
330
356
100
AcDbEntity
  8
标注
440
 16777216
100
AcDbTrace
 10
1895.988052243627
 20
788.4789322162086
 30
0.0
 11
1907.654718910293
 21
788.4789322162086
 31
0.0
 12
1901.82138557696
 22
753.4789322162088
 32
0.0
 13
1901.82138557696
 23
753.4789322162088
 33
0.0
  0
SOLID
  5
35D
330
356
100
AcDbEntity
  8
标注
440
 16777216
100
AcDbTrace
 10
1895.988052243627
 20
848.4789322162086
 30
0.0
 11
1907.654718910293
 21
848.4789322162086
 31
0.0
 12
1901.82138557696
 22
883.4789322162087
 32
0.0
 13
1901.82138557696
 23
883.4789322162087
 33
0.0
  0
MTEXT
  5
35E
330
356
100
AcDbEntity
  8
标注
440
 16777216
100
AcDbMText
 10
1876.32138557696
 20
818.4789322162091
 30
0.0
 40
45.0
 41
0.0
 46
0.0
 71
     5
 72
     1
  1
130
 11
0.0000000000000001
 21
1.0
 31
0.0
 73
     1
 44
1.0
  0
POINT
  5
35F
330
356
100
AcDbEntity
  8
Defpoints
 62
     0
440
 16777216
100
AcDbPoint
 10
1812.097555142621
 20
753.4789322162088
 30
0.0
  0
POINT
  5
360
330
356
100
AcDbEntity
  8
Defpoints
 62
     0
440
 16777216
100
AcDbPoint
 10
1872.597555142619
 20
883.4789322162087
 30
0.0
  0
POINT
  5
361
330
356
100
AcDbEntity
  8
Defpoints
 62
     0
440
 16777216
100
AcDbPoint
 10
1901.82138557696
 20
883.4789322162087
 30
0.0
  0
ENDBLK
  5
358
330
356
100
AcDbEntity
  8
0
100
AcDbBlockEnd
  0
ENDSEC
  0
SECTION
  2
ENTITIES
  0
LINE
  5
26E
330
1F
100
AcDbEntity
  8
0
100
AcDbLine
 10
1659.597555142619
 20
1596.007191495357
 30
0.0
 11
1659.597555142619
 21
1358.007191495357
 31
0.0
  0
LINE
  5
26F
330
1F
100
AcDbEntity
  8
0
100
AcDbLine
 10
1381.597555142619
 20
1250.007191495357
 30
0.0
 11
1767.097555142619
 21
1250.007191495357
 31
0.0
  0
LINE
  5
270
102
{ACAD_REACTORS
330
289
102
}
330
1F
100
AcDbEntity
  8
0
100
AcDbLine
 10
1273.597555142619
 20
883.4789322162087
 30
0.0
 11
1872.597555142619
 21
883.4789322162087
 31
0.0
  0
CIRCLE
  5
271
330
1F
100
AcDbEntity
  8
0
100
AcDbCircle
 10
1480.597555142619
 20
1527.007191495357
 30
0.0
 40
45.0
  0
CIRCLE
  5
272
102
{ACAD_REACTORS
330
280
102
}
330
1F
100
AcDbEntity
  8
0
100
AcDbCircle
 10
1767.097555142619
 20
1428.007191495357
 30
0.0
 40
45.0
  0
CIRCLE
  5
273
330
1F
100
AcDbEntity
  8
0
100
AcDbCircle
 10
1767.097555142619
 20
1428.007191495357
 30
0.0
 40
55.0
  0
CIRCLE
  5
274
330
1F
100
AcDbEntity
  8
0
100
AcDbCircle
 10
1480.597555142619
 20
1527.007191495357
 30
0.0
 40
55.0
  0
DIMENSION
  5
275
330
1F
100
AcDbEntity
  8
标注
 48
80.0
100
AcDbDimension
280
     0
  2
*D12
 10
1872.597555142619
 20
1132.477533511364
 30
0.0
 11
1573.097555142619
 21
1132.477533511364
 31
0.0
 70
   160
 71
     5
 42
599.0
 73
     0
 74
     0
 75
     0
  3
ISO-45
100
AcDbAlignedDimension
 13
1273.597555142619
 23
1338.007191495357
 33
0.0
 14
1872.597555142619
 24
1335.507191495357
 34
0.0
100
AcDbRotatedDimension
  0
DIMENSION
  5
276
330
1F
100
AcDbEntity
  8
标注
 48
80.0
100
AcDbDimension
280
     0
  2
*D13
 10
1200.413257899915
 20
1250.007191495357
 30
0.0
 11
1200.413257899915
 21
1477.007191495357
 31
0.0
 70
   160
 71
     5
 42
454.0
 73
     0
 74
     0
 75
     0
  3
ISO-45
100
AcDbAlignedDimension
 13
1381.597555142619
 23
1704.007191495357
 33
0.0
 14
1381.597555142619
 24
1250.007191495357
 34
0.0
 50
90.0
100
AcDbRotatedDimension
  0
DIMENSION
  5
277
330
1F
100
AcDbEntity
  8
标注
 48
80.0
100
AcDbDimension
280
     0
  2
*D14
 10
1260.073293636134
 20
1278.007191495357
 30
0.0
 11
1260.073293636134
 21
1477.007191495357
 31
0.0
 70
   160
 71
     5
 42
398.0
 73
     0
 74
     0
 75
     0
  3
ISO-45
100
AcDbAlignedDimension
 13
1381.597555142619
 23
1676.007191495357
 33
0.0
 14
1381.597555142619
 24
1278.007191495357
 34
0.0
 50
90.0
100
AcDbRotatedDimension
  0
DIMENSION
  5
278
330
1F
100
AcDbEntity
  8
标注
 48
80.0
100
AcDbDimension
280
     0
  2
*D15
 10
1659.597555142619
 20
1190.332852033503
 30
0.0
 11
1510.597555142619
 21
1190.332852033503
 31
0.0
 70
   160
 71
     5
 42
358.0
 73
     0
 74
     0
 75
     0
  3
ISO-45
100
AcDbAlignedDimension
 13
1301.597555142619
 23
1358.007191495357
 33
0.0
 14
1659.597555142619
 24
1358.007191495357
 34
0.0
100
AcDbRotatedDimension
  0
DIMENSION
  5
279
330
1F
100
AcDbEntity
  8
标注
 48
80.0
100
AcDbDimension
280
     0
  2
*D16
 10
1844.597555142619
 20
1191.582852033503
 30
0.0
 11
1767.097555142619
 21
1191.582852033503
 31
0.0
 70
   160
 71
     5
 42
155.0
 73
     0
 74
     0
 75
     0
  3
ISO-45
100
AcDbAlignedDimension
 13
1689.597555142619
 23
1355.507191495357
 33
0.0
 14
1844.597555142619
 24
1355.507191495357
 34
0.0
100
AcDbRotatedDimension
  0
DIMENSION
  5
27A
330
1F
100
AcDbEntity
  8
标注
 48
80.0
100
AcDbDimension
280
     0
  2
*D17
 10
1938.995311166439
 20
1278.007191495357
 30
0.0
 11
1938.995311166439
 21
1421.357527363971
 31
0.0
 70
   160
 71
     5
 42
300.0
 73
     0
 74
     0
 75
     0
  3
ISO-45
100
AcDbAlignedDimension
 13
1767.097555142619
 23
1578.007191495357
 33
0.0
 14
1767.097555142619
 24
1278.007191495357
 34
0.0
 50
90.0
100
AcDbRotatedDimension
  0
DIMENSION
  5
27B
330
1F
100
AcDbEntity
  8
标注
 48
80.0
100
AcDbDimension
280
     0
  2
*D18
 10
1494.878959913941
 20
1569.680854072614
 30
0.0
 11
1396.522799030542
 21
1422.779418214896
 31
0.0
 70
    35
 71
     5
 42
90.00000000000023
 73
     0
 74
     0
 75
     0
  3
0-ISO-30
100
AcDbDiametricDimension
 15
1466.316150371293
 25
1484.333528918099
 35
0.0
 40
0.0
  0
DIMENSION
  5
27C
330
1F
100
AcDbEntity
  8
标注
 48
80.0
100
AcDbDimension
280
     0
  2
*D19
 10
1268.134469736006
 20
883.4789322162087
 30
0.0
 11
1242.634469736006
 21
788.4789322162088
 31
0.0
 70
    32
 71
     5
 42
189.9999999999998
 73
     0
 74
     0
 75
     0
  3
ISO-45
100
AcDbAlignedDimension
 13
1435.597555142621
 23
693.4789322162088
 33
0.0
 14
1273.597555142619
 24
883.4789322162087
 34
0.0
 50
90.0
100
AcDbRotatedDimension
  0
DIMENSION
  5
27D
330
1F
100
AcDbEntity
  8
标注
 48
80.0
100
AcDbDimension
280
     0
  2
*D20
 10
1995.941506022867
 20
1606.007191495357
 30
0.0
 11
1995.941506022867
 21
1428.007191495364
 31
0.0
 70
   160
 71
     5
 42
356.0
 73
     0
 74
     0
 75
     0
  3
ISO-45
100
AcDbAlignedDimension
 13
1767.097555142619
 23
1250.007191495357
 33
0.0
 14
1767.097555142619
 24
1606.007191495357
 34
0.0
 50
90.0
100
AcDbRotatedDimension
  0
DIMENSION
  5
27E
102
{ACAD_XDICTIONARY
360
27F
102
}
102
{ACAD_REACTORS
330
280
102
}
330
1F
100
AcDbEntity
  8
标注
100
AcDbDimension
280
     0
  2
*D21
 10
1768.761279768944
 20
1383.037957341677
 30
0.0
 11
1737.786420897444
 21
1517.504677334983
 31
0.0
 70
   163
 71
     5
 42
90.00000000000772
 73
     0
 74
     0
 75
     0
  3
0-ISO-20
100
AcDbDiametricDimension
 15
1765.433830516295
 25
1472.976425649029
 35
0.0
 40
0.0
  0
LWPOLYLINE
  5
281
330
1F
100
AcDbEntity
  8
0
100
AcDbPolyline
 90
        4
 70
     1
 43
0.0
 10
1425.597555142621
 20
698.4789322162088
 10
1535.597555142621
 20
698.4789322162088
 10
1525.597555142621
 20
693.4789322162088
 10
1435.597555142621
 20
693.4789322162088
  0
LWPOLYLINE
  5
282
330
1F
100
AcDbEntity
  8
0
100
AcDbPolyline
 90
        8
 70
     1
 43
0.0
 10
1381.597555142619
 20
1676.007191495357
 10
1579.597555142621
 20
1676.007191495353
 42
-0.4142135623730951
 10
1659.597555142621
 20
1596.007191495353
 10
1659.597555142619
 20
1358.007191495357
 42
-0.4142135623730935
 10
1579.597555142619
 20
1278.007191495357
 10
1381.597555142619
 20
1278.007191495353
 42
-0.4142135623730951
 10
1301.597555142619
 20
1358.007191495353
 10
1301.597555142619
 20
1596.007191495357
 42
-0.4142135623730951
  0
LWPOLYLINE
  5
283
330
1F
100
AcDbEntity
  8
0
100
AcDbPolyline
 90
        9
 70
     0
 43
0.0
 10
1579.597555142619
 20
1250.007191495357
 10
1381.597555142619
 20
1250.007191495353
 42
-0.4142135623730951
 10
1273.597555142619
 20
1358.007191495353
 10
1273.597555142619
 20
1596.007191495357
 42
-0.4142135623730951
 10
1381.597555142619
 20
1704.007191495357
 10
1579.597555142621
 20
1704.007191495353
 42
-0.3101825499524912
 10
1680.37817611716
 20
1634.830720907122
 42
0.310182549952517
 10
1722.370101523222
 20
1606.007191495357
 10
1767.097555142613
 20
1606.007191495357
  0
LWPOLYLINE
  5
284
330
1F
100
AcDbEntity
  8
0
100
AcDbPolyline
 90
        4
 70
     0
 43
0.0
 10
1767.097555142619
 20
1606.007191495357
 42
-0.4142135623730951
 10
1872.597555142619
 20
1500.507191495357
 10
1872.597555142619
 20
1355.507191495357
 42
-0.4142135623730951
 10
1767.097555142619
 20
1250.007191495357
  0
LWPOLYLINE
  5
285
330
1F
100
AcDbEntity
  8
0
100
AcDbPolyline
 90
        8
 70
     0
 43
0.0
 10
1659.597555142619
 20
883.4789322162087
 10
1655.235490731945
 20
730.8066778427181
 42
-0.3816625836236815
 10
1632.339150264996
 20
706.6084780248147
 10
1535.597555142621
 20
698.4789322162088
 10
1425.597555142621
 20
698.4789322162088
 10
1328.85596002024
 20
706.6084780248075
 42
-0.381662583623679
 10
1305.959619553291
 20
730.806677842711
 10
1301.597555142619
 20
883.4789322162087
  0
LWPOLYLINE
  5
286
102
{ACAD_REACTORS
330
289
102
}
330
1F
100
AcDbEntity
  8
0
100
AcDbPolyline
 90
        4
 70
     1
 43
0.0
 10
1712.097555142621
 20
758.4789322162087
 10
1822.097555142621
 20
758.4789322162087
 10
1812.097555142621
 20
753.4789322162088
 10
1722.097555142621
 20
753.4789322162088
  0
DIMENSION
  5
287
102
{ACAD_XDICTIONARY
360
288
102
}
102
{ACAD_REACTORS
330
289
102
}
330
1F
100
AcDbEntity
  8
标注
100
AcDbDimension
280
     0
  2
*D22
 10
1901.82138557696
 20
883.4789322162087
 30
0.0
 11
1876.32138557696
 21
818.4789322162091
 31
0.0
 70
    32
 71
     5
 42
130.0
 73
     0
 74
     0
 75
     0
  3
ISO-45
100
AcDbAlignedDimension
 13
1812.097555142621
 23
753.4789322162088
 33
0.0
 14
1872.597555142619
 24
883.4789322162087
 34
0.0
 50
90.0
100
AcDbRotatedDimension
  0
LWPOLYLINE
  5
28A
330
1F
100
AcDbEntity
  8
0
100
AcDbPolyline
 90
        7
 70
     1
 43
0.0
 10
1689.597555142619
 20
883.4789322162087
 10
1844.597555142619
 20
883.4789322162087
 10
1839.597555142619
 20
768.4789322162088
 10
1822.097555142619
 20
758.4789322162087
 10
1712.097555142619
 20
758.4789322162087
 10
1706.571445428411
 20
761.6367091957562
 42
-0.2575265448561419
 10
1693.998514928454
 20
782.2568571419597
  0
LWPOLYLINE
  5
28B
330
1F
100
AcDbEntity
  8
0
100
AcDbPolyline
 90
        8
 70
     1
 43
0.0
 10
1767.097555142623
 20
1578.007191495357
 10
1767.097555142623
 20
1578.007191495357
 42
-0.4142135623730951
 10
1844.597555142622
 20
1500.507191495357
 10
1844.597555142622
 20
1355.507191495357
 42
-0.4142135623730951
 10
1767.097555142623
 20
1278.007191495357
 10
1767.097555142623
 20
1278.007191495357
 42
-0.4142135623730951
 10
1689.597555142622
 20
1355.507191495357
 10
1689.597555142622
 20
1500.507191495357
 42
-0.4142135623730951
  0
ENDSEC
  0
SECTION
  2
OBJECTS
  0
DICTIONARY
  5
C
330
0
100
AcDbDictionary
281
     1
  3
ACAD_CIP_PREVIOUS_PRODUCT_INFO
350
384
  3
ACAD_COLOR
350
6B
  3
ACAD_DETAILVIEWSTYLE
350
37D
  3
ACAD_GROUP
350
D
  3
ACAD_LAYOUT
350
1A
  3
ACAD_MATERIAL
350
6A
  3
ACAD_MLEADERSTYLE
350
12D
  3
ACAD_MLINESTYLE
350
17
  3
ACAD_PLOTSETTINGS
350
19
  3
ACAD_PLOTSTYLENAME
350
E
  3
ACAD_SCALELIST
350
10C
  3
ACAD_SECTIONVIEWSTYLE
350
37B
  3
ACAD_TABLESTYLE
350
7E
  3
ACAD_VISUALSTYLE
350
EF
  3
ACDB_RECOMPOSE_DATA
350
398
  3
AcDbVariableDictionary
350
5E
  3
lxx_dict
350
1B1
  0
DICTIONARY
  5
245
330
2
100
AcDbDictionary
280
     1
281
     1
  3
ACAD_LAYERSTATES
360
246
  0
DICTIONARY
  5
13C
330
10
100
AcDbDictionary
280
     1
281
     1
  3
ADSK_XREC_LAYER_RECONCILED
360
36B
  0
DICTIONARY
  5
239
330
238
100
AcDbDictionary
280
     1
281
     1
  3
ADSK_XREC_LAYER_RECONCILED
360
36C
  0
DICTIONARY
  5
23B
330
23A
100
AcDbDictionary
280
     1
281
     1
  3
ADSK_XREC_LAYER_RECONCILED
360
36D
  0
DICTIONARY
  5
27F
330
27E
100
AcDbDictionary
280
     1
281
     1
  3
ACAD_DIMASSOC
360
280
  0
DICTIONARY
  5
288
330
287
100
AcDbDictionary
280
     1
281
     1
  3
ACAD_DIMASSOC
360
289
  0
XRECORD
  5
384
102
{ACAD_REACTORS
330
C
102
}
330
C
100
AcDbXrecord
280
     1
300
ACD
300
2017
300
ACD_F_S
  0
DICTIONARY
  5
6B
102
{ACAD_REACTORS
330
C
102
}
330
C
100
AcDbDictionary
281
     1
  0
DICTIONARY
  5
37D
102
{ACAD_REACTORS
330
C
102
}
330
C
100
AcDbDictionary
281
     1
  3
Metric50
350
37E
  0
DICTIONARY
  5
D
102
{ACAD_REACTORS
330
C
102
}
330
C
100
AcDbDictionary
281
     1
  0
DICTIONARY
  5
1A
102
{ACAD_REACTORS
330
C
102
}
330
C
100
AcDbDictionary
281
     1
  3
Model
350
22
  3
布局1
350
D3
  3
布局2
350
D7
  0
DICTIONARY
  5
6A
102
{ACAD_REACTORS
330
C
102
}
330
C
100
AcDbDictionary
281
     1
  3
ByBlock
350
ED
  3
ByLayer
350
EC
  3
Global
350
EE
  0
DICTIONARY
  5
12D
102
{ACAD_REACTORS
330
C
102
}
330
C
100
AcDbDictionary
281
     1
  3
Annotative
350
13B
  3
Standard
350
12E
  0
DICTIONARY
  5
17
102
{ACAD_REACTORS
330
C
102
}
330
C
100
AcDbDictionary
281
     1
  3
Standard
350
18
  0
DICTIONARY
  5
19
102
{ACAD_REACTORS
330
C
102
}
330
C
100
AcDbDictionary
281
     1
  0
ACDBDICTIONARYWDFLT
  5
E
102
{ACAD_REACTORS
330
C
102
}
330
C
100
AcDbDictionary
281
     1
  3
Normal
350
F
100
AcDbDictionaryWithDefault
340
F
  0
DICTIONARY
  5
10C
102
{ACAD_REACTORS
330
C
102
}
330
C
100
AcDbDictionary
281
     1
  3
A0
350
10D
  3
A1
350
188
  3
A2
350
189
  3
A3
350
18A
  3
A4
350
18B
  3
A5
350
18C
  3
A6
350
18D
  3
A7
350
18E
  3
A8
350
18F
  3
A9
350
190
  3
B0
350
191
  3
B1
350
192
  3
B2
350
193
  3
B3
350
194
  3
B4
350
195
  3
B5
350
196
  3
B6
350
197
  3
B7
350
198
  3
B8
350
199
  3
B9
350
19A
  3
C0
350
19B
  3
C1
350
19C
  3
C2
350
19D
  3
C3
350
19E
  3
C4
350
19F
  3
C5
350
1A0
  3
C6
350
1A1
  3
C7
350
1A2
  3
C8
350
1A3
  3
C9
350
1A4
  3
D0
350
1A5
  3
D1
350
1A6
  3
D2
350
1A7
  0
DICTIONARY
  5
37B
102
{ACAD_REACTORS
330
C
102
}
330
C
100
AcDbDictionary
281
     1
  3
Metric50
350
37C
  0
DICTIONARY
  5
7E
102
{ACAD_REACTORS
330
C
102
}
330
C
100
AcDbDictionary
281
     1
  3
Standard
350
7F
  0
DICTIONARY
  5
EF
102
{ACAD_REACTORS
330
C
102
}
330
C
100
AcDbDictionary
281
     1
  3
2dWireframe
350
F5
  3
3D Hidden
350
F7
  3
3dWireframe
350
F6
  3
Basic
350
F4
  3
Brighten
350
FB
  3
ColorChange
350
FF
  3
Conceptual
350
F8
  3
Dim
350
FA
  3
EdgeColorOff
350
37A
  3
Facepattern
350
FE
  3
Flat
350
F0
  3
FlatWithEdges
350
F1
  3
Gouraud
350
F2
  3
GouraudWithEdges
350
F3
  3
Hidden
350
372
  3
JitterOff
350
378
  3
Linepattern
350
FD
  3
OverhangOff
350
379
  3
Realistic
350
F9
  3
Shaded
350
377
  3
Shaded with edges
350
376
  3
Shades of Gray
350
373
  3
Sketchy
350
374
  3
Thicken
350
FC
  3
Wireframe
350
371
  3
X-Ray
350
375
  0
XRECORD
  5
398
102
{ACAD_REACTORS
330
C
102
}
330
C
100
AcDbXrecord
280
     1
 90
        1
330
7F
330
37C
330
37E
  0
DICTIONARY
  5
5E
102
{ACAD_REACTORS
330
C
102
}
330
C
100
AcDbDictionary
281
     1
  3
CANNOSCALE
350
146
  3
CMLEADERSTYLE
350
145
  3
CTABLESTYLE
350
84
  3
CVIEWDETAILSTYLE
350
38F
  3
CVIEWSECTIONSTYLE
350
390
  3
DIMASSOC
350
5F
  3
HIDETEXT
350
63
  3
LAYEREVAL
350
391
  3
LAYERNOTIFY
350
392
  0
DICTIONARY
  5
1B1
102
{ACAD_REACTORS
330
C
102
}
330
C
100
AcDbDictionary
281
     1
  3
lxx_dimth
350
1B2
  0
DICTIONARY
  5
246
102
{ACAD_REACTORS
330
245
102
}
330
245
100
AcDbDictionary
281
     1
  0
XRECORD
  5
36B
102
{ACAD_REACTORS
330
13C
102
}
330
13C
100
AcDbXrecord
280
     1
290
     1
  0
XRECORD
  5
36C
102
{ACAD_REACTORS
330
239
102
}
330
239
100
AcDbXrecord
280
     1
290
     1
  0
XRECORD
  5
36D
102
{ACAD_REACTORS
330
23B
102
}
330
23B
100
AcDbXrecord
280
     1
290
     1
  0
DIMASSOC
  5
280
102
{ACAD_REACTORS
330
27F
102
}
330
27F
100
AcDbDimAssoc
330
27E
 90
        2
 70
     0
 71
     0
  1
AcDbOsnapPointRef
 72
     3
331
272
 73
     2
 91
        0
 40
0.0
 10
0.0
 20
0.0
 30
0.0
 75
     0
  0
DIMASSOC
  5
289
102
{ACAD_REACTORS
330
288
102
}
330
288
100
AcDbDimAssoc
330
287
 90
        3
 70
     0
 71
     0
  1
AcDbOsnapPointRef
 72
     1
331
286
 73
     2
 91
        2
 40
0.9999999999999998
 10
0.0
 20
0.0
 30
2.000000000000000E+50
 75
     0
  1
AcDbOsnapPointRef
 72
     1
331
270
 73
     2
 91
        0
 40
1.0
 10
0.0
 20
0.0
 30
2.000000000000000E+50
 75
     0
  0
ACDBDETAILVIEWSTYLE
  5
37E
102
{ACAD_XDICTIONARY
360
396
102
}
102
{ACAD_REACTORS
330
37D
102
}
330
37D
100
AcDbModelDocViewStyle
 70
     0
  3
Metric50
290
     0
100
AcDbDetailViewStyle
 70
     0
 71
     0
 90
        3
 71
     1
340
11
 62
   256
 40
5.0
340
0
 62
   256
 40
5.0
300

 40
0.0
280
     1
 71
     2
340
16
 90
       25
 62
   256
 71
     3
340
11
 62
   256
 40
5.0
 90
        0
 40
15.0
 90
        1
300
%<\AcVar ViewDetailId>% (%<\AcVar ViewScale \f "%sn">%)
 71
     4
340
16
 90
       25
 62
   256
340
16
 90
       25
 62
   256
280
     0
  0
LAYOUT
  5
22
102
{ACAD_REACTORS
330
1A
102
}
330
1A
100
AcDbPlotSettings
  1

  2
none_device
  4
ISO_A4_(210.00_x_297.00_MM)
  6

 40
7.5
 41
20.0
 42
7.5
 43
20.0
 44
210.0
 45
297.0
 46
11.54999923706054
 47
-13.65000009536743
 48
0.0
 49
0.0
140
0.0
141
0.0
142
1.0
143
8.704084754739808
 70
 11952
 72
     1
 73
     0
 74
     0
  7

 75
     0
147
0.1148885871608098
 76
     0
 77
     2
 78
   300
148
0.0
149
0.0
100
AcDbLayout
  1
Model
 70
     1
 71
     0
 10
0.0
 20
0.0
 11
12.0
 21
9.0
 12
0.0
 22
0.0
 32
0.0
 14
0.0
 24
0.0
 34
0.0
 15
0.0
 25
0.0
 35
0.0
146
0.0
 13
0.0
 23
0.0
 33
0.0
 16
1.0
 26
0.0
 36
0.0
 17
0.0
 27
1.0
 37
0.0
 76
     0
330
1F
331
EA
1001
ACAD_PSEXT
1000
None
1000
None
1000
Not applicable
1000
The layout will not be plotted unless a new plotter configuration name is selected.
1070
     0
  0
LAYOUT
  5
D3
102
{ACAD_REACTORS
330
1A
102
}
330
1A
100
AcDbPlotSettings
  1

  2
C:\Documents and Settings\basas\Application Data\Autodesk\AutoCAD 2005\R16.1\enu\plotters\Default Windows System Printer.pc3
  4

  6

 40
0.0
 41
0.0
 42
0.0
 43
0.0
 44
0.0
 45
0.0
 46
0.0
 47
0.0
 48
0.0
 49
0.0
140
0.0
141
0.0
142
1.0
143
1.0
 70
   688
 72
     0
 73
     0
 74
     5
  7

 75
    16
147
1.0
 76
     0
 77
     2
 78
   300
148
0.0
149
0.0
100
AcDbLayout
  1
布局1
 70
     1
 71
     1
 10
0.0
 20
0.0
 11
12.0
 21
9.0
 12
0.0
 22
0.0
 32
0.0
 14
0.0
 24
0.0
 34
0.0
 15
0.0
 25
0.0
 35
0.0
146
0.0
 13
0.0
 23
0.0
 33
0.0
 16
1.0
 26
0.0
 36
0.0
 17
0.0
 27
1.0
 37
0.0
 76
     0
330
D2
  0
LAYOUT
  5
D7
102
{ACAD_REACTORS
330
1A
102
}
330
1A
100
AcDbPlotSettings
  1

  2
C:\Documents and Settings\basas\Application Data\Autodesk\AutoCAD 2005\R16.1\enu\plotters\Default Windows System Printer.pc3
  4

  6

 40
0.0
 41
0.0
 42
0.0
 43
0.0
 44
0.0
 45
0.0
 46
0.0
 47
0.0
 48
0.0
 49
0.0
140
0.0
141
0.0
142
1.0
143
1.0
 70
   688
 72
     0
 73
     0
 74
     5
  7

 75
    16
147
1.0
 76
     0
 77
     2
 78
   300
148
0.0
149
0.0
100
AcDbLayout
  1
布局2
 70
     1
 71
     2
 10
0.0
 20
0.0
 11
12.0
 21
9.0
 12
0.0
 22
0.0
 32
0.0
 14
0.0
 24
0.0
 34
0.0
 15
0.0
 25
0.0
 35
0.0
146
0.0
 13
0.0
 23
0.0
 33
0.0
 16
1.0
 26
0.0
 36
0.0
 17
0.0
 27
1.0
 37
0.0
 76
     0
330
D6
  0
MATERIAL
  5
ED
102
{ACAD_REACTORS
330
6A
102
}
330
6A
100
AcDbMaterial
  1
ByBlock
 94
       63
  0
MATERIAL
  5
EC
102
{ACAD_REACTORS
330
6A
102
}
330
6A
100
AcDbMaterial
  1
ByLayer
 94
       63
  0
MATERIAL
  5
EE
102
{ACAD_XDICTIONARY
360
173
102
}
102
{ACAD_REACTORS
330
6A
102
}
330
6A
100
AcDbMaterial
  1
Global
 43
0.0007999999797903
 43
0.0
 43
0.0
 43
0.0
 43
0.0
 43
0.0007999999797903
 43
0.0
 43
0.0
 43
0.0
 43
0.0
 43
1.0
 43
0.0
 43
0.0
 43
0.0
 43
0.0
 43
1.0
 49
0.0007999999797903
 49
0.0
 49
0.0
 49
0.0
 49
0.0
 49
0.0007999999797903
 49
0.0
 49
0.0
 49
0.0
 49
0.0
 49
1.0
 49
0.0
 49
0.0
 49
0.0
 49
0.0
 49
1.0
142
0.0007999999797903
142
0.0
142
0.0
142
0.0
142
0.0
142
0.0007999999797903
142
0.0
142
0.0
142
0.0
142
0.0
142
1.0
142
0.0
142
0.0
142
0.0
142
0.0
142
1.0
144
0.0007999999797903
144
0.0
144
0.0
144
0.0
144
0.0
144
0.0007999999797903
144
0.0
144
0.0
144
0.0
144
0.0
144
1.0
144
0.0
144
0.0
144
0.0
144
0.0
144
1.0
 94
       63
1001
ACAD
1070
    -1
1070
     3
1070
     0
1000

1071
        0
1070
     0
  0
MLEADERSTYLE
  5
13B
102
{ACAD_REACTORS
330
12D
102
}
330
12D
100
AcDbMLeaderStyle
179
     2
170
     2
171
     1
172
     0
 90
        2
 40
0.0
 41
0.0
173
     1
 91
-1056964608
340
14
 92
       -2
290
     1
 42
2.0
291
     1
 43
8.0
  3
Standard
 44
4.0
300

342
11
174
     1
178
     1
175
     1
176
     0
 93
-1056964608
 45
4.0
292
     0
297
     0
 46
4.0
 94
-1056964608
 47
1.0
 49
1.0
140
1.0
293
     1
141
0.0
294
     1
177
     0
142
1.0
295
     0
296
     1
143
3.75
271
     0
272
     9
273
     9
298
     0
1001
ACAD_MLEADERVER
1070
     2
  0
MLEADERSTYLE
  5
12E
102
{ACAD_REACTORS
330
12D
102
}
330
12D
100
AcDbMLeaderStyle
179
     2
170
     2
171
     1
172
     0
 90
        2
 40
0.0
 41
0.0
173
     1
 91
-1056964608
340
14
 92
       -2
290
     1
 42
2.0
291
     1
 43
8.0
  3
Standard
 44
4.0
300

342
11
174
     1
178
     1
175
     1
176
     0
 93
-1056964608
 45
4.0
292
     0
297
     0
 46
4.0
 94
-1056964608
 47
1.0
 49
1.0
140
1.0
293
     1
141
0.0
294
     1
177
     0
142
1.0
295
     0
296
     0
143
3.75
271
     0
272
     9
273
     9
298
     0
1001
ACAD_MLEADERVER
1070
     2
  0
MLINESTYLE
  5
18
102
{ACAD_REACTORS
330
17
102
}
330
17
100
AcDbMlineStyle
  2
STANDARD
 70
     0
  3

 62
   256
 51
90.0
 52
90.0
 71
     2
 49
0.5
 62
   256
  6
BYLAYER
 49
-0.5
 62
   256
  6
BYLAYER
  0
ACDBPLACEHOLDER
  5
F
102
{ACAD_REACTORS
330
E
102
}
330
E
  0
SCALE
  5
10D
102
{ACAD_REACTORS
330
10C
102
}
330
10C
100
AcDbScale
 70
     0
300
1:1
140
1.0
141
1.0
290
     1
  0
SCALE
  5
188
102
{ACAD_REACTORS
330
10C
102
}
330
10C
100
AcDbScale
 70
     0
300
1:2
140
1.0
141
2.0
290
     0
  0
SCALE
  5
189
102
{ACAD_REACTORS
330
10C
102
}
330
10C
100
AcDbScale
 70
     0
300
1:4
140
1.0
141
4.0
290
     0
  0
SCALE
  5
18A
102
{ACAD_REACTORS
330
10C
102
}
330
10C
100
AcDbScale
 70
     0
300
1:5
140
1.0
141
5.0
290
     0
  0
SCALE
  5
18B
102
{ACAD_REACTORS
330
10C
102
}
330
10C
100
AcDbScale
 70
     0
300
1:8
140
1.0
141
8.0
290
     0
  0
SCALE
  5
18C
102
{ACAD_REACTORS
330
10C
102
}
330
10C
100
AcDbScale
 70
     0
300
1:10
140
1.0
141
10.0
290
     0
  0
SCALE
  5
18D
102
{ACAD_REACTORS
330
10C
102
}
330
10C
100
AcDbScale
 70
     0
300
1:16
140
1.0
141
16.0
290
     0
  0
SCALE
  5
18E
102
{ACAD_REACTORS
330
10C
102
}
330
10C
100
AcDbScale
 70
     0
300
1:20
140
1.0
141
20.0
290
     0
  0
SCALE
  5
18F
102
{ACAD_REACTORS
330
10C
102
}
330
10C
100
AcDbScale
 70
     0
300
1:30
140
1.0
141
30.0
290
     0
  0
SCALE
  5
190
102
{ACAD_REACTORS
330
10C
102
}
330
10C
100
AcDbScale
 70
     0
300
1:40
140
1.0
141
40.0
290
     0
  0
SCALE
  5
191
102
{ACAD_REACTORS
330
10C
102
}
330
10C
100
AcDbScale
 70
     0
300
1:50
140
1.0
141
50.0
290
     0
  0
SCALE
  5
192
102
{ACAD_REACTORS
330
10C
102
}
330
10C
100
AcDbScale
 70
     0
300
1:100
140
1.0
141
100.0
290
     0
  0
SCALE
  5
193
102
{ACAD_REACTORS
330
10C
102
}
330
10C
100
AcDbScale
 70
     0
300
2:1
140
2.0
141
1.0
290
     0
  0
SCALE
  5
194
102
{ACAD_REACTORS
330
10C
102
}
330
10C
100
AcDbScale
 70
     0
300
4:1
140
4.0
141
1.0
290
     0
  0
SCALE
  5
195
102
{ACAD_REACTORS
330
10C
102
}
330
10C
100
AcDbScale
 70
     0
300
8:1
140
8.0
141
1.0
290
     0
  0
SCALE
  5
196
102
{ACAD_REACTORS
330
10C
102
}
330
10C
100
AcDbScale
 70
     0
300
10:1
140
10.0
141
1.0
290
     0
  0
SCALE
  5
197
102
{ACAD_REACTORS
330
10C
102
}
330
10C
100
AcDbScale
 70
     0
300
100:1
140
100.0
141
1.0
290
     0
  0
SCALE
  5
198
102
{ACAD_REACTORS
330
10C
102
}
330
10C
100
AcDbScale
 70
     0
300
1/128" = 1'-0"
140
0.0078125
141
12.0
290
     0
  0
SCALE
  5
199
102
{ACAD_REACTORS
330
10C
102
}
330
10C
100
AcDbScale
 70
     0
300
1/64" = 1'-0"
140
0.015625
141
12.0
290
     0
  0
SCALE
  5
19A
102
{ACAD_REACTORS
330
10C
102
}
330
10C
100
AcDbScale
 70
     0
300
1/32" = 1'-0"
140
0.03125
141
12.0
290
     0
  0
SCALE
  5
19B
102
{ACAD_REACTORS
330
10C
102
}
330
10C
100
AcDbScale
 70
     0
300
1/16" = 1'-0"
140
0.0625
141
12.0
290
     0
  0
SCALE
  5
19C
102
{ACAD_REACTORS
330
10C
102
}
330
10C
100
AcDbScale
 70
     0
300
3/32" = 1'-0"
140
0.09375
141
12.0
290
     0
  0
SCALE
  5
19D
102
{ACAD_REACTORS
330
10C
102
}
330
10C
100
AcDbScale
 70
     0
300
1/8" = 1'-0"
140
0.125
141
12.0
290
     0
  0
SCALE
  5
19E
102
{ACAD_REACTORS
330
10C
102
}
330
10C
100
AcDbScale
 70
     0
300
3/16" = 1'-0"
140
0.1875
141
12.0
290
     0
  0
SCALE
  5
19F
102
{ACAD_REACTORS
330
10C
102
}
330
10C
100
AcDbScale
 70
     0
300
1/4" = 1'-0"
140
0.25
141
12.0
290
     0
  0
SCALE
  5
1A0
102
{ACAD_REACTORS
330
10C
102
}
330
10C
100
AcDbScale
 70
     0
300
3/8" = 1'-0"
140
0.375
141
12.0
290
     0
  0
SCALE
  5
1A1
102
{ACAD_REACTORS
330
10C
102
}
330
10C
100
AcDbScale
 70
     0
300
1/2" = 1'-0"
140
0.5
141
12.0
290
     0
  0
SCALE
  5
1A2
102
{ACAD_REACTORS
330
10C
102
}
330
10C
100
AcDbScale
 70
     0
300
3/4" = 1'-0"
140
0.75
141
12.0
290
     0
  0
SCALE
  5
1A3
102
{ACAD_REACTORS
330
10C
102
}
330
10C
100
AcDbScale
 70
     0
300
1" = 1'-0"
140
1.0
141
12.0
290
     0
  0
SCALE
  5
1A4
102
{ACAD_REACTORS
330
10C
102
}
330
10C
100
AcDbScale
 70
     0
300
1-1/2" = 1'-0"
140
1.5
141
12.0
290
     0
  0
SCALE
  5
1A5
102
{ACAD_REACTORS
330
10C
102
}
330
10C
100
AcDbScale
 70
     0
300
3" = 1'-0"
140
3.0
141
12.0
290
     0
  0
SCALE
  5
1A6
102
{ACAD_REACTORS
330
10C
102
}
330
10C
100
AcDbScale
 70
     0
300
6" = 1'-0"
140
6.0
141
12.0
290
     0
  0
SCALE
  5
1A7
102
{ACAD_REACTORS
330
10C
102
}
330
10C
100
AcDbScale
 70
     0
300
1'-0" = 1'-0"
140
12.0
141
12.0
290
     0
  0
ACDBSECTIONVIEWSTYLE
  5
37C
102
{ACAD_XDICTIONARY
360
394
102
}
102
{ACAD_REACTORS
330
37B
102
}
330
37B
100
AcDbModelDocViewStyle
 70
     0
  3
Metric50
290
     0
100
AcDbSectionViewStyle
 70
     0
 71
     0
 90
      102
 71
     1
340
11
 62
   256
 40
5.0
340
0
340
0
 62
   256
 40
5.0
300
I, O, Q, S, X, Z
 40
10.0
 90
        0
 40
2.5
 90
        0
 71
     2
340
16
 90
       25
 62
   256
340
16
 90
       50
 62
   256
 40
5.0
 40
2.5
 40
5.0
 71
     3
340
11
 62
   256
 40
5.0
 90
        0
 40
15.0
 90
        1
300
%<\AcVar ViewSectionStartId>%-%<\AcVar ViewSectionEndId>% (%<\AcVar ViewScale \f "%sn">%)
 71
     4
 62
   256
 62
   257
300
ANSI31
 40
1.0
 90
        0
290
     0
290
     0
 90
        6
 40
0.0
 40
1.570796326794896
 40
0.2617993877991494
 40
1.308996938995747
 40
-0.2617993877991494
 40
1.832595714594046
  0
TABLESTYLE
  5
7F
102
{ACAD_XDICTIONARY
360
162
102
}
102
{ACAD_REACTORS
330
7E
102
}
330
7E
100
AcDbTableStyle
280
     0
  3
Standard
 70
     0
 71
     0
 40
1.5
 41
1.5
280
     0
281
     0
  7
Standard
140
4.5
170
     2
 62
     0
 63
     7
283
     0
 90
      512
 91
        0
  1

274
    -2
284
     1
 64
     0
275
    -2
285
     1
 65
     0
276
    -2
286
     1
 66
     0
277
    -2
287
     1
 67
     0
278
    -2
288
     1
 68
     0
279
    -2
289
     1
 69
     0
  7
Standard
140
6.0
170
     5
 62
     0
 63
     7
283
     0
 90
      512
 91
        0
  1

274
    -2
284
     1
 64
     0
275
    -2
285
     1
 65
     0
276
    -2
286
     1
 66
     0
277
    -2
287
     1
 67
     0
278
    -2
288
     1
 68
     0
279
    -2
289
     1
 69
     0
  7
Standard
140
4.5
170
     5
 62
     0
 63
     7
283
     0
 90
      512
 91
        0
  1

274
    -2
284
     1
 64
     0
275
    -2
285
     1
 65
     0
276
    -2
286
     1
 66
     0
277
    -2
287
     1
 67
     0
278
    -2
288
     1
 68
     0
279
    -2
289
     1
 69
     0
  0
VISUALSTYLE
  5
F5
102
{ACAD_REACTORS
330
EF
102
}
330
EF
100
AcDbVisualStyle
  2

 70
     4
177
     3
291
     0
 70
    58
 90
        0
176
     1
 90
        2
176
     1
 90
        1
176
     1
 90
        0
176
     1
 40
0.6
176
     1
 40
30.0
176
     1
 62
     7
420
 16777215
176
     1
 90
        1
176
     1
 90
        4
176
     1
 62
     7
176
     1
 62
   257
176
     1
 90
        1
176
     1
 90
        1
176
     1
 40
1.0
176
     1
 90
        0
176
     1
 62
   257
176
     1
 40
1.0
176
     1
 90
        1
176
     1
 90
        6
176
     1
 90
        2
176
     1
 62
     7
176
     1
 90
        5
176
     1
 90
        0
176
     1
 90
        0
176
     1
290
     0
176
     1
 90
        1
176
     1
 40
0.0
176
     1
 90
        0
176
     1
290
     1
176
     1
290
     1
176
     1
290
     0
176
     1
290
     0
176
     1
290
     0
176
     1
290
     0
176
     1
290
     0
176
     1
290
     0
176
     1
290
     0
176
     1
 90
       50
176
     1
 40
0.0
176
     1
 40
1.0
176
     1
 90
        0
176
     1
 62
    18
420
        0
176
     1
 90
       50
176
     1
 90
        3
176
     1
 62
     5
420
      255
176
     1
290
     0
176
     1
 90
       50
176
     1
 90
       50
176
     1
 90
       50
176
     1
290
     0
176
     1
 90
       50
176
     1
 62
   256
176
     0
 40
1.0
176
     0
 90
        2
176
     1
  1
strokes_ogs.tif
176
     1
290
     0
176
     1
 40
1.0
176
     1
 40
1.0
176
     1
  0
VISUALSTYLE
  5
F7
102
{ACAD_REACTORS
330
EF
102
}
330
EF
100
AcDbVisualStyle
  2

 70
     6
177
     3
291
     0
 70
    58
 90
        1
176
     1
 90
        2
176
     1
 90
        2
176
     1
 90
        0
176
     1
 40
0.6
176
     1
 40
30.0
176
     1
 62
     7
420
 16777215
176
     1
 90
        2
176
     1
 90
        2
176
     1
 62
     7
176
     1
 62
   257
176
     1
 90
        2
176
     1
 90
        1
176
     1
 40
40.0
176
     1
 90
        0
176
     1
 62
   257
176
     1
 40
1.0
176
     1
 90
        1
176
     1
 90
        6
176
     1
 90
        2
176
     1
 62
     7
176
     1
 90
        3
176
     1
 90
        0
176
     1
 90
        0
176
     1
290
     0
176
     1
 90
        1
176
     1
 40
0.0
176
     1
 90
        0
176
     1
290
     0
176
     1
290
     1
176
     1
290
     1
176
     1
290
     0
176
     1
290
     0
176
     1
290
     0
176
     1
290
     0
176
     1
290
     0
176
     1
290
     0
176
     1
 90
       50
176
     1
 40
0.0
176
     1
 40
1.0
176
     1
 90
        0
176
     1
 62
    18
420
        0
176
     1
 90
       50
176
     1
 90
        3
176
     1
 62
     5
420
      255
176
     1
290
     0
176
     1
 90
       50
176
     1
 90
       50
176
     1
 90
       50
176
     1
290
     0
176
     1
 90
       50
176
     1
 62
   256
176
     0
 40
1.0
176
     0
 90
        2
176
     1
  1
strokes_ogs.tif
176
     1
290
     0
176
     1
 40
1.0
176
     1
 40
1.0
176
     1
  0
VISUALSTYLE
  5
F6
102
{ACAD_REACTORS
330
EF
102
}
330
EF
100
AcDbVisualStyle
  2

 70
     5
177
     3
291
     0
 70
    58
 90
        0
176
     1
 90
        2
176
     1
 90
        1
176
     1
 90
        0
176
     1
 40
0.6
176
     1
 40
30.0
176
     1
 62
     7
420
 16777215
176
     1
 90
        1
176
     1
 90
        4
176
     1
 62
     7
176
     1
 62
   257
176
     1
 90
        1
176
     1
 90
        1
176
     1
 40
1.0
176
     1
 90
        0
176
     1
 62
   257
176
     1
 40
1.0
176
     1
 90
        1
176
     1
 90
        6
176
     1
 90
        2
176
     1
 62
     7
176
     1
 90
        5
176
     1
 90
        0
176
     1
 90
        0
176
     1
290
     0
176
     1
 90
        1
176
     1
 40
0.0
176
     1
 90
        0
176
     1
290
     0
176
     1
290
     1
176
     1
290
     1
176
     1
290
     0
176
     1
290
     0
176
     1
290
     0
176
     1
290
     0
176
     1
290
     0
176
     1
290
     0
176
     1
 90
       50
176
     1
 40
0.0
176
     1
 40
1.0
176
     1
 90
        0
176
     1
 62
    18
420
        0
176
     1
 90
       50
176
     1
 90
        3
176
     1
 62
     5
420
      255
176
     1
290
     0
176
     1
 90
       50
176
     1
 90
       50
176
     1
 90
       50
176
     1
290
     0
176
     1
 90
       50
176
     1
 62
   256
176
     0
 40
1.0
176
     0
 90
        2
176
     1
  1
strokes_ogs.tif
176
     1
290
     0
176
     1
 40
1.0
176
     1
 40
1.0
176
     1
  0
VISUALSTYLE
  5
F4
102
{ACAD_REACTORS
330
EF
102
}
330
EF
100
AcDbVisualStyle
  2

 70
     7
177
     3
291
     1
 70
    58
 90
        1
176
     1
 90
        0
176
     1
 90
        1
176
     1
 90
        0
176
     1
 40
0.6
176
     1
 40
30.0
176
     1
 62
     7
420
 16777215
176
     1
 90
        0
176
     1
 90
        4
176
     1
 62
     7
176
     1
 62
   257
176
     1
 90
        1
176
     1
 90
        1
176
     1
 40
1.0
176
     1
 90
        8
176
     1
 62
     7
176
     1
 40
1.0
176
     1
 90
        1
176
     1
 90
        6
176
     1
 90
        2
176
     1
 62
     7
176
     1
 90
        5
176
     1
 90
        0
176
     1
 90
        0
176
     1
290
     0
176
     1
 90
        1
176
     1
 40
0.0
176
     1
 90
        0
176
     1
290
     0
176
     1
290
     1
176
     1
290
     1
176
     1
290
     0
176
     1
290
     0
176
     1
290
     0
176
     1
290
     0
176
     1
290
     0
176
     1
290
     0
176
     1
 90
       50
176
     1
 40
0.0
176
     1
 40
1.0
176
     1
 90
        0
176
     1
 62
    18
420
        0
176
     1
 90
       50
176
     1
 90
        3
176
     1
 62
     5
420
      255
176
     1
290
     0
176
     1
 90
       50
176
     1
 90
       50
176
     1
 90
       50
176
     1
290
     0
176
     1
 90
       50
176
     1
 62
   256
176
     0
 40
1.0
176
     0
 90
        2
176
     1
  1
strokes_ogs.tif
176
     1
290
     0
176
     1
 40
1.0
176
     1
 40
1.0
176
     1
  0
VISUALSTYLE
  5
FB
102
{ACAD_REACTORS
330
EF
102
}
330
EF
100
AcDbVisualStyle
  2

 70
    12
177
     3
291
     1
 70
    58
 90
        2
176
     1
 90
        2
176
     1
 90
        1
176
     1
 90
        0
176
     1
 40
0.6
176
     1
 40
30.0
176
     1
 62
     7
420
 16777215
176
     1
 90
        1
176
     1
 90
        4
176
     1
 62
     7
176
     1
 62
   257
176
     1
 90
        1
176
     1
 90
        1
176
     1
 40
1.0
176
     1
 90
        8
176
     1
 62
     7
176
     1
 40
1.0
176
     1
 90
        1
176
     1
 90
        6
176
     1
 90
        2
176
     1
 62
     7
176
     1
 90
        5
176
     1
 90
        0
176
     1
 90
        0
176
     1
290
     0
176
     1
 90
        1
176
     1
 40
50.0
176
     1
 90
        0
176
     1
290
     0
176
     1
290
     1
176
     1
290
     1
176
     1
290
     0
176
     1
290
     0
176
     1
290
     0
176
     1
290
     0
176
     1
290
     0
176
     1
290
     0
176
     1
 90
       50
176
     1
 40
0.0
176
     1
 40
1.0
176
     1
 90
        0
176
     1
 62
    18
420
        0
176
     1
 90
       50
176
     1
 90
        3
176
     1
 62
     5
420
      255
176
     1
290
     0
176
     1
 90
       50
176
     1
 90
       50
176
     1
 90
       50
176
     1
290
     0
176
     1
 90
       50
176
     1
 62
   256
176
     0
 40
1.0
176
     0
 90
        2
176
     1
  1
strokes_ogs.tif
176
     1
290
     0
176
     1
 40
1.0
176
     1
 40
1.0
176
     1
  0
VISUALSTYLE
  5
FF
102
{ACAD_REACTORS
330
EF
102
}
330
EF
100
AcDbVisualStyle
  2

 70
    16
177
     3
291
     1
 70
    58
 90
        2
176
     1
 90
        2
176
     1
 90
        3
176
     1
 90
        0
176
     1
 40
0.6
176
     1
 40
30.0
176
     1
 62
     8
420
  8421504
176
     1
 90
        1
176
     1
 90
        4
176
     1
 62
     7
176
     1
 62
   257
176
     1
 90
        1
176
     1
 90
        1
176
     1
 40
1.0
176
     1
 90
        8
176
     1
 62
     8
420
  8421504
176
     1
 40
1.0
176
     1
 90
        1
176
     1
 90
        6
176
     1
 90
        2
176
     1
 62
     7
176
     1
 90
        5
176
     1
 90
        0
176
     1
 90
        0
176
     1
290
     0
176
     1
 90
        1
176
     1
 40
0.0
176
     1
 90
        0
176
     1
290
     0
176
     1
290
     1
176
     1
290
     1
176
     1
290
     0
176
     1
290
     0
176
     1
290
     0
176
     1
290
     0
176
     1
290
     0
176
     1
290
     0
176
     1
 90
       50
176
     1
 40
0.0
176
     1
 40
1.0
176
     1
 90
        0
176
     1
 62
    18
420
        0
176
     1
 90
       50
176
     1
 90
        3
176
     1
 62
     5
420
      255
176
     1
290
     0
176
     1
 90
       50
176
     1
 90
       50
176
     1
 90
       50
176
     1
290
     0
176
     1
 90
       50
176
     1
 62
   256
176
     0
 40
1.0
176
     0
 90
        2
176
     1
  1
strokes_ogs.tif
176
     1
290
     0
176
     1
 40
1.0
176
     1
 40
1.0
176
     1
  0
VISUALSTYLE
  5
F8
102
{ACAD_REACTORS
330
EF
102
}
330
EF
100
AcDbVisualStyle
  2

 70
     9
177
     3
291
     0
 70
    58
 90
        3
176
     1
 90
        2
176
     1
 90
        1
176
     1
 90
        0
176
     1
 40
0.6
176
     1
 40
30.0
176
     1
 62
     7
420
 16777215
176
     1
 90
        2
176
     1
 90
        2
176
     1
 62
     7
176
     1
 62
   257
176
     1
 90
        1
176
     1
 90
        1
176
     1
 40
40.0
176
     1
 90
        8
176
     1
 62
     7
176
     1
 40
1.0
176
     1
 90
        1
176
     1
 90
        6
176
     1
 90
        2
176
     1
 62
     7
176
     1
 90
        3
176
     1
 90
        0
176
     1
 90
        0
176
     1
290
     0
176
     1
 90
        1
176
     1
 40
0.0
176
     1
 90
        0
176
     1
290
     0
176
     1
290
     1
176
     1
290
     1
176
     1
290
     0
176
     1
290
     0
176
     1
290
     0
176
     1
290
     0
176
     1
290
     0
176
     1
290
     0
176
     1
 90
       50
176
     1
 40
0.0
176
     1
 40
1.0
176
     1
 90
        0
176
     1
 62
    18
420
        0
176
     1
 90
       50
176
     1
 90
        3
176
     1
 62
     5
420
      255
176
     1
290
     0
176
     1
 90
       50
176
     1
 90
       50
176
     1
 90
       50
176
     1
290
     0
176
     1
 90
       50
176
     1
 62
   256
176
     0
 40
1.0
176
     0
 90
        2
176
     1
  1
strokes_ogs.tif
176
     1
290
     0
176
     1
 40
1.0
176
     1
 40
1.0
176
     1
  0
VISUALSTYLE
  5
FA
102
{ACAD_REACTORS
330
EF
102
}
330
EF
100
AcDbVisualStyle
  2

 70
    11
177
     3
291
     1
 70
    58
 90
        2
176
     1
 90
        2
176
     1
 90
        1
176
     1
 90
        0
176
     1
 40
0.6
176
     1
 40
30.0
176
     1
 62
     7
420
 16777215
176
     1
 90
        1
176
     1
 90
        4
176
     1
 62
     7
176
     1
 62
   257
176
     1
 90
        1
176
     1
 90
        1
176
     1
 40
1.0
176
     1
 90
        8
176
     1
 62
     7
176
     1
 40
1.0
176
     1
 90
        1
176
     1
 90
        6
176
     1
 90
        2
176
     1
 62
     7
176
     1
 90
        5
176
     1
 90
        0
176
     1
 90
        0
176
     1
290
     0
176
     1
 90
        1
176
     1
 40
-50.0
176
     1
 90
        0
176
     1
290
     0
176
     1
290
     1
176
     1
290
     1
176
     1
290
     0
176
     1
290
     0
176
     1
290
     0
176
     1
290
     0
176
     1
290
     0
176
     1
290
     0
176
     1
 90
       50
176
     1
 40
0.0
176
     1
 40
1.0
176
     1
 90
        0
176
     1
 62
    18
420
        0
176
     1
 90
       50
176
     1
 90
        3
176
     1
 62
     5
420
      255
176
     1
290
     0
176
     1
 90
       50
176
     1
 90
       50
176
     1
 90
       50
176
     1
290
     0
176
     1
 90
       50
176
     1
 62
   256
176
     0
 40
1.0
176
     0
 90
        2
176
     1
  1
strokes_ogs.tif
176
     1
290
     0
176
     1
 40
1.0
176
     1
 40
1.0
176
     1
  0
VISUALSTYLE
  5
37A
102
{ACAD_REACTORS
330
EF
102
}
330
EF
100
AcDbVisualStyle
  2
EdgeColorOff
 70
    22
177
     3
291
     1
 70
    58
 90
        2
176
     0
 90
        2
176
     0
 90
        0
176
     0
 90
        0
176
     0
 40
0.6
176
     0
 40
30.0
176
     0
 62
     7
420
 16777215
176
     0
 90
        1
176
     0
 90
        4
176
     0
 62
     7
176
     0
 62
   257
176
     0
 90
        1
176
     0
 90
        1
176
     0
 40
1.0
176
     0
 90
        8
176
     2
 62
     7
176
     0
 40
1.0
176
     0
 90
        1
176
     0
 90
        6
176
     0
 90
        2
176
     0
 62
     7
176
     0
 90
        5
176
     0
 90
        0
176
     0
 90
        0
176
     0
290
     0
176
     0
 90
        1
176
     0
 40
0.0
176
     0
 90
        0
176
     0
290
     0
176
     1
290
     1
176
     1
290
     1
176
     1
290
     0
176
     1
290
     0
176
     1
290
     0
176
     1
290
     0
176
     1
290
     0
176
     1
290
     0
176
     1
 90
       50
176
     0
 40
0.0
176
     0
 40
1.0
176
     0
 90
        0
176
     0
 62
    18
420
        0
176
     0
 90
       50
176
     0
 90
        3
176
     0
 62
     5
420
      255
176
     0
290
     0
176
     1
 90
       50
176
     0
 90
       50
176
     0
 90
       50
176
     0
290
     0
176
     1
 90
       50
176
     0
 62
   256
176
     0
 40
1.0
176
     0
 90
        2
176
     0
  1
strokes_ogs.tif
176
     0
290
     0
176
     1
 40
1.0
176
     0
 40
1.0
176
     0
  0
VISUALSTYLE
  5
FE
102
{ACAD_REACTORS
330
EF
102
}
330
EF
100
AcDbVisualStyle
  2

 70
    15
177
     3
291
     1
 70
    58
 90
        2
176
     1
 90
        2
176
     1
 90
        1
176
     1
 90
        0
176
     1
 40
0.6
176
     1
 40
30.0
176
     1
 62
     7
420
 16777215
176
     1
 90
        1
176
     1
 90
        4
176
     1
 62
     7
176
     1
 62
   257
176
     1
 90
        1
176
     1
 90
        1
176
     1
 40
1.0
176
     1
 90
        8
176
     1
 62
     7
176
     1
 40
1.0
176
     1
 90
        1
176
     1
 90
        6
176
     1
 90
        2
176
     1
 62
     7
176
     1
 90
        5
176
     1
 90
        0
176
     1
 90
        0
176
     1
290
     0
176
     1
 90
        1
176
     1
 40
0.0
176
     1
 90
        0
176
     1
290
     0
176
     1
290
     1
176
     1
290
     1
176
     1
290
     0
176
     1
290
     0
176
     1
290
     0
176
     1
290
     0
176
     1
290
     0
176
     1
290
     0
176
     1
 90
       50
176
     1
 40
0.0
176
     1
 40
1.0
176
     1
 90
        0
176
     1
 62
    18
420
        0
176
     1
 90
       50
176
     1
 90
        3
176
     1
 62
     5
420
      255
176
     1
290
     0
176
     1
 90
       50
176
     1
 90
       50
176
     1
 90
       50
176
     1
290
     0
176
     1
 90
       50
176
     1
 62
   256
176
     0
 40
1.0
176
     0
 90
        2
176
     1
  1
strokes_ogs.tif
176
     1
290
     0
176
     1
 40
1.0
176
     1
 40
1.0
176
     1
  0
VISUALSTYLE
  5
F0
102
{ACAD_REACTORS
330
EF
102
}
330
EF
100
AcDbVisualStyle
  2

 70
     0
177
     3
291
     1
 70
    58
 90
        2
176
     1
 90
        1
176
     1
 90
        1
176
     1
 90
        2
176
     1
 40
0.6
176
     1
 40
30.0
176
     1
 62
     7
420
 16777215
176
     1
 90
        0
176
     1
 90
        4
176
     1
 62
     7
176
     1
 62
   257
176
     1
 90
        1
176
     1
 90
        1
176
     1
 40
1.0
176
     1
 90
        8
176
     1
 62
     7
176
     1
 40
1.0
176
     1
 90
        1
176
     1
 90
        6
176
     1
 90
        2
176
     1
 62
     7
176
     1
 90
        5
176
     1
 90
        0
176
     1
 90
        0
176
     1
290
     0
176
     1
 90
        1
176
     1
 40
0.0
176
     1
 90
        0
176
     1
290
     0
176
     1
290
     1
176
     1
290
     1
176
     1
290
     0
176
     1
290
     0
176
     1
290
     0
176
     1
290
     0
176
     1
290
     0
176
     1
290
     0
176
     1
 90
       50
176
     1
 40
0.0
176
     1
 40
1.0
176
     1
 90
        0
176
     1
 62
    18
420
        0
176
     1
 90
       50
176
     1
 90
        3
176
     1
 62
     5
420
      255
176
     1
290
     0
176
     1
 90
       50
176
     1
 90
       50
176
     1
 90
       50
176
     1
290
     0
176
     1
 90
       50
176
     1
 62
   256
176
     0
 40
1.0
176
     0
 90
        2
176
     1
  1
strokes_ogs.tif
176
     1
290
     0
176
     1
 40
1.0
176
     1
 40
1.0
176
     1
  0
VISUALSTYLE
  5
F1
102
{ACAD_REACTORS
330
EF
102
}
330
EF
100
AcDbVisualStyle
  2

 70
     1
177
     3
291
     1
 70
    58
 90
        2
176
     1
 90
        1
176
     1
 90
        1
176
     1
 90
        2
176
     1
 40
0.6
176
     1
 40
30.0
176
     1
 62
     7
420
 16777215
176
     1
 90
        1
176
     1
 90
        4
176
     1
 62
     7
176
     1
 62
   257
176
     1
 90
        1
176
     1
 90
        1
176
     1
 40
1.0
176
     1
 90
        0
176
     1
 62
   257
176
     1
 40
1.0
176
     1
 90
        1
176
     1
 90
        6
176
     1
 90
        2
176
     1
 62
     7
176
     1
 90
        5
176
     1
 90
        0
176
     1
 90
        0
176
     1
290
     0
176
     1
 90
        1
176
     1
 40
0.0
176
     1
 90
        0
176
     1
290
     0
176
     1
290
     1
176
     1
290
     1
176
     1
290
     0
176
     1
290
     0
176
     1
290
     0
176
     1
290
     0
176
     1
290
     0
176
     1
290
     0
176
     1
 90
       50
176
     1
 40
0.0
176
     1
 40
1.0
176
     1
 90
        0
176
     1
 62
    18
420
        0
176
     1
 90
       50
176
     1
 90
        3
176
     1
 62
     5
420
      255
176
     1
290
     0
176
     1
 90
       50
176
     1
 90
       50
176
     1
 90
       50
176
     1
290
     0
176
     1
 90
       50
176
     1
 62
   256
176
     0
 40
1.0
176
     0
 90
        2
176
     1
  1
strokes_ogs.tif
176
     1
290
     0
176
     1
 40
1.0
176
     1
 40
1.0
176
     1
  0
VISUALSTYLE
  5
F2
102
{ACAD_REACTORS
330
EF
102
}
330
EF
100
AcDbVisualStyle
  2

 70
     2
177
     3
291
     1
 70
    58
 90
        2
176
     1
 90
        2
176
     1
 90
        1
176
     1
 90
        2
176
     1
 40
0.6
176
     1
 40
30.0
176
     1
 62
     7
420
 16777215
176
     1
 90
        0
176
     1
 90
        4
176
     1
 62
     7
176
     1
 62
   257
176
     1
 90
        1
176
     1
 90
        1
176
     1
 40
1.0
176
     1
 90
        0
176
     1
 62
     7
176
     1
 40
1.0
176
     1
 90
        1
176
     1
 90
        6
176
     1
 90
        2
176
     1
 62
     7
176
     1
 90
        5
176
     1
 90
        0
176
     1
 90
        0
176
     1
290
     0
176
     1
 90
        1
176
     1
 40
0.0
176
     1
 90
        0
176
     1
290
     0
176
     1
290
     1
176
     1
290
     1
176
     1
290
     0
176
     1
290
     0
176
     1
290
     0
176
     1
290
     0
176
     1
290
     0
176
     1
290
     0
176
     1
 90
       50
176
     1
 40
0.0
176
     1
 40
1.0
176
     1
 90
        0
176
     1
 62
    18
420
        0
176
     1
 90
       50
176
     1
 90
        3
176
     1
 62
     5
420
      255
176
     1
290
     0
176
     1
 90
       50
176
     1
 90
       50
176
     1
 90
       50
176
     1
290
     0
176
     1
 90
       50
176
     1
 62
   256
176
     0
 40
1.0
176
     0
 90
        2
176
     1
  1
strokes_ogs.tif
176
     1
290
     0
176
     1
 40
1.0
176
     1
 40
1.0
176
     1
  0
VISUALSTYLE
  5
F3
102
{ACAD_REACTORS
330
EF
102
}
330
EF
100
AcDbVisualStyle
  2

 70
     3
177
     3
291
     1
 70
    58
 90
        2
176
     1
 90
        2
176
     1
 90
        1
176
     1
 90
        2
176
     1
 40
0.6
176
     1
 40
30.0
176
     1
 62
     7
420
 16777215
176
     1
 90
        1
176
     1
 90
        4
176
     1
 62
     7
176
     1
 62
   257
176
     1
 90
        1
176
     1
 90
        1
176
     1
 40
1.0
176
     1
 90
        0
176
     1
 62
   257
176
     1
 40
1.0
176
     1
 90
        1
176
     1
 90
        6
176
     1
 90
        2
176
     1
 62
     7
176
     1
 90
        5
176
     1
 90
        0
176
     1
 90
        0
176
     1
290
     0
176
     1
 90
        1
176
     1
 40
0.0
176
     1
 90
        0
176
     1
290
     0
176
     1
290
     1
176
     1
290
     1
176
     1
290
     0
176
     1
290
     0
176
     1
290
     0
176
     1
290
     0
176
     1
290
     0
176
     1
290
     0
176
     1
 90
       50
176
     1
 40
0.0
176
     1
 40
1.0
176
     1
 90
        0
176
     1
 62
    18
420
        0
176
     1
 90
       50
176
     1
 90
        3
176
     1
 62
     5
420
      255
176
     1
290
     0
176
     1
 90
       50
176
     1
 90
       50
176
     1
 90
       50
176
     1
290
     0
176
     1
 90
       50
176
     1
 62
   256
176
     0
 40
1.0
176
     0
 90
        2
176
     1
  1
strokes_ogs.tif
176
     1
290
     0
176
     1
 40
1.0
176
     1
 40
1.0
176
     1
  0
VISUALSTYLE
  5
372
102
{ACAD_REACTORS
330
EF
102
}
330
EF
100
AcDbVisualStyle
  2
Hidden
 70
     6
177
     3
291
     0
 70
    58
 90
        1
176
     1
 90
        2
176
     1
 90
        2
176
     1
 90
        0
176
     1
 40
0.6
176
     1
 40
30.0
176
     1
 62
     7
420
 16777215
176
     1
 90
        2
176
     1
 90
        2
176
     1
 62
     7
176
     1
 62
   257
176
     1
 90
        2
176
     1
 90
        1
176
     1
 40
40.0
176
     1
 90
        0
176
     1
 62
   257
176
     1
 40
1.0
176
     1
 90
        1
176
     1
 90
        6
176
     1
 90
        2
176
     1
 62
     7
176
     1
 90
        3
176
     1
 90
        0
176
     1
 90
        0
176
     1
290
     0
176
     1
 90
        1
176
     1
 40
0.0
176
     1
 90
        0
176
     1
290
     0
176
     1
290
     1
176
     1
290
     1
176
     1
290
     0
176
     1
290
     0
176
     1
290
     0
176
     1
290
     0
176
     1
290
     0
176
     1
290
     0
176
     1
 90
       50
176
     1
 40
0.0
176
     1
 40
1.0
176
     1
 90
        0
176
     1
 62
    18
420
        0
176
     1
 90
       50
176
     1
 90
        3
176
     1
 62
     5
420
      255
176
     1
290
     0
176
     1
 90
       50
176
     1
 90
       50
176
     1
 90
       50
176
     1
290
     0
176
     1
 90
       50
176
     1
 62
   256
176
     0
 40
1.0
176
     0
 90
        2
176
     1
  1
strokes_ogs.tif
176
     1
290
     0
176
     1
 40
1.0
176
     1
 40
1.0
176
     1
  0
VISUALSTYLE
  5
378
102
{ACAD_REACTORS
330
EF
102
}
330
EF
100
AcDbVisualStyle
  2
JitterOff
 70
    20
177
     3
291
     1
 70
    58
 90
        2
176
     0
 90
        2
176
     0
 90
        0
176
     0
 90
        0
176
     0
 40
0.6
176
     0
 40
30.0
176
     0
 62
     7
420
 16777215
176
     0
 90
        1
176
     0
 90
        4
176
     0
 62
     7
176
     0
 62
   257
176
     0
 90
        1
176
     0
 90
        1
176
     0
 40
1.0
176
     0
 90
       10
176
     2
 62
     7
176
     0
 40
1.0
176
     0
 90
        1
176
     0
 90
        6
176
     0
 90
        2
176
     0
 62
     7
176
     0
 90
        5
176
     0
 90
        0
176
     0
 90
        0
176
     0
290
     0
176
     0
 90
        1
176
     0
 40
0.0
176
     0
 90
        0
176
     0
290
     0
176
     1
290
     1
176
     1
290
     1
176
     1
290
     0
176
     1
290
     0
176
     1
290
     0
176
     1
290
     0
176
     1
290
     0
176
     1
290
     0
176
     1
 90
       50
176
     0
 40
0.0
176
     0
 40
1.0
176
     0
 90
        0
176
     0
 62
    18
420
        0
176
     0
 90
       50
176
     0
 90
        3
176
     0
 62
     5
420
      255
176
     0
290
     0
176
     1
 90
       50
176
     0
 90
       50
176
     0
 90
       50
176
     0
290
     0
176
     1
 90
       50
176
     0
 62
   256
176
     0
 40
1.0
176
     0
 90
        2
176
     0
  1
strokes_ogs.tif
176
     0
290
     0
176
     1
 40
1.0
176
     0
 40
1.0
176
     0
  0
VISUALSTYLE
  5
FD
102
{ACAD_REACTORS
330
EF
102
}
330
EF
100
AcDbVisualStyle
  2

 70
    14
177
     3
291
     1
 70
    58
 90
        2
176
     1
 90
        2
176
     1
 90
        1
176
     1
 90
        0
176
     1
 40
0.6
176
     1
 40
30.0
176
     1
 62
     7
420
 16777215
176
     1
 90
        1
176
     1
 90
        4
176
     1
 62
     7
176
     1
 62
   257
176
     1
 90
        7
176
     1
 90
        7
176
     1
 40
1.0
176
     1
 90
        8
176
     1
 62
     7
176
     1
 40
1.0
176
     1
 90
        1
176
     1
 90
        6
176
     1
 90
        2
176
     1
 62
     7
176
     1
 90
        5
176
     1
 90
        0
176
     1
 90
        0
176
     1
290
     0
176
     1
 90
        1
176
     1
 40
0.0
176
     1
 90
        0
176
     1
290
     0
176
     1
290
     1
176
     1
290
     1
176
     1
290
     0
176
     1
290
     0
176
     1
290
     0
176
     1
290
     0
176
     1
290
     0
176
     1
290
     0
176
     1
 90
       50
176
     1
 40
0.0
176
     1
 40
1.0
176
     1
 90
        0
176
     1
 62
    18
420
        0
176
     1
 90
       50
176
     1
 90
        3
176
     1
 62
     5
420
      255
176
     1
290
     0
176
     1
 90
       50
176
     1
 90
       50
176
     1
 90
       50
176
     1
290
     0
176
     1
 90
       50
176
     1
 62
   256
176
     0
 40
1.0
176
     0
 90
        2
176
     1
  1
strokes_ogs.tif
176
     1
290
     0
176
     1
 40
1.0
176
     1
 40
1.0
176
     1
  0
VISUALSTYLE
  5
379
102
{ACAD_REACTORS
330
EF
102
}
330
EF
100
AcDbVisualStyle
  2
OverhangOff
 70
    21
177
     3
291
     1
 70
    58
 90
        2
176
     0
 90
        2
176
     0
 90
        0
176
     0
 90
        0
176
     0
 40
0.6
176
     0
 40
30.0
176
     0
 62
     7
420
 16777215
176
     0
 90
        1
176
     0
 90
        4
176
     0
 62
     7
176
     0
 62
   257
176
     0
 90
        1
176
     0
 90
        1
176
     0
 40
1.0
176
     0
 90
        9
176
     2
 62
     7
176
     0
 40
1.0
176
     0
 90
        1
176
     0
 90
        6
176
     0
 90
        2
176
     0
 62
     7
176
     0
 90
        5
176
     0
 90
        0
176
     0
 90
        0
176
     0
290
     0
176
     0
 90
        1
176
     0
 40
0.0
176
     0
 90
        0
176
     0
290
     0
176
     1
290
     1
176
     1
290
     1
176
     1
290
     0
176
     1
290
     0
176
     1
290
     0
176
     1
290
     0
176
     1
290
     0
176
     1
290
     0
176
     1
 90
       50
176
     0
 40
0.0
176
     0
 40
1.0
176
     0
 90
        0
176
     0
 62
    18
420
        0
176
     0
 90
       50
176
     0
 90
        3
176
     0
 62
     5
420
      255
176
     0
290
     0
176
     1
 90
       50
176
     0
 90
       50
176
     0
 90
       50
176
     0
290
     0
176
     1
 90
       50
176
     0
 62
   256
176
     0
 40
1.0
176
     0
 90
        2
176
     0
  1
strokes_ogs.tif
176
     0
290
     0
176
     1
 40
1.0
176
     0
 40
1.0
176
     0
  0
VISUALSTYLE
  5
F9
102
{ACAD_REACTORS
330
EF
102
}
330
EF
100
AcDbVisualStyle
  2

 70
     8
177
     3
291
     0
 70
    58
 90
        2
176
     1
 90
        2
176
     1
 90
        1
176
     1
 90
        0
176
     1
 40
0.6
176
     1
 40
30.0
176
     1
 62
     7
420
 16777215
176
     1
 90
        1
176
     1
 90
        0
176
     1
 62
     7
176
     1
 62
   257
176
     1
 90
        1
176
     1
 90
        1
176
     1
 40
1.0
176
     1
 90
        8
176
     1
 62
     8
420
  7895160
176
     1
 40
1.0
176
     1
 90
        1
176
     1
 90
        6
176
     1
 90
        2
176
     1
 62
     7
176
     1
 90
        5
176
     1
 90
        0
176
     1
 90
        0
176
     1
290
     0
176
     1
 90
       13
176
     1
 40
0.0
176
     1
 90
        0
176
     1
290
     0
176
     1
290
     1
176
     1
290
     1
176
     1
290
     0
176
     1
290
     0
176
     1
290
     0
176
     1
290
     0
176
     1
290
     0
176
     1
290
     0
176
     1
 90
       50
176
     1
 40
0.0
176
     1
 40
1.0
176
     1
 90
        0
176
     1
 62
    18
420
        0
176
     1
 90
       50
176
     1
 90
        3
176
     1
 62
     5
420
      255
176
     1
290
     0
176
     1
 90
       50
176
     1
 90
       50
176
     1
 90
       50
176
     1
290
     0
176
     1
 90
       50
176
     1
 62
   256
176
     0
 40
1.0
176
     0
 90
        2
176
     1
  1
strokes_ogs.tif
176
     1
290
     0
176
     1
 40
1.0
176
     1
 40
1.0
176
     1
  0
VISUALSTYLE
  5
377
102
{ACAD_REACTORS
330
EF
102
}
330
EF
100
AcDbVisualStyle
  2
Shaded
 70
    27
177
     3
291
     0
 70
    58
 90
        2
176
     1
 90
        2
176
     1
 90
        1
176
     1
 90
        2
176
     1
 40
0.6
176
     1
 40
30.0
176
     1
 62
     7
420
 16777215
176
     1
 90
        0
176
     1
 90
        4
176
     1
 62
     7
176
     1
 62
   257
176
     1
 90
        1
176
     1
 90
        1
176
     1
 40
1.0
176
     1
 90
        8
176
     1
 62
   257
176
     1
 40
1.0
176
     1
 90
        1
176
     1
 90
        6
176
     1
 90
        2
176
     1
 62
     8
420
  7895160
176
     1
 90
        3
176
     1
 90
        0
176
     1
 90
        0
176
     1
290
     0
176
     1
 90
        5
176
     1
 40
0.0
176
     1
 90
        0
176
     1
290
     0
176
     1
290
     1
176
     1
290
     1
176
     1
290
     0
176
     1
290
     0
176
     1
290
     0
176
     1
290
     0
176
     1
290
     0
176
     1
290
     0
176
     1
 90
       50
176
     1
 40
0.0
176
     1
 40
1.0
176
     1
 90
        0
176
     1
 62
    18
420
        0
176
     1
 90
       50
176
     1
 90
        3
176
     1
 62
     5
420
      255
176
     1
290
     0
176
     1
 90
       50
176
     1
 90
       50
176
     1
 90
       50
176
     1
290
     0
176
     1
 90
       50
176
     1
 62
   256
176
     0
 40
1.0
176
     0
 90
        2
176
     1
  1
strokes_ogs.tif
176
     1
290
     0
176
     1
 40
1.0
176
     1
 40
1.0
176
     1
  0
VISUALSTYLE
  5
376
102
{ACAD_REACTORS
330
EF
102
}
330
EF
100
AcDbVisualStyle
  2
Shaded with edges
 70
    26
177
     3
291
     0
 70
    58
 90
        2
176
     1
 90
        2
176
     1
 90
        1
176
     1
 90
        2
176
     1
 40
0.6
176
     1
 40
30.0
176
     1
 62
     7
420
 16777215
176
     1
 90
        1
176
     1
 90
        2
176
     1
 62
     7
176
     1
 62
   257
176
     1
 90
        2
176
     1
 90
        1
176
     1
 40
1.0
176
     1
 90
        8
176
     1
 62
   257
176
     1
 40
1.0
176
     1
 90
        1
176
     1
 90
        6
176
     1
 90
        2
176
     1
 62
     7
176
     1
 90
        3
176
     1
 90
        0
176
     1
 90
        0
176
     1
290
     0
176
     1
 90
        5
176
     1
 40
0.0
176
     1
 90
        0
176
     1
290
     0
176
     1
290
     1
176
     1
290
     1
176
     1
290
     0
176
     1
290
     0
176
     1
290
     0
176
     1
290
     0
176
     1
290
     0
176
     1
290
     0
176
     1
 90
       50
176
     1
 40
0.0
176
     1
 40
1.0
176
     1
 90
        0
176
     1
 62
    18
420
        0
176
     1
 90
       50
176
     1
 90
        3
176
     1
 62
     5
420
      255
176
     1
290
     0
176
     1
 90
       50
176
     1
 90
       50
176
     1
 90
       50
176
     1
290
     0
176
     1
 90
       50
176
     1
 62
   256
176
     0
 40
1.0
176
     0
 90
        2
176
     1
  1
strokes_ogs.tif
176
     1
290
     0
176
     1
 40
1.0
176
     1
 40
1.0
176
     1
  0
VISUALSTYLE
  5
373
102
{ACAD_REACTORS
330
EF
102
}
330
EF
100
AcDbVisualStyle
  2
Shades of Gray
 70
    23
177
     3
291
     0
 70
    58
 90
        2
176
     1
 90
        2
176
     1
 90
        3
176
     1
 90
        0
176
     1
 40
0.6
176
     1
 40
30.0
176
     1
 62
     7
420
 16777215
176
     1
 90
        2
176
     1
 90
        2
176
     1
 62
     7
176
     1
 62
     7
176
     1
 90
        1
176
     1
 90
        1
176
     1
 40
40.0
176
     1
 90
        8
176
     1
 62
     7
176
     1
 40
1.0
176
     1
 90
        1
176
     1
 90
        6
176
     1
 90
        2
176
     1
 62
     7
176
     1
 90
        3
176
     1
 90
        0
176
     1
 90
        0
176
     1
290
     0
176
     1
 90
        1
176
     1
 40
0.0
176
     1
 90
        0
176
     1
290
     0
176
     1
290
     1
176
     1
290
     1
176
     1
290
     0
176
     1
290
     0
176
     1
290
     0
176
     1
290
     0
176
     1
290
     0
176
     1
290
     0
176
     1
 90
       50
176
     1
 40
0.0
176
     1
 40
1.0
176
     1
 90
        0
176
     1
 62
    18
420
        0
176
     1
 90
       50
176
     1
 90
        3
176
     1
 62
     5
420
      255
176
     1
290
     0
176
     1
 90
       50
176
     1
 90
       50
176
     1
 90
       50
176
     1
290
     0
176
     1
 90
       50
176
     1
 62
   256
176
     0
 40
1.0
176
     0
 90
        2
176
     1
  1
strokes_ogs.tif
176
     1
290
     0
176
     1
 40
1.0
176
     1
 40
1.0
176
     1
  0
VISUALSTYLE
  5
374
102
{ACAD_REACTORS
330
EF
102
}
330
EF
100
AcDbVisualStyle
  2
Sketchy
 70
    24
177
     3
291
     0
 70
    58
 90
        1
176
     1
 90
        2
176
     1
 90
        2
176
     1
 90
        0
176
     1
 40
0.6
176
     1
 40
30.0
176
     1
 62
     7
420
 16777215
176
     1
 90
        2
176
     1
 90
        2
176
     1
 62
     7
176
     1
 62
     7
176
     1
 90
        1
176
     1
 90
        1
176
     1
 40
40.0
176
     1
 90
       11
176
     1
 62
     7
176
     1
 40
1.0
176
     1
 90
        1
176
     1
 90
        6
176
     1
 90
        2
176
     1
 62
     7
176
     1
 90
        6
176
     1
 90
        0
176
     1
 90
        0
176
     1
290
     0
176
     1
 90
        1
176
     1
 40
0.0
176
     1
 90
        0
176
     1
290
     0
176
     1
290
     1
176
     1
290
     1
176
     1
290
     0
176
     1
290
     0
176
     1
290
     0
176
     1
290
     0
176
     1
290
     0
176
     1
290
     0
176
     1
 90
       50
176
     1
 40
0.0
176
     1
 40
1.0
176
     1
 90
        0
176
     1
 62
    18
420
        0
176
     1
 90
       50
176
     1
 90
        3
176
     1
 62
     5
420
      255
176
     1
290
     0
176
     1
 90
       50
176
     1
 90
       50
176
     1
 90
       50
176
     1
290
     0
176
     1
 90
       50
176
     1
 62
   256
176
     0
 40
1.0
176
     0
 90
        2
176
     1
  1
strokes_ogs.tif
176
     1
290
     0
176
     1
 40
1.0
176
     1
 40
1.0
176
     1
  0
VISUALSTYLE
  5
FC
102
{ACAD_REACTORS
330
EF
102
}
330
EF
100
AcDbVisualStyle
  2

 70
    13
177
     3
291
     1
 70
    58
 90
        2
176
     1
 90
        2
176
     1
 90
        1
176
     1
 90
        0
176
     1
 40
0.6
176
     1
 40
30.0
176
     1
 62
     7
420
 16777215
176
     1
 90
        1
176
     1
 90
        4
176
     1
 62
     7
176
     1
 62
   257
176
     1
 90
        1
176
     1
 90
        1
176
     1
 40
1.0
176
     1
 90
       12
176
     1
 62
     7
176
     1
 40
1.0
176
     1
 90
        1
176
     1
 90
        6
176
     1
 90
        2
176
     1
 62
     7
176
     1
 90
        5
176
     1
 90
        0
176
     1
 90
        0
176
     1
290
     0
176
     1
 90
        1
176
     1
 40
0.0
176
     1
 90
        0
176
     1
290
     0
176
     1
290
     1
176
     1
290
     1
176
     1
290
     0
176
     1
290
     0
176
     1
290
     0
176
     1
290
     0
176
     1
290
     0
176
     1
290
     0
176
     1
 90
       50
176
     1
 40
0.0
176
     1
 40
1.0
176
     1
 90
        0
176
     1
 62
    18
420
        0
176
     1
 90
       50
176
     1
 90
        3
176
     1
 62
     5
420
      255
176
     1
290
     0
176
     1
 90
       50
176
     1
 90
       50
176
     1
 90
       50
176
     1
290
     0
176
     1
 90
       50
176
     1
 62
   256
176
     0
 40
1.0
176
     0
 90
        2
176
     1
  1
strokes_ogs.tif
176
     1
290
     0
176
     1
 40
1.0
176
     1
 40
1.0
176
     1
  0
VISUALSTYLE
  5
371
102
{ACAD_REACTORS
330
EF
102
}
330
EF
100
AcDbVisualStyle
  2
Wireframe
 70
     5
177
     3
291
     0
 70
    58
 90
        0
176
     1
 90
        2
176
     1
 90
        0
176
     1
 90
        0
176
     1
 40
0.6
176
     1
 40
30.0
176
     1
 62
     7
420
 16777215
176
     1
 90
        1
176
     1
 90
        4
176
     1
 62
     7
176
     1
 62
   257
176
     1
 90
        1
176
     1
 90
        1
176
     1
 40
1.0
176
     1
 90
        0
176
     1
 62
   257
176
     1
 40
1.0
176
     1
 90
        1
176
     1
 90
        6
176
     1
 90
        2
176
     1
 62
     7
176
     1
 90
        3
176
     1
 90
        0
176
     1
 90
        0
176
     1
290
     0
176
     1
 90
        1
176
     1
 40
0.0
176
     1
 90
        0
176
     1
290
     0
176
     1
290
     1
176
     1
290
     1
176
     1
290
     0
176
     1
290
     0
176
     1
290
     0
176
     1
290
     0
176
     1
290
     0
176
     1
290
     0
176
     1
 90
       50
176
     1
 40
0.0
176
     1
 40
1.0
176
     1
 90
        0
176
     1
 62
    18
420
        0
176
     1
 90
       50
176
     1
 90
        3
176
     1
 62
     5
420
      255
176
     1
290
     0
176
     1
 90
       50
176
     1
 90
       50
176
     1
 90
       50
176
     1
290
     0
176
     1
 90
       50
176
     1
 62
   256
176
     0
 40
1.0
176
     0
 90
        2
176
     1
  1
strokes_ogs.tif
176
     1
290
     0
176
     1
 40
1.0
176
     1
 40
1.0
176
     1
  0
VISUALSTYLE
  5
375
102
{ACAD_REACTORS
330
EF
102
}
330
EF
100
AcDbVisualStyle
  2
X-Ray
 70
    25
177
     3
291
     0
 70
    58
 90
        2
176
     1
 90
        2
176
     1
 90
        1
176
     1
 90
        1
176
     1
 40
0.5
176
     1
 40
30.0
176
     1
 62
     7
420
 16777215
176
     1
 90
        1
176
     1
 90
        0
176
     1
 62
     7
176
     1
 62
   257
176
     1
 90
        1
176
     1
 90
        1
176
     1
 40
1.0
176
     1
 90
        8
176
     1
 62
     7
176
     1
 40
1.0
176
     1
 90
        1
176
     1
 90
        6
176
     1
 90
        2
176
     1
 62
     7
176
     1
 90
        3
176
     1
 90
        0
176
     1
 90
        0
176
     1
290
     0
176
     1
 90
       13
176
     1
 40
0.0
176
     1
 90
        0
176
     1
290
     0
176
     1
290
     1
176
     1
290
     1
176
     1
290
     0
176
     1
290
     0
176
     1
290
     0
176
     1
290
     0
176
     1
290
     0
176
     1
290
     0
176
     1
 90
       50
176
     1
 40
0.0
176
     1
 40
1.0
176
     1
 90
        0
176
     1
 62
    18
420
        0
176
     1
 90
       50
176
     1
 90
        3
176
     1
 62
     5
420
      255
176
     1
290
     0
176
     1
 90
       50
176
     1
 90
       50
176
     1
 90
       50
176
     1
290
     0
176
     1
 90
       50
176
     1
 62
   256
176
     0
 40
1.0
176
     0
 90
        2
176
     1
  1
strokes_ogs.tif
176
     1
290
     0
176
     1
 40
1.0
176
     1
 40
1.0
176
     1
  0
DICTIONARYVAR
  5
146
102
{ACAD_REACTORS
330
5E
102
}
330
5E
100
DictionaryVariables
280
     0
  1
1:1
  0
DICTIONARYVAR
  5
145
102
{ACAD_REACTORS
330
5E
102
}
330
5E
100
DictionaryVariables
280
     0
  1
STANDARD
  0
DICTIONARYVAR
  5
84
102
{ACAD_REACTORS
330
5E
102
}
330
5E
100
DictionaryVariables
280
     0
  1
STANDARD
  0
DICTIONARYVAR
  5
38F
102
{ACAD_REACTORS
330
5E
102
}
330
5E
100
DictionaryVariables
280
     0
  1
Metric50
  0
DICTIONARYVAR
  5
390
102
{ACAD_REACTORS
330
5E
102
}
330
5E
100
DictionaryVariables
280
     0
  1
Metric50
  0
DICTIONARYVAR
  5
5F
102
{ACAD_REACTORS
330
5E
102
}
330
5E
100
DictionaryVariables
280
     0
  1
2
  0
DICTIONARYVAR
  5
63
102
{ACAD_REACTORS
330
5E
102
}
330
5E
100
DictionaryVariables
280
     0
  1
1
  0
DICTIONARYVAR
  5
391
102
{ACAD_REACTORS
330
5E
102
}
330
5E
100
DictionaryVariables
280
     0
  1
1
  0
DICTIONARYVAR
  5
392
102
{ACAD_REACTORS
330
5E
102
}
330
5E
100
DictionaryVariables
280
     0
  1
15
  0
VLO-VL
  5
1B2
102
{ACAD_REACTORS
330
1B1
102
}
330
1B1
100
vlo_VL
 90
   -64512
 91
       12
 92
        1
 40
2.5
300
(&VLO-R . 0)
  0
DICTIONARY
  5
396
330
37E
100
AcDbDictionary
280
     1
281
     1
  3
ACAD_XREC_ROUNDTRIP
360
397
  0
DICTIONARY
  5
173
330
EE
100
AcDbDictionary
280
     1
281
     1
  3
BUMPTILE
360
175
  3
DIFFUSETILE
360
174
  3
OPACITYTILE
360
176
  3
REFLECTIONTILE
360
177
  0
DICTIONARY
  5
394
330
37C
100
AcDbDictionary
280
     1
281
     1
  3
ACAD_XREC_ROUNDTRIP
360
395
  0
DICTIONARY
  5
162
330
7F
100
AcDbDictionary
280
     1
281
     1
  3
ACAD_ROUNDTRIP_2008_TABLESTYLE_CELLSTYLEMAP
360
393
  0
XRECORD
  5
397
102
{ACAD_REACTORS
330
396
102
}
330
396
100
AcDbXrecord
280
     1
102
DISPLAYNAME
  1
Metric50
102
FLAGS
 90
        0
  0
XRECORD
  5
175
102
{ACAD_REACTORS
330
173
102
}
330
173
100
AcDbXrecord
280
     1
270
     1
271
     1
  0
XRECORD
  5
174
102
{ACAD_REACTORS
330
173
102
}
330
173
100
AcDbXrecord
280
     1
270
     1
271
     1
  0
XRECORD
  5
176
102
{ACAD_REACTORS
330
173
102
}
330
173
100
AcDbXrecord
280
     1
270
     1
271
     1
  0
XRECORD
  5
177
102
{ACAD_REACTORS
330
173
102
}
330
173
100
AcDbXrecord
280
     1
270
     1
271
     1
  0
XRECORD
  5
395
102
{ACAD_REACTORS
330
394
102
}
330
394
100
AcDbXrecord
280
     1
102
DISPLAYNAME
  1
Metric50
102
FLAGS
 90
        0
  0
CELLSTYLEMAP
  5
393
102
{ACAD_REACTORS
330
162
102
}
330
162
100
AcDbCellStyleMap
 90
        3
300
CELLSTYLE
  1
TABLEFORMAT_BEGIN
 90
        5
170
     1
 91
        0
 92
    32768
 62
   257
 93
        1
300
CONTENTFORMAT
  1
CONTENTFORMAT_BEGIN
 90
        0
 91
        0
 92
      512
 93
        0
300

 40
0.0
140
1.0
 94
        5
 62
     0
340
11
144
6.0
309
CONTENTFORMAT_END
171
     1
301
MARGIN
  1
CELLMARGIN_BEGIN
 40
1.5
 40
1.5
 40
1.5
 40
1.5
 40
0.18
 40
0.18
309
CELLMARGIN_END
 94
        6
 95
        1
302
GRIDFORMAT
  1
GRIDFORMAT_BEGIN
 90
        0
 91
        1
 62
     0
 92
       -2
340
14
 93
        0
 40
1.125
309
GRIDFORMAT_END
 95
        2
302
GRIDFORMAT
  1
GRIDFORMAT_BEGIN
 90
        0
 91
        1
 62
     0
 92
       -2
340
14
 93
        0
 40
1.125
309
GRIDFORMAT_END
 95
        4
302
GRIDFORMAT
  1
GRIDFORMAT_BEGIN
 90
        0
 91
        1
 62
     0
 92
       -2
340
14
 93
        0
 40
1.125
309
GRIDFORMAT_END
 95
        8
302
GRIDFORMAT
  1
GRIDFORMAT_BEGIN
 90
        0
 91
        1
 62
     0
 92
       -2
340
14
 93
        0
 40
1.125
309
GRIDFORMAT_END
 95
       16
302
GRIDFORMAT
  1
GRIDFORMAT_BEGIN
 90
        0
 91
        1
 62
     0
 92
       -2
340
14
 93
        0
 40
1.125
309
GRIDFORMAT_END
 95
       32
302
GRIDFORMAT
  1
GRIDFORMAT_BEGIN
 90
        0
 91
        1
 62
     0
 92
       -2
340
14
 93
        0
 40
1.125
309
GRIDFORMAT_END
309
TABLEFORMAT_END
  1
CELLSTYLE_BEGIN
 90
        1
 91
        1
300
_TITLE
309
CELLSTYLE_END
300
CELLSTYLE
  1
TABLEFORMAT_BEGIN
 90
        5
170
     1
 91
        0
 92
        0
 62
   257
 93
        1
300
CONTENTFORMAT
  1
CONTENTFORMAT_BEGIN
 90
        0
 91
        0
 92
      512
 93
        0
300

 40
0.0
140
1.0
 94
        5
 62
     0
340
11
144
4.5
309
CONTENTFORMAT_END
171
     1
301
MARGIN
  1
CELLMARGIN_BEGIN
 40
1.5
 40
1.5
 40
1.5
 40
1.5
 40
0.18
 40
0.18
309
CELLMARGIN_END
 94
        6
 95
        1
302
GRIDFORMAT
  1
GRIDFORMAT_BEGIN
 90
        0
 91
        1
 62
     0
 92
       -2
340
14
 93
        0
 40
1.125
309
GRIDFORMAT_END
 95
        2
302
GRIDFORMAT
  1
GRIDFORMAT_BEGIN
 90
        0
 91
        1
 62
     0
 92
       -2
340
14
 93
        0
 40
1.125
309
GRIDFORMAT_END
 95
        4
302
GRIDFORMAT
  1
GRIDFORMAT_BEGIN
 90
        0
 91
        1
 62
     0
 92
       -2
340
14
 93
        0
 40
1.125
309
GRIDFORMAT_END
 95
        8
302
GRIDFORMAT
  1
GRIDFORMAT_BEGIN
 90
        0
 91
        1
 62
     0
 92
       -2
340
14
 93
        0
 40
1.125
309
GRIDFORMAT_END
 95
       16
302
GRIDFORMAT
  1
GRIDFORMAT_BEGIN
 90
        0
 91
        1
 62
     0
 92
       -2
340
14
 93
        0
 40
1.125
309
GRIDFORMAT_END
 95
       32
302
GRIDFORMAT
  1
GRIDFORMAT_BEGIN
 90
        0
 91
        1
 62
     0
 92
       -2
340
14
 93
        0
 40
1.125
309
GRIDFORMAT_END
309
TABLEFORMAT_END
  1
CELLSTYLE_BEGIN
 90
        2
 91
        1
300
_HEADER
309
CELLSTYLE_END
300
CELLSTYLE
  1
TABLEFORMAT_BEGIN
 90
        5
170
     1
 91
        0
 92
        0
 62
   257
 93
        1
300
CONTENTFORMAT
  1
CONTENTFORMAT_BEGIN
 90
        0
 91
        0
 92
      512
 93
        0
300

 40
0.0
140
1.0
 94
        2
 62
     0
340
11
144
4.5
309
CONTENTFORMAT_END
171
     1
301
MARGIN
  1
CELLMARGIN_BEGIN
 40
1.5
 40
1.5
 40
1.5
 40
1.5
 40
0.18
 40
0.18
309
CELLMARGIN_END
 94
        6
 95
        1
302
GRIDFORMAT
  1
GRIDFORMAT_BEGIN
 90
        0
 91
        1
 62
     0
 92
       -2
340
14
 93
        0
 40
1.125
309
GRIDFORMAT_END
 95
        2
302
GRIDFORMAT
  1
GRIDFORMAT_BEGIN
 90
        0
 91
        1
 62
     0
 92
       -2
340
14
 93
        0
 40
1.125
309
GRIDFORMAT_END
 95
        4
302
GRIDFORMAT
  1
GRIDFORMAT_BEGIN
 90
        0
 91
        1
 62
     0
 92
       -2
340
14
 93
        0
 40
1.125
309
GRIDFORMAT_END
 95
        8
302
GRIDFORMAT
  1
GRIDFORMAT_BEGIN
 90
        0
 91
        1
 62
     0
 92
       -2
340
14
 93
        0
 40
1.125
309
GRIDFORMAT_END
 95
       16
302
GRIDFORMAT
  1
GRIDFORMAT_BEGIN
 90
        0
 91
        1
 62
     0
 92
       -2
340
14
 93
        0
 40
1.125
309
GRIDFORMAT_END
 95
       32
302
GRIDFORMAT
  1
GRIDFORMAT_BEGIN
 90
        0
 91
        1
 62
     0
 92
       -2
340
14
 93
        0
 40
1.125
309
GRIDFORMAT_END
309
TABLEFORMAT_END
  1
CELLSTYLE_BEGIN
 90
        3
 91
        2
300
_DATA
309
CELLSTYLE_END
  0
ENDSEC
  0
EOF
