  0
SECTION
  2
HEADER
  9
$ACADVER
  1
AC1027
  9
$ACADMAINTVER
 70
   125
  9
$DWGCODEPAGE
  3
ANSI_1252
  9
$LASTSAVEDBY
  1
fleminab
  9
$REQUIREDVERSIONS
160
                 0
  9
$INSBASE
 10
0.0
 20
0.0
 30
0.0
  9
$EXTMIN
 10
12463.11668871297
 20
-4971.451932122015
 30
-0.0015258207003583
  9
$EXTMAX
 10
13420.43179678845
 20
-3961.781876633646
 30
0.0000000349246037
  9
$LIMMIN
 10
0.0
 20
0.0
  9
$LIMMAX
 10
420.0
 20
297.0
  9
$ORTHOMODE
 70
     1
  9
$REGENMODE
 70
     1
  9
$FILLMODE
 70
     1
  9
$QTEXTMODE
 70
     0
  9
$MIRRTEXT
 70
     0
  9
$LTSCALE
 40
1.0
  9
$ATTMODE
 70
     1
  9
$TEXTSIZE
 40
2.5
  9
$TRACEWID
 40
1.0
  9
$TEXTSTYLE
  7
Standard
  9
$CLAYER
  8
0
  9
$CELTYPE
  6
ByLayer
  9
$CECOLOR
 62
   256
  9
$CELTSCALE
 40
1.0
  9
$DISPSILH
 70
     0
  9
$DIMSCALE
 40
1.0
  9
$DIMASZ
 40
10.0
  9
$DIMEXO
 40
0.625
  9
$DIMDLI
 40
3.75
  9
$DIMRND
 40
0.0
  9
$DIMDLE
 40
0.0
  9
$DIMEXE
 40
1.25
  9
$DIMTP
 40
0.0
  9
$DIMTM
 40
0.0
  9
$DIMTXT
 40
20.0
  9
$DIMCEN
 40
2.5
  9
$DIMTSZ
 40
0.0
  9
$DIMTOL
 70
     0
  9
$DIMLIM
 70
     0
  9
$DIMTIH
 70
     0
  9
$DIMTOH
 70
     0
  9
$DIMSE1
 70
     0
  9
$DIMSE2
 70
     0
  9
$DIMTAD
 70
     1
  9
$DIMZIN
 70
     8
  9
$DIMBLK
  1

  9
$DIMASO
 70
     1
  9
$DIMSHO
 70
     1
  9
$DIMPOST
  1

  9
$DIMAPOST
  1

  9
$DIMALT
 70
     0
  9
$DIMALTD
 70
     3
  9
$DIMALTF
 40
0.03937007874016
  9
$DIMLFAC
 40
1.0
  9
$DIMTOFL
 70
     1
  9
$DIMTVP
 40
0.0
  9
$DIMTIX
 70
     0
  9
$DIMSOXD
 70
     0
  9
$DIMSAH
 70
     0
  9
$DIMBLK1
  1

  9
$DIMBLK2
  1

  9
$DIMSTYLE
  2
ISO-25
  9
$DIMCLRD
 70
     0
  9
$DIMCLRE
 70
     0
  9
$DIMCLRT
 70
     0
  9
$DIMTFAC
 40
1.0
  9
$DIMGAP
 40
0.625
  9
$DIMJUST
 70
     0
  9
$DIMSD1
 70
     0
  9
$DIMSD2
 70
     0
  9
$DIMTOLJ
 70
     0
  9
$DIMTZIN
 70
     8
  9
$DIMALTZ
 70
     0
  9
$DIMALTTZ
 70
     0
  9
$DIMUPT
 70
     0
  9
$DIMDEC
 70
     2
  9
$DIMTDEC
 70
     2
  9
$DIMALTU
 70
     2
  9
$DIMALTTD
 70
     3
  9
$DIMTXSTY
  7
Standard
  9
$DIMAUNIT
 70
     0
  9
$DIMADEC
 70
     0
  9
$DIMALTRND
 40
0.0
  9
$DIMAZIN
 70
     0
  9
$DIMDSEP
 70
    44
  9
$DIMATFIT
 70
     3
  9
$DIMFRAC
 70
     0
  9
$DIMLDRBLK
  1
Dot
  9
$DIMLUNIT
 70
     2
  9
$DIMLWD
 70
    -2
  9
$DIMLWE
 70
    -2
  9
$DIMTMOVE
 70
     0
  9
$DIMFXL
 40
1.0
  9
$DIMFXLON
 70
     0
  9
$DIMJOGANG
 40
0.7853981633974483
  9
$DIMTFILL
 70
     0
  9
$DIMTFILLCLR
 70
     0
  9
$DIMARCSYM
 70
     0
  9
$DIMLTYPE
  6

  9
$DIMLTEX1
  6

  9
$DIMLTEX2
  6

  9
$DIMTXTDIRECTION
 70
     0
  9
$LUNITS
 70
     2
  9
$LUPREC
 70
     4
  9
$SKETCHINC
 40
1.0
  9
$FILLETRAD
 40
40.0
  9
$AUNITS
 70
     0
  9
$AUPREC
 70
     0
  9
$MENU
  1
.
  9
$ELEVATION
 40
0.0
  9
$PELEVATION
 40
0.0
  9
$THICKNESS
 40
0.0
  9
$LIMCHECK
 70
     0
  9
$CHAMFERA
 40
110.0
  9
$CHAMFERB
 40
110.0
  9
$CHAMFERC
 40
0.0
  9
$CHAMFERD
 40
0.0
  9
$SKPOLY
 70
     0
  9
$TDCREATE
 40
2454191.704687500
  9
$TDUCREATE
 40
2454191.246363924
  9
$TDUPDATE
 40
2458019.685023148
  9
$TDUUPDATE
 40
2458019.268356482
  9
$TDINDWG
 40
0.4215201852
  9
$TDUSRTIMER
 40
0.4215174769
  9
$USRTIMER
 70
     1
  9
$ANGBASE
 50
0.0
  9
$ANGDIR
 70
     0
  9
$PDMODE
 70
     0
  9
$PDSIZE
 40
0.0
  9
$PLINEWID
 40
0.0
  9
$SPLFRAME
 70
     0
  9
$SPLINETYPE
 70
     6
  9
$SPLINESEGS
 70
     8
  9
$HANDSEED
  5
3ADC
  9
$SURFTAB1
 70
     6
  9
$SURFTAB2
 70
     6
  9
$SURFTYPE
 70
     6
  9
$SURFU
 70
     6
  9
$SURFV
 70
     6
  9
$UCSBASE
  2

  9
$UCSNAME
  2

  9
$UCSORG
 10
0.0
 20
0.0
 30
0.0
  9
$UCSXDIR
 10
1.0
 20
0.0
 30
0.0
  9
$UCSYDIR
 10
0.0
 20
1.0
 30
0.0
  9
$UCSORTHOREF
  2

  9
$UCSORTHOVIEW
 70
     0
  9
$UCSORGTOP
 10
0.0
 20
0.0
 30
0.0
  9
$UCSORGBOTTOM
 10
0.0
 20
0.0
 30
0.0
  9
$UCSORGLEFT
 10
0.0
 20
0.0
 30
0.0
  9
$UCSORGRIGHT
 10
0.0
 20
0.0
 30
0.0
  9
$UCSORGFRONT
 10
0.0
 20
0.0
 30
0.0
  9
$UCSORGBACK
 10
0.0
 20
0.0
 30
0.0
  9
$PUCSBASE
  2

  9
$PUCSNAME
  2

  9
$PUCSORG
 10
0.0
 20
0.0
 30
0.0
  9
$PUCSXDIR
 10
1.0
 20
0.0
 30
0.0
  9
$PUCSYDIR
 10
0.0
 20
1.0
 30
0.0
  9
$PUCSORTHOREF
  2

  9
$PUCSORTHOVIEW
 70
     0
  9
$PUCSORGTOP
 10
0.0
 20
0.0
 30
0.0
  9
$PUCSORGBOTTOM
 10
0.0
 20
0.0
 30
0.0
  9
$PUCSORGLEFT
 10
0.0
 20
0.0
 30
0.0
  9
$PUCSORGRIGHT
 10
0.0
 20
0.0
 30
0.0
  9
$PUCSORGFRONT
 10
0.0
 20
0.0
 30
0.0
  9
$PUCSORGBACK
 10
0.0
 20
0.0
 30
0.0
  9
$USERI1
 70
     0
  9
$USERI2
 70
     0
  9
$USERI3
 70
     0
  9
$USERI4
 70
     0
  9
$USERI5
 70
     0
  9
$USERR1
 40
0.0
  9
$USERR2
 40
0.0
  9
$USERR3
 40
0.0
  9
$USERR4
 40
0.0
  9
$USERR5
 40
0.0
  9
$WORLDVIEW
 70
     1
  9
$SHADEDGE
 70
     3
  9
$SHADEDIF
 70
    70
  9
$TILEMODE
 70
     1
  9
$MAXACTVP
 70
    64
  9
$PINSBASE
 10
0.0
 20
0.0
 30
0.0
  9
$PLIMCHECK
 70
     0
  9
$PEXTMIN
 10
0.0
 20
0.0
 30
0.0
  9
$PEXTMAX
 10
0.0
 20
0.0
 30
0.0
  9
$PLIMMIN
 10
0.0
 20
0.0
  9
$PLIMMAX
 10
12.0
 20
9.0
  9
$UNITMODE
 70
     0
  9
$VISRETAIN
 70
     1
  9
$PLINEGEN
 70
     0
  9
$PSLTSCALE
 70
     1
  9
$TREEDEPTH
 70
  3020
  9
$CMLSTYLE
  2
Standard
  9
$CMLJUST
 70
     0
  9
$CMLSCALE
 40
20.0
  9
$PROXYGRAPHICS
 70
     1
  9
$MEASUREMENT
 70
     1
  9
$CELWEIGHT
370
    -1
  9
$ENDCAPS
280
     0
  9
$JOINSTYLE
280
     0
  9
$LWDISPLAY
290
     0
  9
$INSUNITS
 70
     4
  9
$HYPERLINKBASE
  1

  9
$STYLESHEET
  1

  9
$XEDIT
290
     1
  9
$CEPSNTYPE
380
     0
  9
$PSTYLEMODE
290
     1
  9
$FINGERPRINTGUID
  2
{F77D0538-B029-4C46-A9C5-ED0A67D6774C}
  9
$VERSIONGUID
  2
{E59FD297-BD19-C24C-9D2C-26481AEBD661}
  9
$EXTNAMES
290
     1
  9
$PSVPSCALE
 40
0.0
  9
$OLESTARTUP
290
     0
  9
$SORTENTS
280
   127
  9
$INDEXCTL
280
     0
  9
$HIDETEXT
280
     1
  9
$XCLIPFRAME
280
     0
  9
$HALOGAP
280
     0
  9
$OBSCOLOR
 70
   257
  9
$OBSLTYPE
280
     0
  9
$INTERSECTIONDISPLAY
280
     0
  9
$INTERSECTIONCOLOR
 70
   257
  9
$DIMASSOC
280
     2
  9
$PROJECTNAME
  1

  9
$CAMERADISPLAY
290
     0
  9
$LENSLENGTH
 40
50.0
  9
$CAMERAHEIGHT
 40
0.0
  9
$STEPSPERSEC
 40
2.0
  9
$STEPSIZE
 40
6.0
  9
$3DDWFPREC
 40
2.0
  9
$PSOLWIDTH
 40
0.25
  9
$PSOLHEIGHT
 40
4.0
  9
$LOFTANG1
 40
1.570796326794896
  9
$LOFTANG2
 40
1.570796326794896
  9
$LOFTMAG1
 40
0.0
  9
$LOFTMAG2
 40
0.0
  9
$LOFTPARAM
 70
     7
  9
$LOFTNORMALS
280
     1
  9
$LATITUDE
 40
37.795
  9
$LONGITUDE
 40
-122.394
  9
$NORTHDIRECTION
 40
0.0
  9
$TIMEZONE
 70
 -8000
  9
$LIGHTGLYPHDISPLAY
280
     1
  9
$TILEMODELIGHTSYNCH
280
     1
  9
$CMATERIAL
347
3A6A
  9
$SOLIDHIST
280
     0
  9
$SHOWHIST
280
     1
  9
$DWFFRAME
280
     2
  9
$DGNFRAME
280
     0
  9
$REALWORLDSCALE
290
     1
  9
$INTERFERECOLOR
 62
     1
  9
$INTERFEREOBJVS
345
3A8C
  9
$INTERFEREVPVS
346
3A89
  9
$CSHADOW
280
     0
  9
$SHADOWPLANELOCATION
 40
0.0
  0
ENDSEC
  0
SECTION
  2
CLASSES
  0
CLASS
  1
ACDBDICTIONARYWDFLT
  2
AcDbDictionaryWithDefault
  3
ObjectDBX Classes
 90
        0
 91
        1
280
     0
281
     0
  0
CLASS
  1
DICTIONARYVAR
  2
AcDbDictionaryVar
  3
ObjectDBX Classes
 90
        0
 91
       19
280
     0
281
     0
  0
CLASS
  1
TABLESTYLE
  2
AcDbTableStyle
  3
ObjectDBX Classes
 90
     4095
 91
        1
280
     0
281
     0
  0
CLASS
  1
SORTENTSTABLE
  2
AcDbSortentsTable
  3
ObjectDBX Classes
 90
        0
 91
        1
280
     0
281
     0
  0
CLASS
  1
DIMASSOC
  2
AcDbDimAssoc
  3
"AcDbDimAssoc|Product Desc:     AcDim ARX App For Dimension|Company:          Autodesk, Inc.|WEB Address:      www.autodesk.com"
 90
        0
 91
        6
280
     0
281
     0
  0
CLASS
  1
MATERIAL
  2
AcDbMaterial
  3
ObjectDBX Classes
 90
     1153
 91
        3
280
     0
281
     0
  0
CLASS
  1
VISUALSTYLE
  2
AcDbVisualStyle
  3
ObjectDBX Classes
 90
     4095
 91
       24
280
     0
281
     0
  0
CLASS
  1
SCALE
  2
AcDbScale
  3
ObjectDBX Classes
 90
     1153
 91
       17
280
     0
281
     0
  0
CLASS
  1
MLEADERSTYLE
  2
AcDbMLeaderStyle
  3
ACDB_MLEADERSTYLE_CLASS
 90
     4095
 91
        1
280
     0
281
     0
  0
CLASS
  1
ACDBSECTIONVIEWSTYLE
  2
AcDbSectionViewStyle
  3
ObjectDBX Classes
 90
     1025
 91
        1
280
     0
281
     0
  0
CLASS
  1
ACDBDETAILVIEWSTYLE
  2
AcDbDetailViewStyle
  3
ObjectDBX Classes
 90
     1025
 91
        1
280
     0
281
     0
  0
CLASS
  1
CELLSTYLEMAP
  2
AcDbCellStyleMap
  3
ObjectDBX Classes
 90
     1152
 91
        1
280
     0
281
     0
  0
ENDSEC
  0
SECTION
  2
TABLES
  0
TABLE
  2
VPORT
  5
8
330
0
100
AcDbSymbolTable
 70
     1
1001
ACAD
1000
DbSaveVer
1071
        5
  0
VPORT
  5
3A68
330
8
100
AcDbSymbolTableRecord
100
AcDbViewportTableRecord
  2
*Active
 70
     0
 10
0.0
 20
0.0
 11
1.0
 21
1.0
 12
12941.77424275071
 22
-4466.61690437783
 13
0.0
 23
0.0
 14
10.0
 24
10.0
 15
10.0
 25
10.0
 16
0.0
 26
0.0
 36
1.0
 17
0.0
 27
0.0
 37
0.0
 40
1016.899196697115
 41
2.292712066905615
 42
50.0
 43
0.0
 44
0.0
 50
0.0
 51
0.0
 71
     0
 72
  1000
 73
     1
 74
     3
 75
     0
 76
     0
 77
     0
 78
     0
281
     0
 65
     1
110
0.0
120
0.0
130
0.0
111
1.0
121
0.0
131
0.0
112
0.0
122
1.0
132
0.0
 79
     0
146
0.0
348
3A88
 60
     3
 61
     5
292
     1
282
     1
141
0.0
142
0.0
 63
   250
421
  3355443
1001
ACAD_NAV_VCDISPLAY
1070
     3
  0
ENDTAB
  0
TABLE
  2
LTYPE
  5
5
330
0
100
AcDbSymbolTable
 70
     2
  0
LTYPE
  5
14
330
5
100
AcDbSymbolTableRecord
100
AcDbLinetypeTableRecord
  2
ByBlock
 70
     0
  3

 72
    65
 73
     0
 40
0.0
  0
LTYPE
  5
15
330
5
100
AcDbSymbolTableRecord
100
AcDbLinetypeTableRecord
  2
ByLayer
 70
     0
  3

 72
    65
 73
     0
 40
0.0
  0
LTYPE
  5
16
330
5
100
AcDbSymbolTableRecord
100
AcDbLinetypeTableRecord
  2
Continuous
 70
     0
  3
Solid line
 72
    65
 73
     0
 40
0.0
  0
LTYPE
  5
14BA
330
5
100
AcDbSymbolTableRecord
100
AcDbLinetypeTableRecord
  2
ACAD_ISO02W100
 70
     0
  3
ISO dash __ __ __ __ __ __ __ __ __ __ __ __ __
 72
    65
 73
     2
 40
15.0
 49
12.0
 74
     0
 49
-3.0
 74
     0
  0
ENDTAB
  0
TABLE
  2
LAYER
  5
2
102
{ACAD_XDICTIONARY
360
1858
102
}
330
0
100
AcDbSymbolTable
 70
     3
  0
LAYER
  5
10
102
{ACAD_XDICTIONARY
360
3ABB
102
}
330
2
100
AcDbSymbolTableRecord
100
AcDbLayerTableRecord
  2
0
 70
     0
 62
     7
  6
Continuous
370
    -3
390
F
347
3A7A
348
0
  0
LAYER
  5
1A8
330
2
100
AcDbSymbolTableRecord
100
AcDbLayerTableRecord
  2
Defpoints
 70
     0
 62
     7
  6
Continuous
290
     0
370
    -3
390
F
347
3A7A
348
0
  0
LAYER
  5
3248
102
{ACAD_XDICTIONARY
360
3ABD
102
}
330
2
100
AcDbSymbolTableRecord
100
AcDbLayerTableRecord
  2
图层1
 70
     0
 62
     7
  6
ACAD_ISO02W100
370
    -3
390
F
347
3A7A
348
0
1001
AcadStringInfo
1000
MIFCodePage
1070
     5
  0
ENDTAB
  0
TABLE
  2
STYLE
  5
3
330
0
100
AcDbSymbolTable
 70
     2
  0
STYLE
  5
11
330
3
100
AcDbSymbolTableRecord
100
AcDbTextStyleTableRecord
  2
Standard
 70
     0
 40
0.0
 41
1.0
 50
0.0
 71
     0
 42
2.5
  3
txt
  4
gbcbig.shx
  0
STYLE
  5
3249
330
3
100
AcDbSymbolTableRecord
100
AcDbTextStyleTableRecord
  2

 70
     1
 40
0.0
 41
1.0
 50
0.0
 71
     0
 42
2.5
  3
ltypeshp.shx
  4

  0
ENDTAB
  0
TABLE
  2
VIEW
  5
6
330
0
100
AcDbSymbolTable
 70
     0
  0
ENDTAB
  0
TABLE
  2
UCS
  5
7
330
0
100
AcDbSymbolTable
 70
     0
  0
ENDTAB
  0
TABLE
  2
APPID
  5
9
330
0
100
AcDbSymbolTable
 70
     5
  0
APPID
  5
12
330
9
100
AcDbSymbolTableRecord
100
AcDbRegAppTableRecord
  2
ACAD
 70
     0
  0
APPID
  5
9E
330
9
100
AcDbSymbolTableRecord
100
AcDbRegAppTableRecord
  2
ACAD_PSEXT
 70
     0
  0
APPID
  5
F1
330
9
100
AcDbSymbolTableRecord
100
AcDbRegAppTableRecord
  2
ACAD_DSTYLE_DIMTEXT_FILL
 70
     0
  0
APPID
  5
3AB3
330
9
100
AcDbSymbolTableRecord
100
AcDbRegAppTableRecord
  2
AcadStringInfo
 70
     0
  0
APPID
  5
3ABF
330
9
100
AcDbSymbolTableRecord
100
AcDbRegAppTableRecord
  2
ACAD_NAV_VCDISPLAY
 70
     0
  0
ENDTAB
  0
TABLE
  2
DIMSTYLE
  5
A
330
0
100
AcDbSymbolTable
 70
     1
100
AcDbDimStyleTable
 71
     1
340
27
  0
DIMSTYLE
105
27
102
{ACAD_REACTORS
330
2860
330
2863
330
2869
330
286C
330
286F
330
3A4C
102
}
330
A
100
AcDbSymbolTableRecord
100
AcDbDimStyleTableRecord
  2
ISO-25
 70
     0
 41
10.0
 42
0.625
 43
3.75
 44
1.25
 73
     0
 74
     0
 77
     1
 78
     8
140
20.0
141
2.5
143
0.03937007874016
147
0.625
171
     3
172
     1
271
     2
272
     2
274
     3
278
    44
283
     0
284
     8
340
11
341
119
  0
ENDTAB
  0
TABLE
  2
BLOCK_RECORD
  5
1
330
0
100
AcDbSymbolTable
 70
    41
  0
BLOCK_RECORD
  5
1F
102
{ACAD_XDICTIONARY
360
15A
102
}
330
1
100
AcDbSymbolTableRecord
100
AcDbBlockTableRecord
  2
*Model_Space
340
22
 70
     0
280
     1
281
     0
  0
BLOCK_RECORD
  5
D2
330
1
100
AcDbSymbolTableRecord
100
AcDbBlockTableRecord
  2
*Paper_Space
340
D3
 70
     0
280
     1
281
     0
  0
BLOCK_RECORD
  5
D6
330
1
100
AcDbSymbolTableRecord
100
AcDbBlockTableRecord
  2
*Paper_Space0
340
D7
 70
     0
280
     1
281
     0
  0
BLOCK_RECORD
  5
119
330
1
100
AcDbSymbolTableRecord
100
AcDbBlockTableRecord
  2
_Dot
340
0
 70
     0
280
     1
281
     0
  0
BLOCK_RECORD
  5
1352
330
1
100
AcDbSymbolTableRecord
100
AcDbBlockTableRecord
  2
*D2
340
0
 70
     0
280
     1
281
     0
  0
BLOCK_RECORD
  5
135A
330
1
100
AcDbSymbolTableRecord
100
AcDbBlockTableRecord
  2
*D3
340
0
 70
     0
280
     1
281
     0
  0
BLOCK_RECORD
  5
1362
330
1
100
AcDbSymbolTableRecord
100
AcDbBlockTableRecord
  2
*D4
340
0
 70
     0
280
     1
281
     0
  0
BLOCK_RECORD
  5
136A
330
1
100
AcDbSymbolTableRecord
100
AcDbBlockTableRecord
  2
*D5
340
0
 70
     0
280
     1
281
     0
  0
BLOCK_RECORD
  5
1372
330
1
100
AcDbSymbolTableRecord
100
AcDbBlockTableRecord
  2
510
340
0
 70
     0
280
     1
281
     0
  0
BLOCK_RECORD
  5
2B37
330
1
100
AcDbSymbolTableRecord
100
AcDbBlockTableRecord
  2
*D7
340
0
 70
     0
280
     1
281
     0
  0
BLOCK_RECORD
  5
2B43
330
1
100
AcDbSymbolTableRecord
100
AcDbBlockTableRecord
  2
*D8
340
0
 70
     0
280
     1
281
     0
  0
BLOCK_RECORD
  5
2B5B
330
1
100
AcDbSymbolTableRecord
100
AcDbBlockTableRecord
  2
*D9
340
0
 70
     0
280
     1
281
     0
  0
BLOCK_RECORD
  5
2B67
330
1
100
AcDbSymbolTableRecord
100
AcDbBlockTableRecord
  2
*D10
340
0
 70
     0
280
     1
281
     0
  0
BLOCK_RECORD
  5
2B73
330
1
100
AcDbSymbolTableRecord
100
AcDbBlockTableRecord
  2
*D11
340
0
 70
     0
280
     1
281
     0
  0
BLOCK_RECORD
  5
311F
330
1
100
AcDbSymbolTableRecord
100
AcDbBlockTableRecord
  2
*D12
340
0
 70
     0
280
     1
281
     0
  0
BLOCK_RECORD
  5
312B
330
1
100
AcDbSymbolTableRecord
100
AcDbBlockTableRecord
  2
*D13
340
0
 70
     0
280
     1
281
     0
  0
BLOCK_RECORD
  5
3137
330
1
100
AcDbSymbolTableRecord
100
AcDbBlockTableRecord
  2
*D14
340
0
 70
     0
280
     1
281
     0
  0
BLOCK_RECORD
  5
3143
330
1
100
AcDbSymbolTableRecord
100
AcDbBlockTableRecord
  2
*D15
340
0
 70
     0
280
     1
281
     0
  0
BLOCK_RECORD
  5
314F
330
1
100
AcDbSymbolTableRecord
100
AcDbBlockTableRecord
  2
*D16
340
0
 70
     0
280
     1
281
     0
  0
BLOCK_RECORD
  5
315B
330
1
100
AcDbSymbolTableRecord
100
AcDbBlockTableRecord
  2
*D17
340
0
 70
     0
280
     1
281
     0
  0
BLOCK_RECORD
  5
3167
330
1
100
AcDbSymbolTableRecord
100
AcDbBlockTableRecord
  2
*D18
340
0
 70
     0
280
     1
281
     0
  0
BLOCK_RECORD
  5
3175
330
1
100
AcDbSymbolTableRecord
100
AcDbBlockTableRecord
  2
*D19
340
0
 70
     0
280
     1
281
     0
  0
BLOCK_RECORD
  5
3183
330
1
100
AcDbSymbolTableRecord
100
AcDbBlockTableRecord
  2
*D20
340
0
 70
     0
280
     1
281
     0
  0
BLOCK_RECORD
  5
318F
330
1
100
AcDbSymbolTableRecord
100
AcDbBlockTableRecord
  2
*D21
340
0
 70
     0
280
     1
281
     0
  0
BLOCK_RECORD
  5
319B
330
1
100
AcDbSymbolTableRecord
100
AcDbBlockTableRecord
  2
*D22
340
0
 70
     0
280
     1
281
     0
  0
BLOCK_RECORD
  5
31A9
330
1
100
AcDbSymbolTableRecord
100
AcDbBlockTableRecord
  2
*D23
340
0
 70
     0
280
     1
281
     0
  0
BLOCK_RECORD
  5
31B5
330
1
100
AcDbSymbolTableRecord
100
AcDbBlockTableRecord
  2
*D24
340
0
 70
     0
280
     1
281
     0
  0
BLOCK_RECORD
  5
31C1
330
1
100
AcDbSymbolTableRecord
100
AcDbBlockTableRecord
  2
*D25
340
0
 70
     0
280
     1
281
     0
  0
BLOCK_RECORD
  5
31C9
330
1
100
AcDbSymbolTableRecord
100
AcDbBlockTableRecord
  2
*D26
340
0
 70
     0
280
     1
281
     0
  0
BLOCK_RECORD
  5
31D1
330
1
100
AcDbSymbolTableRecord
100
AcDbBlockTableRecord
  2
*D27
340
0
 70
     0
280
     1
281
     0
  0
BLOCK_RECORD
  5
31D9
330
1
100
AcDbSymbolTableRecord
100
AcDbBlockTableRecord
  2
*D28
340
0
 70
     0
280
     1
281
     0
  0
BLOCK_RECORD
  5
31E1
330
1
100
AcDbSymbolTableRecord
100
AcDbBlockTableRecord
  2
*D29
340
0
 70
     0
280
     1
281
     0
  0
BLOCK_RECORD
  5
31EA
330
1
100
AcDbSymbolTableRecord
100
AcDbBlockTableRecord
  2
*D30
340
0
 70
     0
280
     1
281
     0
  0
BLOCK_RECORD
  5
31F2
330
1
100
AcDbSymbolTableRecord
100
AcDbBlockTableRecord
  2
*D31
340
0
 70
     0
280
     1
281
     0
  0
BLOCK_RECORD
  5
31FE
330
1
100
AcDbSymbolTableRecord
100
AcDbBlockTableRecord
  2
*D32
340
0
 70
     0
280
     1
281
     0
  0
BLOCK_RECORD
  5
320A
330
1
100
AcDbSymbolTableRecord
100
AcDbBlockTableRecord
  2
*D33
340
0
 70
     0
280
     1
281
     0
  0
BLOCK_RECORD
  5
3216
330
1
100
AcDbSymbolTableRecord
100
AcDbBlockTableRecord
  2
*D34
340
0
 70
     0
280
     1
281
     0
  0
BLOCK_RECORD
  5
3222
330
1
100
AcDbSymbolTableRecord
100
AcDbBlockTableRecord
  2
*D35
340
0
 70
     0
280
     1
281
     0
  0
BLOCK_RECORD
  5
322E
330
1
100
AcDbSymbolTableRecord
100
AcDbBlockTableRecord
  2
*D36
340
0
 70
     0
280
     1
281
     0
  0
BLOCK_RECORD
  5
3237
330
1
100
AcDbSymbolTableRecord
100
AcDbBlockTableRecord
  2
*D37
340
0
 70
     0
280
     1
281
     0
  0
BLOCK_RECORD
  5
3240
330
1
100
AcDbSymbolTableRecord
100
AcDbBlockTableRecord
  2
*D38
340
0
 70
     0
280
     1
281
     0
  0
BLOCK_RECORD
  5
324A
330
1
100
AcDbSymbolTableRecord
100
AcDbBlockTableRecord
  2
5740
340
0
 70
     0
280
     1
281
     0
  0
BLOCK_RECORD
  5
3A4D
330
1
100
AcDbSymbolTableRecord
100
AcDbBlockTableRecord
  2
*D40
340
0
 70
     0
280
     1
281
     0
  0
ENDTAB
  0
ENDSEC
  0
SECTION
  2
BLOCKS
  0
BLOCK
  5
20
330
1F
100
AcDbEntity
  8
0
100
AcDbBlockBegin
  2
*Model_Space
 70
     0
 10
0.0
 20
0.0
 30
0.0
  3
*Model_Space
  1

  0
ENDBLK
  5
21
330
1F
100
AcDbEntity
  8
0
100
AcDbBlockEnd
  0
BLOCK
  5
D4
330
D2
100
AcDbEntity
 67
     1
  8
0
100
AcDbBlockBegin
  2
*Paper_Space
 70
     0
 10
0.0
 20
0.0
 30
0.0
  3
*Paper_Space
  1

  0
ENDBLK
  5
D5
330
D2
100
AcDbEntity
 67
     1
  8
0
100
AcDbBlockEnd
  0
BLOCK
  5
D8
330
D6
100
AcDbEntity
 67
     1
  8
0
100
AcDbBlockBegin
  2
*Paper_Space0
 70
     0
 10
0.0
 20
0.0
 30
0.0
  3
*Paper_Space0
  1

  0
ENDBLK
  5
D9
330
D6
100
AcDbEntity
 67
     1
  8
0
100
AcDbBlockEnd
  0
BLOCK
  5
11C
330
119
100
AcDbEntity
  8
0
100
AcDbBlockBegin
  2
_Dot
 70
     0
 10
0.0
 20
0.0
 30
0.0
  3
_Dot
  1

  0
LWPOLYLINE
  5
11A
330
119
100
AcDbEntity
  8
0
  6
ByBlock
 62
     0
100
AcDbPolyline
 90
        2
 70
     1
 43
0.5
 10
-0.25
 20
0.0
 42
1.0
 10
0.25
 20
0.0
 42
1.0
  0
LINE
  5
11B
330
119
100
AcDbEntity
  8
0
  6
ByBlock
 62
     0
370
    -2
100
AcDbLine
 10
-0.5
 20
0.0
 30
0.0
 11
-1.0
 21
0.0
 31
0.0
  0
ENDBLK
  5
11D
330
119
100
AcDbEntity
  8
0
100
AcDbBlockEnd
  0
BLOCK
  5
1353
330
1352
100
AcDbEntity
  8
0
100
AcDbBlockBegin
  2
*D2
 70
     1
 10
0.0
 20
0.0
 30
0.0
  3
*D2
  1

  0
LINE
  5
1354
330
1352
100
AcDbEntity
  8
0
 62
     0
370
    -2
100
AcDbLine
 10
219.8978187154588
 20
130.8633426840645
 30
0.0
 11
70.80203093578756
 21
-49.15107644792002
 31
0.0
  0
MTEXT
  5
1355
330
1352
100
AcDbEntity
  8
0
 62
     0
100
AcDbMText
 10
191.117196321291
 20
112.771407029872
 30
0.0
 40
20.0
 41
0.0
 46
0.0
 71
     5
 72
     1
  1
∅510
 11
0.6378681444120199
 21
0.7701455903557239
 31
0.0
 73
     1
 44
1.0
  0
SOLID
  5
1356
330
1352
100
AcDbEntity
  8
0
 62
     0
100
AcDbTrace
 10
68.87666695989826
 20
-47.55640608688997
 30
0.0
 11
72.72739491167687
 21
-50.74574680895008
 31
0.0
 12
61.23400876960726
 22
-60.70326030325588
 32
0.0
 13
61.23400876960726
 23
-60.70326030325588
 33
0.0
  0
POINT
  5
1357
330
1352
100
AcDbEntity
  8
Defpoints
 62
     0
100
AcDbPoint
 10
61.23400876960726
 20
-60.70326030325588
 30
0.0
  0
POINT
  5
1358
330
1352
100
AcDbEntity
  8
Defpoints
 62
     0
100
AcDbPoint
 10
386.5467624197373
 20
332.0709907781635
 30
0.0
  0
ENDBLK
  5
1359
330
1352
100
AcDbEntity
  8
0
100
AcDbBlockEnd
  0
BLOCK
  5
135B
330
135A
100
AcDbEntity
  8
0
100
AcDbBlockBegin
  2
*D3
 70
     1
 10
0.0
 20
0.0
 30
0.0
  3
*D3
  1

  0
LINE
  5
135C
330
135A
100
AcDbEntity
  8
0
 62
     0
370
    -2
100
AcDbLine
 10
224.8434442377432
 20
111.1916928651623
 30
0.0
 11
325.0869306060959
 21
-45.75621579556917
 31
0.0
  0
MTEXT
  5
135D
330
135A
100
AcDbEntity
  8
0
 62
     0
100
AcDbMText
 10
252.9740441154445
 20
86.88735990742264
 30
0.0
 40
20.0
 41
0.0
 46
0.0
 71
     5
 72
     1
  1
∅406
 11
0.5382794947416158
 21
-0.8427663884735265
 31
0.0
 73
     1
 44
1.0
  0
SOLID
  5
135E
330
135A
100
AcDbEntity
  8
0
 62
     0
100
AcDbTrace
 10
327.1938465772797
 20
-44.41051705871515
 30
0.0
 11
322.9800146349121
 21
-47.10191453242322
 31
0.0
 12
333.1611230272202
 22
-58.39771162267209
 32
0.0
 13
333.1611230272202
 23
-58.39771162267209
 33
0.0
  0
POINT
  5
135F
330
135A
100
AcDbEntity
  8
Defpoints
 62
     0
100
AcDbPoint
 10
333.1611230272202
 20
-58.39771162267209
 30
0.0
  0
POINT
  5
1360
330
135A
100
AcDbEntity
  8
Defpoints
 62
     0
100
AcDbPoint
 10
114.6196481621243
 20
283.7654420975797
 30
0.0
  0
ENDBLK
  5
1361
330
135A
100
AcDbEntity
  8
0
100
AcDbBlockEnd
  0
BLOCK
  5
1363
330
1362
100
AcDbEntity
  8
0
100
AcDbBlockBegin
  2
*D4
 70
     1
 10
0.0
 20
0.0
 30
0.0
  3
*D4
  1

  0
LINE
  5
1364
330
1362
100
AcDbEntity
  8
0
 62
     0
370
    -2
100
AcDbLine
 10
187.6403855946722
 20
215.6838652374538
 30
0.0
 11
253.8903855946722
 21
215.6838652374538
 31
0.0
  0
MTEXT
  5
1365
330
1362
100
AcDbEntity
  8
0
 62
     0
100
AcDbMText
 10
213.2653855946722
 20
226.3088652374538
 30
0.0
 40
20.0
 41
0.0
 46
0.0
 71
     5
 72
     1
  1
∅90
 73
     1
 44
1.0
  0
SOLID
  5
1366
330
1362
100
AcDbEntity
  8
0
 62
     0
100
AcDbTrace
 10
253.8903855946722
 20
218.1838652374538
 30
0.0
 11
253.8903855946722
 21
213.1838652374538
 31
0.0
 12
268.8903855946723
 22
215.6838652374538
 32
0.0
 13
268.8903855946723
 23
215.6838652374538
 33
0.0
  0
POINT
  5
1367
330
1362
100
AcDbEntity
  8
Defpoints
 62
     0
100
AcDbPoint
 10
268.8903855946723
 20
215.6838652374538
 30
0.0
  0
POINT
  5
1368
330
1362
100
AcDbEntity
  8
Defpoints
 62
     0
100
AcDbPoint
 10
178.8903855946722
 20
215.6838652374538
 30
0.0
  0
ENDBLK
  5
1369
330
1362
100
AcDbEntity
  8
0
100
AcDbBlockEnd
  0
BLOCK
  5
136B
330
136A
100
AcDbEntity
  8
0
100
AcDbBlockBegin
  2
*D5
 70
     1
 10
0.0
 20
0.0
 30
0.0
  3
*D5
  1

  0
LINE
  5
136C
330
136A
100
AcDbEntity
  8
0
 62
     0
370
    -2
100
AcDbLine
 10
189.1111604960832
 20
139.9421603964906
 30
0.0
 11
3.535912686024072
 21
162.6636033598271
 31
0.0
  0
MTEXT
  5
136D
330
136A
100
AcDbEntity
  8
0
 62
     0
100
AcDbMText
 10
153.3871702498304
 20
155.0204742499496
 30
0.0
 40
20.0
 41
0.0
 46
0.0
 71
     5
 72
     1
  1
∅474
 11
0.9925877158047214
 21
-0.1215303519025823
 31
0.0
 73
     1
 44
1.0
  0
SOLID
  5
136E
330
136A
100
AcDbEntity
  8
0
 62
     0
100
AcDbTrace
 10
3.839738565780528
 20
165.1450726493389
 30
0.0
 11
3.232086806267616
 21
160.1821340703153
 31
0.0
 12
-11.35290305104675
 22
164.4865586383659
 32
0.0
 13
-11.35290305104675
 23
164.4865586383659
 33
0.0
  0
POINT
  5
136F
330
136A
100
AcDbEntity
  8
Defpoints
 62
     0
100
AcDbPoint
 10
-11.35290305104675
 20
164.4865586383659
 30
0.0
  0
POINT
  5
1370
330
136A
100
AcDbEntity
  8
Defpoints
 62
     0
100
AcDbPoint
 10
459.1336742403912
 20
106.8811718365417
 30
0.0
  0
ENDBLK
  5
1371
330
136A
100
AcDbEntity
  8
0
100
AcDbBlockEnd
  0
BLOCK
  5
1388
330
1372
100
AcDbEntity
  8
0
100
AcDbBlockBegin
  2
510
 70
     0
 10
0.0
 20
0.0
 30
0.0
  3
510
  1

  0
CIRCLE
  5
1373
330
1372
100
AcDbEntity
  8
0
100
AcDbCircle
 10
223.8903855946722
 20
135.6838652374538
 30
0.0
 40
255.0
  0
CIRCLE
  5
1374
330
1372
100
AcDbEntity
  8
0
100
AcDbCircle
 10
223.8903855946722
 20
112.6838652374538
 30
0.0
 40
203.0
  0
ARC
  5
1375
330
1372
100
AcDbEntity
  8
0
100
AcDbCircle
 10
223.8903855946722
 20
135.6838652374538
 30
0.0
 40
237.0
100
AcDbArc
 50
127.131210659213
 51
263.1945024034064
  0
ARC
  5
1376
330
1372
100
AcDbEntity
  8
0
100
AcDbCircle
 10
174.8587653258749
 20
183.8794291121426
 30
0.0
 40
169.2737809279497
100
AcDbArc
 50
59.03039327798293
 51
123.7451746783256
  0
ARC
  5
1377
330
1372
100
AcDbEntity
  8
0
100
AcDbCircle
 10
306.8531417826429
 20
195.0809352308173
 30
0.0
 40
135.0
100
AcDbArc
 50
37.54561141030266
 51
102.8975276156959
  0
ARC
  5
1378
330
1372
100
AcDbEntity
  8
0
100
AcDbCircle
 10
272.2558934680454
 20
346.1704133855123
 30
0.0
 40
20.0
100
AcDbArc
 50
239.0303932779831
 51
282.8975276156958
  0
ARC
  5
1379
330
1372
100
AcDbEntity
  8
0
100
AcDbCircle
 10
223.8903855946722
 20
112.6838652374538
 30
0.0
 40
208.0
100
AcDbArc
 50
264.7605850748548
 51
275.2394149251452
  0
LINE
  5
137A
330
1372
100
AcDbEntity
  8
0
100
AcDbLine
 10
199.2714176520503
 20
-98.32997061685162
 30
0.0
 11
201.5396883809431
 21
-95.77483889801134
 31
0.0
  0
LINE
  5
137B
330
1372
100
AcDbEntity
  8
0
100
AcDbLine
 10
246.2410828084014
 20
-95.77483889801136
 30
0.0
 11
248.5093535372942
 21
-98.32997061685169
 31
0.0
  0
ARC
  5
137C
330
1372
100
AcDbEntity
  8
0
100
AcDbCircle
 10
223.8903855946722
 20
135.6838652374538
 30
0.0
 40
237.0
100
AcDbArc
 50
276.8054975965936
 51
36.7084244897899
  0
ARC
  5
137D
330
1372
100
AcDbEntity
  8
0
100
AcDbCircle
 10
204.5310442798692
 20
-98.4303595411171
 30
0.0
 40
4.0
100
AcDbArc
 50
84.76058507485566
 51
138.4035283668521
  0
ARC
  5
137E
330
1372
100
AcDbEntity
  8
0
100
AcDbCircle
 10
243.2497269094754
 20
-98.4303595411171
 30
0.0
 40
4.0
100
AcDbArc
 50
41.59647163314805
 51
95.23941492514561
  0
ARC
  5
137F
330
1372
100
AcDbEntity
  8
0
100
AcDbCircle
 10
251.5007094362202
 20
-95.67444997374597
 30
0.0
 40
4.0
100
AcDbArc
 50
221.596471633148
 51
276.8054975965929
  0
ARC
  5
1380
330
1372
100
AcDbEntity
  8
0
100
AcDbCircle
 10
196.2800617531243
 20
-95.67444997374591
 30
0.0
 40
4.0
100
AcDbArc
 50
263.1945024034052
 51
318.4035283668523
  0
CIRCLE
  5
1381
330
1372
100
AcDbEntity
  8
0
100
AcDbCircle
 10
223.8903855946722
 20
215.6838652374538
 30
0.0
 40
50.0
  0
CIRCLE
  5
1382
330
1372
100
AcDbEntity
  8
0
100
AcDbCircle
 10
223.8903855946722
 20
215.6838652374538
 30
0.0
 40
45.0
  0
CIRCLE
  5
1383
330
1372
100
AcDbEntity
  8
0
100
AcDbCircle
 10
268.8903855946723
 20
355.6838652374538
 30
0.0
 40
16.0
  0
DIMENSION
  5
1384
330
1372
100
AcDbEntity
  8
0
100
AcDbDimension
280
     0
  2
*D2
 10
386.5467624197373
 20
332.0709907781635
 30
0.0
 11
199.2999932188206
 21
105.9940579954943
 31
0.0
 70
   163
 71
     5
 42
510.0
 73
     0
 74
     0
 75
     0
  3
ISO-25
100
AcDbDiametricDimension
 15
61.23400876960726
 25
-60.70326030325588
 35
0.0
 40
0.0
1001
ACAD
1000
DSTYLE
1002
{
1070
   288
1070
     1
1002
}
  0
DIMENSION
  5
1385
330
1372
100
AcDbEntity
  8
0
100
AcDbDimension
280
     0
  2
*D3
 10
114.6196481621243
 20
283.7654420975797
 30
0.0
 11
244.0196512379133
 21
81.168140275793
 31
0.0
 70
   163
 71
     5
 42
406.0
 73
     0
 74
     0
 75
     0
  3
ISO-25
100
AcDbDiametricDimension
 15
333.1611230272202
 25
-58.39771162267209
 35
0.0
 40
0.0
1001
ACAD
1000
DSTYLE
1002
{
1070
   288
1070
     1
1002
}
  0
DIMENSION
  5
1386
330
1372
100
AcDbEntity
  8
0
100
AcDbDimension
280
     0
  2
*D4
 10
178.8903855946722
 20
215.6838652374538
 30
0.0
 11
213.2653855946722
 21
215.6838652374538
 31
0.0
 70
   163
 71
     5
 42
90.0
 73
     0
 74
     0
 75
     0
  3
ISO-25
100
AcDbDiametricDimension
 15
268.8903855946723
 25
215.6838652374538
 35
0.0
 40
0.0
1001
ACAD
1000
DSTYLE
1002
{
1070
   288
1070
     1
1002
}
  0
DIMENSION
  5
1387
330
1372
100
AcDbEntity
  8
0
100
AcDbDimension
280
     0
  2
*D5
 10
459.1336742403912
 20
106.8811718365417
 30
0.0
 11
152.0959102608655
 21
144.4742297695244
 31
0.0
 70
   163
 71
     5
 42
474.0
 73
     0
 74
     0
 75
     0
  3
ISO-25
100
AcDbDiametricDimension
 15
-11.35290305104675
 25
164.4865586383659
 35
0.0
 40
0.0
1001
ACAD
1000
DSTYLE
1002
{
1070
   288
1070
     1
1002
}
  0
ENDBLK
  5
1389
330
1372
100
AcDbEntity
  8
0
100
AcDbBlockEnd
  0
BLOCK
  5
2B41
330
2B37
100
AcDbEntity
  8
0
100
AcDbBlockBegin
  2
*D7
 70
     1
 10
0.0
 20
0.0
 30
0.0
  3
*D7
  1

  0
LINE
  5
2B38
330
2B37
100
AcDbEntity
  8
0
 62
     0
440
 16777216
370
    -2
100
AcDbLine
 10
12463.66696190754
 20
-4374.655622039685
 30
0.0
 11
12463.66696190754
 21
-4585.429115275459
 31
0.0
  0
LINE
  5
2B39
330
2B37
100
AcDbEntity
  8
0
 62
     0
440
 16777216
370
    -2
100
AcDbLine
 10
13230.66696190754
 20
-4374.655622039692
 30
0.0
 11
13230.66696190754
 21
-4585.429115275459
 31
0.0
  0
LINE
  5
2B3A
330
2B37
100
AcDbEntity
  8
0
 62
     0
440
 16777216
370
    -2
100
AcDbLine
 10
12473.66696190754
 20
-4584.17911527546
 30
0.0
 11
13220.66696190754
 21
-4584.17911527546
 31
0.0
  0
SOLID
  5
2B3B
330
2B37
100
AcDbEntity
  8
0
 62
     0
440
 16777216
100
AcDbTrace
 10
12473.66696190754
 20
-4582.512448608792
 30
0.0
 11
12473.66696190754
 21
-4585.845781942126
 31
0.0
 12
12463.66696190754
 22
-4584.17911527546
 32
0.0
 13
12463.66696190754
 23
-4584.17911527546
 33
0.0
  0
SOLID
  5
2B3C
330
2B37
100
AcDbEntity
  8
0
 62
     0
440
 16777216
100
AcDbTrace
 10
13220.66696190754
 20
-4582.512448608792
 30
0.0
 11
13220.66696190754
 21
-4585.845781942126
 31
0.0
 12
13230.66696190754
 22
-4584.17911527546
 32
0.0
 13
13230.66696190754
 23
-4584.17911527546
 33
0.0
  0
MTEXT
  5
2B3D
330
2B37
100
AcDbEntity
  8
0
 62
     0
440
 16777216
100
AcDbMText
 10
12847.16696190754
 20
-4573.554115275459
 30
0.0
 40
20.0
 41
0.0
 46
0.0
 71
     5
 72
     1
  1
767
 73
     1
 44
1.0
  0
POINT
  5
2B3E
330
2B37
100
AcDbEntity
  8
Defpoints
 62
     0
440
 16777216
100
AcDbPoint
 10
12463.66696190754
 20
-4374.030622039685
 30
0.0
  0
POINT
  5
2B3F
330
2B37
100
AcDbEntity
  8
Defpoints
 62
     0
440
 16777216
100
AcDbPoint
 10
13230.66696190754
 20
-4374.030622039692
 30
0.0
  0
POINT
  5
2B40
330
2B37
100
AcDbEntity
  8
Defpoints
 62
     0
440
 16777216
100
AcDbPoint
 10
13230.66696190754
 20
-4584.17911527546
 30
0.0
  0
ENDBLK
  5
2B42
330
2B37
100
AcDbEntity
  8
0
100
AcDbBlockEnd
  0
BLOCK
  5
2B4D
330
2B43
100
AcDbEntity
  8
0
100
AcDbBlockBegin
  2
*D8
 70
     1
 10
0.0
 20
0.0
 30
0.0
  3
*D8
  1

  0
LINE
  5
2B44
330
2B43
100
AcDbEntity
  8
0
 62
     0
440
 16777216
370
    -2
100
AcDbLine
 10
12491.66696190754
 20
-4336.655622039685
 30
0.0
 11
12491.66696190754
 21
-4520.571664727333
 31
0.0
  0
LINE
  5
2B45
330
2B43
100
AcDbEntity
  8
0
 62
     0
440
 16777216
370
    -2
100
AcDbLine
 10
13202.66696190754
 20
-4336.655622039689
 30
0.0
 11
13202.66696190754
 21
-4520.571664727333
 31
0.0
  0
LINE
  5
2B46
330
2B43
100
AcDbEntity
  8
0
 62
     0
440
 16777216
370
    -2
100
AcDbLine
 10
12501.66696190754
 20
-4519.321664727333
 30
0.0
 11
13192.66696190754
 21
-4519.321664727333
 31
0.0
  0
SOLID
  5
2B47
330
2B43
100
AcDbEntity
  8
0
 62
     0
440
 16777216
100
AcDbTrace
 10
12501.66696190754
 20
-4517.654998060666
 30
0.0
 11
12501.66696190754
 21
-4520.988331394
 31
0.0
 12
12491.66696190754
 22
-4519.321664727333
 32
0.0
 13
12491.66696190754
 23
-4519.321664727333
 33
0.0
  0
SOLID
  5
2B48
330
2B43
100
AcDbEntity
  8
0
 62
     0
440
 16777216
100
AcDbTrace
 10
13192.66696190754
 20
-4517.654998060666
 30
0.0
 11
13192.66696190754
 21
-4520.988331394
 31
0.0
 12
13202.66696190754
 22
-4519.321664727333
 32
0.0
 13
13202.66696190754
 23
-4519.321664727333
 33
0.0
  0
MTEXT
  5
2B49
330
2B43
100
AcDbEntity
  8
0
 62
     0
440
 16777216
100
AcDbMText
 10
12847.16696190754
 20
-4508.696664727333
 30
0.0
 40
20.0
 41
0.0
 46
0.0
 71
     5
 72
     1
  1
711
 73
     1
 44
1.0
  0
POINT
  5
2B4A
330
2B43
100
AcDbEntity
  8
Defpoints
 62
     0
440
 16777216
100
AcDbPoint
 10
12491.66696190754
 20
-4336.030622039685
 30
0.0
  0
POINT
  5
2B4B
330
2B43
100
AcDbEntity
  8
Defpoints
 62
     0
440
 16777216
100
AcDbPoint
 10
13202.66696190754
 20
-4336.03062203969
 30
0.0
  0
POINT
  5
2B4C
330
2B43
100
AcDbEntity
  8
Defpoints
 62
     0
440
 16777216
100
AcDbPoint
 10
13202.66696190754
 20
-4519.321664727333
 30
0.0
  0
ENDBLK
  5
2B4E
330
2B43
100
AcDbEntity
  8
0
100
AcDbBlockEnd
  0
BLOCK
  5
2B65
330
2B5B
100
AcDbEntity
  8
0
100
AcDbBlockBegin
  2
*D9
 70
     1
 10
0.0
 20
0.0
 30
0.0
  3
*D9
  1

  0
LINE
  5
2B5C
330
2B5B
100
AcDbEntity
  8
0
 62
     0
440
 16777216
370
    -2
100
AcDbLine
 10
13143.29196190755
 20
-3990.030622039685
 30
0.0
 11
13327.1699731026
 21
-3990.030622039686
 31
0.0
  0
LINE
  5
2B5D
330
2B5B
100
AcDbEntity
  8
0
 62
     0
440
 16777216
370
    -2
100
AcDbLine
 10
13143.29196190754
 20
-4396.030622039685
 30
0.0
 11
13327.1699731026
 21
-4396.030622039685
 31
0.0
  0
LINE
  5
2B5E
330
2B5B
100
AcDbEntity
  8
0
 62
     0
440
 16777216
370
    -2
100
AcDbLine
 10
13325.9199731026
 20
-4000.030622039686
 30
0.0
 11
13325.9199731026
 21
-4386.030622039685
 31
0.0
  0
SOLID
  5
2B5F
330
2B5B
100
AcDbEntity
  8
0
 62
     0
440
 16777216
100
AcDbTrace
 10
13324.25330643594
 20
-4000.030622039686
 30
0.0
 11
13327.58663976927
 21
-4000.030622039686
 31
0.0
 12
13325.9199731026
 22
-3990.030622039686
 32
0.0
 13
13325.9199731026
 23
-3990.030622039686
 33
0.0
  0
SOLID
  5
2B60
330
2B5B
100
AcDbEntity
  8
0
 62
     0
440
 16777216
100
AcDbTrace
 10
13324.25330643593
 20
-4386.030622039685
 30
0.0
 11
13327.58663976927
 21
-4386.030622039685
 31
0.0
 12
13325.9199731026
 22
-4396.030622039685
 32
0.0
 13
13325.9199731026
 23
-4396.030622039685
 33
0.0
  0
MTEXT
  5
2B61
330
2B5B
100
AcDbEntity
  8
0
 62
     0
440
 16777216
100
AcDbMText
 10
13315.2949731026
 20
-4193.030622039684
 30
0.0
 40
20.0
 41
0.0
 46
0.0
 71
     5
 72
     1
  1
406
 11
0.0000000000000001
 21
1.0
 31
0.0
 73
     1
 44
1.0
  0
POINT
  5
2B62
330
2B5B
100
AcDbEntity
  8
Defpoints
 62
     0
440
 16777216
100
AcDbPoint
 10
13142.66696190754
 20
-3990.030622039685
 30
0.0
  0
POINT
  5
2B63
330
2B5B
100
AcDbEntity
  8
Defpoints
 62
     0
440
 16777216
100
AcDbPoint
 10
13142.66696190754
 20
-4396.030622039685
 30
0.0
  0
POINT
  5
2B64
330
2B5B
100
AcDbEntity
  8
Defpoints
 62
     0
440
 16777216
100
AcDbPoint
 10
13325.9199731026
 20
-4396.030622039685
 30
0.0
  0
ENDBLK
  5
2B66
330
2B5B
100
AcDbEntity
  8
0
100
AcDbBlockEnd
  0
BLOCK
  5
2B71
330
2B67
100
AcDbEntity
  8
0
100
AcDbBlockBegin
  2
*D10
 70
     1
 10
0.0
 20
0.0
 30
0.0
  3
*D10
  1

  0
LINE
  5
2B68
330
2B67
100
AcDbEntity
  8
0
 62
     0
440
 16777216
370
    -2
100
AcDbLine
 10
13231.29196190754
 20
-4692.29116890069
 30
0.0
 11
13367.72862057743
 21
-4692.29116890069
 31
0.0
  0
LINE
  5
2B69
330
2B67
100
AcDbEntity
  8
0
 62
     0
440
 16777216
370
    -2
100
AcDbLine
 10
12892.79196190755
 20
-4971.291168900691
 30
0.0
 11
13367.72862057743
 21
-4971.291168900691
 31
0.0
  0
LINE
  5
2B6A
330
2B67
100
AcDbEntity
  8
0
 62
     0
440
 16777216
370
    -2
100
AcDbLine
 10
13366.47862057743
 20
-4702.29116890069
 30
0.0
 11
13366.47862057743
 21
-4961.29116890069
 31
0.0
  0
SOLID
  5
2B6B
330
2B67
100
AcDbEntity
  8
0
 62
     0
440
 16777216
100
AcDbTrace
 10
13364.81195391077
 20
-4702.29116890069
 30
0.0
 11
13368.1452872441
 21
-4702.29116890069
 31
0.0
 12
13366.47862057743
 22
-4692.29116890069
 32
0.0
 13
13366.47862057743
 23
-4692.29116890069
 33
0.0
  0
SOLID
  5
2B6C
330
2B67
100
AcDbEntity
  8
0
 62
     0
440
 16777216
100
AcDbTrace
 10
13364.81195391077
 20
-4961.29116890069
 30
0.0
 11
13368.1452872441
 21
-4961.29116890069
 31
0.0
 12
13366.47862057743
 22
-4971.291168900691
 32
0.0
 13
13366.47862057743
 23
-4971.291168900691
 33
0.0
  0
MTEXT
  5
2B6D
330
2B67
100
AcDbEntity
  8
0
 62
     0
440
 16777216
100
AcDbMText
 10
13355.85362057744
 20
-4831.791168900689
 30
0.0
 40
20.0
 41
0.0
 46
0.0
 71
     5
 72
     1
  1
279
 11
0.0000000000000001
 21
1.0
 31
0.0
 73
     1
 44
1.0
  0
POINT
  5
2B6E
330
2B67
100
AcDbEntity
  8
Defpoints
 62
     0
440
 16777216
100
AcDbPoint
 10
13230.66696190754
 20
-4692.29116890069
 30
0.0
  0
POINT
  5
2B6F
330
2B67
100
AcDbEntity
  8
Defpoints
 62
     0
440
 16777216
100
AcDbPoint
 10
12892.16696190754
 20
-4971.291168900691
 30
0.0
  0
POINT
  5
2B70
330
2B67
100
AcDbEntity
  8
Defpoints
 62
     0
440
 16777216
100
AcDbPoint
 10
13366.47862057743
 20
-4971.291168900691
 30
0.0
  0
ENDBLK
  5
2B72
330
2B67
100
AcDbEntity
  8
0
100
AcDbBlockEnd
  0
BLOCK
  5
2B79
330
2B73
100
AcDbEntity
  8
0
100
AcDbBlockBegin
  2
*D11
 70
     1
 10
0.0
 20
0.0
 30
0.0
  3
*D11
  1

  0
LINE
  5
2B74
330
2B73
100
AcDbEntity
  8
0
 62
     0
440
 16777216
370
    -2
100
AcDbLine
 10
12820.91696190754
 20
-4143.030622039685
 30
0.0
 11
12882.16696190755
 21
-4143.030622039685
 31
0.0
  0
MTEXT
  5
2B75
330
2B73
100
AcDbEntity
  8
0
 62
     0
440
 16777216
100
AcDbMText
 10
12846.54196190754
 20
-4132.405622039685
 30
0.0
 40
20.0
 41
0.0
 46
0.0
 71
     5
 72
     1
  1
∅90
 73
     1
 44
1.0
  0
SOLID
  5
2B76
330
2B73
100
AcDbEntity
  8
0
 62
     0
440
 16777216
100
AcDbTrace
 10
12882.16696190755
 20
-4141.363955373019
 30
0.0
 11
12882.16696190755
 21
-4144.697288706352
 31
0.0
 12
12892.16696190754
 22
-4143.030622039685
 32
0.0
 13
12892.16696190754
 23
-4143.030622039685
 33
0.0
  0
POINT
  5
2B77
330
2B73
100
AcDbEntity
  8
Defpoints
 62
     0
440
 16777216
100
AcDbPoint
 10
12892.16696190754
 20
-4143.030622039685
 30
0.0
  0
POINT
  5
2B78
330
2B73
100
AcDbEntity
  8
Defpoints
 62
     0
440
 16777216
100
AcDbPoint
 10
12802.16696190755
 20
-4143.030622039685
 30
0.0
  0
ENDBLK
  5
2B7A
330
2B73
100
AcDbEntity
  8
0
100
AcDbBlockEnd
  0
BLOCK
  5
3120
330
311F
100
AcDbEntity
  8
0
100
AcDbBlockBegin
  2
*D12
 70
     1
 10
0.0
 20
0.0
 30
0.0
  3
*D12
  1

  0
LINE
  5
3121
330
311F
100
AcDbEntity
  8
0
 62
     0
370
    -2
100
AcDbLine
 10
737.8325267122228
 20
-538.3141244462931
 30
0.0
 11
906.6211321548163
 21
-538.3141244462932
 31
0.0
  0
LINE
  5
3122
330
311F
100
AcDbEntity
  8
0
 62
     0
370
    -2
100
AcDbLine
 10
737.8325267122229
 20
-738.3141244462931
 30
0.0
 11
906.6211321548163
 21
-738.3141244462932
 31
0.0
  0
LINE
  5
3123
330
311F
100
AcDbEntity
  8
0
 62
     0
370
    -2
100
AcDbLine
 10
905.3711321548162
 20
-553.3141244462932
 30
0.0
 11
905.3711321548162
 21
-723.3141244462932
 31
0.0
  0
SOLID
  5
3124
330
311F
100
AcDbEntity
  8
0
 62
     0
100
AcDbTrace
 10
902.8711321548161
 20
-553.3141244462932
 30
0.0
 11
907.8711321548162
 21
-553.3141244462932
 31
0.0
 12
905.3711321548162
 22
-538.3141244462932
 32
0.0
 13
905.3711321548162
 23
-538.3141244462932
 33
0.0
  0
SOLID
  5
3125
330
311F
100
AcDbEntity
  8
0
 62
     0
100
AcDbTrace
 10
902.8711321548161
 20
-723.3141244462932
 30
0.0
 11
907.8711321548162
 21
-723.3141244462932
 31
0.0
 12
905.3711321548162
 22
-738.3141244462932
 32
0.0
 13
905.3711321548162
 23
-738.3141244462932
 33
0.0
  0
MTEXT
  5
3126
330
311F
100
AcDbEntity
  8
0
 62
     0
100
AcDbMText
 10
894.7461321548162
 20
-638.314124446293
 30
0.0
 40
20.0
 41
0.0
 46
0.0
 71
     5
 72
     1
  1
200
 11
0.0000000000000001
 21
1.0
 31
0.0
 73
     1
 44
1.0
  0
POINT
  5
3127
330
311F
100
AcDbEntity
  8
Defpoints
 62
     0
100
AcDbPoint
 10
737.2075267122228
 20
-538.3141244462931
 30
0.0
  0
POINT
  5
3128
330
311F
100
AcDbEntity
  8
Defpoints
 62
     0
100
AcDbPoint
 10
737.2075267122229
 20
-738.3141244462931
 30
0.0
  0
POINT
  5
3129
330
311F
100
AcDbEntity
  8
Defpoints
 62
     0
100
AcDbPoint
 10
905.3711321548162
 20
-738.3141244462932
 30
0.0
  0
ENDBLK
  5
312A
330
311F
100
AcDbEntity
  8
0
100
AcDbBlockEnd
  0
BLOCK
  5
312C
330
312B
100
AcDbEntity
  8
0
100
AcDbBlockBegin
  2
*D13
 70
     1
 10
0.0
 20
0.0
 30
0.0
  3
*D13
  1

  0
LINE
  5
312D
330
312B
100
AcDbEntity
  8
0
 62
     0
370
    -2
100
AcDbLine
 10
777.832526712223
 20
-698.3141244462931
 30
0.0
 11
843.4768294335196
 21
-698.3141244462931
 31
0.0
  0
LINE
  5
312E
330
312B
100
AcDbEntity
  8
0
 62
     0
370
    -2
100
AcDbLine
 10
777.8325267122233
 20
-738.3141244462931
 30
0.0
 11
843.4768294335196
 21
-738.3141244462931
 31
0.0
  0
LINE
  5
312F
330
312B
100
AcDbEntity
  8
0
 62
     0
370
    -2
100
AcDbLine
 10
842.2268294335196
 20
-713.3141244462931
 30
0.0
 11
842.2268294335196
 21
-723.3141244462931
 31
0.0
  0
SOLID
  5
3130
330
312B
100
AcDbEntity
  8
0
 62
     0
100
AcDbTrace
 10
839.7268294335196
 20
-713.3141244462931
 30
0.0
 11
844.7268294335197
 21
-713.3141244462931
 31
0.0
 12
842.2268294335196
 22
-698.3141244462931
 32
0.0
 13
842.2268294335196
 23
-698.3141244462931
 33
0.0
  0
SOLID
  5
3131
330
312B
100
AcDbEntity
  8
0
 62
     0
100
AcDbTrace
 10
839.7268294335196
 20
-723.3141244462931
 30
0.0
 11
844.7268294335197
 21
-723.3141244462931
 31
0.0
 12
842.2268294335196
 22
-738.3141244462931
 32
0.0
 13
842.2268294335196
 23
-738.3141244462931
 33
0.0
  0
MTEXT
  5
3132
330
312B
100
AcDbEntity
  8
0
 62
     0
100
AcDbMText
 10
831.6018294335197
 20
-718.3141244462929
 30
0.0
 40
20.0
 41
0.0
 46
0.0
 71
     5
 72
     1
  1
40
 11
0.0000000000000001
 21
1.0
 31
0.0
 73
     1
 44
1.0
  0
POINT
  5
3133
330
312B
100
AcDbEntity
  8
Defpoints
 62
     0
100
AcDbPoint
 10
777.2075267122231
 20
-698.3141244462931
 30
0.0
  0
POINT
  5
3134
330
312B
100
AcDbEntity
  8
Defpoints
 62
     0
100
AcDbPoint
 10
777.2075267122232
 20
-738.3141244462931
 30
0.0
  0
POINT
  5
3135
330
312B
100
AcDbEntity
  8
Defpoints
 62
     0
100
AcDbPoint
 10
842.2268294335196
 20
-738.3141244462931
 30
0.0
  0
ENDBLK
  5
3136
330
312B
100
AcDbEntity
  8
0
100
AcDbBlockEnd
  0
BLOCK
  5
3138
330
3137
100
AcDbEntity
  8
0
100
AcDbBlockBegin
  2
*D14
 70
     1
 10
0.0
 20
0.0
 30
0.0
  3
*D14
  1

  0
LINE
  5
3139
330
3137
100
AcDbEntity
  8
0
 62
     0
370
    -2
100
AcDbLine
 10
738.4575267122228
 20
-538.3141244462931
 30
0.0
 11
834.8734845303924
 21
-538.3141244462932
 31
0.0
  0
LINE
  5
313A
330
3137
100
AcDbEntity
  8
0
 62
     0
370
    -2
100
AcDbLine
 10
687.832526712223
 20
-588.3141244462931
 30
0.0
 11
834.8734845303924
 21
-588.3141244462932
 31
0.0
  0
LINE
  5
313B
330
3137
100
AcDbEntity
  8
0
 62
     0
370
    -2
100
AcDbLine
 10
833.6234845303925
 20
-553.3141244462932
 30
0.0
 11
833.6234845303925
 21
-573.3141244462932
 31
0.0
  0
SOLID
  5
313C
330
3137
100
AcDbEntity
  8
0
 62
     0
100
AcDbTrace
 10
831.1234845303925
 20
-553.3141244462932
 30
0.0
 11
836.1234845303924
 21
-553.3141244462932
 31
0.0
 12
833.6234845303925
 22
-538.3141244462932
 32
0.0
 13
833.6234845303925
 23
-538.3141244462932
 33
0.0
  0
SOLID
  5
313D
330
3137
100
AcDbEntity
  8
0
 62
     0
100
AcDbTrace
 10
831.1234845303925
 20
-573.3141244462932
 30
0.0
 11
836.1234845303924
 21
-573.3141244462932
 31
0.0
 12
833.6234845303925
 22
-588.3141244462932
 32
0.0
 13
833.6234845303925
 23
-588.3141244462932
 33
0.0
  0
MTEXT
  5
313E
330
3137
100
AcDbEntity
  8
0
 62
     0
100
AcDbMText
 10
822.9984845303926
 20
-563.314124446293
 30
0.0
 40
20.0
 41
0.0
 46
0.0
 71
     5
 72
     1
  1
50
 11
0.0000000000000001
 21
1.0
 31
0.0
 73
     1
 44
1.0
  0
POINT
  5
313F
330
3137
100
AcDbEntity
  8
Defpoints
 62
     0
100
AcDbPoint
 10
737.8325267122228
 20
-538.3141244462931
 30
0.0
  0
POINT
  5
3140
330
3137
100
AcDbEntity
  8
Defpoints
 62
     0
100
AcDbPoint
 10
687.207526712223
 20
-588.3141244462931
 30
0.0
  0
POINT
  5
3141
330
3137
100
AcDbEntity
  8
Defpoints
 62
     0
100
AcDbPoint
 10
833.6234845303925
 20
-588.3141244462932
 30
0.0
  0
ENDBLK
  5
3142
330
3137
100
AcDbEntity
  8
0
100
AcDbBlockEnd
  0
BLOCK
  5
3144
330
3143
100
AcDbEntity
  8
0
100
AcDbBlockBegin
  2
*D15
 70
     1
 10
0.0
 20
0.0
 30
0.0
  3
*D15
  1

  0
LINE
  5
3145
330
3143
100
AcDbEntity
  8
0
 62
     0
370
    -2
100
AcDbLine
 10
-82.79247328777705
 20
22.90147054267681
 30
0.0
 11
-82.79247328777708
 21
-466.8521801034422
 31
0.0
  0
LINE
  5
3146
330
3143
100
AcDbEntity
  8
0
 62
     0
370
    -2
100
AcDbLine
 10
777.2075267122229
 20
22.90147054267681
 30
0.0
 11
777.2075267122229
 21
-466.8521801034422
 31
0.0
  0
LINE
  5
3147
330
3143
100
AcDbEntity
  8
0
 62
     0
370
    -2
100
AcDbLine
 10
-67.79247328777708
 20
-465.6021801034421
 30
0.0
 11
762.2075267122229
 21
-465.6021801034421
 31
0.0
  0
SOLID
  5
3148
330
3143
100
AcDbEntity
  8
0
 62
     0
100
AcDbTrace
 10
-67.79247328777708
 20
-463.1021801034421
 30
0.0
 11
-67.79247328777708
 21
-468.1021801034421
 31
0.0
 12
-82.79247328777708
 22
-465.6021801034421
 32
0.0
 13
-82.79247328777708
 23
-465.6021801034421
 33
0.0
  0
SOLID
  5
3149
330
3143
100
AcDbEntity
  8
0
 62
     0
100
AcDbTrace
 10
762.2075267122229
 20
-463.1021801034421
 30
0.0
 11
762.2075267122229
 21
-468.1021801034421
 31
0.0
 12
777.2075267122229
 22
-465.6021801034421
 32
0.0
 13
777.2075267122229
 23
-465.6021801034421
 33
0.0
  0
MTEXT
  5
314A
330
3143
100
AcDbEntity
  8
0
 62
     0
100
AcDbMText
 10
347.2075267122229
 20
-454.9771801034421
 30
0.0
 40
20.0
 41
0.0
 46
0.0
 71
     5
 72
     1
  1
860
 73
     1
 44
1.0
  0
POINT
  5
314B
330
3143
100
AcDbEntity
  8
Defpoints
 62
     0
100
AcDbPoint
 10
-82.79247328777705
 20
23.52647054267681
 30
0.0
  0
POINT
  5
314C
330
3143
100
AcDbEntity
  8
Defpoints
 62
     0
100
AcDbPoint
 10
777.2075267122229
 20
23.52647054267681
 30
0.0
  0
POINT
  5
314D
330
3143
100
AcDbEntity
  8
Defpoints
 62
     0
100
AcDbPoint
 10
777.2075267122229
 20
-465.6021801034421
 30
0.0
  0
ENDBLK
  5
314E
330
3143
100
AcDbEntity
  8
0
100
AcDbBlockEnd
  0
BLOCK
  5
3150
330
314F
100
AcDbEntity
  8
0
100
AcDbBlockBegin
  2
*D16
 70
     1
 10
0.0
 20
0.0
 30
0.0
  3
*D16
  1

  0
LINE
  5
3151
330
314F
100
AcDbEntity
  8
0
 62
     0
370
    -2
100
AcDbLine
 10
-42.79247328777706
 20
22.90147054267681
 30
0.0
 11
-42.79247328777708
 21
-407.3922346407526
 31
0.0
  0
LINE
  5
3152
330
314F
100
AcDbEntity
  8
0
 62
     0
370
    -2
100
AcDbLine
 10
737.2075267122228
 20
22.9014705426768
 30
0.0
 11
737.2075267122228
 21
-407.3922346407526
 31
0.0
  0
LINE
  5
3153
330
314F
100
AcDbEntity
  8
0
 62
     0
370
    -2
100
AcDbLine
 10
-27.79247328777709
 20
-406.1422346407526
 30
0.0
 11
722.2075267122228
 21
-406.1422346407526
 31
0.0
  0
SOLID
  5
3154
330
314F
100
AcDbEntity
  8
0
 62
     0
100
AcDbTrace
 10
-27.79247328777709
 20
-403.6422346407525
 30
0.0
 11
-27.79247328777709
 21
-408.6422346407525
 31
0.0
 12
-42.79247328777708
 22
-406.1422346407526
 32
0.0
 13
-42.79247328777708
 23
-406.1422346407526
 33
0.0
  0
SOLID
  5
3155
330
314F
100
AcDbEntity
  8
0
 62
     0
100
AcDbTrace
 10
722.2075267122228
 20
-403.6422346407525
 30
0.0
 11
722.2075267122228
 21
-408.6422346407525
 31
0.0
 12
737.2075267122228
 22
-406.1422346407526
 32
0.0
 13
737.2075267122228
 23
-406.1422346407526
 33
0.0
  0
MTEXT
  5
3156
330
314F
100
AcDbEntity
  8
0
 62
     0
100
AcDbMText
 10
347.2075267122229
 20
-395.5172346407526
 30
0.0
 40
20.0
 41
0.0
 46
0.0
 71
     5
 72
     1
  1
780
 73
     1
 44
1.0
  0
POINT
  5
3157
330
314F
100
AcDbEntity
  8
Defpoints
 62
     0
100
AcDbPoint
 10
-42.79247328777706
 20
23.52647054267681
 30
0.0
  0
POINT
  5
3158
330
314F
100
AcDbEntity
  8
Defpoints
 62
     0
100
AcDbPoint
 10
737.2075267122228
 20
23.5264705426768
 30
0.0
  0
POINT
  5
3159
330
314F
100
AcDbEntity
  8
Defpoints
 62
     0
100
AcDbPoint
 10
737.2075267122228
 20
-406.1422346407526
 30
0.0
  0
ENDBLK
  5
315A
330
314F
100
AcDbEntity
  8
0
100
AcDbBlockEnd
  0
BLOCK
  5
315C
330
315B
100
AcDbEntity
  8
0
100
AcDbBlockBegin
  2
*D17
 70
     1
 10
0.0
 20
0.0
 30
0.0
  3
*D17
  1

  0
LINE
  5
315D
330
315B
100
AcDbEntity
  8
0
 62
     0
370
    -2
100
AcDbLine
 10
88.20752671222294
 20
137.9014705426768
 30
0.0
 11
88.20752671222292
 21
-362.0894182894417
 31
0.0
  0
LINE
  5
315E
330
315B
100
AcDbEntity
  8
0
 62
     0
370
    -2
100
AcDbLine
 10
606.2075267122229
 20
175.9014705426768
 30
0.0
 11
606.2075267122229
 21
-362.0894182894417
 31
0.0
  0
LINE
  5
315F
330
315B
100
AcDbEntity
  8
0
 62
     0
370
    -2
100
AcDbLine
 10
103.2075267122229
 20
-360.8394182894417
 30
0.0
 11
591.2075267122229
 21
-360.8394182894417
 31
0.0
  0
SOLID
  5
3160
330
315B
100
AcDbEntity
  8
0
 62
     0
100
AcDbTrace
 10
103.2075267122229
 20
-358.3394182894417
 30
0.0
 11
103.2075267122229
 21
-363.3394182894417
 31
0.0
 12
88.20752671222292
 22
-360.8394182894417
 32
0.0
 13
88.20752671222292
 23
-360.8394182894417
 33
0.0
  0
SOLID
  5
3161
330
315B
100
AcDbEntity
  8
0
 62
     0
100
AcDbTrace
 10
591.2075267122229
 20
-358.3394182894417
 30
0.0
 11
591.2075267122229
 21
-363.3394182894417
 31
0.0
 12
606.2075267122229
 22
-360.8394182894417
 32
0.0
 13
606.2075267122229
 23
-360.8394182894417
 33
0.0
  0
MTEXT
  5
3162
330
315B
100
AcDbEntity
  8
0
 62
     0
100
AcDbMText
 10
347.2075267122229
 20
-350.2144182894417
 30
0.0
 40
20.0
 41
0.0
 46
0.0
 71
     5
 72
     1
  1
518
 73
     1
 44
1.0
  0
POINT
  5
3163
330
315B
100
AcDbEntity
  8
Defpoints
 62
     0
100
AcDbPoint
 10
88.20752671222294
 20
138.5264705426768
 30
0.0
  0
POINT
  5
3164
330
315B
100
AcDbEntity
  8
Defpoints
 62
     0
100
AcDbPoint
 10
606.2075267122229
 20
176.5264705426768
 30
0.0
  0
POINT
  5
3165
330
315B
100
AcDbEntity
  8
Defpoints
 62
     0
100
AcDbPoint
 10
606.2075267122229
 20
-360.8394182894417
 30
0.0
  0
ENDBLK
  5
3166
330
315B
100
AcDbEntity
  8
0
100
AcDbBlockEnd
  0
BLOCK
  5
3168
330
3167
100
AcDbEntity
  8
0
100
AcDbBlockBegin
  2
*D18
 70
     1
 10
0.0
 20
0.0
 30
0.0
  3
*D18
  1

  0
LINE
  5
3169
330
3167
100
AcDbEntity
  8
0
 62
     0
370
    -2
100
AcDbLine
 10
737.2075267122228
 20
-47.09852945732319
 30
0.0
 11
737.2075267122228
 21
-193.4953820490379
 31
0.0
  0
LINE
  5
316A
330
3167
100
AcDbEntity
  8
0
 62
     0
370
    -2
100
AcDbLine
 10
707.207526712223
 20
-47.09852945732319
 30
0.0
 11
707.207526712223
 21
-193.4953820490379
 31
0.0
  0
LINE
  5
316B
330
3167
100
AcDbEntity
  8
0
 62
     0
370
    -2
100
AcDbLine
 10
752.2075267122228
 20
-192.2453820490379
 30
0.0
 11
767.2075267122228
 21
-192.2453820490379
 31
0.0
  0
LINE
  5
316C
330
3167
100
AcDbEntity
  8
0
 62
     0
370
    -2
100
AcDbLine
 10
692.2075267122229
 20
-192.2453820490379
 30
0.0
 11
645.9575267122229
 21
-192.2453820490379
 31
0.0
  0
LINE
  5
316D
330
3167
100
AcDbEntity
  8
0
 62
     0
370
    -2
100
AcDbLine
 10
737.2075267122228
 20
-192.2453820490379
 30
0.0
 11
707.207526712223
 21
-192.2453820490379
 31
0.0
  0
SOLID
  5
316E
330
3167
100
AcDbEntity
  8
0
 62
     0
100
AcDbTrace
 10
752.2075267122228
 20
-189.7453820490379
 30
0.0
 11
752.2075267122228
 21
-194.7453820490379
 31
0.0
 12
737.2075267122228
 22
-192.2453820490379
 32
0.0
 13
737.2075267122228
 23
-192.2453820490379
 33
0.0
  0
SOLID
  5
316F
330
3167
100
AcDbEntity
  8
0
 62
     0
100
AcDbTrace
 10
692.2075267122229
 20
-189.7453820490379
 30
0.0
 11
692.2075267122229
 21
-194.7453820490379
 31
0.0
 12
707.207526712223
 22
-192.2453820490379
 32
0.0
 13
707.207526712223
 23
-192.2453820490379
 33
0.0
  0
MTEXT
  5
3170
330
3167
100
AcDbEntity
  8
0
 62
     0
100
AcDbMText
 10
661.5825267122229
 20
-181.6203820490379
 30
0.0
 40
20.0
 41
0.0
 46
0.0
 71
     5
 72
     1
  1
30
 73
     1
 44
1.0
  0
POINT
  5
3171
330
3167
100
AcDbEntity
  8
Defpoints
 62
     0
100
AcDbPoint
 10
737.2075267122228
 20
-46.47352945732319
 30
0.0
  0
POINT
  5
3172
330
3167
100
AcDbEntity
  8
Defpoints
 62
     0
100
AcDbPoint
 10
707.207526712223
 20
-46.47352945732319
 30
0.0
  0
POINT
  5
3173
330
3167
100
AcDbEntity
  8
Defpoints
 62
     0
100
AcDbPoint
 10
707.207526712223
 20
-192.2453820490379
 30
0.0
  0
ENDBLK
  5
3174
330
3167
100
AcDbEntity
  8
0
100
AcDbBlockEnd
  0
BLOCK
  5
3176
330
3175
100
AcDbEntity
  8
0
100
AcDbBlockBegin
  2
*D19
 70
     1
 10
0.0
 20
0.0
 30
0.0
  3
*D19
  1

  0
LINE
  5
3177
330
3175
100
AcDbEntity
  8
0
 62
     0
370
    -2
100
AcDbLine
 10
-42.79247328777706
 20
22.90147054267681
 30
0.0
 11
-42.79247328777707
 21
-220.5181151947809
 31
0.0
  0
LINE
  5
3178
330
3175
100
AcDbEntity
  8
0
 62
     0
370
    -2
100
AcDbLine
 10
-12.79247328777705
 20
73.99718173888877
 30
0.0
 11
-12.79247328777707
 21
-220.5181151947809
 31
0.0
  0
LINE
  5
3179
330
3175
100
AcDbEntity
  8
0
 62
     0
370
    -2
100
AcDbLine
 10
-57.79247328777707
 20
-219.2681151947809
 30
0.0
 11
-72.79247328777707
 21
-219.2681151947809
 31
0.0
  0
LINE
  5
317A
330
3175
100
AcDbEntity
  8
0
 62
     0
370
    -2
100
AcDbLine
 10
2.207526712222925
 20
-219.2681151947809
 30
0.0
 11
48.45752671222292
 21
-219.2681151947809
 31
0.0
  0
LINE
  5
317B
330
3175
100
AcDbEntity
  8
0
 62
     0
370
    -2
100
AcDbLine
 10
-42.79247328777707
 20
-219.2681151947809
 30
0.0
 11
-12.79247328777707
 21
-219.2681151947809
 31
0.0
  0
SOLID
  5
317C
330
3175
100
AcDbEntity
  8
0
 62
     0
100
AcDbTrace
 10
-57.79247328777707
 20
-216.7681151947809
 30
0.0
 11
-57.79247328777707
 21
-221.7681151947809
 31
0.0
 12
-42.79247328777707
 22
-219.2681151947809
 32
0.0
 13
-42.79247328777707
 23
-219.2681151947809
 33
0.0
  0
SOLID
  5
317D
330
3175
100
AcDbEntity
  8
0
 62
     0
100
AcDbTrace
 10
2.207526712222925
 20
-216.7681151947809
 30
0.0
 11
2.207526712222925
 21
-221.7681151947809
 31
0.0
 12
-12.79247328777707
 22
-219.2681151947809
 32
0.0
 13
-12.79247328777707
 23
-219.2681151947809
 33
0.0
  0
MTEXT
  5
317E
330
3175
100
AcDbEntity
  8
0
 62
     0
100
AcDbMText
 10
32.83252671222293
 20
-208.6431151947809
 30
0.0
 40
20.0
 41
0.0
 46
0.0
 71
     5
 72
     1
  1
30
 73
     1
 44
1.0
  0
POINT
  5
317F
330
3175
100
AcDbEntity
  8
Defpoints
 62
     0
100
AcDbPoint
 10
-42.79247328777706
 20
23.52647054267681
 30
0.0
  0
POINT
  5
3180
330
3175
100
AcDbEntity
  8
Defpoints
 62
     0
100
AcDbPoint
 10
-12.79247328777705
 20
74.62218173888877
 30
0.0
  0
POINT
  5
3181
330
3175
100
AcDbEntity
  8
Defpoints
 62
     0
100
AcDbPoint
 10
-12.79247328777707
 20
-219.2681151947809
 30
0.0
  0
ENDBLK
  5
3182
330
3175
100
AcDbEntity
  8
0
100
AcDbBlockEnd
  0
BLOCK
  5
3184
330
3183
100
AcDbEntity
  8
0
100
AcDbBlockBegin
  2
*D20
 70
     1
 10
0.0
 20
0.0
 30
0.0
  3
*D20
  1

  0
LINE
  5
3185
330
3183
100
AcDbEntity
  8
0
 62
     0
370
    -2
100
AcDbLine
 10
547.8325267122229
 20
613.5264705426769
 30
0.0
 11
1237.203624669412
 21
613.5264705426768
 31
0.0
  0
LINE
  5
3186
330
3183
100
AcDbEntity
  8
0
 62
     0
370
    -2
100
AcDbLine
 10
547.8325267122229
 20
-166.4735294573232
 30
0.0
 11
1237.203624669412
 21
-166.4735294573234
 31
0.0
  0
LINE
  5
3187
330
3183
100
AcDbEntity
  8
0
 62
     0
370
    -2
100
AcDbLine
 10
1235.953624669412
 20
598.5264705426768
 30
0.0
 11
1235.953624669412
 21
-151.4735294573234
 31
0.0
  0
SOLID
  5
3188
330
3183
100
AcDbEntity
  8
0
 62
     0
100
AcDbTrace
 10
1233.453624669412
 20
598.5264705426768
 30
0.0
 11
1238.453624669413
 21
598.5264705426768
 31
0.0
 12
1235.953624669412
 22
613.5264705426768
 32
0.0
 13
1235.953624669412
 23
613.5264705426768
 33
0.0
  0
SOLID
  5
3189
330
3183
100
AcDbEntity
  8
0
 62
     0
100
AcDbTrace
 10
1233.453624669412
 20
-151.4735294573234
 30
0.0
 11
1238.453624669412
 21
-151.4735294573234
 31
0.0
 12
1235.953624669412
 22
-166.4735294573234
 32
0.0
 13
1235.953624669412
 23
-166.4735294573234
 33
0.0
  0
MTEXT
  5
318A
330
3183
100
AcDbEntity
  8
0
 62
     0
100
AcDbMText
 10
1225.328624669412
 20
223.5264705426769
 30
0.0
 40
20.0
 41
0.0
 46
0.0
 71
     5
 72
     1
  1
780
 11
0.0000000000000001
 21
1.0
 31
0.0
 73
     1
 44
1.0
  0
POINT
  5
318B
330
3183
100
AcDbEntity
  8
Defpoints
 62
     0
100
AcDbPoint
 10
547.2075267122229
 20
613.5264705426769
 30
0.0
  0
POINT
  5
318C
330
3183
100
AcDbEntity
  8
Defpoints
 62
     0
100
AcDbPoint
 10
547.2075267122229
 20
-166.4735294573232
 30
0.0
  0
POINT
  5
318D
330
3183
100
AcDbEntity
  8
Defpoints
 62
     0
100
AcDbPoint
 10
1235.953624669412
 20
-166.4735294573234
 30
0.0
  0
ENDBLK
  5
318E
330
3183
100
AcDbEntity
  8
0
100
AcDbBlockEnd
  0
BLOCK
  5
3190
330
318F
100
AcDbEntity
  8
0
100
AcDbBlockBegin
  2
*D21
 70
     1
 10
0.0
 20
0.0
 30
0.0
  3
*D21
  1

  0
LINE
  5
3191
330
318F
100
AcDbEntity
  8
0
 62
     0
370
    -2
100
AcDbLine
 10
547.8325267122229
 20
573.5264705426768
 30
0.0
 11
1109.684205353983
 21
573.5264705426767
 31
0.0
  0
LINE
  5
3192
330
318F
100
AcDbEntity
  8
0
 62
     0
370
    -2
100
AcDbLine
 10
547.8325267122229
 20
-126.4735294573232
 30
0.0
 11
1109.684205353983
 21
-126.4735294573233
 31
0.0
  0
LINE
  5
3193
330
318F
100
AcDbEntity
  8
0
 62
     0
370
    -2
100
AcDbLine
 10
1108.434205353983
 20
558.5264705426767
 30
0.0
 11
1108.434205353983
 21
-111.4735294573233
 31
0.0
  0
SOLID
  5
3194
330
318F
100
AcDbEntity
  8
0
 62
     0
100
AcDbTrace
 10
1105.934205353983
 20
558.5264705426767
 30
0.0
 11
1110.934205353983
 21
558.5264705426767
 31
0.0
 12
1108.434205353983
 22
573.5264705426767
 32
0.0
 13
1108.434205353983
 23
573.5264705426767
 33
0.0
  0
SOLID
  5
3195
330
318F
100
AcDbEntity
  8
0
 62
     0
100
AcDbTrace
 10
1105.934205353983
 20
-111.4735294573233
 30
0.0
 11
1110.934205353983
 21
-111.4735294573233
 31
0.0
 12
1108.434205353983
 22
-126.4735294573233
 32
0.0
 13
1108.434205353983
 23
-126.4735294573233
 33
0.0
  0
MTEXT
  5
3196
330
318F
100
AcDbEntity
  8
0
 62
     0
100
AcDbMText
 10
1097.809205353983
 20
223.5264705426769
 30
0.0
 40
20.0
 41
0.0
 46
0.0
 71
     5
 72
     1
  1
700
 11
0.0000000000000001
 21
1.0
 31
0.0
 73
     1
 44
1.0
  0
POINT
  5
3197
330
318F
100
AcDbEntity
  8
Defpoints
 62
     0
100
AcDbPoint
 10
547.2075267122229
 20
573.5264705426768
 30
0.0
  0
POINT
  5
3198
330
318F
100
AcDbEntity
  8
Defpoints
 62
     0
100
AcDbPoint
 10
547.2075267122229
 20
-126.4735294573232
 30
0.0
  0
POINT
  5
3199
330
318F
100
AcDbEntity
  8
Defpoints
 62
     0
100
AcDbPoint
 10
1108.434205353983
 20
-126.4735294573233
 30
0.0
  0
ENDBLK
  5
319A
330
318F
100
AcDbEntity
  8
0
100
AcDbBlockEnd
  0
BLOCK
  5
319C
330
319B
100
AcDbEntity
  8
0
100
AcDbBlockBegin
  2
*D22
 70
     1
 10
0.0
 20
0.0
 30
0.0
  3
*D22
  1

  0
LINE
  5
319D
330
319B
100
AcDbEntity
  8
0
 62
     0
370
    -2
100
AcDbLine
 10
657.8325267122229
 20
573.5264705426768
 30
0.0
 11
877.3154785093611
 21
573.5264705426767
 31
0.0
  0
LINE
  5
319E
330
319B
100
AcDbEntity
  8
0
 62
     0
370
    -2
100
AcDbLine
 10
641.7977328444568
 20
543.5264705426768
 30
0.0
 11
877.3154785093611
 21
543.5264705426767
 31
0.0
  0
LINE
  5
319F
330
319B
100
AcDbEntity
  8
0
 62
     0
370
    -2
100
AcDbLine
 10
876.0654785093612
 20
588.5264705426767
 30
0.0
 11
876.0654785093612
 21
603.5264705426767
 31
0.0
  0
LINE
  5
31A0
330
319B
100
AcDbEntity
  8
0
 62
     0
370
    -2
100
AcDbLine
 10
876.0654785093612
 20
528.5264705426767
 30
0.0
 11
876.0654785093612
 21
482.2764705426767
 31
0.0
  0
LINE
  5
31A1
330
319B
100
AcDbEntity
  8
0
 62
     0
370
    -2
100
AcDbLine
 10
876.0654785093612
 20
573.5264705426767
 30
0.0
 11
876.0654785093612
 21
543.5264705426767
 31
0.0
  0
SOLID
  5
31A2
330
319B
100
AcDbEntity
  8
0
 62
     0
100
AcDbTrace
 10
873.5654785093611
 20
588.5264705426767
 30
0.0
 11
878.565478509361
 21
588.5264705426767
 31
0.0
 12
876.0654785093612
 22
573.5264705426767
 32
0.0
 13
876.0654785093612
 23
573.5264705426767
 33
0.0
  0
SOLID
  5
31A3
330
319B
100
AcDbEntity
  8
0
 62
     0
100
AcDbTrace
 10
873.5654785093611
 20
528.5264705426767
 30
0.0
 11
878.565478509361
 21
528.5264705426767
 31
0.0
 12
876.0654785093612
 22
543.5264705426767
 32
0.0
 13
876.0654785093612
 23
543.5264705426767
 33
0.0
  0
MTEXT
  5
31A4
330
319B
100
AcDbEntity
  8
0
 62
     0
100
AcDbMText
 10
865.440478509361
 20
497.9014705426769
 30
0.0
 40
20.0
 41
0.0
 46
0.0
 71
     5
 72
     1
  1
30
 11
0.0000000000000001
 21
1.0
 31
0.0
 73
     1
 44
1.0
  0
POINT
  5
31A5
330
319B
100
AcDbEntity
  8
Defpoints
 62
     0
100
AcDbPoint
 10
657.207526712223
 20
573.5264705426768
 30
0.0
  0
POINT
  5
31A6
330
319B
100
AcDbEntity
  8
Defpoints
 62
     0
100
AcDbPoint
 10
641.1727328444568
 20
543.5264705426768
 30
0.0
  0
POINT
  5
31A7
330
319B
100
AcDbEntity
  8
Defpoints
 62
     0
100
AcDbPoint
 10
876.0654785093612
 20
543.5264705426767
 30
0.0
  0
ENDBLK
  5
31A8
330
319B
100
AcDbEntity
  8
0
100
AcDbBlockEnd
  0
BLOCK
  5
31AA
330
31A9
100
AcDbEntity
  8
0
100
AcDbBlockBegin
  2
*D23
 70
     1
 10
0.0
 20
0.0
 30
0.0
  3
*D23
  1

  0
LINE
  5
31AB
330
31A9
100
AcDbEntity
  8
0
 62
     0
370
    -2
100
AcDbLine
 10
451.0825267122229
 20
438.5264705426768
 30
0.0
 11
450.4575267122229
 21
438.5264705426768
 31
0.0
  0
LINE
  5
31AC
330
31A9
100
AcDbEntity
  8
0
 62
     0
370
    -2
100
AcDbLine
 10
515.5825267122229
 20
398.5264705426768
 30
0.0
 11
450.4575267122229
 21
398.5264705426768
 31
0.0
  0
LINE
  5
31AD
330
31A9
100
AcDbEntity
  8
0
 62
     0
370
    -2
100
AcDbLine
 10
451.7075267122229
 20
423.5264705426768
 30
0.0
 11
451.7075267122229
 21
413.5264705426767
 31
0.0
  0
SOLID
  5
31AE
330
31A9
100
AcDbEntity
  8
0
 62
     0
100
AcDbTrace
 10
449.2075267122229
 20
423.5264705426768
 30
0.0
 11
454.2075267122229
 21
423.5264705426768
 31
0.0
 12
451.7075267122229
 22
438.5264705426768
 32
0.0
 13
451.7075267122229
 23
438.5264705426768
 33
0.0
  0
SOLID
  5
31AF
330
31A9
100
AcDbEntity
  8
0
 62
     0
100
AcDbTrace
 10
449.2075267122229
 20
413.5264705426767
 30
0.0
 11
454.2075267122229
 21
413.5264705426767
 31
0.0
 12
451.7075267122229
 22
398.5264705426768
 32
0.0
 13
451.7075267122229
 23
398.5264705426768
 33
0.0
  0
MTEXT
  5
31B0
330
31A9
100
AcDbEntity
  8
0
 62
     0
100
AcDbMText
 10
441.0825267122228
 20
418.5264705426769
 30
0.0
 40
20.0
 41
0.0
 46
0.0
 71
     5
 72
     1
  1
40
 11
0.0000000000000001
 21
1.0
 31
0.0
 73
     1
 44
1.0
  0
POINT
  5
31B1
330
31A9
100
AcDbEntity
  8
Defpoints
 62
     0
100
AcDbPoint
 10
451.7075267122229
 20
438.5264705426768
 30
0.0
  0
POINT
  5
31B2
330
31A9
100
AcDbEntity
  8
Defpoints
 62
     0
100
AcDbPoint
 10
516.2075267122229
 20
398.5264705426768
 30
0.0
  0
POINT
  5
31B3
330
31A9
100
AcDbEntity
  8
Defpoints
 62
     0
100
AcDbPoint
 10
451.7075267122229
 20
398.5264705426768
 30
0.0
  0
ENDBLK
  5
31B4
330
31A9
100
AcDbEntity
  8
0
100
AcDbBlockEnd
  0
BLOCK
  5
31B6
330
31B5
100
AcDbEntity
  8
0
100
AcDbBlockBegin
  2
*D24
 70
     1
 10
0.0
 20
0.0
 30
0.0
  3
*D24
  1

  0
LINE
  5
31B7
330
31B5
100
AcDbEntity
  8
0
 62
     0
370
    -2
100
AcDbLine
 10
646.2075267122229
 20
264.1514705426768
 30
0.0
 11
646.2075267122229
 21
271.4257246145753
 31
0.0
  0
LINE
  5
31B8
330
31B5
100
AcDbEntity
  8
0
 62
     0
370
    -2
100
AcDbLine
 10
606.2075267122229
 20
243.1514705426768
 30
0.0
 11
606.2075267122229
 21
271.4257246145753
 31
0.0
  0
LINE
  5
31B9
330
31B5
100
AcDbEntity
  8
0
 62
     0
370
    -2
100
AcDbLine
 10
631.2075267122229
 20
270.1757246145753
 30
0.0
 11
621.2075267122229
 21
270.1757246145753
 31
0.0
  0
SOLID
  5
31BA
330
31B5
100
AcDbEntity
  8
0
 62
     0
100
AcDbTrace
 10
631.2075267122229
 20
272.6757246145753
 30
0.0
 11
631.2075267122229
 21
267.6757246145753
 31
0.0
 12
646.2075267122229
 22
270.1757246145753
 32
0.0
 13
646.2075267122229
 23
270.1757246145753
 33
0.0
  0
SOLID
  5
31BB
330
31B5
100
AcDbEntity
  8
0
 62
     0
100
AcDbTrace
 10
621.2075267122229
 20
272.6757246145753
 30
0.0
 11
621.2075267122229
 21
267.6757246145753
 31
0.0
 12
606.2075267122229
 22
270.1757246145753
 32
0.0
 13
606.2075267122229
 23
270.1757246145753
 33
0.0
  0
MTEXT
  5
31BC
330
31B5
100
AcDbEntity
  8
0
 62
     0
100
AcDbMText
 10
626.2075267122229
 20
280.8007246145753
 30
0.0
 40
20.0
 41
0.0
 46
0.0
 71
     5
 72
     1
  1
40
 73
     1
 44
1.0
  0
POINT
  5
31BD
330
31B5
100
AcDbEntity
  8
Defpoints
 62
     0
100
AcDbPoint
 10
646.2075267122229
 20
263.5264705426768
 30
0.0
  0
POINT
  5
31BE
330
31B5
100
AcDbEntity
  8
Defpoints
 62
     0
100
AcDbPoint
 10
606.2075267122229
 20
242.5264705426769
 30
0.0
  0
POINT
  5
31BF
330
31B5
100
AcDbEntity
  8
Defpoints
 62
     0
100
AcDbPoint
 10
606.2075267122229
 20
270.1757246145753
 30
0.0
  0
ENDBLK
  5
31C0
330
31B5
100
AcDbEntity
  8
0
100
AcDbBlockEnd
  0
BLOCK
  5
31C2
330
31C1
100
AcDbEntity
  8
0
100
AcDbBlockBegin
  2
*D25
 70
     1
 10
0.0
 20
0.0
 30
0.0
  3
*D25
  1

  0
LINE
  5
31C3
330
31C1
100
AcDbEntity
  8
0
 62
     0
370
    -2
100
AcDbLine
 10
172.0203423768406
 20
314.713654878059
 30
0.0
 11
125.1745181232319
 21
361.5594791316678
 31
0.0
  0
MTEXT
  5
31C4
330
31C1
100
AcDbEntity
  8
0
 62
     0
100
AcDbMText
 10
161.4137406590424
 20
340.3462756960714
 30
0.0
 40
20.0
 41
0.0
 46
0.0
 71
     5
 72
     1
  1
R90
 11
0.7071067811865476
 21
-0.7071067811865475
 31
0.0
 73
     1
 44
1.0
  0
SOLID
  5
31C5
330
31C1
100
AcDbEntity
  8
0
 62
     0
100
AcDbTrace
 10
126.9422850761982
 20
363.3272460846342
 30
0.0
 11
123.4067511702655
 21
359.7917121787014
 31
0.0
 12
114.5679164054336
 22
372.166080849466
 32
0.0
 13
114.5679164054336
 23
372.166080849466
 33
0.0
  0
POINT
  5
31C6
330
31C1
100
AcDbEntity
  8
Defpoints
 62
     0
100
AcDbPoint
 10
114.5679164054336
 20
372.166080849466
 30
0.0
  0
POINT
  5
31C7
330
31C1
100
AcDbEntity
  8
Defpoints
 62
     0
100
AcDbPoint
 10
178.2075267122229
 20
308.5264705426768
 30
0.0
  0
ENDBLK
  5
31C8
330
31C1
100
AcDbEntity
  8
0
100
AcDbBlockEnd
  0
BLOCK
  5
31CA
330
31C9
100
AcDbEntity
  8
0
100
AcDbBlockBegin
  2
*D26
 70
     1
 10
0.0
 20
0.0
 30
0.0
  3
*D26
  1

  0
LINE
  5
31CB
330
31C9
100
AcDbEntity
  8
0
 62
     0
370
    -2
100
AcDbLine
 10
172.0203423768405
 20
132.3392862072946
 30
0.0
 11
125.1745181232318
 21
85.49346195368579
 31
0.0
  0
MTEXT
  5
31CC
330
31C9
100
AcDbEntity
  8
0
 62
     0
100
AcDbMText
 10
146.3877215588282
 20
121.7326844894964
 30
0.0
 40
20.0
 41
0.0
 46
0.0
 71
     5
 72
     1
  1
R90
 11
0.7071067811865466
 21
0.7071067811865487
 31
0.0
 73
     1
 44
1.0
  0
SOLID
  5
31CD
330
31C9
100
AcDbEntity
  8
0
 62
     0
100
AcDbTrace
 10
123.4067511702654
 20
87.26122890665216
 30
0.0
 11
126.9422850761982
 21
83.72569500071945
 31
0.0
 12
114.5679164054336
 22
74.88686023588758
 32
0.0
 13
114.5679164054336
 23
74.88686023588758
 33
0.0
  0
POINT
  5
31CE
330
31C9
100
AcDbEntity
  8
Defpoints
 62
     0
100
AcDbPoint
 10
114.5679164054336
 20
74.88686023588758
 30
0.0
  0
POINT
  5
31CF
330
31C9
100
AcDbEntity
  8
Defpoints
 62
     0
100
AcDbPoint
 10
178.2075267122228
 20
138.5264705426768
 30
0.0
  0
ENDBLK
  5
31D0
330
31C9
100
AcDbEntity
  8
0
100
AcDbBlockEnd
  0
BLOCK
  5
31D2
330
31D1
100
AcDbEntity
  8
0
100
AcDbBlockBegin
  2
*D27
 70
     1
 10
0.0
 20
0.0
 30
0.0
  3
*D27
  1

  0
LINE
  5
31D3
330
31D1
100
AcDbEntity
  8
0
 62
     0
370
    -2
100
AcDbLine
 10
521.0710868670332
 20
315.8002785289067
 30
0.0
 11
557.8951851820258
 21
370.8733961389327
 31
0.0
  0
MTEXT
  5
31D4
330
31D1
100
AcDbEntity
  8
0
 62
     0
100
AcDbMText
 10
526.4818890514129
 20
343.0078963908496
 30
0.0
 40
20.0
 41
0.0
 46
0.0
 71
     5
 72
     1
  1
R90
 11
0.5558354462640388
 21
0.831292341283412
 31
0.0
 73
     1
 44
1.0
  0
SOLID
  5
31D5
330
31D1
100
AcDbEntity
  8
0
 62
     0
100
AcDbTrace
 10
555.8169543288173
 20
372.2629847545928
 30
0.0
 11
559.9734160352344
 21
369.4838075232726
 31
0.0
 12
566.2327168759864
 22
383.342781258184
 32
0.0
 13
566.2327168759864
 23
383.342781258184
 33
0.0
  0
POINT
  5
31D6
330
31D1
100
AcDbEntity
  8
Defpoints
 62
     0
100
AcDbPoint
 10
566.2327168759864
 20
383.342781258184
 30
0.0
  0
POINT
  5
31D7
330
31D1
100
AcDbEntity
  8
Defpoints
 62
     0
100
AcDbPoint
 10
516.2075267122229
 20
308.5264705426768
 30
0.0
  0
ENDBLK
  5
31D8
330
31D1
100
AcDbEntity
  8
0
100
AcDbBlockEnd
  0
BLOCK
  5
31DA
330
31D9
100
AcDbEntity
  8
0
100
AcDbBlockBegin
  2
*D28
 70
     1
 10
0.0
 20
0.0
 30
0.0
  3
*D28
  1

  0
LINE
  5
31DB
330
31D9
100
AcDbEntity
  8
0
 62
     0
370
    -2
100
AcDbLine
 10
511.2249989625636
 20
182.2285694753073
 30
0.0
 11
589.8285618822233
 21
164.2878191750797
 31
0.0
  0
MTEXT
  5
31DC
330
31D9
100
AcDbEntity
  8
0
 62
     0
100
AcDbMText
 10
538.5718116355088
 20
186.8850796096088
 30
0.0
 40
20.0
 41
0.0
 46
0.0
 71
     5
 72
     1
  1
R70
 11
0.9749279121818243
 21
-0.2225209339563109
 31
0.0
 73
     1
 44
1.0
  0
SOLID
  5
31DD
330
31D9
100
AcDbEntity
  8
0
 62
     0
100
AcDbTrace
 10
590.3848642171141
 20
166.7251389555343
 30
0.0
 11
589.2722595473324
 21
161.8504993946252
 31
0.0
 12
604.4524805649506
 22
160.9500051657351
 32
0.0
 13
604.4524805649506
 23
160.9500051657351
 33
0.0
  0
POINT
  5
31DE
330
31D9
100
AcDbEntity
  8
Defpoints
 62
     0
100
AcDbPoint
 10
604.4524805649506
 20
160.9500051657351
 30
0.0
  0
POINT
  5
31DF
330
31D9
100
AcDbEntity
  8
Defpoints
 62
     0
100
AcDbPoint
 10
536.2075267122229
 20
176.526470542677
 30
0.0
  0
ENDBLK
  5
31E0
330
31D9
100
AcDbEntity
  8
0
100
AcDbBlockEnd
  0
BLOCK
  5
31E2
330
31E1
100
AcDbEntity
  8
0
100
AcDbBlockBegin
  2
*D29
 70
     1
 10
0.0
 20
0.0
 30
0.0
  3
*D29
  1

  0
LINE
  5
31E3
330
31E1
100
AcDbEntity
  8
0
 62
     0
370
    -2
100
AcDbLine
 10
405.2287631797913
 20
193.8394462085345
 30
0.0
 11
446.3600298286348
 21
114.2683697994921
 31
0.0
  0
MTEXT
  5
31E4
330
31E1
100
AcDbEntity
  8
0
 62
     0
100
AcDbMText
 10
426.4341445220315
 20
175.9547306074922
 30
0.0
 40
20.0
 41
0.0
 46
0.0
 71
     5
 72
     1
  1
R50
 11
0.4591922597475221
 21
-0.8883369116433048
 31
0.0
 73
     1
 44
1.0
  0
LINE
  5
31E5
330
31E1
100
AcDbEntity
  8
0
 62
     0
370
    -2
100
AcDbLine
 10
476.2075267122238
 20
56.52647054267695
 30
0.0
 11
453.2479137248476
 21
100.9433161248425
 31
0.0
  0
SOLID
  5
31E6
330
31E1
100
AcDbEntity
  8
0
 62
     0
100
AcDbTrace
 10
448.5808721077431
 20
115.4163504488609
 30
0.0
 11
444.1391875495265
 21
113.1203891501233
 31
0.0
 12
453.2479137248476
 22
100.9433161248425
 32
0.0
 13
453.2479137248476
 23
100.9433161248425
 33
0.0
  0
POINT
  5
31E7
330
31E1
100
AcDbEntity
  8
Defpoints
 62
     0
100
AcDbPoint
 10
453.2479137248476
 20
100.9433161248425
 30
0.0
  0
POINT
  5
31E8
330
31E1
100
AcDbEntity
  8
Defpoints
 62
     0
100
AcDbPoint
 10
476.2075267122238
 20
56.52647054267695
 30
0.0
  0
ENDBLK
  5
31E9
330
31E1
100
AcDbEntity
  8
0
100
AcDbBlockEnd
  0
BLOCK
  5
31EB
330
31EA
100
AcDbEntity
  8
0
100
AcDbBlockBegin
  2
*D30
 70
     1
 10
0.0
 20
0.0
 30
0.0
  3
*D30
  1

  0
LINE
  5
31EC
330
31EA
100
AcDbEntity
  8
0
 62
     0
370
    -2
100
AcDbLine
 10
357.2483444556946
 20
138.3672487189499
 30
0.0
 11
408.2718904752431
 21
75.9413856765297
 31
0.0
  0
MTEXT
  5
31ED
330
31EA
100
AcDbEntity
  8
0
 62
     0
100
AcDbMText
 10
381.6917945217616
 20
125.2505037390514
 30
0.0
 40
20.0
 41
0.0
 46
0.0
 71
     5
 72
     1
  1
R70
 11
0.6328501831881993
 21
-0.7742742702935845
 31
0.0
 73
     1
 44
1.0
  0
SOLID
  5
31EE
330
31EA
100
AcDbEntity
  8
0
 62
     0
100
AcDbTrace
 10
410.207576150977
 20
77.52351113450021
 30
0.0
 11
406.3362047995092
 21
74.35926021855919
 31
0.0
 12
417.7646432230661
 22
64.32727162212595
 32
0.0
 13
417.7646432230661
 23
64.32727162212595
 33
0.0
  0
POINT
  5
31EF
330
31EA
100
AcDbEntity
  8
Defpoints
 62
     0
100
AcDbPoint
 10
417.7646432230661
 20
64.32727162212595
 30
0.0
  0
POINT
  5
31F0
330
31EA
100
AcDbEntity
  8
Defpoints
 62
     0
100
AcDbPoint
 10
373.4651303998921
 20
118.5264705426768
 30
0.0
  0
ENDBLK
  5
31F1
330
31EA
100
AcDbEntity
  8
0
100
AcDbBlockEnd
  0
BLOCK
  5
31F3
330
31F2
100
AcDbEntity
  8
0
100
AcDbBlockBegin
  2
*D31
 70
     1
 10
0.0
 20
0.0
 30
0.0
  3
*D31
  1

  0
LINE
  5
31F4
330
31F2
100
AcDbEntity
  8
0
 62
     0
370
    -2
100
AcDbLine
 10
147.2075267122229
 20
-167.0985294573233
 30
0.0
 11
147.2075267122229
 21
-271.8766505712356
 31
0.0
  0
LINE
  5
31F5
330
31F2
100
AcDbEntity
  8
0
 62
     0
370
    -2
100
AcDbLine
 10
547.2075267122229
 20
-167.0985294573235
 30
0.0
 11
547.2075267122229
 21
-271.8766505712356
 31
0.0
  0
LINE
  5
31F6
330
31F2
100
AcDbEntity
  8
0
 62
     0
370
    -2
100
AcDbLine
 10
162.2075267122229
 20
-270.6266505712356
 30
0.0
 11
532.2075267122229
 21
-270.6266505712356
 31
0.0
  0
SOLID
  5
31F7
330
31F2
100
AcDbEntity
  8
0
 62
     0
100
AcDbTrace
 10
162.2075267122229
 20
-268.1266505712356
 30
0.0
 11
162.2075267122229
 21
-273.1266505712356
 31
0.0
 12
147.2075267122229
 22
-270.6266505712356
 32
0.0
 13
147.2075267122229
 23
-270.6266505712356
 33
0.0
  0
SOLID
  5
31F8
330
31F2
100
AcDbEntity
  8
0
 62
     0
100
AcDbTrace
 10
532.2075267122229
 20
-268.1266505712356
 30
0.0
 11
532.2075267122229
 21
-273.1266505712356
 31
0.0
 12
547.2075267122229
 22
-270.6266505712356
 32
0.0
 13
547.2075267122229
 23
-270.6266505712356
 33
0.0
  0
MTEXT
  5
31F9
330
31F2
100
AcDbEntity
  8
0
 62
     0
100
AcDbMText
 10
347.2075267122229
 20
-260.0016505712356
 30
0.0
 40
20.0
 41
0.0
 46
0.0
 71
     5
 72
     1
  1
400
 73
     1
 44
1.0
  0
POINT
  5
31FA
330
31F2
100
AcDbEntity
  8
Defpoints
 62
     0
100
AcDbPoint
 10
147.2075267122229
 20
-166.4735294573232
 30
0.0
  0
POINT
  5
31FB
330
31F2
100
AcDbEntity
  8
Defpoints
 62
     0
100
AcDbPoint
 10
547.2075267122229
 20
-166.4735294573234
 30
0.0
  0
POINT
  5
31FC
330
31F2
100
AcDbEntity
  8
Defpoints
 62
     0
100
AcDbPoint
 10
547.2075267122229
 20
-270.6266505712356
 30
0.0
  0
ENDBLK
  5
31FD
330
31F2
100
AcDbEntity
  8
0
100
AcDbBlockEnd
  0
BLOCK
  5
31FF
330
31FE
100
AcDbEntity
  8
0
100
AcDbBlockBegin
  2
*D32
 70
     1
 10
0.0
 20
0.0
 30
0.0
  3
*D32
  1

  0
LINE
  5
3200
330
31FE
100
AcDbEntity
  8
0
 62
     0
370
    -2
100
AcDbLine
 10
777.8325267122228
 20
423.5264705426768
 30
0.0
 11
1013.336197503366
 21
423.5264705426767
 31
0.0
  0
LINE
  5
3201
330
31FE
100
AcDbEntity
  8
0
 62
     0
370
    -2
100
AcDbLine
 10
777.8325267122229
 20
23.52647054267681
 30
0.0
 11
1013.336197503366
 21
23.52647054267674
 31
0.0
  0
LINE
  5
3202
330
31FE
100
AcDbEntity
  8
0
 62
     0
370
    -2
100
AcDbLine
 10
1012.086197503366
 20
408.5264705426767
 30
0.0
 11
1012.086197503366
 21
38.52647054267674
 31
0.0
  0
SOLID
  5
3203
330
31FE
100
AcDbEntity
  8
0
 62
     0
100
AcDbTrace
 10
1009.586197503366
 20
408.5264705426767
 30
0.0
 11
1014.586197503366
 21
408.5264705426767
 31
0.0
 12
1012.086197503366
 22
423.5264705426767
 32
0.0
 13
1012.086197503366
 23
423.5264705426767
 33
0.0
  0
SOLID
  5
3204
330
31FE
100
AcDbEntity
  8
0
 62
     0
100
AcDbTrace
 10
1009.586197503366
 20
38.52647054267674
 30
0.0
 11
1014.586197503366
 21
38.52647054267674
 31
0.0
 12
1012.086197503366
 22
23.52647054267674
 32
0.0
 13
1012.086197503366
 23
23.52647054267674
 33
0.0
  0
MTEXT
  5
3205
330
31FE
100
AcDbEntity
  8
0
 62
     0
100
AcDbMText
 10
1001.461197503366
 20
223.5264705426769
 30
0.0
 40
20.0
 41
0.0
 46
0.0
 71
     5
 72
     1
  1
400
 11
0.0000000000000001
 21
1.0
 31
0.0
 73
     1
 44
1.0
  0
POINT
  5
3206
330
31FE
100
AcDbEntity
  8
Defpoints
 62
     0
100
AcDbPoint
 10
777.2075267122228
 20
423.5264705426768
 30
0.0
  0
POINT
  5
3207
330
31FE
100
AcDbEntity
  8
Defpoints
 62
     0
100
AcDbPoint
 10
777.2075267122229
 20
23.52647054267681
 30
0.0
  0
POINT
  5
3208
330
31FE
100
AcDbEntity
  8
Defpoints
 62
     0
100
AcDbPoint
 10
1012.086197503366
 20
23.52647054267674
 30
0.0
  0
ENDBLK
  5
3209
330
31FE
100
AcDbEntity
  8
0
100
AcDbBlockEnd
  0
BLOCK
  5
320B
330
320A
100
AcDbEntity
  8
0
100
AcDbBlockBegin
  2
*D33
 70
     1
 10
0.0
 20
0.0
 30
0.0
  3
*D33
  1

  0
LINE
  5
320C
330
320A
100
AcDbEntity
  8
0
 62
     0
370
    -2
100
AcDbLine
 10
451.6277247059685
 20
100.6926388013873
 30
0.0
 11
451.6277247059685
 21
258.5385975786261
 31
0.0
  0
LINE
  5
320D
330
320A
100
AcDbEntity
  8
0
 62
     0
370
    -2
100
AcDbLine
 10
606.2075267122229
 20
176.5264705426768
 30
0.0
 11
606.2075267122229
 21
258.5385975786261
 31
0.0
  0
LINE
  5
320E
330
320A
100
AcDbEntity
  8
0
 62
     0
370
    -2
100
AcDbLine
 10
466.6277247059684
 20
257.2885975786261
 30
0.0
 11
591.2075267122229
 21
257.2885975786261
 31
0.0
  0
SOLID
  5
320F
330
320A
100
AcDbEntity
  8
0
 62
     0
100
AcDbTrace
 10
466.6277247059684
 20
259.7885975786261
 30
0.0
 11
466.6277247059684
 21
254.7885975786261
 31
0.0
 12
451.6277247059685
 22
257.2885975786261
 32
0.0
 13
451.6277247059685
 23
257.2885975786261
 33
0.0
  0
SOLID
  5
3210
330
320A
100
AcDbEntity
  8
0
 62
     0
100
AcDbTrace
 10
591.2075267122229
 20
259.7885975786261
 30
0.0
 11
591.2075267122229
 21
254.7885975786261
 31
0.0
 12
606.2075267122229
 22
257.2885975786261
 32
0.0
 13
606.2075267122229
 23
257.2885975786261
 33
0.0
  0
MTEXT
  5
3211
330
320A
100
AcDbEntity
  8
0
 62
     0
100
AcDbMText
 10
528.9176257090957
 20
267.9135975786261
 30
0.0
 40
20.0
 41
0.0
 46
0.0
 71
     5
 72
     1
  1
{\f??|b0|i0|c0|p54;160}
 73
     1
 44
1.0
  0
POINT
  5
3212
330
320A
100
AcDbEntity
  8
Defpoints
 62
     0
100
AcDbPoint
 10
451.6277247059685
 20
100.0676388013873
 30
0.0
  0
POINT
  5
3213
330
320A
100
AcDbEntity
  8
Defpoints
 62
     0
100
AcDbPoint
 10
606.2075267122229
 20
175.9014705426768
 30
0.0
  0
POINT
  5
3214
330
320A
100
AcDbEntity
  8
Defpoints
 62
     0
100
AcDbPoint
 10
606.2075267122229
 20
257.2885975786261
 30
0.0
  0
ENDBLK
  5
3215
330
320A
100
AcDbEntity
  8
0
100
AcDbBlockEnd
  0
BLOCK
  5
3217
330
3216
100
AcDbEntity
  8
0
100
AcDbBlockBegin
  2
*D34
 70
     1
 10
0.0
 20
0.0
 30
0.0
  3
*D34
  1

  0
LINE
  5
3218
330
3216
100
AcDbEntity
  8
0
 62
     0
370
    -2
100
AcDbLine
 10
516.2075267122229
 20
398.5264705426768
 30
0.0
 11
829.141474584053
 21
398.5264705426768
 31
0.0
  0
LINE
  5
3219
330
3216
100
AcDbEntity
  8
0
 62
     0
370
    -2
100
AcDbLine
 10
536.8325267122228
 20
106.5264705426768
 30
0.0
 11
829.141474584053
 21
106.5264705426767
 31
0.0
  0
LINE
  5
321A
330
3216
100
AcDbEntity
  8
0
 62
     0
370
    -2
100
AcDbLine
 10
827.891474584053
 20
383.5264705426768
 30
0.0
 11
827.8914745840529
 21
121.5264705426767
 31
0.0
  0
SOLID
  5
321B
330
3216
100
AcDbEntity
  8
0
 62
     0
100
AcDbTrace
 10
825.391474584053
 20
383.5264705426768
 30
0.0
 11
830.3914745840531
 21
383.5264705426768
 31
0.0
 12
827.891474584053
 22
398.5264705426768
 32
0.0
 13
827.891474584053
 23
398.5264705426768
 33
0.0
  0
SOLID
  5
321C
330
3216
100
AcDbEntity
  8
0
 62
     0
100
AcDbTrace
 10
825.3914745840528
 20
121.5264705426767
 30
0.0
 11
830.3914745840529
 21
121.5264705426767
 31
0.0
 12
827.8914745840529
 22
106.5264705426767
 32
0.0
 13
827.8914745840529
 23
106.5264705426767
 33
0.0
  0
MTEXT
  5
321D
330
3216
100
AcDbEntity
  8
0
 62
     0
100
AcDbMText
 10
817.2664745840529
 20
252.5264705426768
 30
0.0
 40
20.0
 41
0.0
 46
0.0
 71
     5
 72
     1
  1
292
 11
0.0000000000000001
 21
1.0
 31
0.0
 73
     1
 44
1.0
  0
POINT
  5
321E
330
3216
100
AcDbEntity
  8
Defpoints
 62
     0
100
AcDbPoint
 10
515.5825267122229
 20
398.5264705426768
 30
0.0
  0
POINT
  5
321F
330
3216
100
AcDbEntity
  8
Defpoints
 62
     0
100
AcDbPoint
 10
536.2075267122228
 20
106.5264705426768
 30
0.0
  0
POINT
  5
3220
330
3216
100
AcDbEntity
  8
Defpoints
 62
     0
100
AcDbPoint
 10
827.8914745840529
 20
106.5264705426767
 30
0.0
  0
ENDBLK
  5
3221
330
3216
100
AcDbEntity
  8
0
100
AcDbBlockEnd
  0
BLOCK
  5
3223
330
3222
100
AcDbEntity
  8
0
100
AcDbBlockBegin
  2
*D35
 70
     1
 10
0.0
 20
0.0
 30
0.0
  3
*D35
  1

  0
LINE
  5
3224
330
3222
100
AcDbEntity
  8
0
 62
     0
370
    -2
100
AcDbLine
 10
347.832526712223
 20
398.5264705426768
 30
0.0
 11
925.4894824346703
 21
398.5264705426766
 31
0.0
  0
LINE
  5
3225
330
3222
100
AcDbEntity
  8
0
 62
     0
370
    -2
100
AcDbLine
 10
408.5018532086484
 20
57.56883498048225
 30
0.0
 11
925.4894824346703
 21
57.5688349804821
 31
0.0
  0
LINE
  5
3226
330
3222
100
AcDbEntity
  8
0
 62
     0
370
    -2
100
AcDbLine
 10
924.2394824346703
 20
383.5264705426766
 30
0.0
 11
924.2394824346702
 21
72.5688349804821
 31
0.0
  0
SOLID
  5
3227
330
3222
100
AcDbEntity
  8
0
 62
     0
100
AcDbTrace
 10
921.7394824346703
 20
383.5264705426766
 30
0.0
 11
926.7394824346704
 21
383.5264705426766
 31
0.0
 12
924.2394824346703
 22
398.5264705426766
 32
0.0
 13
924.2394824346703
 23
398.5264705426766
 33
0.0
  0
SOLID
  5
3228
330
3222
100
AcDbEntity
  8
0
 62
     0
100
AcDbTrace
 10
921.7394824346701
 20
72.5688349804821
 30
0.0
 11
926.7394824346702
 21
72.5688349804821
 31
0.0
 12
924.2394824346702
 22
57.5688349804821
 32
0.0
 13
924.2394824346702
 23
57.5688349804821
 33
0.0
  0
MTEXT
  5
3229
330
3222
100
AcDbEntity
  8
0
 62
     0
100
AcDbMText
 10
913.6144824346702
 20
228.0476527615795
 30
0.0
 40
20.0
 41
0.0
 46
0.0
 71
     5
 72
     1
  1
{\f??|b0|i0|c0|p54;350}
 11
0.0000000000000001
 21
1.0
 31
0.0
 73
     1
 44
1.0
  0
POINT
  5
322A
330
3222
100
AcDbEntity
  8
Defpoints
 62
     0
100
AcDbPoint
 10
347.2075267122229
 20
398.5264705426768
 30
0.0
  0
POINT
  5
322B
330
3222
100
AcDbEntity
  8
Defpoints
 62
     0
100
AcDbPoint
 10
407.8768532086484
 20
57.56883498048225
 30
0.0
  0
POINT
  5
322C
330
3222
100
AcDbEntity
  8
Defpoints
 62
     0
100
AcDbPoint
 10
924.2394824346702
 20
57.5688349804821
 30
0.0
  0
ENDBLK
  5
322D
330
3222
100
AcDbEntity
  8
0
100
AcDbBlockEnd
  0
BLOCK
  5
322F
330
322E
100
AcDbEntity
  8
0
100
AcDbBlockBegin
  2
*D36
 70
     1
 10
0.0
 20
0.0
 30
0.0
  3
*D36
  1

  0
LINE
  5
3230
330
322E
100
AcDbEntity
  8
0
 62
     0
370
    -2
100
AcDbLine
 10
-158.3233225745205
 20
-502.0775413582207
 30
0.0
 11
-22.24796606432318
 21
-589.4097877668209
 31
0.0
  0
MTEXT
  5
3231
330
322E
100
AcDbEntity
  8
0
 62
     0
100
AcDbMText
 10
-130.0169899331603
 20
-507.6193750546305
 30
0.0
 40
20.0
 41
0.0
 46
0.0
 71
     5
 72
     1
  1
{\f??|b0|i0|c0|p54;R30}
 11
0.8415855079013098
 21
-0.5401239051277909
 31
0.0
 73
     1
 44
1.0
  0
LINE
  5
3232
330
322E
100
AcDbEntity
  8
0
 62
     0
370
    -2
100
AcDbLine
 10
7.207526712222943
 20
-608.3141244462939
 30
0.0
 11
-9.624183445803566
 21
-597.5116463437378
 31
0.0
  0
SOLID
  5
3233
330
322E
100
AcDbEntity
  8
0
 62
     0
100
AcDbTrace
 10
-20.89765630150373
 20
-587.3058239970677
 30
0.0
 11
-23.59827582714268
 21
-591.5137515365743
 31
0.0
 12
-9.624183445803566
 22
-597.5116463437378
 32
0.0
 13
-9.624183445803566
 23
-597.5116463437378
 33
0.0
  0
POINT
  5
3234
330
322E
100
AcDbEntity
  8
Defpoints
 62
     0
100
AcDbPoint
 10
-9.624183445803566
 20
-597.5116463437378
 30
0.0
  0
POINT
  5
3235
330
322E
100
AcDbEntity
  8
Defpoints
 62
     0
100
AcDbPoint
 10
7.207526712222943
 20
-608.3141244462939
 30
0.0
  0
ENDBLK
  5
3236
330
322E
100
AcDbEntity
  8
0
100
AcDbBlockEnd
  0
BLOCK
  5
3238
330
3237
100
AcDbEntity
  8
0
100
AcDbBlockBegin
  2
*D37
 70
     1
 10
0.0
 20
0.0
 30
0.0
  3
*D37
  1

  0
LINE
  5
3239
330
3237
100
AcDbEntity
  8
0
 62
     0
370
    -2
100
AcDbLine
 10
-101.6142170581751
 20
611.8108259348407
 30
0.0
 11
-35.10317531987016
 21
555.139475433088
 31
0.0
  0
MTEXT
  5
323A
330
3237
100
AcDbEntity
  8
0
 62
     0
100
AcDbMText
 10
-75.21842846309084
 20
603.2789097114111
 30
0.0
 40
20.0
 41
0.0
 46
0.0
 71
     5
 72
     1
  1
R80
 11
0.761165284548347
 21
-0.6485579462148575
 31
0.0
 73
     1
 44
1.0
  0
LINE
  5
323B
330
3237
100
AcDbEntity
  8
0
 62
     0
370
    -2
100
AcDbLine
 10
37.20752671222303
 20
493.5264705426763
 30
0.0
 11
-23.68569605164498
 21
545.4111062398651
 31
0.0
  0
SOLID
  5
323C
330
3237
100
AcDbEntity
  8
0
 62
     0
100
AcDbTrace
 10
-33.48178045433304
 20
557.0423886444589
 30
0.0
 11
-36.72457018540729
 21
553.2365622217172
 31
0.0
 12
-23.68569605164498
 22
545.4111062398651
 32
0.0
 13
-23.68569605164498
 23
545.4111062398651
 33
0.0
  0
POINT
  5
323D
330
3237
100
AcDbEntity
  8
Defpoints
 62
     0
100
AcDbPoint
 10
-23.68569605164498
 20
545.4111062398651
 30
0.0
  0
POINT
  5
323E
330
3237
100
AcDbEntity
  8
Defpoints
 62
     0
100
AcDbPoint
 10
37.20752671222303
 20
493.5264705426763
 30
0.0
  0
ENDBLK
  5
323F
330
3237
100
AcDbEntity
  8
0
100
AcDbBlockEnd
  0
BLOCK
  5
3241
330
3240
100
AcDbEntity
  8
0
100
AcDbBlockBegin
  2
*D38
 70
     1
 10
0.0
 20
0.0
 30
0.0
  3
*D38
  1

  0
LINE
  5
3242
330
3240
100
AcDbEntity
  8
0
 62
     0
370
    -2
100
AcDbLine
 10
197.5438660983657
 20
464.869151557568
 30
0.0
 11
48.61037748926666
 21
525.409314987741
 31
0.0
  0
MTEXT
  5
3243
330
3240
100
AcDbEntity
  8
0
 62
     0
100
AcDbMText
 10
177.8062022041729
 20
484.3616084063051
 30
0.0
 40
20.0
 41
0.0
 46
0.0
 71
     5
 72
     1
  1
R20
 11
0.9263886181445155
 21
-0.3765688890127475
 31
0.0
 73
     1
 44
1.0
  0
SOLID
  5
3244
330
3240
100
AcDbEntity
  8
0
 62
     0
100
AcDbTrace
 10
49.55179971179851
 20
527.7252865331023
 30
0.0
 11
47.66895526673477
 21
523.0933434423798
 31
0.0
 12
34.71454821709893
 22
531.0578483229322
 32
0.0
 13
34.71454821709893
 23
531.0578483229322
 33
0.0
  0
POINT
  5
3245
330
3240
100
AcDbEntity
  8
Defpoints
 62
     0
100
AcDbPoint
 10
34.71454821709893
 20
531.0578483229322
 30
0.0
  0
POINT
  5
3246
330
3240
100
AcDbEntity
  8
Defpoints
 62
     0
100
AcDbPoint
 10
53.24232057998895
 20
523.5264705426774
 30
0.0
  0
ENDBLK
  5
3247
330
3240
100
AcDbEntity
  8
0
100
AcDbBlockEnd
  0
BLOCK
  5
32E3
330
324A
100
AcDbEntity
  8
0
100
AcDbBlockBegin
  2
5740
 70
     0
 10
0.0
 20
0.0
 30
0.0
  3
5740
  1

  0
ARC
  5
324B
330
324A
100
AcDbEntity
  8
0
100
AcDbCircle
 10
178.2075267122229
 20
308.5264705426768
 30
0.0
 40
90.0
100
AcDbArc
 50
90.0
 51
180.0
  0
LINE
  5
324C
330
324A
100
AcDbEntity
  8
0
100
AcDbLine
 10
178.2075267122229
 20
398.5264705426768
 30
0.0
 11
516.2075267122229
 21
398.5264705426769
 31
0.0
  0
ARC
  5
324D
330
324A
100
AcDbEntity
  8
0
100
AcDbCircle
 10
516.2075267122229
 20
308.5264705426769
 30
0.0
 40
90.0
100
AcDbArc
 50
0.0
 51
90.0
  0
ARC
  5
324E
330
324A
100
AcDbEntity
  8
0
100
AcDbCircle
 10
536.2075267122229
 20
176.5264705426768
 30
0.0
 40
70.0
100
AcDbArc
 50
270.0
 51
0.0
  0
LINE
  5
324F
330
324A
100
AcDbEntity
  8
0
100
AcDbLine
 10
476.2075267122228
 20
106.5264705426768
 30
0.0
 11
536.2075267122228
 21
106.5264705426768
 31
0.0
  0
ARC
  5
3250
330
324A
100
AcDbEntity
  8
0
100
AcDbCircle
 10
476.2075267122228
 20
56.52647054267685
 30
0.0
 40
50.0
100
AcDbArc
 50
90.0
 51
148.8910774894715
  0
ARC
  5
3251
330
324A
100
AcDbEntity
  8
0
100
AcDbCircle
 10
373.4651303998923
 20
118.5264705426768
 30
0.0
 40
70.0
100
AcDbArc
 50
270.0
 51
328.8910774894715
  0
LINE
  5
3252
330
324A
100
AcDbEntity
  8
0
100
AcDbLine
 10
178.2075267122229
 20
48.52647054267686
 30
0.0
 11
373.4651303998923
 21
48.52647054267685
 31
0.0
  0
ARC
  5
3253
330
324A
100
AcDbEntity
  8
0
100
AcDbCircle
 10
178.2075267122229
 20
138.5264705426768
 30
0.0
 40
90.0
100
AcDbArc
 50
180.0
 51
270.0
  0
LINE
  5
3254
330
324A
100
AcDbEntity
  8
0
100
AcDbLine
 10
737.2075267122229
 20
-46.47352945732319
 30
0.0
 11
737.2075267122229
 21
493.5264705426768
 31
0.0
  0
LINE
  5
3255
330
324A
100
AcDbEntity
  8
0
100
AcDbLine
 10
-42.79247328777706
 20
-46.47352945732319
 30
0.0
 11
-42.79247328777706
 21
493.5264705426767
 31
0.0
  0
LINE
  5
3256
330
324A
100
AcDbEntity
  8
0
100
AcDbLine
 10
37.20752671222295
 20
573.5264705426767
 30
0.0
 11
657.207526712223
 21
573.5264705426768
 31
0.0
  0
LINE
  5
3257
330
324A
100
AcDbEntity
  8
0
100
AcDbLine
 10
37.20752671222295
 20
-126.4735294573232
 30
0.0
 11
657.207526712223
 21
-126.4735294573232
 31
0.0
  0
ARC
  5
3258
330
324A
100
AcDbEntity
  8
0
100
AcDbCircle
 10
37.20752671222295
 20
493.5264705426767
 30
0.0
 40
80.0
100
AcDbArc
 50
90.0
 51
180.0
  0
ARC
  5
3259
330
324A
100
AcDbEntity
  8
0
100
AcDbCircle
 10
37.20752671222295
 20
-46.47352945732319
 30
0.0
 40
80.0
100
AcDbArc
 50
180.0
 51
270.0
  0
ARC
  5
325A
330
324A
100
AcDbEntity
  8
0
100
AcDbCircle
 10
657.207526712223
 20
493.5264705426768
 30
0.0
 40
80.0
100
AcDbArc
 50
0.0
 51
90.0
  0
ARC
  5
325B
330
324A
100
AcDbEntity
  8
0
100
AcDbCircle
 10
657.207526712223
 20
-46.47352945732319
 30
0.0
 40
80.0
100
AcDbArc
 50
270.0
 51
0.0
  0
LINE
  5
325C
330
324A
100
AcDbEntity
  8
0
100
AcDbLine
 10
-82.79247328777705
 20
423.5264705426767
 30
0.0
 11
-42.79247328777706
 21
423.5264705426767
 31
0.0
  0
LINE
  5
325D
330
324A
100
AcDbEntity
  8
0
100
AcDbLine
 10
-82.79247328777705
 20
23.52647054267681
 30
0.0
 11
-42.79247328777706
 21
23.52647054267681
 31
0.0
  0
LINE
  5
325E
330
324A
100
AcDbEntity
  8
0
100
AcDbLine
 10
547.2075267122229
 20
-166.4735294573234
 30
0.0
 11
547.2075267122229
 21
-126.4735294573232
 31
0.0
  0
LINE
  5
325F
330
324A
100
AcDbEntity
  8
0
100
AcDbLine
 10
147.2075267122229
 20
-166.4735294573232
 30
0.0
 11
147.2075267122229
 21
-126.4735294573232
 31
0.0
  0
LINE
  5
3260
330
324A
100
AcDbEntity
  8
0
100
AcDbLine
 10
-82.79247328777705
 20
23.52647054267681
 30
0.0
 11
-82.79247328777705
 21
423.5264705426767
 31
0.0
  0
LINE
  5
3261
330
324A
100
AcDbEntity
  8
0
100
AcDbLine
 10
777.2075267122229
 20
23.52647054267681
 30
0.0
 11
777.2075267122228
 21
423.5264705426768
 31
0.0
  0
LINE
  5
3262
330
324A
100
AcDbEntity
  8
0
100
AcDbLine
 10
147.2075267122229
 20
-166.4735294573232
 30
0.0
 11
547.2075267122229
 21
-166.4735294573232
 31
0.0
  0
LINE
  5
3263
330
324A
100
AcDbEntity
  8
0
100
AcDbLine
 10
147.2075267122229
 20
613.5264705426767
 30
0.0
 11
547.2075267122229
 21
613.5264705426768
 31
0.0
  0
LINE
  5
3264
330
324A
100
AcDbEntity
  8
0
100
AcDbLine
 10
147.2075267122229
 20
573.5264705426767
 30
0.0
 11
147.2075267122229
 21
613.5264705426768
 31
0.0
  0
LINE
  5
3265
330
324A
100
AcDbEntity
  8
0
100
AcDbLine
 10
547.2075267122229
 20
573.5264705426768
 30
0.0
 11
547.2075267122229
 21
613.5264705426769
 31
0.0
  0
LINE
  5
3266
330
324A
100
AcDbEntity
  8
0
100
AcDbLine
 10
737.2075267122228
 20
23.5264705426768
 30
0.0
 11
777.2075267122231
 21
23.52647054267681
 31
0.0
  0
LINE
  5
3267
330
324A
100
AcDbEntity
  8
0
100
AcDbLine
 10
737.2075267122229
 20
423.526470542677
 30
0.0
 11
777.2075267122227
 21
423.5264705426768
 31
0.0
  0
LINE
  5
3268
330
324A
100
AcDbEntity
  8
图层1
100
AcDbLine
 10
53.24232057998901
 20
543.5264705426768
 30
0.0
 11
307.2075267122229
 21
543.5264705426768
 31
0.0
  0
LINE
  5
3269
330
324A
100
AcDbEntity
  8
图层1
100
AcDbLine
 10
707.207526712223
 20
-46.47352945732319
 30
0.0
 11
707.2075267122228
 21
183.5264705426768
 31
0.0
  0
ARC
  5
326A
330
324A
100
AcDbEntity
  8
0
100
AcDbCircle
 10
657.207526712223
 20
-46.47352945732319
 30
0.0
 40
50.0
100
AcDbArc
 50
326.4592607219849
 51
0.0
  0
LINE
  5
326B
330
324A
100
AcDbEntity
  8
图层1
100
AcDbLine
 10
53.24232057998906
 20
-96.47352945732322
 30
0.0
 11
307.207526712223
 21
-96.47352945732322
 31
0.0
  0
LINE
  5
326C
330
324A
100
AcDbEntity
  8
图层1
100
AcDbLine
 10
-12.79247328777705
 20
-34.28210706489928
 30
0.0
 11
-12.79247328777706
 21
183.5264705426768
 31
0.0
  0
LINE
  5
326D
330
324A
100
AcDbEntity
  8
图层1
100
AcDbLine
 10
178.2075267122229
 20
438.5264705426767
 30
0.0
 11
307.207526712223
 21
438.5264705426767
 31
0.0
  0
ARC
  5
326E
330
324A
100
AcDbEntity
  8
图层1
100
AcDbCircle
 10
516.2075267122229
 20
308.5264705426769
 30
0.0
 40
130.0
100
AcDbArc
 50
0.0
 51
35.80742765092287
  0
ARC
  5
326F
330
324A
100
AcDbEntity
  8
图层1
100
AcDbCircle
 10
178.2075267122229
 20
308.5264705426768
 30
0.0
 40
130.0
100
AcDbArc
 50
90.0
 51
126.1056547139402
  0
LINE
  5
3270
330
324A
100
AcDbEntity
  8
图层1
100
AcDbLine
 10
48.20752671222294
 20
308.5264705426768
 30
0.0
 11
48.20752671222293
 21
263.5264705426769
 31
0.0
  0
LINE
  5
3271
330
324A
100
AcDbEntity
  8
图层1
100
AcDbLine
 10
178.2075267122229
 20
8.526470542676861
 30
0.0
 11
307.2075267122229
 21
8.526470542676857
 31
0.0
  0
ARC
  5
3272
330
324A
100
AcDbEntity
  8
图层1
100
AcDbCircle
 10
373.4651303998923
 20
118.5264705426768
 30
0.0
 40
110.0
100
AcDbArc
 50
276.0681169164922
 51
328.8910774894715
  0
ARC
  5
3273
330
324A
100
AcDbEntity
  8
0
100
AcDbCircle
 10
476.2075267122228
 20
56.52647054267685
 30
0.0
 40
10.0
100
AcDbArc
 50
90.0
 51
148.8910774894715
  0
ARC
  5
3274
330
324A
100
AcDbEntity
  8
0
100
AcDbCircle
 10
476.2075267122228
 20
56.52647054267685
 30
0.0
 40
10.0
100
AcDbArc
 50
90.0
 51
148.8910774894715
  0
LINE
  5
3275
330
324A
100
AcDbEntity
  8
图层1
100
AcDbLine
 10
476.2075267122228
 20
66.52647054267686
 30
0.0
 11
501.2375971320402
 21
66.52647054267686
 31
0.0
  0
ARC
  5
3276
330
324A
100
AcDbEntity
  8
图层1
100
AcDbCircle
 10
536.2075267122229
 20
176.5264705426768
 30
0.0
 40
110.0
100
AcDbArc
 50
295.2459840286434
 51
3.086650162063148
  0
LINE
  5
3277
330
324A
100
AcDbEntity
  8
图层1
100
AcDbLine
 10
646.2075267122229
 20
308.5264705426769
 30
0.0
 11
646.2075267122229
 21
263.5264705426768
 31
0.0
  0
LINE
  5
3278
330
324A
100
AcDbEntity
  8
0
100
AcDbLine
 10
687.207526712223
 20
243.5264705426768
 30
0.0
 11
666.2075267122229
 21
243.5264705426768
 31
0.0
  0
LINE
  5
3279
330
324A
100
AcDbEntity
  8
0
100
AcDbLine
 10
687.2075267122228
 20
203.5264705426768
 30
0.0
 11
666.018928368626
 21
203.5264705426768
 31
0.0
  0
LINE
  5
327A
330
324A
100
AcDbEntity
  8
图层1
100
AcDbLine
 10
367.207526712223
 20
523.5264705426768
 30
0.0
 11
367.207526712223
 21
458.5264705426769
 31
0.0
  0
LINE
  5
327B
330
324A
100
AcDbEntity
  8
图层1
100
AcDbLine
 10
327.2075267122229
 20
523.5264705426768
 30
0.0
 11
327.2075267122229
 21
458.5264705426767
 31
0.0
  0
LINE
  5
327C
330
324A
100
AcDbEntity
  8
图层1
100
AcDbLine
 10
367.207526712223
 20
-76.47352945732321
 30
0.0
 11
367.207526712223
 21
-10.74512936849791
 31
0.0
  0
LINE
  5
327D
330
324A
100
AcDbEntity
  8
图层1
100
AcDbLine
 10
327.2075267122229
 20
-76.47352945732319
 30
0.0
 11
327.2075267122229
 21
-11.47352945732314
 31
0.0
  0
LINE
  5
327E
330
324A
100
AcDbEntity
  8
图层1
100
AcDbLine
 10
28.20752671222294
 20
203.5264705426768
 30
0.0
 11
7.207526712222941
 21
203.5264705426768
 31
0.0
  0
LINE
  5
327F
330
324A
100
AcDbEntity
  8
0
100
AcDbLine
 10
28.20752671222292
 20
243.5264705426769
 30
0.0
 11
7.207526712222932
 21
243.5264705426769
 31
0.0
  0
LINE
  5
3280
330
324A
100
AcDbEntity
  8
图层1
100
AcDbLine
 10
36.53022042834159
 20
512.5398555716629
 30
0.0
 11
102.9957453096192
 21
411.4369670679417
 31
0.0
  0
LINE
  5
3281
330
324A
100
AcDbEntity
  8
图层1
100
AcDbLine
 10
5.563576788046665
 20
486.8283556357598
 30
0.0
 11
72.77908930740655
 21
384.5846363526587
 31
0.0
  0
LINE
  5
3282
330
324A
100
AcDbEntity
  8
图层1
100
AcDbLine
 10
657.8848329961042
 20
512.5398555716629
 30
0.0
 11
603.540731351148
 21
429.875261268691
 31
0.0
  0
LINE
  5
3283
330
324A
100
AcDbEntity
  8
图层1
100
AcDbLine
 10
688.851476636399
 20
486.8283556357596
 30
0.0
 11
621.6359641170392
 21
384.5846363526588
 31
0.0
  0
LINE
  5
3284
330
324A
100
AcDbEntity
  8
图层1
100
AcDbLine
 10
36.53022042834162
 20
-65.48691448630936
 30
0.0
 11
101.601634006862
 21
33.49534561861101
 31
0.0
  0
LINE
  5
3285
330
324A
100
AcDbEntity
  8
图层1
100
AcDbLine
 10
5.563576788046669
 20
-39.7754145504062
 30
0.0
 11
65.59660008192344
 21
51.54278494419853
 31
0.0
  0
LINE
  5
3286
330
324A
100
AcDbEntity
  8
0
100
AcDbLine
 10
646.2075267122229
 20
186.2666100297597
 30
0.0
 11
646.2075267122229
 21
176.5264705426768
 31
0.0
  0
LINE
  5
3287
330
324A
100
AcDbEntity
  8
图层1
100
AcDbLine
 10
707.207526712223
 20
263.5264705426768
 30
0.0
 11
707.2075267122228
 21
481.3350481502527
 31
0.0
  0
LINE
  5
3288
330
324A
100
AcDbEntity
  8
图层1
100
AcDbLine
 10
-12.79247328777706
 20
263.5264705426769
 30
0.0
 11
-12.79247328777705
 21
481.3350481502529
 31
0.0
  0
LINE
  5
3289
330
324A
100
AcDbEntity
  8
图层1
100
AcDbLine
 10
48.20752671222294
 20
183.5264705426768
 30
0.0
 11
48.20752671222294
 21
138.5264705426768
 31
0.0
  0
LINE
  5
328A
330
324A
100
AcDbEntity
  8
图层1
100
AcDbLine
 10
387.2075267122229
 20
438.5264705426768
 30
0.0
 11
516.2075267122229
 21
438.5264705426768
 31
0.0
  0
LINE
  5
328B
330
324A
100
AcDbEntity
  8
图层1
100
AcDbLine
 10
387.207526712223
 20
543.5264705426768
 30
0.0
 11
641.1727328444568
 21
543.5264705426768
 31
0.0
  0
ARC
  5
328C
330
324A
100
AcDbEntity
  8
图层1
100
AcDbCircle
 10
178.2075267122229
 20
138.5264705426768
 30
0.0
 40
130.0
100
AcDbArc
 50
180.0
 51
210.4407541880753
  0
ARC
  5
328D
330
324A
100
AcDbEntity
  8
图层1
100
AcDbCircle
 10
178.2075267122229
 20
138.5264705426768
 30
0.0
 40
130.0
100
AcDbArc
 50
233.8943452860598
 51
270.0
  0
ARC
  5
328E
330
324A
100
AcDbEntity
  8
图层1
100
AcDbCircle
 10
178.2075267122229
 20
308.5264705426768
 30
0.0
 40
130.0
100
AcDbArc
 50
144.1925723490771
 51
180.0
  0
ARC
  5
328F
330
324A
100
AcDbEntity
  8
图层1
100
AcDbCircle
 10
516.2075267122229
 20
308.5264705426769
 30
0.0
 40
130.0
100
AcDbArc
 50
61.91328300032566
 51
90.0
  0
LINE
  5
3290
330
324A
100
AcDbEntity
  8
图层1
100
AcDbLine
 10
387.2075267122229
 20
-96.47352945732322
 30
0.0
 11
592.5443455982978
 21
-96.47352945732322
 31
0.0
  0
ARC
  5
3291
330
324A
100
AcDbEntity
  8
图层1
100
AcDbCircle
 10
307.2075267122229
 20
523.5264705426768
 30
0.0
 40
20.0
100
AcDbArc
 50
0.0
 51
90.0
  0
ARC
  5
3292
330
324A
100
AcDbEntity
  8
图层1
100
AcDbCircle
 10
387.207526712223
 20
523.5264705426768
 30
0.0
 40
20.0
100
AcDbArc
 50
90.0
 51
180.0
  0
ARC
  5
3293
330
324A
100
AcDbEntity
  8
图层1
100
AcDbCircle
 10
387.2075267122229
 20
458.5264705426769
 30
0.0
 40
20.0
100
AcDbArc
 50
179.9999999999999
 51
270.0
  0
ARC
  5
3294
330
324A
100
AcDbEntity
  8
图层1
100
AcDbCircle
 10
307.207526712223
 20
458.5264705426767
 30
0.0
 40
20.0
100
AcDbArc
 50
270.0
 51
0.0000000000000382
  0
ARC
  5
3295
330
324A
100
AcDbEntity
  8
图层1
100
AcDbCircle
 10
586.8286311995007
 20
440.8618762397049
 30
0.0
 40
20.0
100
AcDbArc
 50
241.9132830003256
 51
326.6788883686959
  0
ARC
  5
3296
330
324A
100
AcDbEntity
  8
图层1
100
AcDbCircle
 10
641.1727328444568
 20
523.5264705426768
 30
0.0
 40
20.0
100
AcDbArc
 50
326.6788883686959
 51
90.0
  0
ARC
  5
3297
330
324A
100
AcDbEntity
  8
图层1
100
AcDbCircle
 10
687.207526712223
 20
263.5264705426768
 30
0.0
 40
20.0
100
AcDbArc
 50
270.0
 51
0.0000000000000254
  0
ARC
  5
3298
330
324A
100
AcDbEntity
  8
图层1
100
AcDbCircle
 10
666.2075267122229
 20
263.5264705426768
 30
0.0
 40
20.0
100
AcDbArc
 50
180.0
 51
270.0
  0
ARC
  5
3299
330
324A
100
AcDbEntity
  8
图层1
100
AcDbCircle
 10
687.2075267122228
 20
183.5264705426768
 30
0.0
 40
20.0
100
AcDbArc
 50
0.0
 51
90.0
  0
ARC
  5
329A
330
324A
100
AcDbEntity
  8
图层1
100
AcDbCircle
 10
666.018928368626
 20
183.5264705426768
 30
0.0
 40
20.0
100
AcDbArc
 50
90.0
 51
183.0866501620632
  0
ARC
  5
329B
330
324A
100
AcDbEntity
  8
0
100
AcDbCircle
 10
387.2075267122229
 20
-76.47352945732321
 30
0.0
 40
20.0
100
AcDbArc
 50
180.0
 51
270.0
  0
LINE
  5
329C
330
324A
100
AcDbEntity
  8
图层1
100
AcDbLine
 10
517.2965155864915
 20
58.44750816837383
 30
0.0
 11
608.6032640527491
 21
-64.55249183162624
 31
0.0
  0
LINE
  5
329D
330
324A
100
AcDbEntity
  8
图层1
100
AcDbLine
 10
575.5943029587142
 20
47.02237742372491
 30
0.0
 11
666.1534032092112
 21
-74.97046010380396
 31
0.0
  0
ARC
  5
329E
330
324A
100
AcDbEntity
  8
图层1
100
AcDbCircle
 10
7.207526712222941
 20
263.5264705426769
 30
0.0
 40
20.0
100
AcDbArc
 50
180.0
 51
270.0
  0
ARC
  5
329F
330
324A
100
AcDbEntity
  8
图层1
100
AcDbCircle
 10
53.24232057998902
 20
523.5264705426768
 30
0.0
 40
20.0
100
AcDbArc
 50
90.00000000000003
 51
213.3211116313042
  0
ARC
  5
32A0
330
324A
100
AcDbEntity
  8
图层1
100
AcDbCircle
 10
28.20752671222293
 20
263.5264705426769
 30
0.0
 40
20.0
100
AcDbArc
 50
269.9999999999999
 51
0.0
  0
ARC
  5
32A1
330
324A
100
AcDbEntity
  8
图层1
100
AcDbCircle
 10
7.207526712222941
 20
183.5264705426768
 30
0.0
 40
20.0
100
AcDbArc
 50
90.0
 51
180.0
  0
ARC
  5
32A2
330
324A
100
AcDbEntity
  8
图层1
100
AcDbCircle
 10
28.20752671222294
 20
183.5264705426768
 30
0.0
 40
20.0
100
AcDbArc
 50
0.0
 51
90.0
  0
ARC
  5
32A3
330
324A
100
AcDbEntity
  8
图层1
100
AcDbCircle
 10
307.2075267122229
 20
-11.47352945732314
 30
0.0
 40
20.0
100
AcDbArc
 50
0.0
 51
90.0
  0
ARC
  5
32A4
330
324A
100
AcDbEntity
  8
0
100
AcDbCircle
 10
387.207526712223
 20
-10.74512936849791
 30
0.0
 40
20.0
100
AcDbArc
 50
96.06811691649246
 51
180.0
  0
ARC
  5
32A5
330
324A
100
AcDbEntity
  8
图层1
100
AcDbCircle
 10
307.207526712223
 20
-76.47352945732321
 30
0.0
 40
20.0
100
AcDbArc
 50
270.0
 51
0.0000000000000382
  0
ARC
  5
32A6
330
324A
100
AcDbEntity
  8
0
100
AcDbCircle
 10
592.5443455982978
 20
-76.47352945732321
 30
0.0
 40
20.0
100
AcDbArc
 50
270.0
 51
36.58765470957312
  0
ARC
  5
32A7
330
324A
100
AcDbEntity
  8
图层1
100
AcDbCircle
 10
682.2123216636623
 20
-63.04942247810699
 30
0.0
 40
20.0
100
AcDbArc
 50
216.5876547095734
 51
326.4592607219848
  0
ARC
  5
32A8
330
324A
100
AcDbEntity
  8
0
100
AcDbCircle
 10
591.6532214131655
 20
58.94341504942186
 30
0.0
 40
20.0
100
AcDbArc
 50
115.2459840286433
 51
216.5876547095731
  0
ARC
  5
32A9
330
324A
100
AcDbEntity
  8
图层1
100
AcDbCircle
 10
53.24232057998906
 20
-76.47352945732321
 30
0.0
 40
20.0
100
AcDbArc
 50
146.6788883686959
 51
270.0
  0
ARC
  5
32AA
330
324A
100
AcDbEntity
  8
图层1
100
AcDbCircle
 10
48.88449993027598
 20
62.52939991521237
 30
0.0
 40
20.0
100
AcDbArc
 50
326.678888368696
 51
30.44075418807539
  0
ARC
  5
32AB
330
324A
100
AcDbEntity
  8
0
100
AcDbCircle
 10
501.2375971320402
 20
46.52647054267686
 30
0.0
 40
20.0
100
AcDbArc
 50
36.58765470957315
 51
90.0
  0
ARC
  5
32AC
330
324A
100
AcDbEntity
  8
图层1
100
AcDbCircle
 10
-2.792473287777056
 20
481.3350481502529
 30
0.0
 40
10.0
100
AcDbArc
 50
33.32111163130413
 51
180.0
  0
ARC
  5
32AD
330
324A
100
AcDbEntity
  8
图层1
100
AcDbCircle
 10
697.2075267122228
 20
481.3350481502527
 30
0.0
 40
10.0
100
AcDbArc
 50
0.0000000000000254
 51
146.6788883686958
  0
ARC
  5
32AE
330
324A
100
AcDbEntity
  8
0
100
AcDbCircle
 10
-2.792473287777054
 20
-34.28210706489928
 30
0.0
 40
10.0
100
AcDbArc
 50
180.0
 51
326.6788883686959
  0
LINE
  5
32AF
330
324A
100
AcDbEntity
  8
0
100
AcDbLine
 10
-42.79247328777705
 20
-538.314124446293
 30
0.0
 11
737.2075267122228
 21
-538.3141244462931
 31
0.0
  0
LINE
  5
32B0
330
324A
100
AcDbEntity
  8
图层1
100
AcDbLine
 10
7.207526712222972
 20
-588.3141244462931
 30
0.0
 11
28.207526712223
 21
-588.3141244462931
 31
0.0
  0
LINE
  5
32B1
330
324A
100
AcDbEntity
  8
0
100
AcDbLine
 10
-42.79247328777706
 20
-538.3141244462929
 30
0.0
 11
-42.79247328777706
 21
-738.3141244462931
 31
0.0
  0
LINE
  5
32B2
330
324A
100
AcDbEntity
  8
0
100
AcDbLine
 10
737.2075267122229
 20
-538.314124446293
 30
0.0
 11
737.2075267122229
 21
-738.3141244462931
 31
0.0
  0
LINE
  5
32B3
330
324A
100
AcDbEntity
  8
图层1
100
AcDbLine
 10
-12.79247328777706
 20
-608.3141244462931
 30
0.0
 11
-12.79247328777706
 21
-738.3141244462931
 31
0.0
  0
LINE
  5
32B4
330
324A
100
AcDbEntity
  8
图层1
100
AcDbLine
 10
707.207526712223
 20
-608.3141244462931
 30
0.0
 11
707.207526712223
 21
-738.3141244462931
 31
0.0
  0
LINE
  5
32B5
330
324A
100
AcDbEntity
  8
0
100
AcDbLine
 10
-82.79247328777705
 20
-698.314124446293
 30
0.0
 11
-82.79247328777705
 21
-738.3141244462931
 31
0.0
  0
LINE
  5
32B6
330
324A
100
AcDbEntity
  8
0
100
AcDbLine
 10
-82.79247328777701
 20
-738.314124446293
 30
0.0
 11
777.2075267122232
 21
-738.3141244462931
 31
0.0
  0
LINE
  5
32B7
330
324A
100
AcDbEntity
  8
0
100
AcDbLine
 10
777.2075267122231
 20
-698.3141244462931
 30
0.0
 11
777.2075267122229
 21
-738.3141244462931
 31
0.0
  0
LINE
  5
32B8
330
324A
100
AcDbEntity
  8
图层1
100
AcDbLine
 10
48.20752671222294
 20
-608.3141244462931
 30
0.0
 11
48.20752671222294
 21
-738.314124446293
 31
0.0
  0
LINE
  5
32B9
330
324A
100
AcDbEntity
  8
0
100
AcDbLine
 10
666.207526712223
 20
-588.3141244462931
 30
0.0
 11
687.207526712223
 21
-588.3141244462931
 31
0.0
  0
LINE
  5
32BA
330
324A
100
AcDbEntity
  8
0
100
AcDbLine
 10
606.2075267122231
 20
-538.3141244462931
 30
0.0
 11
606.2075267122229
 21
-738.314124446293
 31
0.0
  0
LINE
  5
32BB
330
324A
100
AcDbEntity
  8
图层1
100
AcDbLine
 10
646.207526712223
 20
-608.3141244462931
 30
0.0
 11
646.2075267122228
 21
-738.3141244462932
 31
0.0
  0
LINE
  5
32BC
330
324A
100
AcDbEntity
  8
0
100
AcDbLine
 10
88.20752671222294
 20
308.5264705426768
 30
0.0
 11
88.20752671222294
 21
138.5264705426768
 31
0.0
  0
LINE
  5
32BD
330
324A
100
AcDbEntity
  8
0
100
AcDbLine
 10
606.2075267122229
 20
308.5264705426769
 30
0.0
 11
606.2075267122229
 21
176.5264705426768
 31
0.0
  0
LINE
  5
32BE
330
324A
100
AcDbEntity
  8
0
100
AcDbLine
 10
547.2075267122229
 20
-698.3141244462931
 30
0.0
 11
547.2075267122229
 21
-738.3141244462932
 31
0.0
  0
LINE
  5
32BF
330
324A
100
AcDbEntity
  8
0
100
AcDbLine
 10
147.2075267122229
 20
-698.3141244462931
 30
0.0
 11
147.2075267122229
 21
-738.314124446293
 31
0.0
  0
LINE
  5
32C0
330
324A
100
AcDbEntity
  8
0
100
AcDbLine
 10
147.2075267122229
 20
-698.3141244462931
 30
0.0
 11
547.2075267122229
 21
-698.3141244462931
 31
0.0
  0
LINE
  5
32C1
330
324A
100
AcDbEntity
  8
0
100
AcDbLine
 10
-82.79247328777705
 20
-698.314124446293
 30
0.0
 11
-42.79247328777706
 21
-698.3141244462931
 31
0.0
  0
LINE
  5
32C2
330
324A
100
AcDbEntity
  8
0
100
AcDbLine
 10
737.2075267122229
 20
-698.3141244462931
 30
0.0
 11
777.2075267122231
 21
-698.3141244462931
 31
0.0
  0
LINE
  5
32C3
330
324A
100
AcDbEntity
  8
0
100
AcDbLine
 10
88.20752671222292
 20
-538.3141244462929
 30
0.0
 11
88.20752671222294
 21
-738.3141244462929
 31
0.0
  0
ARC
  5
32C4
330
324A
100
AcDbEntity
  8
图层1
100
AcDbCircle
 10
7.207526712222938
 20
-608.3141244462931
 30
0.0
 40
20.0
100
AcDbArc
 50
89.99999999999991
 51
180.0
  0
ARC
  5
32C5
330
324A
100
AcDbEntity
  8
图层1
100
AcDbCircle
 10
28.20752671222294
 20
-608.3141244462931
 30
0.0
 40
20.0
100
AcDbArc
 50
0.0
 51
89.99999999999984
  0
ARC
  5
32C6
330
324A
100
AcDbEntity
  8
图层1
100
AcDbCircle
 10
666.207526712223
 20
-608.3141244462931
 30
0.0
 40
20.0
100
AcDbArc
 50
90.0
 51
179.9999999999999
  0
ARC
  5
32C7
330
324A
100
AcDbEntity
  8
图层1
100
AcDbCircle
 10
687.207526712223
 20
-608.3141244462931
 30
0.0
 40
20.0
100
AcDbArc
 50
0.0
 51
90.0
  0
DIMENSION
  5
32C8
330
324A
100
AcDbEntity
  8
0
100
AcDbDimension
280
     0
  2
*D12
 10
905.3711321548162
 20
-738.3141244462932
 30
0.0
 11
894.7461321548162
 21
-638.314124446293
 31
0.0
 70
    32
 71
     5
 42
200.0
 73
     0
 74
     0
 75
     0
  3
ISO-25
100
AcDbAlignedDimension
 13
737.2075267122228
 23
-538.3141244462931
 33
0.0
 14
737.2075267122229
 24
-738.3141244462931
 34
0.0
 50
90.0
100
AcDbRotatedDimension
  0
DIMENSION
  5
32C9
330
324A
100
AcDbEntity
  8
0
100
AcDbDimension
280
     0
  2
*D13
 10
842.2268294335196
 20
-738.3141244462931
 30
0.0
 11
831.6018294335197
 21
-718.3141244462929
 31
0.0
 70
    32
 71
     5
 42
40.0
 73
     0
 74
     0
 75
     0
  3
ISO-25
100
AcDbAlignedDimension
 13
777.2075267122231
 23
-698.3141244462931
 33
0.0
 14
777.2075267122232
 24
-738.3141244462931
 34
0.0
 50
90.0
100
AcDbRotatedDimension
  0
DIMENSION
  5
32CA
330
324A
100
AcDbEntity
  8
0
100
AcDbDimension
280
     0
  2
*D14
 10
833.6234845303925
 20
-588.3141244462932
 30
0.0
 11
822.9984845303926
 21
-563.314124446293
 31
0.0
 70
    32
 71
     5
 42
50.0
 73
     0
 74
     0
 75
     0
  3
ISO-25
100
AcDbAlignedDimension
 13
737.8325267122228
 23
-538.3141244462931
 33
0.0
 14
687.207526712223
 24
-588.3141244462931
 34
0.0
 50
90.0
100
AcDbRotatedDimension
  0
DIMENSION
  5
32CB
330
324A
100
AcDbEntity
  8
0
100
AcDbDimension
280
     0
  2
*D15
 10
777.2075267122229
 20
-465.6021801034421
 30
0.0
 11
347.2075267122229
 21
-454.9771801034421
 31
0.0
 70
    32
 71
     5
 42
860.0
 73
     0
 74
     0
 75
     0
  3
ISO-25
100
AcDbAlignedDimension
 13
-82.79247328777705
 23
23.52647054267681
 33
0.0
 14
777.2075267122229
 24
23.52647054267681
 34
0.0
100
AcDbRotatedDimension
  0
DIMENSION
  5
32CC
330
324A
100
AcDbEntity
  8
0
100
AcDbDimension
280
     0
  2
*D16
 10
737.2075267122228
 20
-406.1422346407526
 30
0.0
 11
347.2075267122229
 21
-395.5172346407526
 31
0.0
 70
    32
 71
     5
 42
779.9999999999998
 73
     0
 74
     0
 75
     0
  3
ISO-25
100
AcDbAlignedDimension
 13
-42.79247328777706
 23
23.52647054267681
 33
0.0
 14
737.2075267122228
 24
23.5264705426768
 34
0.0
100
AcDbRotatedDimension
  0
DIMENSION
  5
32CD
330
324A
100
AcDbEntity
  8
0
100
AcDbDimension
280
     0
  2
*D17
 10
606.2075267122229
 20
-360.8394182894417
 30
0.0
 11
347.2075267122229
 21
-350.2144182894417
 31
0.0
 70
    32
 71
     5
 42
518.0
 73
     0
 74
     0
 75
     0
  3
ISO-25
100
AcDbAlignedDimension
 13
88.20752671222294
 23
138.5264705426768
 33
0.0
 14
606.2075267122229
 24
176.5264705426768
 34
0.0
100
AcDbRotatedDimension
  0
DIMENSION
  5
32CE
330
324A
100
AcDbEntity
  8
0
100
AcDbDimension
280
     0
  2
*D18
 10
707.207526712223
 20
-192.2453820490379
 30
0.0
 11
661.5825267122229
 21
-181.6203820490379
 31
0.0
 70
    32
 71
     5
 42
29.99999999999989
 73
     0
 74
     0
 75
     0
  3
ISO-25
100
AcDbAlignedDimension
 13
737.2075267122228
 23
-46.47352945732319
 33
0.0
 14
707.207526712223
 24
-46.47352945732319
 34
0.0
100
AcDbRotatedDimension
  0
DIMENSION
  5
32CF
330
324A
100
AcDbEntity
  8
0
100
AcDbDimension
280
     0
  2
*D19
 10
-12.79247328777707
 20
-219.2681151947809
 30
0.0
 11
32.83252671222293
 21
-208.6431151947809
 31
0.0
 70
    32
 71
     5
 42
30.0
 73
     0
 74
     0
 75
     0
  3
ISO-25
100
AcDbAlignedDimension
 13
-42.79247328777706
 23
23.52647054267681
 33
0.0
 14
-12.79247328777705
 24
74.62218173888877
 34
0.0
100
AcDbRotatedDimension
  0
DIMENSION
  5
32D0
330
324A
100
AcDbEntity
  8
0
100
AcDbDimension
280
     0
  2
*D20
 10
1235.953624669412
 20
-166.4735294573234
 30
0.0
 11
1225.328624669412
 21
223.5264705426769
 31
0.0
 70
    32
 71
     5
 42
780.0000000000002
 73
     0
 74
     0
 75
     0
  3
ISO-25
100
AcDbAlignedDimension
 13
547.2075267122229
 23
613.5264705426769
 33
0.0
 14
547.2075267122229
 24
-166.4735294573232
 34
0.0
 50
90.0
100
AcDbRotatedDimension
  0
DIMENSION
  5
32D1
330
324A
100
AcDbEntity
  8
0
100
AcDbDimension
280
     0
  2
*D21
 10
1108.434205353983
 20
-126.4735294573233
 30
0.0
 11
1097.809205353983
 21
223.5264705426769
 31
0.0
 70
    32
 71
     5
 42
700.0
 73
     0
 74
     0
 75
     0
  3
ISO-25
100
AcDbAlignedDimension
 13
547.2075267122229
 23
573.5264705426768
 33
0.0
 14
547.2075267122229
 24
-126.4735294573232
 34
0.0
 50
90.0
100
AcDbRotatedDimension
  0
DIMENSION
  5
32D2
330
324A
100
AcDbEntity
  8
0
100
AcDbDimension
280
     0
  2
*D22
 10
876.0654785093612
 20
543.5264705426767
 30
0.0
 11
865.440478509361
 21
497.9014705426769
 31
0.0
 70
    32
 71
     5
 42
30.0
 73
     0
 74
     0
 75
     0
  3
ISO-25
100
AcDbAlignedDimension
 13
657.207526712223
 23
573.5264705426768
 33
0.0
 14
641.1727328444568
 24
543.5264705426768
 34
0.0
 50
90.0
100
AcDbRotatedDimension
  0
DIMENSION
  5
32D3
330
324A
100
AcDbEntity
  8
0
100
AcDbDimension
280
     0
  2
*D23
 10
451.7075267122229
 20
398.5264705426768
 30
0.0
 11
441.0825267122228
 21
418.5264705426769
 31
0.0
 70
    32
 71
     5
 42
40.00000000000006
 73
     0
 74
     0
 75
     0
  3
ISO-25
100
AcDbAlignedDimension
 13
451.7075267122229
 23
438.5264705426768
 33
0.0
 14
516.2075267122229
 24
398.5264705426768
 34
0.0
 50
90.0
100
AcDbRotatedDimension
  0
DIMENSION
  5
32D4
330
324A
100
AcDbEntity
  8
0
100
AcDbDimension
280
     0
  2
*D24
 10
606.2075267122229
 20
270.1757246145753
 30
0.0
 11
626.2075267122229
 21
280.8007246145753
 31
0.0
 70
    32
 71
     5
 42
40.0
 73
     0
 74
     0
 75
     0
  3
ISO-25
100
AcDbAlignedDimension
 13
646.2075267122229
 23
263.5264705426768
 33
0.0
 14
606.2075267122229
 24
242.5264705426769
 34
0.0
100
AcDbRotatedDimension
  0
DIMENSION
  5
32D5
330
324A
100
AcDbEntity
  8
0
100
AcDbDimension
280
     0
  2
*D25
 10
178.2075267122229
 20
308.5264705426768
 30
0.0
 11
153.9007311089353
 21
332.8332661459644
 31
0.0
 70
   164
 71
     5
 42
89.99999999999998
 73
     0
 74
     0
 75
     0
  3
ISO-25
100
AcDbRadialDimension
 15
114.5679164054336
 25
372.166080849466
 35
0.0
 40
0.0
1001
ACAD
1000
DSTYLE
1002
{
1070
   288
1070
     1
1002
}
  0
DIMENSION
  5
32D6
330
324A
100
AcDbEntity
  8
0
100
AcDbDimension
280
     0
  2
*D26
 10
178.2075267122228
 20
138.5264705426768
 30
0.0
 11
153.9007311089353
 21
114.2196749393893
 31
0.0
 70
   164
 71
     5
 42
89.99999999999989
 73
     0
 74
     0
 75
     0
  3
ISO-25
100
AcDbRadialDimension
 15
114.5679164054336
 25
74.88686023588758
 35
0.0
 40
0.0
1001
ACAD
1000
DSTYLE
1002
{
1070
   288
1070
     1
1002
}
  0
DIMENSION
  5
32D7
330
324A
100
AcDbEntity
  8
0
100
AcDbDimension
280
     0
  2
*D27
 10
516.2075267122229
 20
308.5264705426768
 30
0.0
 11
535.3143701775492
 21
337.1021447742942
 31
0.0
 70
   164
 71
     5
 42
90.00000000000012
 73
     0
 74
     0
 75
     0
  3
ISO-25
100
AcDbRadialDimension
 15
566.2327168759864
 25
383.342781258184
 35
0.0
 40
0.0
1001
ACAD
1000
DSTYLE
1002
{
1070
   288
1070
     1
1002
}
  0
DIMENSION
  5
32D8
330
324A
100
AcDbEntity
  8
0
100
AcDbDimension
280
     0
  2
*D28
 10
536.2075267122229
 20
176.526470542677
 30
0.0
 11
536.2075267122229
 21
176.5264705426768
 31
0.0
 70
   164
 71
     5
 42
70.00000000000006
 73
     0
 74
     0
 75
     0
  3
ISO-25
100
AcDbRadialDimension
 15
604.4524805649506
 25
160.9500051657351
 35
0.0
 40
0.0
1001
ACAD
1000
DSTYLE
1002
{
1070
   279
1070
     1
1070
   288
1070
     1
1002
}
  0
DIMENSION
  5
32D9
330
324A
100
AcDbEntity
  8
0
100
AcDbDimension
280
     0
  2
*D29
 10
476.2075267122238
 20
56.52647054267695
 30
0.0
 11
416.9955648358214
 21
171.0758128476748
 31
0.0
 70
   164
 71
     5
 42
50.00000000000039
 73
     0
 74
     0
 75
     0
  3
ISO-25
100
AcDbRadialDimension
 15
453.2479137248476
 25
100.9433161248425
 35
0.0
 40
0.0
1001
ACAD
1000
DSTYLE
1002
{
1070
   288
1070
     1
1002
}
  0
DIMENSION
  5
32DA
330
324A
100
AcDbEntity
  8
0
100
AcDbDimension
280
     0
  2
*D30
 10
373.4651303998921
 20
118.5264705426768
 30
0.0
 11
373.4651303998922
 21
118.5264705426768
 31
0.0
 70
   164
 71
     5
 42
69.99999999999997
 73
     0
 74
     0
 75
     0
  3
ISO-25
100
AcDbRadialDimension
 15
417.7646432230661
 25
64.32727162212595
 35
0.0
 40
0.0
1001
ACAD
1000
DSTYLE
1002
{
1070
   279
1070
     1
1070
   288
1070
     1
1002
}
  0
DIMENSION
  5
32DB
330
324A
100
AcDbEntity
  8
0
100
AcDbDimension
280
     0
  2
*D31
 10
547.2075267122229
 20
-270.6266505712356
 30
0.0
 11
347.2075267122229
 21
-260.0016505712356
 31
0.0
 70
    32
 71
     5
 42
400.0
 73
     0
 74
     0
 75
     0
  3
ISO-25
100
AcDbAlignedDimension
 13
147.2075267122229
 23
-166.4735294573232
 33
0.0
 14
547.2075267122229
 24
-166.4735294573234
 34
0.0
100
AcDbRotatedDimension
  0
DIMENSION
  5
32DC
330
324A
100
AcDbEntity
  8
0
100
AcDbDimension
280
     0
  2
*D32
 10
1012.086197503366
 20
23.52647054267674
 30
0.0
 11
1001.461197503366
 21
223.5264705426769
 31
0.0
 70
    32
 71
     5
 42
400.0
 73
     0
 74
     0
 75
     0
  3
ISO-25
100
AcDbAlignedDimension
 13
777.2075267122228
 23
423.5264705426768
 33
0.0
 14
777.2075267122229
 24
23.52647054267681
 34
0.0
 50
90.0
100
AcDbRotatedDimension
  0
DIMENSION
  5
32DD
330
324A
100
AcDbEntity
  8
0
100
AcDbDimension
280
     0
  2
*D33
 10
606.2075267122229
 20
257.2885975786261
 30
0.0
 11
528.9176257090957
 21
267.9135975786261
 31
0.0
 70
    32
  1
{\f??|b0|i0|c0|p54;160}
 71
     5
 42
154.5798020062544
 73
     0
 74
     0
 75
     0
  3
ISO-25
100
AcDbAlignedDimension
 13
451.6277247059685
 23
100.0676388013873
 33
0.0
 14
606.2075267122229
 24
175.9014705426768
 34
0.0
100
AcDbRotatedDimension
  0
DIMENSION
  5
32DE
330
324A
100
AcDbEntity
  8
0
100
AcDbDimension
280
     0
  2
*D34
 10
827.8914745840529
 20
106.5264705426767
 30
0.0
 11
817.2664745840529
 21
252.5264705426768
 31
0.0
 70
    32
 71
     5
 42
292.0
 73
     0
 74
     0
 75
     0
  3
ISO-25
100
AcDbAlignedDimension
 13
515.5825267122229
 23
398.5264705426768
 33
0.0
 14
536.2075267122228
 24
106.5264705426768
 34
0.0
 50
90.0
100
AcDbRotatedDimension
  0
DIMENSION
  5
32DF
330
324A
100
AcDbEntity
  8
0
100
AcDbDimension
280
     0
  2
*D35
 10
924.2394824346702
 20
57.5688349804821
 30
0.0
 11
913.6144824346702
 21
228.0476527615795
 31
0.0
 70
    32
  1
{\f??|b0|i0|c0|p54;350}
 71
     5
 42
340.9576355621945
 73
     0
 74
     0
 75
     0
  3
ISO-25
100
AcDbAlignedDimension
 13
347.2075267122229
 23
398.5264705426768
 33
0.0
 14
407.8768532086484
 24
57.56883498048225
 34
0.0
 50
90.0
100
AcDbRotatedDimension
  0
DIMENSION
  5
32E0
330
324A
100
AcDbEntity
  8
0
100
AcDbDimension
280
     0
  2
*D36
 10
7.207526712222943
 20
-608.3141244462939
 30
0.0
 11
-135.7558064251431
 21
-516.5612210760819
 31
0.0
 70
   164
  1
{\f??|b0|i0|c0|p54;R30}
 71
     5
 42
20.00000000000046
 73
     0
 74
     0
 75
     0
  3
ISO-25
100
AcDbRadialDimension
 15
-9.624183445803566
 25
-597.5116463437378
 35
0.0
 40
0.0
1001
ACAD
1000
DSTYLE
1002
{
1070
   288
1070
     1
1002
}
  0
DIMENSION
  5
32E1
330
324A
100
AcDbEntity
  8
0
100
AcDbDimension
280
     0
  2
*D37
 10
37.20752671222303
 20
493.5264705426763
 30
0.0
 11
-82.10935664162372
 21
595.1915285630851
 31
0.0
 70
   164
 71
     5
 42
80.00000000000033
 73
     0
 74
     0
 75
     0
  3
ISO-25
100
AcDbRadialDimension
 15
-23.68569605164498
 25
545.4111062398651
 35
0.0
 40
0.0
1001
ACAD
1000
DSTYLE
1002
{
1070
   288
1070
     1
1002
}
  0
DIMENSION
  5
32E2
330
324A
100
AcDbEntity
  8
0
100
AcDbDimension
280
     0
  2
*D38
 10
53.24232057998895
 20
523.5264705426774
 30
0.0
 11
173.8051577584125
 21
474.5187293385196
 31
0.0
 70
   164
 71
     5
 42
19.99999999999971
 73
     0
 74
     0
 75
     0
  3
ISO-25
100
AcDbRadialDimension
 15
34.71454821709893
 25
531.0578483229322
 35
0.0
 40
0.0
1001
ACAD
1000
DSTYLE
1002
{
1070
   279
1070
     1
1070
   288
1070
     1
1002
}
  0
ENDBLK
  5
32E4
330
324A
100
AcDbEntity
  8
0
100
AcDbBlockEnd
  0
BLOCK
  5
3A57
330
3A4D
100
AcDbEntity
  8
0
100
AcDbBlockBegin
  2
*D40
 70
     1
 10
0.0
 20
0.0
 30
0.0
  3
*D40
  1

  0
LINE
  5
3A5A
330
3A4D
100
AcDbEntity
  8
0
 62
     0
440
 16777216
370
    -2
100
AcDbLine
 10
13181.29196190755
 20
-3962.030622039685
 30
0.0
 11
13419.60555229888
 21
-3962.030622039686
 31
0.0
  0
LINE
  5
3A5B
330
3A4D
100
AcDbEntity
  8
0
 62
     0
440
 16777216
370
    -2
100
AcDbLine
 10
13181.29196190754
 20
-4424.030622039685
 30
0.0
 11
13419.60555229888
 21
-4424.030622039685
 31
0.0
  0
LINE
  5
3A5C
330
3A4D
100
AcDbEntity
  8
0
 62
     0
440
 16777216
370
    -2
100
AcDbLine
 10
13418.35555229888
 20
-3972.030622039686
 30
0.0
 11
13418.35555229888
 21
-4414.030622039684
 31
0.0
  0
SOLID
  5
3A5D
330
3A4D
100
AcDbEntity
  8
0
 62
     0
440
 16777216
100
AcDbTrace
 10
13416.68888563222
 20
-3972.030622039686
 30
0.0
 11
13420.02221896555
 21
-3972.030622039686
 31
0.0
 12
13418.35555229888
 22
-3962.030622039686
 32
0.0
 13
13418.35555229888
 23
-3962.030622039686
 33
0.0
  0
SOLID
  5
3A5E
330
3A4D
100
AcDbEntity
  8
0
 62
     0
440
 16777216
100
AcDbTrace
 10
13416.68888563221
 20
-4414.030622039684
 30
0.0
 11
13420.02221896555
 21
-4414.030622039684
 31
0.0
 12
13418.35555229888
 22
-4424.030622039685
 32
0.0
 13
13418.35555229888
 23
-4424.030622039685
 33
0.0
  0
MTEXT
  5
3A5F
330
3A4D
100
AcDbEntity
  8
0
 62
     0
440
 16777216
100
AcDbMText
 10
13407.73055229888
 20
-4193.030622039684
 30
0.0
 40
20.0
 41
0.0
 46
0.0
 71
     5
 72
     1
  1
462
 11
0.0000000000000001
 21
1.0
 31
0.0
 73
     1
 44
1.0
  0
POINT
  5
3A60
330
3A4D
100
AcDbEntity
  8
Defpoints
 62
     0
440
 16777216
100
AcDbPoint
 10
13180.66696190755
 20
-3962.030622039685
 30
0.0
  0
POINT
  5
3A61
330
3A4D
100
AcDbEntity
  8
Defpoints
 62
     0
440
 16777216
100
AcDbPoint
 10
13180.66696190754
 20
-4424.030622039685
 30
0.0
  0
POINT
  5
3A62
330
3A4D
100
AcDbEntity
  8
Defpoints
 62
     0
440
 16777216
100
AcDbPoint
 10
13418.35555229888
 20
-4424.030622039685
 30
0.0
  0
ENDBLK
  5
3A58
330
3A4D
100
AcDbEntity
  8
0
100
AcDbBlockEnd
  0
ENDSEC
  0
SECTION
  2
ENTITIES
  0
LINE
  5
2845
330
1F
100
AcDbEntity
  8
0
100
AcDbLine
 10
12491.66696190755
 20
-4050.030622039684
 30
0.0
 11
12491.66696190754
 21
-4336.030622039685
 31
0.0
  0
LINE
  5
2846
330
1F
100
AcDbEntity
  8
0
100
AcDbLine
 10
12463.66696190755
 20
-4012.030622039684
 30
0.0
 11
12463.66696190754
 21
-4374.030622039685
 31
0.0
  0
ARC
  5
2847
330
1F
100
AcDbEntity
  8
0
100
AcDbCircle
 10
12551.66696190755
 20
-4050.030622039685
 30
0.0
 40
60.0
100
AcDbArc
 50
90.0
 51
180.0
  0
LINE
  5
2848
102
{ACAD_REACTORS
330
2865
102
}
330
1F
100
AcDbEntity
  8
0
100
AcDbLine
 10
13202.66696190754
 20
-4050.030622039685
 30
0.0
 11
13202.66696190754
 21
-4336.030622039685
 31
0.0
  0
LINE
  5
2849
102
{ACAD_REACTORS
330
2862
102
}
330
1F
100
AcDbEntity
  8
0
100
AcDbLine
 10
13230.66696190755
 20
-4012.030622039684
 30
0.0
 11
13230.66696190754
 21
-4374.030622039685
 31
0.0
  0
LINE
  5
284A
330
1F
100
AcDbEntity
  8
0
100
AcDbLine
 10
13180.66696190755
 20
-3962.030622039685
 30
0.0
 11
13230.66696190755
 21
-4012.030622039684
 31
0.0
  0
LINE
  5
284B
330
1F
100
AcDbEntity
  8
0
100
AcDbLine
 10
13180.66696190754
 20
-4424.030622039685
 30
0.0
 11
13230.66696190754
 21
-4374.030622039685
 31
0.0
  0
ARC
  5
284C
330
1F
100
AcDbEntity
  8
0
100
AcDbCircle
 10
13142.66696190754
 20
-4336.030622039685
 30
0.0
 40
60.0
100
AcDbArc
 50
270.0
 51
0.0
  0
ARC
  5
284D
330
1F
100
AcDbEntity
  8
0
100
AcDbCircle
 10
13142.66696190754
 20
-4050.030622039685
 30
0.0
 40
60.0
100
AcDbArc
 50
0.0
 51
90.0
  0
LINE
  5
284E
102
{ACAD_REACTORS
330
286B
102
}
330
1F
100
AcDbEntity
  8
0
100
AcDbLine
 10
12551.66696190754
 20
-4396.030622039685
 30
0.0
 11
13142.66696190754
 21
-4396.030622039685
 31
0.0
  0
LINE
  5
284F
102
{ACAD_REACTORS
330
3A63
102
}
330
1F
100
AcDbEntity
  8
0
100
AcDbLine
 10
12513.66696190754
 20
-4424.030622039685
 30
0.0
 11
13180.66696190754
 21
-4424.030622039685
 31
0.0
  0
LINE
  5
2850
102
{ACAD_REACTORS
330
2862
102
}
330
1F
100
AcDbEntity
  8
0
100
AcDbLine
 10
12463.66696190754
 20
-4374.030622039685
 30
0.0
 11
12513.66696190754
 21
-4424.030622039685
 31
0.0
  0
ARC
  5
2851
102
{ACAD_REACTORS
330
2865
102
}
330
1F
100
AcDbEntity
  8
0
100
AcDbCircle
 10
12551.66696190754
 20
-4336.030622039685
 30
0.0
 40
60.0
100
AcDbArc
 50
180.0
 51
270.0
  0
LINE
  5
2852
102
{ACAD_REACTORS
330
286B
102
}
330
1F
100
AcDbEntity
  8
0
100
AcDbLine
 10
12551.66696190755
 20
-3990.030622039685
 30
0.0
 11
13142.66696190754
 21
-3990.030622039685
 31
0.0
  0
LINE
  5
2853
102
{ACAD_REACTORS
330
3A63
102
}
330
1F
100
AcDbEntity
  8
0
100
AcDbLine
 10
12513.66696190755
 20
-3962.030622039685
 30
0.0
 11
13180.66696190755
 21
-3962.030622039685
 31
0.0
  0
LINE
  5
2854
330
1F
100
AcDbEntity
  8
0
100
AcDbLine
 10
12463.66696190755
 20
-4012.030622039684
 30
0.0
 11
12513.66696190755
 21
-3962.030622039685
 31
0.0
  0
CIRCLE
  5
2855
102
{ACAD_REACTORS
330
2871
102
}
330
1F
100
AcDbEntity
  8
0
100
AcDbCircle
 10
12847.16696190755
 20
-4143.030622039685
 30
0.0
 40
45.0
  0
CIRCLE
  5
2856
330
1F
100
AcDbEntity
  8
0
100
AcDbCircle
 10
12847.16696190755
 20
-4143.030622039685
 30
0.0
 40
55.0
  0
LINE
  5
2857
102
{ACAD_REACTORS
330
286E
102
}
330
1F
100
AcDbEntity
  8
0
100
AcDbLine
 10
12463.66696190754
 20
-4692.29116890069
 30
0.0
 11
13230.66696190754
 21
-4692.29116890069
 31
0.0
  0
LINE
  5
2858
330
1F
100
AcDbEntity
  8
0
100
AcDbLine
 10
12540.23373869975
 20
-4966.29116890069
 30
0.0
 11
13154.10018511534
 21
-4966.29116890069
 31
0.0
  0
ARC
  5
2859
330
1F
100
AcDbEntity
  8
0
100
AcDbCircle
 10
12540.23373869975
 20
-4926.29116890069
 30
0.0
 40
40.0
100
AcDbArc
 50
182.0901591537282
 51
270.0
  0
LINE
  5
285A
102
{ACAD_REACTORS
330
286E
102
}
330
1F
100
AcDbEntity
  8
0
100
AcDbLine
 10
12802.16696190755
 20
-4971.291168900691
 30
0.0
 11
12892.16696190755
 21
-4971.291168900691
 31
0.0
  0
LINE
  5
285B
330
1F
100
AcDbEntity
  8
0
100
AcDbLine
 10
12491.66696190754
 20
-4692.29116890069
 30
0.0
 11
12500.26035178835
 21
-4927.750051634683
 31
0.0
  0
LINE
  5
285C
330
1F
100
AcDbEntity
  8
0
100
AcDbLine
 10
13202.66696190754
 20
-4692.29116890069
 30
0.0
 11
13194.07357202674
 21
-4927.750051634683
 31
0.0
  0
ARC
  5
285D
330
1F
100
AcDbEntity
  8
0
100
AcDbCircle
 10
13154.10018511534
 20
-4926.29116890069
 30
0.0
 40
40.0
100
AcDbArc
 50
270.0
 51
357.9098408462719
  0
LINE
  5
285E
330
1F
100
AcDbEntity
  8
0
100
AcDbLine
 10
12792.16696190754
 20
-4966.29116890069
 30
0.0
 11
12802.16696190755
 21
-4971.291168900691
 31
0.0
  0
LINE
  5
285F
102
{ACAD_REACTORS
330
286E
102
}
330
1F
100
AcDbEntity
  8
0
100
AcDbLine
 10
12902.16696190755
 20
-4966.29116890069
 30
0.0
 11
12892.16696190754
 21
-4971.291168900691
 31
0.0
  0
DIMENSION
  5
2860
102
{ACAD_XDICTIONARY
360
2861
102
}
102
{ACAD_REACTORS
330
2862
102
}
330
1F
100
AcDbEntity
  8
0
100
AcDbDimension
280
     0
  2
*D7
 10
13230.66696190754
 20
-4584.17911527546
 30
0.0
 11
12847.16696190754
 21
-4573.554115275459
 31
0.0
 70
    32
 71
     5
 42
766.9999999999982
 73
     0
 74
     0
 75
     0
  3
ISO-25
100
AcDbAlignedDimension
 13
12463.66696190754
 23
-4374.030622039685
 33
0.0
 14
13230.66696190754
 24
-4374.030622039692
 34
0.0
100
AcDbRotatedDimension
  0
DIMENSION
  5
2863
102
{ACAD_XDICTIONARY
360
2864
102
}
102
{ACAD_REACTORS
330
2865
102
}
330
1F
100
AcDbEntity
  8
0
100
AcDbDimension
280
     0
  2
*D8
 10
13202.66696190754
 20
-4519.321664727333
 30
0.0
 11
12847.16696190754
 21
-4508.696664727333
 31
0.0
 70
    32
 71
     5
 42
710.9999999999981
 73
     0
 74
     0
 75
     0
  3
ISO-25
100
AcDbAlignedDimension
 13
12491.66696190754
 23
-4336.030622039685
 33
0.0
 14
13202.66696190754
 24
-4336.03062203969
 34
0.0
100
AcDbRotatedDimension
  0
DIMENSION
  5
2869
102
{ACAD_XDICTIONARY
360
286A
102
}
102
{ACAD_REACTORS
330
286B
102
}
330
1F
100
AcDbEntity
  8
0
100
AcDbDimension
280
     0
  2
*D9
 10
13325.9199731026
 20
-4396.030622039685
 30
0.0
 11
13315.2949731026
 21
-4193.030622039684
 31
0.0
 70
    32
 71
     5
 42
406.0
 73
     0
 74
     0
 75
     0
  3
ISO-25
100
AcDbAlignedDimension
 13
13142.66696190754
 23
-3990.030622039685
 33
0.0
 14
13142.66696190754
 24
-4396.030622039685
 34
0.0
 50
90.0
100
AcDbRotatedDimension
  0
DIMENSION
  5
286C
102
{ACAD_XDICTIONARY
360
286D
102
}
102
{ACAD_REACTORS
330
286E
102
}
330
1F
100
AcDbEntity
  8
0
100
AcDbDimension
280
     0
  2
*D10
 10
13366.47862057743
 20
-4971.291168900691
 30
0.0
 11
13355.85362057744
 21
-4831.791168900689
 31
0.0
 70
    32
 71
     5
 42
279.0
 73
     0
 74
     0
 75
     0
  3
ISO-25
100
AcDbAlignedDimension
 13
13230.66696190754
 23
-4692.29116890069
 33
0.0
 14
12892.16696190754
 24
-4971.291168900691
 34
0.0
 50
90.0
100
AcDbRotatedDimension
  0
DIMENSION
  5
286F
102
{ACAD_XDICTIONARY
360
2870
102
}
102
{ACAD_REACTORS
330
2871
102
}
330
1F
100
AcDbEntity
  8
0
100
AcDbDimension
280
     0
  2
*D11
 10
12802.16696190755
 20
-4143.030622039685
 30
0.0
 11
12846.54196190754
 21
-4143.030622039685
 31
0.0
 70
   163
 71
     5
 42
90.0
 73
     0
 74
     0
 75
     0
  3
ISO-25
100
AcDbDiametricDimension
 15
12892.16696190754
 25
-4143.030622039685
 35
0.0
 40
0.0
1001
ACAD
1000
DSTYLE
1002
{
1070
   288
1070
     1
1002
}
  0
DIMENSION
  5
3A4C
102
{ACAD_XDICTIONARY
360
3A59
102
}
102
{ACAD_REACTORS
330
3A63
102
}
330
1F
100
AcDbEntity
  8
0
100
AcDbDimension
280
     0
  2
*D40
 10
13418.35555229888
 20
-4424.030622039685
 30
0.0
 11
13407.73055229888
 21
-4193.030622039684
 31
0.0
 70
    32
 71
     5
 42
462.0
 73
     0
 74
     0
 75
     0
  3
ISO-25
100
AcDbAlignedDimension
 13
13180.66696190755
 23
-3962.030622039685
 33
0.0
 14
13180.66696190754
 24
-4424.030622039685
 34
0.0
 50
90.0
100
AcDbRotatedDimension
  0
ENDSEC
  0
SECTION
  2
OBJECTS
  0
DICTIONARY
  5
C
330
0
100
AcDbDictionary
281
     1
  3
ACAD_CIP_PREVIOUS_PRODUCT_INFO
350
3ABA
  3
ACAD_COLOR
350
6B
  3
ACAD_DETAILVIEWSTYLE
350
3AB1
  3
ACAD_GROUP
350
D
  3
ACAD_LAYOUT
350
1A
  3
ACAD_MATERIAL
350
6A
  3
ACAD_MLEADERSTYLE
350
3AAD
  3
ACAD_MLINESTYLE
350
17
  3
ACAD_PLOTSETTINGS
350
19
  3
ACAD_PLOTSTYLENAME
350
E
  3
ACAD_SCALELIST
350
3A9B
  3
ACAD_SECTIONVIEWSTYLE
350
3AAF
  3
ACAD_TABLESTYLE
350
7E
  3
ACAD_VISUALSTYLE
350
3A82
  3
ACDB_RECOMPOSE_DATA
350
3ADB
  3
AcDbVariableDictionary
350
5E
  0
DICTIONARY
  5
1858
330
2
100
AcDbDictionary
280
     1
281
     1
  3
ACAD_LAYERSTATES
360
1859
  0
DICTIONARY
  5
3ABB
330
10
100
AcDbDictionary
280
     1
281
     1
  3
ADSK_XREC_LAYER_RECONCILED
360
3ABC
  0
DICTIONARY
  5
3ABD
330
3248
100
AcDbDictionary
280
     1
281
     1
  3
ADSK_XREC_LAYER_RECONCILED
360
3ABE
  0
DICTIONARY
  5
15A
330
1F
100
AcDbDictionary
280
     1
281
     1
  3
ACAD_SORTENTS
360
15B
  0
DICTIONARY
  5
2861
330
2860
100
AcDbDictionary
280
     1
281
     1
  3
ACAD_DIMASSOC
360
2862
  0
DICTIONARY
  5
2864
330
2863
100
AcDbDictionary
280
     1
281
     1
  3
ACAD_DIMASSOC
360
2865
  0
DICTIONARY
  5
286A
330
2869
100
AcDbDictionary
280
     1
281
     1
  3
ACAD_DIMASSOC
360
286B
  0
DICTIONARY
  5
286D
330
286C
100
AcDbDictionary
280
     1
281
     1
  3
ACAD_DIMASSOC
360
286E
  0
DICTIONARY
  5
2870
330
286F
100
AcDbDictionary
280
     1
281
     1
  3
ACAD_DIMASSOC
360
2871
  0
DICTIONARY
  5
3A59
330
3A4C
100
AcDbDictionary
280
     1
281
     1
  3
ACAD_DIMASSOC
360
3A63
  0
XRECORD
  5
3ABA
102
{ACAD_REACTORS
330
C
102
}
330
C
100
AcDbXrecord
280
     1
300
ACD
300
2017
300
ACD_F_S
  0
DICTIONARY
  5
6B
102
{ACAD_REACTORS
330
C
102
}
330
C
100
AcDbDictionary
281
     1
  0
DICTIONARY
  5
3AB1
102
{ACAD_REACTORS
330
C
102
}
330
C
100
AcDbDictionary
281
     1
  3
Metric50
350
3AB2
  0
DICTIONARY
  5
D
102
{ACAD_REACTORS
330
C
102
}
330
C
100
AcDbDictionary
281
     1
  0
DICTIONARY
  5
1A
102
{ACAD_REACTORS
330
C
102
}
330
C
100
AcDbDictionary
281
     1
  3
Model
350
22
  3
布局1
350
D3
  3
布局2
350
D7
1001
AcadStringInfo
1000
MIFCodePage
1070
     5
  0
DICTIONARY
  5
6A
102
{ACAD_REACTORS
330
C
102
}
330
C
100
AcDbDictionary
281
     1
  3
ByBlock
350
3A72
  3
ByLayer
350
3A6A
  3
Global
350
3A7A
  0
DICTIONARY
  5
3AAD
102
{ACAD_REACTORS
330
C
102
}
330
C
100
AcDbDictionary
281
     1
  3
Standard
350
3AAE
  0
DICTIONARY
  5
17
102
{ACAD_REACTORS
330
C
102
}
330
C
100
AcDbDictionary
281
     1
  3
Standard
350
18
  0
DICTIONARY
  5
19
102
{ACAD_REACTORS
330
C
102
}
330
C
100
AcDbDictionary
281
     1
  0
ACDBDICTIONARYWDFLT
  5
E
102
{ACAD_REACTORS
330
C
102
}
330
C
100
AcDbDictionary
281
     1
  3
Normal
350
F
100
AcDbDictionaryWithDefault
340
F
  0
DICTIONARY
  5
3A9B
102
{ACAD_REACTORS
330
C
102
}
330
C
100
AcDbDictionary
281
     1
  3
A0
350
3A9C
  3
A1
350
3A9D
  3
A2
350
3A9E
  3
A3
350
3A9F
  3
A4
350
3AA0
  3
A5
350
3AA1
  3
A6
350
3AA2
  3
A7
350
3AA3
  3
A8
350
3AA4
  3
A9
350
3AA5
  3
B0
350
3AA6
  3
B1
350
3AA7
  3
B2
350
3AA8
  3
B3
350
3AA9
  3
B4
350
3AAA
  3
B5
350
3AAB
  3
B6
350
3AAC
  0
DICTIONARY
  5
3AAF
102
{ACAD_REACTORS
330
C
102
}
330
C
100
AcDbDictionary
281
     1
  3
Metric50
350
3AB0
  0
DICTIONARY
  5
7E
102
{ACAD_REACTORS
330
C
102
}
330
C
100
AcDbDictionary
281
     1
  3
Standard
350
7F
  0
DICTIONARY
  5
3A82
102
{ACAD_REACTORS
330
C
102
}
330
C
100
AcDbDictionary
281
     1
  3
2dWireframe
350
3A88
  3
Basic
350
3A87
  3
Brighten
350
3A8E
  3
ColorChange
350
3A92
  3
Conceptual
350
3A8B
  3
Dim
350
3A8D
  3
EdgeColorOff
350
3A9A
  3
Facepattern
350
3A91
  3
Flat
350
3A83
  3
FlatWithEdges
350
3A84
  3
Gouraud
350
3A85
  3
GouraudWithEdges
350
3A86
  3
Hidden
350
3A8A
  3
JitterOff
350
3A98
  3
Linepattern
350
3A90
  3
OverhangOff
350
3A99
  3
Realistic
350
3A8C
  3
Shaded
350
3A97
  3
Shaded with edges
350
3A96
  3
Shades of Gray
350
3A93
  3
Sketchy
350
3A94
  3
Thicken
350
3A8F
  3
Wireframe
350
3A89
  3
X-Ray
350
3A95
  0
XRECORD
  5
3ADB
102
{ACAD_REACTORS
330
C
102
}
330
C
100
AcDbXrecord
280
     1
 90
        1
330
7F
330
3AB0
330
3AB2
  0
DICTIONARY
  5
5E
102
{ACAD_REACTORS
330
C
102
}
330
C
100
AcDbDictionary
281
     1
  3
CANNOSCALE
350
3AD1
  3
CMLEADERSTYLE
350
3ACD
  3
CTABLESTYLE
350
84
  3
CVIEWDETAILSTYLE
350
3ACE
  3
CVIEWSECTIONSTYLE
350
3ACF
  3
DIMASSOC
350
5F
  3
HIDETEXT
350
63
  3
LAYEREVAL
350
3AD3
  3
LAYERNOTIFY
350
3AD4
  3
LIGHTINGUNITS
350
3AD2
  3
MSLTSCALE
350
3AD0
  0
DICTIONARY
  5
1859
102
{ACAD_REACTORS
330
1858
102
}
330
1858
100
AcDbDictionary
281
     1
  0
XRECORD
  5
3ABC
102
{ACAD_REACTORS
330
3ABB
102
}
330
3ABB
100
AcDbXrecord
280
     1
290
     1
  0
XRECORD
  5
3ABE
102
{ACAD_REACTORS
330
3ABD
102
}
330
3ABD
100
AcDbXrecord
280
     1
290
     1
  0
SORTENTSTABLE
  5
15B
102
{ACAD_REACTORS
330
15A
102
}
330
15A
100
AcDbSortentsTable
330
1F
331
2849
  5
372A
331
284D
  5
372E
331
2845
  5
3726
331
2859
  5
373A
331
285D
  5
373E
331
2851
  5
3732
331
2855
  5
3736
331
2869
  5
3744
331
2848
  5
3729
331
284C
  5
372D
331
2860
  5
3741
331
2858
  5
3739
331
2850
  5
3731
331
285C
  5
373D
331
2854
  5
3735
331
286C
  5
3745
331
284B
  5
372C
331
284F
  5
3730
331
2863
  5
3742
331
2847
  5
3728
331
285B
  5
373C
331
285F
  5
3740
331
2853
  5
3734
331
2857
  5
3738
331
286F
  5
3746
331
284A
  5
372B
331
284E
  5
372F
331
2846
  5
3727
331
285A
  5
373B
331
285E
  5
373F
331
2852
  5
3733
331
2856
  5
3737
  0
DIMASSOC
  5
2862
102
{ACAD_REACTORS
330
2861
102
}
330
2861
100
AcDbDimAssoc
330
2860
 90
        3
 70
     0
 71
     0
  1
AcDbOsnapPointRef
 72
    13
331
2850
 73
     2
 91
        0
 40
0.0
 10
0.0
 20
0.0
 30
2.000000000000000E+50
 75
     0
  1
AcDbOsnapPointRef
 72
     8
331
2849
 73
     2
 91
        0
 40
1.0
 10
0.0
 20
0.0
 30
0.0
 75
     1
  1
AcDbOsnapPointRef
 72
    13
331
2850
 73
     2
 91
        0
 40
0.0
 10
0.0
 20
0.0
 30
2.000000000000000E+50
 75
     0
  0
DIMASSOC
  5
2865
102
{ACAD_REACTORS
330
2864
102
}
330
2864
100
AcDbDimAssoc
330
2863
 90
        3
 70
     0
 71
     0
  1
AcDbOsnapPointRef
 72
    13
331
2851
 73
     2
 91
        0
 40
3.141592653589793
 10
0.0
 20
0.0
 30
2.000000000000000E+50
 75
     0
  1
AcDbOsnapPointRef
 72
     8
331
2848
 73
     2
 91
        0
 40
1.0
 10
0.0
 20
0.0
 30
0.0
 75
     1
  1
AcDbOsnapPointRef
 72
    13
331
2851
 73
     2
 91
        0
 40
3.141592653589793
 10
0.0
 20
0.0
 30
2.000000000000000E+50
 75
     0
  0
DIMASSOC
  5
286B
102
{ACAD_REACTORS
330
286A
102
}
330
286A
100
AcDbDimAssoc
330
2869
 90
        3
 70
     0
 71
     0
  1
AcDbOsnapPointRef
 72
     1
331
2852
 73
     2
 91
        0
 40
1.0
 10
0.0
 20
0.0
 30
2.000000000000000E+50
 75
     0
  1
AcDbOsnapPointRef
 72
     1
331
284E
 73
     2
 91
        0
 40
1.0
 10
0.0
 20
0.0
 30
2.000000000000000E+50
 75
     0
  0
DIMASSOC
  5
286E
102
{ACAD_REACTORS
330
286D
102
}
330
286D
100
AcDbDimAssoc
330
286C
 90
        3
 70
     0
 71
     0
  1
AcDbOsnapPointRef
 72
     1
331
2857
 73
     2
 91
        0
 40
0.9999999999999998
 10
0.0
 20
0.0
 30
2.000000000000000E+50
 75
     0
  1
AcDbOsnapPointRef
 72
     6
331
285F
 73
     2
 91
        0
 40
0.9999999999999989
 10
0.0
 20
0.0
 30
0.0
332
285A
 74
     2
 92
        0
 75
     0
  0
DIMASSOC
  5
2871
102
{ACAD_REACTORS
330
2870
102
}
330
2870
100
AcDbDimAssoc
330
286F
 90
        2
 70
     0
 71
     0
  1
AcDbOsnapPointRef
 72
     3
331
2855
 73
     2
 91
        0
 40
0.0
 10
0.0
 20
0.0
 30
0.0
 75
     0
  0
DIMASSOC
  5
3A63
102
{ACAD_REACTORS
330
3A59
102
}
330
3A59
100
AcDbDimAssoc
330
3A4C
 90
        3
 70
     0
 71
     0
  1
AcDbOsnapPointRef
 72
     1
331
2853
 73
     2
 91
        0
 40
1.0
 10
0.0
 20
0.0
 30
2.000000000000000E+50
 75
     0
  1
AcDbOsnapPointRef
 72
     1
331
284F
 73
     2
 91
        0
 40
1.0
 10
0.0
 20
0.0
 30
2.000000000000000E+50
 75
     0
  0
ACDBDETAILVIEWSTYLE
  5
3AB2
102
{ACAD_XDICTIONARY
360
3AD9
102
}
102
{ACAD_REACTORS
330
3AB1
102
}
330
3AB1
100
AcDbModelDocViewStyle
 70
     0
  3
Metric50
290
     0
100
AcDbDetailViewStyle
 70
     0
 71
     0
 90
        3
 71
     1
340
11
 62
   256
 40
5.0
340
0
 62
   256
 40
5.0
300

 40
0.0
280
     1
 71
     2
340
16
 90
       25
 62
   256
 71
     3
340
11
 62
   256
 40
5.0
 90
        0
 40
15.0
 90
        1
300
%<\AcVar ViewDetailId>% (%<\AcVar ViewScale \f "%sn">%)
 71
     4
340
16
 90
       25
 62
   256
340
16
 90
       25
 62
   256
280
     0
  0
LAYOUT
  5
22
102
{ACAD_REACTORS
330
1A
102
}
330
1A
100
AcDbPlotSettings
  1

  2
none_device
  4
ISO_A4_(210.00_x_297.00_MM)
  6

 40
7.5
 41
20.0
 42
7.5
 43
20.0
 44
210.0
 45
297.0
 46
11.54999923706054
 47
-13.65000009536743
 48
0.0
 49
0.0
140
0.0
141
0.0
142
1.0
143
8.704084754739808
 70
 11952
 72
     1
 73
     0
 74
     0
  7

 75
     0
147
0.1148885871608098
 76
     0
 77
     2
 78
   300
148
0.0
149
0.0
100
AcDbLayout
  1
Model
 70
     1
 71
     0
 10
0.0
 20
0.0
 11
12.0
 21
9.0
 12
0.0
 22
0.0
 32
0.0
 14
0.0
 24
0.0
 34
0.0
 15
0.0
 25
0.0
 35
0.0
146
0.0
 13
0.0
 23
0.0
 33
0.0
 16
1.0
 26
0.0
 36
0.0
 17
0.0
 27
1.0
 37
0.0
 76
     0
330
1F
331
3A68
1001
ACAD_PSEXT
1000
None
1000
None
1000
Not applicable
1000
The layout will not be plotted unless a new plotter configuration name is selected.
1070
     0
  0
LAYOUT
  5
D3
102
{ACAD_REACTORS
330
1A
102
}
330
1A
100
AcDbPlotSettings
  1

  2
C:\Documents and Settings\basas\Application Data\Autodesk\AutoCAD 2005\R16.1\enu\plotters\Default Windows System Printer.pc3
  4

  6

 40
0.0
 41
0.0
 42
0.0
 43
0.0
 44
0.0
 45
0.0
 46
0.0
 47
0.0
 48
0.0
 49
0.0
140
0.0
141
0.0
142
1.0
143
1.0
 70
   688
 72
     0
 73
     0
 74
     5
  7

 75
    16
147
1.0
 76
     0
 77
     2
 78
   300
148
0.0
149
0.0
100
AcDbLayout
  1
布局1
 70
     1
 71
     1
 10
0.0
 20
0.0
 11
12.0
 21
9.0
 12
0.0
 22
0.0
 32
0.0
 14
0.0
 24
0.0
 34
0.0
 15
0.0
 25
0.0
 35
0.0
146
0.0
 13
0.0
 23
0.0
 33
0.0
 16
1.0
 26
0.0
 36
0.0
 17
0.0
 27
1.0
 37
0.0
 76
     0
330
D2
1001
AcadStringInfo
1000
MIFCodePage
1070
     5
  0
LAYOUT
  5
D7
102
{ACAD_REACTORS
330
1A
102
}
330
1A
100
AcDbPlotSettings
  1

  2
C:\Documents and Settings\basas\Application Data\Autodesk\AutoCAD 2005\R16.1\enu\plotters\Default Windows System Printer.pc3
  4

  6

 40
0.0
 41
0.0
 42
0.0
 43
0.0
 44
0.0
 45
0.0
 46
0.0
 47
0.0
 48
0.0
 49
0.0
140
0.0
141
0.0
142
1.0
143
1.0
 70
   688
 72
     0
 73
     0
 74
     5
  7

 75
    16
147
1.0
 76
     0
 77
     2
 78
   300
148
0.0
149
0.0
100
AcDbLayout
  1
布局2
 70
     1
 71
     2
 10
0.0
 20
0.0
 11
12.0
 21
9.0
 12
0.0
 22
0.0
 32
0.0
 14
0.0
 24
0.0
 34
0.0
 15
0.0
 25
0.0
 35
0.0
146
0.0
 13
0.0
 23
0.0
 33
0.0
 16
1.0
 26
0.0
 36
0.0
 17
0.0
 27
1.0
 37
0.0
 76
     0
330
D6
1001
AcadStringInfo
1000
MIFCodePage
1070
     5
  0
MATERIAL
  5
3A72
102
{ACAD_XDICTIONARY
360
3A73
102
}
102
{ACAD_REACTORS
330
6A
102
}
330
6A
100
AcDbMaterial
  1
ByBlock
 72
     0
 43
0.0008202099737533
 43
0.0
 43
0.0
 43
0.0
 43
0.0
 43
0.0008202099737533
 43
0.0
 43
0.0
 43
0.0
 43
0.0
 43
1.0
 43
0.0
 43
0.0
 43
0.0
 43
0.0
 43
1.0
 77
     0
 47
0.0008202099737533
 47
0.0
 47
0.0
 47
0.0
 47
0.0
 47
0.0008202099737533
 47
0.0
 47
0.0
 47
0.0
 47
0.0
 47
1.0
 47
0.0
 47
0.0
 47
0.0
 47
0.0
 47
1.0
171
     0
 49
0.0008202099737533
 49
0.0
 49
0.0
 49
0.0
 49
0.0
 49
0.0008202099737533
 49
0.0
 49
0.0
 49
0.0
 49
0.0
 49
1.0
 49
0.0
 49
0.0
 49
0.0
 49
0.0
 49
1.0
175
     0
142
0.0008202099737533
142
0.0
142
0.0
142
0.0
142
0.0
142
0.0008202099737533
142
0.0
142
0.0
142
0.0
142
0.0
142
1.0
142
0.0
142
0.0
142
0.0
142
0.0
142
1.0
179
     0
144
0.0008202099737533
144
0.0
144
0.0
144
0.0
144
0.0
144
0.0008202099737533
144
0.0
144
0.0
144
0.0
144
0.0
144
1.0
144
0.0
144
0.0
144
0.0
144
0.0
144
1.0
147
0.0008202099737533
147
0.0
147
0.0
147
0.0
147
0.0
147
0.0008202099737533
147
0.0
147
0.0
147
0.0
147
0.0
147
1.0
147
0.0
147
0.0
147
0.0
147
0.0
147
1.0
  0
MATERIAL
  5
3A6A
102
{ACAD_XDICTIONARY
360
3A6B
102
}
102
{ACAD_REACTORS
330
6A
102
}
330
6A
100
AcDbMaterial
  1
ByLayer
 72
     0
 43
0.0008202099737533
 43
0.0
 43
0.0
 43
0.0
 43
0.0
 43
0.0008202099737533
 43
0.0
 43
0.0
 43
0.0
 43
0.0
 43
1.0
 43
0.0
 43
0.0
 43
0.0
 43
0.0
 43
1.0
 77
     0
 47
0.0008202099737533
 47
0.0
 47
0.0
 47
0.0
 47
0.0
 47
0.0008202099737533
 47
0.0
 47
0.0
 47
0.0
 47
0.0
 47
1.0
 47
0.0
 47
0.0
 47
0.0
 47
0.0
 47
1.0
171
     0
 49
0.0008202099737533
 49
0.0
 49
0.0
 49
0.0
 49
0.0
 49
0.0008202099737533
 49
0.0
 49
0.0
 49
0.0
 49
0.0
 49
1.0
 49
0.0
 49
0.0
 49
0.0
 49
0.0
 49
1.0
175
     0
142
0.0008202099737533
142
0.0
142
0.0
142
0.0
142
0.0
142
0.0008202099737533
142
0.0
142
0.0
142
0.0
142
0.0
142
1.0
142
0.0
142
0.0
142
0.0
142
0.0
142
1.0
179
     0
144
0.0008202099737533
144
0.0
144
0.0
144
0.0
144
0.0
144
0.0008202099737533
144
0.0
144
0.0
144
0.0
144
0.0
144
1.0
144
0.0
144
0.0
144
0.0
144
0.0
144
1.0
147
0.0008202099737533
147
0.0
147
0.0
147
0.0
147
0.0
147
0.0008202099737533
147
0.0
147
0.0
147
0.0
147
0.0
147
1.0
147
0.0
147
0.0
147
0.0
147
0.0
147
1.0
  0
MATERIAL
  5
3A7A
102
{ACAD_XDICTIONARY
360
3A7B
102
}
102
{ACAD_REACTORS
330
6A
102
}
330
6A
100
AcDbMaterial
  1
Global
 72
     0
 43
0.0008202099737533
 43
0.0
 43
0.0
 43
0.0
 43
0.0
 43
0.0008202099737533
 43
0.0
 43
0.0
 43
0.0
 43
0.0
 43
1.0
 43
0.0
 43
0.0
 43
0.0
 43
0.0
 43
1.0
 77
     0
 47
0.0008202099737533
 47
0.0
 47
0.0
 47
0.0
 47
0.0
 47
0.0008202099737533
 47
0.0
 47
0.0
 47
0.0
 47
0.0
 47
1.0
 47
0.0
 47
0.0
 47
0.0
 47
0.0
 47
1.0
171
     0
 49
0.0008202099737533
 49
0.0
 49
0.0
 49
0.0
 49
0.0
 49
0.0008202099737533
 49
0.0
 49
0.0
 49
0.0
 49
0.0
 49
1.0
 49
0.0
 49
0.0
 49
0.0
 49
0.0
 49
1.0
175
     0
142
0.0008202099737533
142
0.0
142
0.0
142
0.0
142
0.0
142
0.0008202099737533
142
0.0
142
0.0
142
0.0
142
0.0
142
1.0
142
0.0
142
0.0
142
0.0
142
0.0
142
1.0
179
     0
144
0.0008202099737533
144
0.0
144
0.0
144
0.0
144
0.0
144
0.0008202099737533
144
0.0
144
0.0
144
0.0
144
0.0
144
1.0
144
0.0
144
0.0
144
0.0
144
0.0
144
1.0
147
0.0008202099737533
147
0.0
147
0.0
147
0.0
147
0.0
147
0.0008202099737533
147
0.0
147
0.0
147
0.0
147
0.0
147
1.0
147
0.0
147
0.0
147
0.0
147
0.0
147
1.0
  0
MLEADERSTYLE
  5
3AAE
102
{ACAD_REACTORS
330
3AAD
102
}
330
3AAD
100
AcDbMLeaderStyle
179
     2
170
     2
171
     1
172
     0
 90
        2
 40
0.0
 41
0.0
173
     1
 91
-1056964608
340
14
 92
       -2
290
     1
 42
2.0
291
     1
 43
0.36
  3
Standard
 44
4.0
300

342
11
174
     1
178
     6
175
     1
176
     0
 93
-1056964608
 45
4.0
292
     0
297
     0
 46
4.0
 94
-1056964608
 47
1.0
 49
1.0
140
1.0
293
     1
141
0.0
294
     1
177
     0
142
1.0
295
     1
296
     0
143
0.125
271
     0
272
     9
273
     9
298
     1
  0
MLINESTYLE
  5
18
102
{ACAD_REACTORS
330
17
102
}
330
17
100
AcDbMlineStyle
  2
STANDARD
 70
     0
  3

 62
   256
 51
90.0
 52
90.0
 71
     2
 49
0.5
 62
   256
  6
BYLAYER
 49
-0.5
 62
   256
  6
BYLAYER
  0
ACDBPLACEHOLDER
  5
F
102
{ACAD_REACTORS
330
E
102
}
330
E
  0
SCALE
  5
3A9C
102
{ACAD_REACTORS
330
3A9B
102
}
330
3A9B
100
AcDbScale
 70
     0
300
1:1
140
1.0
141
1.0
290
     1
  0
SCALE
  5
3A9D
102
{ACAD_REACTORS
330
3A9B
102
}
330
3A9B
100
AcDbScale
 70
     0
300
1:2
140
1.0
141
2.0
290
     0
  0
SCALE
  5
3A9E
102
{ACAD_REACTORS
330
3A9B
102
}
330
3A9B
100
AcDbScale
 70
     0
300
1:4
140
1.0
141
4.0
290
     0
  0
SCALE
  5
3A9F
102
{ACAD_REACTORS
330
3A9B
102
}
330
3A9B
100
AcDbScale
 70
     0
300
1:5
140
1.0
141
5.0
290
     0
  0
SCALE
  5
3AA0
102
{ACAD_REACTORS
330
3A9B
102
}
330
3A9B
100
AcDbScale
 70
     0
300
1:8
140
1.0
141
8.0
290
     0
  0
SCALE
  5
3AA1
102
{ACAD_REACTORS
330
3A9B
102
}
330
3A9B
100
AcDbScale
 70
     0
300
1:10
140
1.0
141
10.0
290
     0
  0
SCALE
  5
3AA2
102
{ACAD_REACTORS
330
3A9B
102
}
330
3A9B
100
AcDbScale
 70
     0
300
1:16
140
1.0
141
16.0
290
     0
  0
SCALE
  5
3AA3
102
{ACAD_REACTORS
330
3A9B
102
}
330
3A9B
100
AcDbScale
 70
     0
300
1:20
140
1.0
141
20.0
290
     0
  0
SCALE
  5
3AA4
102
{ACAD_REACTORS
330
3A9B
102
}
330
3A9B
100
AcDbScale
 70
     0
300
1:30
140
1.0
141
30.0
290
     0
  0
SCALE
  5
3AA5
102
{ACAD_REACTORS
330
3A9B
102
}
330
3A9B
100
AcDbScale
 70
     0
300
1:40
140
1.0
141
40.0
290
     0
  0
SCALE
  5
3AA6
102
{ACAD_REACTORS
330
3A9B
102
}
330
3A9B
100
AcDbScale
 70
     0
300
1:50
140
1.0
141
50.0
290
     0
  0
SCALE
  5
3AA7
102
{ACAD_REACTORS
330
3A9B
102
}
330
3A9B
100
AcDbScale
 70
     0
300
1:100
140
1.0
141
100.0
290
     0
  0
SCALE
  5
3AA8
102
{ACAD_REACTORS
330
3A9B
102
}
330
3A9B
100
AcDbScale
 70
     0
300
2:1
140
2.0
141
1.0
290
     0
  0
SCALE
  5
3AA9
102
{ACAD_REACTORS
330
3A9B
102
}
330
3A9B
100
AcDbScale
 70
     0
300
4:1
140
4.0
141
1.0
290
     0
  0
SCALE
  5
3AAA
102
{ACAD_REACTORS
330
3A9B
102
}
330
3A9B
100
AcDbScale
 70
     0
300
8:1
140
8.0
141
1.0
290
     0
  0
SCALE
  5
3AAB
102
{ACAD_REACTORS
330
3A9B
102
}
330
3A9B
100
AcDbScale
 70
     0
300
10:1
140
10.0
141
1.0
290
     0
  0
SCALE
  5
3AAC
102
{ACAD_REACTORS
330
3A9B
102
}
330
3A9B
100
AcDbScale
 70
     0
300
100:1
140
100.0
141
1.0
290
     0
  0
ACDBSECTIONVIEWSTYLE
  5
3AB0
102
{ACAD_XDICTIONARY
360
3AD7
102
}
102
{ACAD_REACTORS
330
3AAF
102
}
330
3AAF
100
AcDbModelDocViewStyle
 70
     0
  3
Metric50
290
     0
100
AcDbSectionViewStyle
 70
     0
 71
     0
 90
      102
 71
     1
340
11
 62
   256
 40
5.0
340
0
340
0
 62
   256
 40
5.0
300
I, O, Q, S, X, Z
 40
10.0
 90
        0
 40
2.5
 90
        0
 71
     2
340
16
 90
       25
 62
   256
340
16
 90
       50
 62
   256
 40
5.0
 40
2.5
 40
5.0
 71
     3
340
11
 62
   256
 40
5.0
 90
        0
 40
15.0
 90
        1
300
%<\AcVar ViewSectionStartId>%-%<\AcVar ViewSectionEndId>% (%<\AcVar ViewScale \f "%sn">%)
 71
     4
 62
   256
 62
   257
300
ANSI31
 40
1.0
 90
        0
290
     0
290
     0
 90
        6
 40
0.0
 40
1.570796326794896
 40
0.2617993877991494
 40
1.308996938995747
 40
-0.2617993877991494
 40
1.832595714594046
  0
TABLESTYLE
  5
7F
102
{ACAD_XDICTIONARY
360
3AD5
102
}
102
{ACAD_REACTORS
330
7E
102
}
330
7E
100
AcDbTableStyle
280
     0
  3
Standard
 70
     0
 71
     0
 40
1.5
 41
1.5
280
     0
281
     0
  7
Standard
140
4.5
170
     2
 62
     0
 63
     7
283
     0
 90
        4
 91
        0
  1

274
    -2
284
     1
 64
     0
275
    -2
285
     1
 65
     0
276
    -2
286
     1
 66
     0
277
    -2
287
     1
 67
     0
278
    -2
288
     1
 68
     0
279
    -2
289
     1
 69
     0
  7
Standard
140
6.0
170
     5
 62
     0
 63
     7
283
     0
 90
        4
 91
        0
  1

274
    -2
284
     1
 64
     0
275
    -2
285
     1
 65
     0
276
    -2
286
     1
 66
     0
277
    -2
287
     1
 67
     0
278
    -2
288
     1
 68
     0
279
    -2
289
     1
 69
     0
  7
Standard
140
4.5
170
     5
 62
     0
 63
     7
283
     0
 90
        4
 91
        0
  1

274
    -2
284
     1
 64
     0
275
    -2
285
     1
 65
     0
276
    -2
286
     1
 66
     0
277
    -2
287
     1
 67
     0
278
    -2
288
     1
 68
     0
279
    -2
289
     1
 69
     0
  0
VISUALSTYLE
  5
3A88
102
{ACAD_REACTORS
330
3A82
102
}
330
3A82
100
AcDbVisualStyle
  2
2dWireframe
 70
     4
177
     3
291
     0
 70
    58
 90
        0
176
     1
 90
        2
176
     1
 90
        0
176
     1
 90
        0
176
     1
 40
0.6
176
     1
 40
30.0
176
     1
 62
     7
420
 16777215
176
     1
 90
        1
176
     1
 90
        4
176
     1
 62
     7
176
     1
 62
   257
176
     1
 90
        1
176
     1
 90
        1
176
     1
 40
1.0
176
     1
 90
        0
176
     1
 62
   257
176
     1
 40
1.0
176
     1
 90
        1
176
     1
 90
        6
176
     1
 90
        2
176
     1
 62
     7
176
     1
 90
        5
176
     1
 90
        0
176
     1
 90
        0
176
     1
290
     0
176
     1
 90
        1
176
     1
 40
0.0
176
     1
 90
        0
176
     1
290
     1
176
     1
290
     1
176
     1
290
     0
176
     1
290
     0
176
     1
290
     0
176
     1
290
     0
176
     1
290
     0
176
     1
290
     0
176
     1
290
     0
176
     1
 90
       50
176
     1
 40
0.0
176
     1
 40
1.0
176
     1
 90
        0
176
     1
 62
    18
420
        0
176
     1
 90
       50
176
     1
 90
        3
176
     1
 62
     5
420
      255
176
     1
290
     0
176
     1
 90
       50
176
     1
 90
       50
176
     1
 90
       50
176
     1
290
     0
176
     1
 90
       50
176
     1
 62
   256
176
     0
 40
1.0
176
     0
 90
        2
176
     1
  1
strokes_ogs.tif
176
     1
290
     0
176
     1
 40
1.0
176
     1
 40
1.0
176
     1
  0
VISUALSTYLE
  5
3A87
102
{ACAD_REACTORS
330
3A82
102
}
330
3A82
100
AcDbVisualStyle
  2
Basic
 70
     7
177
     3
291
     1
 70
    58
 90
        1
176
     1
 90
        0
176
     1
 90
        1
176
     1
 90
        0
176
     1
 40
0.6
176
     1
 40
30.0
176
     1
 62
     7
420
 16777215
176
     1
 90
        0
176
     1
 90
        4
176
     1
 62
     7
176
     1
 62
   257
176
     1
 90
        1
176
     1
 90
        1
176
     1
 40
1.0
176
     1
 90
        8
176
     1
 62
     7
176
     1
 40
1.0
176
     1
 90
        1
176
     1
 90
        6
176
     1
 90
        2
176
     1
 62
     7
176
     1
 90
        5
176
     1
 90
        0
176
     1
 90
        0
176
     1
290
     0
176
     1
 90
        1
176
     1
 40
0.0
176
     1
 90
        0
176
     1
290
     0
176
     1
290
     1
176
     1
290
     1
176
     1
290
     0
176
     1
290
     0
176
     1
290
     0
176
     1
290
     0
176
     1
290
     0
176
     1
290
     0
176
     1
 90
       50
176
     1
 40
0.0
176
     1
 40
1.0
176
     1
 90
        0
176
     1
 62
    18
420
        0
176
     1
 90
       50
176
     1
 90
        3
176
     1
 62
     5
420
      255
176
     1
290
     0
176
     1
 90
       50
176
     1
 90
       50
176
     1
 90
       50
176
     1
290
     0
176
     1
 90
       50
176
     1
 62
   256
176
     0
 40
1.0
176
     0
 90
        2
176
     1
  1
strokes_ogs.tif
176
     1
290
     0
176
     1
 40
1.0
176
     1
 40
1.0
176
     1
  0
VISUALSTYLE
  5
3A8E
102
{ACAD_REACTORS
330
3A82
102
}
330
3A82
100
AcDbVisualStyle
  2
Brighten
 70
    12
177
     3
291
     1
 70
    58
 90
        2
176
     1
 90
        2
176
     1
 90
        0
176
     1
 90
        0
176
     1
 40
0.6
176
     1
 40
30.0
176
     1
 62
     7
420
 16777215
176
     1
 90
        1
176
     1
 90
        4
176
     1
 62
     7
176
     1
 62
   257
176
     1
 90
        1
176
     1
 90
        1
176
     1
 40
1.0
176
     1
 90
        8
176
     1
 62
     7
176
     1
 40
1.0
176
     1
 90
        1
176
     1
 90
        6
176
     1
 90
        2
176
     1
 62
     7
176
     1
 90
        5
176
     1
 90
        0
176
     1
 90
        0
176
     1
290
     0
176
     1
 90
        1
176
     1
 40
50.0
176
     1
 90
        0
176
     1
290
     0
176
     1
290
     1
176
     1
290
     1
176
     1
290
     0
176
     1
290
     0
176
     1
290
     0
176
     1
290
     0
176
     1
290
     0
176
     1
290
     0
176
     1
 90
       50
176
     1
 40
0.0
176
     1
 40
1.0
176
     1
 90
        0
176
     1
 62
    18
420
        0
176
     1
 90
       50
176
     1
 90
        3
176
     1
 62
     5
420
      255
176
     1
290
     0
176
     1
 90
       50
176
     1
 90
       50
176
     1
 90
       50
176
     1
290
     0
176
     1
 90
       50
176
     1
 62
   256
176
     0
 40
1.0
176
     0
 90
        2
176
     1
  1
strokes_ogs.tif
176
     1
290
     0
176
     1
 40
1.0
176
     1
 40
1.0
176
     1
  0
VISUALSTYLE
  5
3A92
102
{ACAD_REACTORS
330
3A82
102
}
330
3A82
100
AcDbVisualStyle
  2
ColorChange
 70
    16
177
     3
291
     1
 70
    58
 90
        2
176
     1
 90
        2
176
     1
 90
        3
176
     1
 90
        0
176
     1
 40
0.6
176
     1
 40
30.0
176
     1
 62
     8
420
  8421504
176
     1
 90
        1
176
     1
 90
        4
176
     1
 62
     7
176
     1
 62
   257
176
     1
 90
        1
176
     1
 90
        1
176
     1
 40
1.0
176
     1
 90
        8
176
     1
 62
     8
420
  8421504
176
     1
 40
1.0
176
     1
 90
        1
176
     1
 90
        6
176
     1
 90
        2
176
     1
 62
     7
176
     1
 90
        5
176
     1
 90
        0
176
     1
 90
        0
176
     1
290
     0
176
     1
 90
        1
176
     1
 40
0.0
176
     1
 90
        0
176
     1
290
     0
176
     1
290
     1
176
     1
290
     1
176
     1
290
     0
176
     1
290
     0
176
     1
290
     0
176
     1
290
     0
176
     1
290
     0
176
     1
290
     0
176
     1
 90
       50
176
     1
 40
0.0
176
     1
 40
1.0
176
     1
 90
        0
176
     1
 62
    18
420
        0
176
     1
 90
       50
176
     1
 90
        3
176
     1
 62
     5
420
      255
176
     1
290
     0
176
     1
 90
       50
176
     1
 90
       50
176
     1
 90
       50
176
     1
290
     0
176
     1
 90
       50
176
     1
 62
   256
176
     0
 40
1.0
176
     0
 90
        2
176
     1
  1
strokes_ogs.tif
176
     1
290
     0
176
     1
 40
1.0
176
     1
 40
1.0
176
     1
  0
VISUALSTYLE
  5
3A8B
102
{ACAD_REACTORS
330
3A82
102
}
330
3A82
100
AcDbVisualStyle
  2
Conceptual
 70
     9
177
     3
291
     0
 70
    58
 90
        3
176
     1
 90
        2
176
     1
 90
        0
176
     1
 90
        0
176
     1
 40
0.6
176
     1
 40
30.0
176
     1
 62
     7
420
 16777215
176
     1
 90
        2
176
     1
 90
        2
176
     1
 62
     7
176
     1
 62
   257
176
     1
 90
        1
176
     1
 90
        1
176
     1
 40
179.0
176
     1
 90
        8
176
     1
 62
     7
176
     1
 40
1.0
176
     1
 90
        1
176
     1
 90
        6
176
     1
 90
        2
176
     1
 62
     7
176
     1
 90
        3
176
     1
 90
        0
176
     1
 90
        0
176
     1
290
     0
176
     1
 90
        1
176
     1
 40
0.0
176
     1
 90
        0
176
     1
290
     0
176
     1
290
     1
176
     1
290
     1
176
     1
290
     0
176
     1
290
     0
176
     1
290
     0
176
     1
290
     0
176
     1
290
     0
176
     1
290
     0
176
     1
 90
       50
176
     1
 40
0.0
176
     1
 40
1.0
176
     1
 90
        0
176
     1
 62
    18
420
        0
176
     1
 90
       50
176
     1
 90
        3
176
     1
 62
     5
420
      255
176
     1
290
     0
176
     1
 90
       50
176
     1
 90
       50
176
     1
 90
       50
176
     1
290
     0
176
     1
 90
       50
176
     1
 62
   256
176
     0
 40
1.0
176
     0
 90
        2
176
     1
  1
strokes_ogs.tif
176
     1
290
     0
176
     1
 40
1.0
176
     1
 40
1.0
176
     1
  0
VISUALSTYLE
  5
3A8D
102
{ACAD_REACTORS
330
3A82
102
}
330
3A82
100
AcDbVisualStyle
  2
Dim
 70
    11
177
     3
291
     1
 70
    58
 90
        2
176
     1
 90
        2
176
     1
 90
        0
176
     1
 90
        0
176
     1
 40
0.6
176
     1
 40
30.0
176
     1
 62
     7
420
 16777215
176
     1
 90
        1
176
     1
 90
        4
176
     1
 62
     7
176
     1
 62
   257
176
     1
 90
        1
176
     1
 90
        1
176
     1
 40
1.0
176
     1
 90
        8
176
     1
 62
     7
176
     1
 40
1.0
176
     1
 90
        1
176
     1
 90
        6
176
     1
 90
        2
176
     1
 62
     7
176
     1
 90
        5
176
     1
 90
        0
176
     1
 90
        0
176
     1
290
     0
176
     1
 90
        1
176
     1
 40
-50.0
176
     1
 90
        0
176
     1
290
     0
176
     1
290
     1
176
     1
290
     1
176
     1
290
     0
176
     1
290
     0
176
     1
290
     0
176
     1
290
     0
176
     1
290
     0
176
     1
290
     0
176
     1
 90
       50
176
     1
 40
0.0
176
     1
 40
1.0
176
     1
 90
        0
176
     1
 62
    18
420
        0
176
     1
 90
       50
176
     1
 90
        3
176
     1
 62
     5
420
      255
176
     1
290
     0
176
     1
 90
       50
176
     1
 90
       50
176
     1
 90
       50
176
     1
290
     0
176
     1
 90
       50
176
     1
 62
   256
176
     0
 40
1.0
176
     0
 90
        2
176
     1
  1
strokes_ogs.tif
176
     1
290
     0
176
     1
 40
1.0
176
     1
 40
1.0
176
     1
  0
VISUALSTYLE
  5
3A9A
102
{ACAD_REACTORS
330
3A82
102
}
330
3A82
100
AcDbVisualStyle
  2
EdgeColorOff
 70
    22
177
     3
291
     1
 70
    58
 90
        2
176
     0
 90
        2
176
     0
 90
        0
176
     0
 90
        0
176
     0
 40
0.6
176
     0
 40
30.0
176
     0
 62
     7
420
 16777215
176
     0
 90
        1
176
     0
 90
        4
176
     0
 62
     7
176
     0
 62
   257
176
     0
 90
        1
176
     0
 90
        1
176
     0
 40
1.0
176
     0
 90
        8
176
     2
 62
     7
176
     0
 40
1.0
176
     0
 90
        1
176
     0
 90
        6
176
     0
 90
        2
176
     0
 62
     7
176
     0
 90
        5
176
     0
 90
        0
176
     0
 90
        0
176
     0
290
     0
176
     0
 90
        1
176
     0
 40
0.0
176
     0
 90
        0
176
     0
290
     0
176
     0
290
     1
176
     0
290
     1
176
     0
290
     0
176
     0
290
     0
176
     0
290
     0
176
     0
290
     0
176
     0
290
     0
176
     0
290
     0
176
     0
 90
       50
176
     0
 40
0.0
176
     0
 40
1.0
176
     0
 90
        0
176
     0
 62
    18
420
        0
176
     0
 90
       50
176
     0
 90
        3
176
     0
 62
     5
420
      255
176
     0
290
     0
176
     0
 90
       50
176
     0
 90
       50
176
     0
 90
       50
176
     0
290
     0
176
     0
 90
       50
176
     0
 62
   256
176
     0
 40
1.0
176
     0
 90
        2
176
     0
  1
strokes_ogs.tif
176
     0
290
     0
176
     0
 40
1.0
176
     0
 40
1.0
176
     0
  0
VISUALSTYLE
  5
3A91
102
{ACAD_REACTORS
330
3A82
102
}
330
3A82
100
AcDbVisualStyle
  2
Facepattern
 70
    15
177
     3
291
     1
 70
    58
 90
        2
176
     1
 90
        2
176
     1
 90
        0
176
     1
 90
        0
176
     1
 40
0.6
176
     1
 40
30.0
176
     1
 62
     7
420
 16777215
176
     1
 90
        1
176
     1
 90
        4
176
     1
 62
     7
176
     1
 62
   257
176
     1
 90
        1
176
     1
 90
        1
176
     1
 40
1.0
176
     1
 90
        8
176
     1
 62
     7
176
     1
 40
1.0
176
     1
 90
        1
176
     1
 90
        6
176
     1
 90
        2
176
     1
 62
     7
176
     1
 90
        5
176
     1
 90
        0
176
     1
 90
        0
176
     1
290
     0
176
     1
 90
        1
176
     1
 40
0.0
176
     1
 90
        0
176
     1
290
     0
176
     1
290
     1
176
     1
290
     1
176
     1
290
     0
176
     1
290
     0
176
     1
290
     0
176
     1
290
     0
176
     1
290
     0
176
     1
290
     0
176
     1
 90
       50
176
     1
 40
0.0
176
     1
 40
1.0
176
     1
 90
        0
176
     1
 62
    18
420
        0
176
     1
 90
       50
176
     1
 90
        3
176
     1
 62
     5
420
      255
176
     1
290
     0
176
     1
 90
       50
176
     1
 90
       50
176
     1
 90
       50
176
     1
290
     0
176
     1
 90
       50
176
     1
 62
   256
176
     0
 40
1.0
176
     0
 90
        2
176
     1
  1
strokes_ogs.tif
176
     1
290
     0
176
     1
 40
1.0
176
     1
 40
1.0
176
     1
  0
VISUALSTYLE
  5
3A83
102
{ACAD_REACTORS
330
3A82
102
}
330
3A82
100
AcDbVisualStyle
  2
Flat
 70
     0
177
     3
291
     1
 70
    58
 90
        2
176
     1
 90
        1
176
     1
 90
        1
176
     1
 90
        2
176
     1
 40
0.6
176
     1
 40
30.0
176
     1
 62
     7
420
 16777215
176
     1
 90
        0
176
     1
 90
        0
176
     1
 62
     7
176
     1
 62
   257
176
     1
 90
        1
176
     1
 90
        1
176
     1
 40
1.0
176
     1
 90
        8
176
     1
 62
     7
176
     1
 40
1.0
176
     1
 90
        1
176
     1
 90
        6
176
     1
 90
        2
176
     1
 62
     7
176
     1
 90
        5
176
     1
 90
        0
176
     1
 90
        0
176
     1
290
     0
176
     1
 90
       13
176
     1
 40
0.0
176
     1
 90
        0
176
     1
290
     0
176
     1
290
     1
176
     1
290
     1
176
     1
290
     0
176
     1
290
     0
176
     1
290
     0
176
     1
290
     0
176
     1
290
     0
176
     1
290
     0
176
     1
 90
       50
176
     1
 40
0.0
176
     1
 40
1.0
176
     1
 90
        0
176
     1
 62
    18
420
        0
176
     1
 90
       50
176
     1
 90
        3
176
     1
 62
     5
420
      255
176
     1
290
     0
176
     1
 90
       50
176
     1
 90
       50
176
     1
 90
       50
176
     1
290
     0
176
     1
 90
       50
176
     1
 62
   256
176
     0
 40
1.0
176
     0
 90
        2
176
     1
  1
strokes_ogs.tif
176
     1
290
     0
176
     1
 40
1.0
176
     1
 40
1.0
176
     1
  0
VISUALSTYLE
  5
3A84
102
{ACAD_REACTORS
330
3A82
102
}
330
3A82
100
AcDbVisualStyle
  2
FlatWithEdges
 70
     1
177
     3
291
     1
 70
    58
 90
        2
176
     1
 90
        1
176
     1
 90
        1
176
     1
 90
        2
176
     1
 40
0.6
176
     1
 40
30.0
176
     1
 62
     7
420
 16777215
176
     1
 90
        1
176
     1
 90
        0
176
     1
 62
     7
176
     1
 62
   257
176
     1
 90
        1
176
     1
 90
        1
176
     1
 40
1.0
176
     1
 90
        0
176
     1
 62
   257
176
     1
 40
1.0
176
     1
 90
        1
176
     1
 90
        6
176
     1
 90
        2
176
     1
 62
     7
176
     1
 90
        5
176
     1
 90
        0
176
     1
 90
        0
176
     1
290
     0
176
     1
 90
       13
176
     1
 40
0.0
176
     1
 90
        0
176
     1
290
     0
176
     1
290
     1
176
     1
290
     1
176
     1
290
     0
176
     1
290
     0
176
     1
290
     0
176
     1
290
     0
176
     1
290
     0
176
     1
290
     0
176
     1
 90
       50
176
     1
 40
0.0
176
     1
 40
1.0
176
     1
 90
        0
176
     1
 62
    18
420
        0
176
     1
 90
       50
176
     1
 90
        3
176
     1
 62
     5
420
      255
176
     1
290
     0
176
     1
 90
       50
176
     1
 90
       50
176
     1
 90
       50
176
     1
290
     0
176
     1
 90
       50
176
     1
 62
   256
176
     0
 40
1.0
176
     0
 90
        2
176
     1
  1
strokes_ogs.tif
176
     1
290
     0
176
     1
 40
1.0
176
     1
 40
1.0
176
     1
  0
VISUALSTYLE
  5
3A85
102
{ACAD_REACTORS
330
3A82
102
}
330
3A82
100
AcDbVisualStyle
  2
Gouraud
 70
     2
177
     3
291
     1
 70
    58
 90
        2
176
     1
 90
        2
176
     1
 90
        1
176
     1
 90
        2
176
     1
 40
0.6
176
     1
 40
30.0
176
     1
 62
     7
420
 16777215
176
     1
 90
        0
176
     1
 90
        0
176
     1
 62
     7
176
     1
 62
   257
176
     1
 90
        1
176
     1
 90
        1
176
     1
 40
1.0
176
     1
 90
        0
176
     1
 62
     7
176
     1
 40
1.0
176
     1
 90
        1
176
     1
 90
        6
176
     1
 90
        2
176
     1
 62
     7
176
     1
 90
        5
176
     1
 90
        0
176
     1
 90
        0
176
     1
290
     0
176
     1
 90
       13
176
     1
 40
0.0
176
     1
 90
        0
176
     1
290
     0
176
     1
290
     1
176
     1
290
     1
176
     1
290
     0
176
     1
290
     0
176
     1
290
     0
176
     1
290
     0
176
     1
290
     0
176
     1
290
     0
176
     1
 90
       50
176
     1
 40
0.0
176
     1
 40
1.0
176
     1
 90
        0
176
     1
 62
    18
420
        0
176
     1
 90
       50
176
     1
 90
        3
176
     1
 62
     5
420
      255
176
     1
290
     0
176
     1
 90
       50
176
     1
 90
       50
176
     1
 90
       50
176
     1
290
     0
176
     1
 90
       50
176
     1
 62
   256
176
     0
 40
1.0
176
     0
 90
        2
176
     1
  1
strokes_ogs.tif
176
     1
290
     0
176
     1
 40
1.0
176
     1
 40
1.0
176
     1
  0
VISUALSTYLE
  5
3A86
102
{ACAD_REACTORS
330
3A82
102
}
330
3A82
100
AcDbVisualStyle
  2
GouraudWithEdges
 70
     3
177
     3
291
     1
 70
    58
 90
        2
176
     1
 90
        2
176
     1
 90
        1
176
     1
 90
        2
176
     1
 40
0.6
176
     1
 40
30.0
176
     1
 62
     7
420
 16777215
176
     1
 90
        1
176
     1
 90
        0
176
     1
 62
     7
176
     1
 62
   257
176
     1
 90
        1
176
     1
 90
        1
176
     1
 40
1.0
176
     1
 90
        0
176
     1
 62
   257
176
     1
 40
1.0
176
     1
 90
        1
176
     1
 90
        6
176
     1
 90
        2
176
     1
 62
     7
176
     1
 90
        5
176
     1
 90
        0
176
     1
 90
        0
176
     1
290
     0
176
     1
 90
       13
176
     1
 40
0.0
176
     1
 90
        0
176
     1
290
     0
176
     1
290
     1
176
     1
290
     1
176
     1
290
     0
176
     1
290
     0
176
     1
290
     0
176
     1
290
     0
176
     1
290
     0
176
     1
290
     0
176
     1
 90
       50
176
     1
 40
0.0
176
     1
 40
1.0
176
     1
 90
        0
176
     1
 62
    18
420
        0
176
     1
 90
       50
176
     1
 90
        3
176
     1
 62
     5
420
      255
176
     1
290
     0
176
     1
 90
       50
176
     1
 90
       50
176
     1
 90
       50
176
     1
290
     0
176
     1
 90
       50
176
     1
 62
   256
176
     0
 40
1.0
176
     0
 90
        2
176
     1
  1
strokes_ogs.tif
176
     1
290
     0
176
     1
 40
1.0
176
     1
 40
1.0
176
     1
  0
VISUALSTYLE
  5
3A8A
102
{ACAD_REACTORS
330
3A82
102
}
330
3A82
100
AcDbVisualStyle
  2
Hidden
 70
     6
177
     3
291
     0
 70
    58
 90
        1
176
     1
 90
        2
176
     1
 90
        2
176
     1
 90
        0
176
     1
 40
0.6
176
     1
 40
30.0
176
     1
 62
     7
420
 16777215
176
     1
 90
        2
176
     1
 90
        2
176
     1
 62
     7
176
     1
 62
   257
176
     1
 90
        2
176
     1
 90
        1
176
     1
 40
40.0
176
     1
 90
        0
176
     1
 62
   257
176
     1
 40
1.0
176
     1
 90
        1
176
     1
 90
        6
176
     1
 90
        2
176
     1
 62
     7
176
     1
 90
        3
176
     1
 90
        0
176
     1
 90
        0
176
     1
290
     0
176
     1
 90
        1
176
     1
 40
0.0
176
     1
 90
        0
176
     1
290
     0
176
     1
290
     1
176
     1
290
     1
176
     1
290
     0
176
     1
290
     0
176
     1
290
     0
176
     1
290
     0
176
     1
290
     0
176
     1
290
     0
176
     1
 90
       50
176
     1
 40
0.0
176
     1
 40
1.0
176
     1
 90
        0
176
     1
 62
    18
420
        0
176
     1
 90
       50
176
     1
 90
        3
176
     1
 62
     5
420
      255
176
     1
290
     0
176
     1
 90
       50
176
     1
 90
       50
176
     1
 90
       50
176
     1
290
     0
176
     1
 90
       50
176
     1
 62
   256
176
     0
 40
1.0
176
     0
 90
        2
176
     1
  1
strokes_ogs.tif
176
     1
290
     0
176
     1
 40
1.0
176
     1
 40
1.0
176
     1
  0
VISUALSTYLE
  5
3A98
102
{ACAD_REACTORS
330
3A82
102
}
330
3A82
100
AcDbVisualStyle
  2
JitterOff
 70
    20
177
     3
291
     1
 70
    58
 90
        2
176
     0
 90
        2
176
     0
 90
        0
176
     0
 90
        0
176
     0
 40
0.6
176
     0
 40
30.0
176
     0
 62
     7
420
 16777215
176
     0
 90
        1
176
     0
 90
        4
176
     0
 62
     7
176
     0
 62
   257
176
     0
 90
        1
176
     0
 90
        1
176
     0
 40
1.0
176
     0
 90
       10
176
     2
 62
     7
176
     0
 40
1.0
176
     0
 90
        1
176
     0
 90
        6
176
     0
 90
        2
176
     0
 62
     7
176
     0
 90
        5
176
     0
 90
        0
176
     0
 90
        0
176
     0
290
     0
176
     0
 90
        1
176
     0
 40
0.0
176
     0
 90
        0
176
     0
290
     0
176
     0
290
     1
176
     0
290
     1
176
     0
290
     0
176
     0
290
     0
176
     0
290
     0
176
     0
290
     0
176
     0
290
     0
176
     0
290
     0
176
     0
 90
       50
176
     0
 40
0.0
176
     0
 40
1.0
176
     0
 90
        0
176
     0
 62
    18
420
        0
176
     0
 90
       50
176
     0
 90
        3
176
     0
 62
     5
420
      255
176
     0
290
     0
176
     0
 90
       50
176
     0
 90
       50
176
     0
 90
       50
176
     0
290
     0
176
     0
 90
       50
176
     0
 62
   256
176
     0
 40
1.0
176
     0
 90
        2
176
     0
  1
strokes_ogs.tif
176
     0
290
     0
176
     0
 40
1.0
176
     0
 40
1.0
176
     0
  0
VISUALSTYLE
  5
3A90
102
{ACAD_REACTORS
330
3A82
102
}
330
3A82
100
AcDbVisualStyle
  2
Linepattern
 70
    14
177
     3
291
     1
 70
    58
 90
        2
176
     1
 90
        2
176
     1
 90
        0
176
     1
 90
        0
176
     1
 40
0.6
176
     1
 40
30.0
176
     1
 62
     7
420
 16777215
176
     1
 90
        1
176
     1
 90
        4
176
     1
 62
     7
176
     1
 62
   257
176
     1
 90
        7
176
     1
 90
        7
176
     1
 40
1.0
176
     1
 90
        8
176
     1
 62
     7
176
     1
 40
1.0
176
     1
 90
        1
176
     1
 90
        6
176
     1
 90
        2
176
     1
 62
     7
176
     1
 90
        5
176
     1
 90
        0
176
     1
 90
        0
176
     1
290
     0
176
     1
 90
        1
176
     1
 40
0.0
176
     1
 90
        0
176
     1
290
     0
176
     1
290
     1
176
     1
290
     1
176
     1
290
     0
176
     1
290
     0
176
     1
290
     0
176
     1
290
     0
176
     1
290
     0
176
     1
290
     0
176
     1
 90
       50
176
     1
 40
0.0
176
     1
 40
1.0
176
     1
 90
        0
176
     1
 62
    18
420
        0
176
     1
 90
       50
176
     1
 90
        3
176
     1
 62
     5
420
      255
176
     1
290
     0
176
     1
 90
       50
176
     1
 90
       50
176
     1
 90
       50
176
     1
290
     0
176
     1
 90
       50
176
     1
 62
   256
176
     0
 40
1.0
176
     0
 90
        2
176
     1
  1
strokes_ogs.tif
176
     1
290
     0
176
     1
 40
1.0
176
     1
 40
1.0
176
     1
  0
VISUALSTYLE
  5
3A99
102
{ACAD_REACTORS
330
3A82
102
}
330
3A82
100
AcDbVisualStyle
  2
OverhangOff
 70
    21
177
     3
291
     1
 70
    58
 90
        2
176
     0
 90
        2
176
     0
 90
        0
176
     0
 90
        0
176
     0
 40
0.6
176
     0
 40
30.0
176
     0
 62
     7
420
 16777215
176
     0
 90
        1
176
     0
 90
        4
176
     0
 62
     7
176
     0
 62
   257
176
     0
 90
        1
176
     0
 90
        1
176
     0
 40
1.0
176
     0
 90
        9
176
     2
 62
     7
176
     0
 40
1.0
176
     0
 90
        1
176
     0
 90
        6
176
     0
 90
        2
176
     0
 62
     7
176
     0
 90
        5
176
     0
 90
        0
176
     0
 90
        0
176
     0
290
     0
176
     0
 90
        1
176
     0
 40
0.0
176
     0
 90
        0
176
     0
290
     0
176
     0
290
     1
176
     0
290
     1
176
     0
290
     0
176
     0
290
     0
176
     0
290
     0
176
     0
290
     0
176
     0
290
     0
176
     0
290
     0
176
     0
 90
       50
176
     0
 40
0.0
176
     0
 40
1.0
176
     0
 90
        0
176
     0
 62
    18
420
        0
176
     0
 90
       50
176
     0
 90
        3
176
     0
 62
     5
420
      255
176
     0
290
     0
176
     0
 90
       50
176
     0
 90
       50
176
     0
 90
       50
176
     0
290
     0
176
     0
 90
       50
176
     0
 62
   256
176
     0
 40
1.0
176
     0
 90
        2
176
     0
  1
strokes_ogs.tif
176
     0
290
     0
176
     0
 40
1.0
176
     0
 40
1.0
176
     0
  0
VISUALSTYLE
  5
3A8C
102
{ACAD_REACTORS
330
3A82
102
}
330
3A82
100
AcDbVisualStyle
  2
Realistic
 70
     8
177
     3
291
     0
 70
    58
 90
        2
176
     1
 90
        3
176
     1
 90
        0
176
     1
 90
        2
176
     1
 40
0.6
176
     1
 40
30.0
176
     1
 62
     7
420
 16777215
176
     1
 90
        0
176
     1
 90
        0
176
     1
 62
     7
176
     1
 62
   257
176
     1
 90
        1
176
     1
 90
        1
176
     1
 40
1.0
176
     1
 90
        8
176
     1
 62
   257
176
     1
 40
1.0
176
     1
 90
        1
176
     1
 90
        6
176
     1
 90
        2
176
     1
 62
     7
176
     1
 90
        3
176
     1
 90
        0
176
     1
 90
        0
176
     1
290
     0
176
     1
 90
       13
176
     1
 40
0.0
176
     1
 90
        0
176
     1
290
     0
176
     1
290
     1
176
     1
290
     1
176
     1
290
     0
176
     1
290
     0
176
     1
290
     0
176
     1
290
     0
176
     1
290
     0
176
     1
290
     0
176
     1
 90
       50
176
     1
 40
0.0
176
     1
 40
1.0
176
     1
 90
        0
176
     1
 62
    18
420
        0
176
     1
 90
       50
176
     1
 90
        3
176
     1
 62
     5
420
      255
176
     1
290
     0
176
     1
 90
       50
176
     1
 90
       50
176
     1
 90
       50
176
     1
290
     0
176
     1
 90
       50
176
     1
 62
   256
176
     0
 40
1.0
176
     0
 90
        2
176
     1
  1
strokes_ogs.tif
176
     1
290
     0
176
     1
 40
1.0
176
     1
 40
1.0
176
     1
  0
VISUALSTYLE
  5
3A97
102
{ACAD_REACTORS
330
3A82
102
}
330
3A82
100
AcDbVisualStyle
  2
Shaded
 70
    27
177
     3
291
     0
 70
    58
 90
        2
176
     1
 90
        2
176
     1
 90
        1
176
     1
 90
        2
176
     1
 40
0.6
176
     1
 40
30.0
176
     1
 62
     7
420
 16777215
176
     1
 90
        0
176
     1
 90
        4
176
     1
 62
     7
176
     1
 62
   257
176
     1
 90
        1
176
     1
 90
        1
176
     1
 40
1.0
176
     1
 90
        8
176
     1
 62
   257
176
     1
 40
1.0
176
     1
 90
        1
176
     1
 90
        6
176
     1
 90
        2
176
     1
 62
     8
420
  7895160
176
     1
 90
        3
176
     1
 90
        0
176
     1
 90
        0
176
     1
290
     0
176
     1
 90
        5
176
     1
 40
0.0
176
     1
 90
        0
176
     1
290
     0
176
     1
290
     1
176
     1
290
     1
176
     1
290
     0
176
     1
290
     0
176
     1
290
     0
176
     1
290
     0
176
     1
290
     0
176
     1
290
     0
176
     1
 90
       50
176
     1
 40
0.0
176
     1
 40
1.0
176
     1
 90
        0
176
     1
 62
    18
420
        0
176
     1
 90
       50
176
     1
 90
        3
176
     1
 62
     5
420
      255
176
     1
290
     0
176
     1
 90
       50
176
     1
 90
       50
176
     1
 90
       50
176
     1
290
     0
176
     1
 90
       50
176
     1
 62
   256
176
     0
 40
1.0
176
     0
 90
        2
176
     1
  1
strokes_ogs.tif
176
     1
290
     0
176
     1
 40
1.0
176
     1
 40
1.0
176
     1
  0
VISUALSTYLE
  5
3A96
102
{ACAD_REACTORS
330
3A82
102
}
330
3A82
100
AcDbVisualStyle
  2
Shaded with edges
 70
    26
177
     3
291
     0
 70
    58
 90
        2
176
     1
 90
        2
176
     1
 90
        1
176
     1
 90
        2
176
     1
 40
0.6
176
     1
 40
30.0
176
     1
 62
     7
420
 16777215
176
     1
 90
        1
176
     1
 90
        2
176
     1
 62
     7
176
     1
 62
   257
176
     1
 90
        2
176
     1
 90
        1
176
     1
 40
1.0
176
     1
 90
        8
176
     1
 62
   257
176
     1
 40
1.0
176
     1
 90
        1
176
     1
 90
        6
176
     1
 90
        2
176
     1
 62
     7
176
     1
 90
        3
176
     1
 90
        0
176
     1
 90
        0
176
     1
290
     0
176
     1
 90
        5
176
     1
 40
0.0
176
     1
 90
        0
176
     1
290
     0
176
     1
290
     1
176
     1
290
     1
176
     1
290
     0
176
     1
290
     0
176
     1
290
     0
176
     1
290
     0
176
     1
290
     0
176
     1
290
     0
176
     1
 90
       50
176
     1
 40
0.0
176
     1
 40
1.0
176
     1
 90
        0
176
     1
 62
    18
420
        0
176
     1
 90
       50
176
     1
 90
        3
176
     1
 62
     5
420
      255
176
     1
290
     0
176
     1
 90
       50
176
     1
 90
       50
176
     1
 90
       50
176
     1
290
     0
176
     1
 90
       50
176
     1
 62
   256
176
     0
 40
1.0
176
     0
 90
        2
176
     1
  1
strokes_ogs.tif
176
     1
290
     0
176
     1
 40
1.0
176
     1
 40
1.0
176
     1
  0
VISUALSTYLE
  5
3A93
102
{ACAD_REACTORS
330
3A82
102
}
330
3A82
100
AcDbVisualStyle
  2
Shades of Gray
 70
    23
177
     3
291
     0
 70
    58
 90
        2
176
     1
 90
        2
176
     1
 90
        3
176
     1
 90
        0
176
     1
 40
0.6
176
     1
 40
30.0
176
     1
 62
     7
420
 16777215
176
     1
 90
        2
176
     1
 90
        2
176
     1
 62
     7
176
     1
 62
     7
176
     1
 90
        1
176
     1
 90
        1
176
     1
 40
40.0
176
     1
 90
        8
176
     1
 62
     7
176
     1
 40
1.0
176
     1
 90
        1
176
     1
 90
        6
176
     1
 90
        2
176
     1
 62
     7
176
     1
 90
        3
176
     1
 90
        0
176
     1
 90
        0
176
     1
290
     0
176
     1
 90
        1
176
     1
 40
0.0
176
     1
 90
        0
176
     1
290
     0
176
     1
290
     1
176
     1
290
     1
176
     1
290
     0
176
     1
290
     0
176
     1
290
     0
176
     1
290
     0
176
     1
290
     0
176
     1
290
     0
176
     1
 90
       50
176
     1
 40
0.0
176
     1
 40
1.0
176
     1
 90
        0
176
     1
 62
    18
420
        0
176
     1
 90
       50
176
     1
 90
        3
176
     1
 62
     5
420
      255
176
     1
290
     0
176
     1
 90
       50
176
     1
 90
       50
176
     1
 90
       50
176
     1
290
     0
176
     1
 90
       50
176
     1
 62
   256
176
     0
 40
1.0
176
     0
 90
        2
176
     1
  1
strokes_ogs.tif
176
     1
290
     0
176
     1
 40
1.0
176
     1
 40
1.0
176
     1
  0
VISUALSTYLE
  5
3A94
102
{ACAD_REACTORS
330
3A82
102
}
330
3A82
100
AcDbVisualStyle
  2
Sketchy
 70
    24
177
     3
291
     0
 70
    58
 90
        1
176
     1
 90
        2
176
     1
 90
        2
176
     1
 90
        0
176
     1
 40
0.6
176
     1
 40
30.0
176
     1
 62
     7
420
 16777215
176
     1
 90
        2
176
     1
 90
        2
176
     1
 62
     7
176
     1
 62
     7
176
     1
 90
        1
176
     1
 90
        1
176
     1
 40
40.0
176
     1
 90
       11
176
     1
 62
     7
176
     1
 40
1.0
176
     1
 90
        1
176
     1
 90
        6
176
     1
 90
        2
176
     1
 62
     7
176
     1
 90
        6
176
     1
 90
        0
176
     1
 90
        0
176
     1
290
     0
176
     1
 90
        1
176
     1
 40
0.0
176
     1
 90
        0
176
     1
290
     0
176
     1
290
     1
176
     1
290
     1
176
     1
290
     0
176
     1
290
     0
176
     1
290
     0
176
     1
290
     0
176
     1
290
     0
176
     1
290
     0
176
     1
 90
       50
176
     1
 40
0.0
176
     1
 40
1.0
176
     1
 90
        0
176
     1
 62
    18
420
        0
176
     1
 90
       50
176
     1
 90
        3
176
     1
 62
     5
420
      255
176
     1
290
     0
176
     1
 90
       50
176
     1
 90
       50
176
     1
 90
       50
176
     1
290
     0
176
     1
 90
       50
176
     1
 62
   256
176
     0
 40
1.0
176
     0
 90
        2
176
     1
  1
strokes_ogs.tif
176
     1
290
     0
176
     1
 40
1.0
176
     1
 40
1.0
176
     1
  0
VISUALSTYLE
  5
3A8F
102
{ACAD_REACTORS
330
3A82
102
}
330
3A82
100
AcDbVisualStyle
  2
Thicken
 70
    13
177
     3
291
     1
 70
    58
 90
        2
176
     1
 90
        2
176
     1
 90
        0
176
     1
 90
        0
176
     1
 40
0.6
176
     1
 40
30.0
176
     1
 62
     7
420
 16777215
176
     1
 90
        1
176
     1
 90
        4
176
     1
 62
     7
176
     1
 62
   257
176
     1
 90
        1
176
     1
 90
        1
176
     1
 40
1.0
176
     1
 90
       12
176
     1
 62
     7
176
     1
 40
1.0
176
     1
 90
        1
176
     1
 90
        6
176
     1
 90
        2
176
     1
 62
     7
176
     1
 90
        5
176
     1
 90
        0
176
     1
 90
        0
176
     1
290
     0
176
     1
 90
        1
176
     1
 40
0.0
176
     1
 90
        0
176
     1
290
     0
176
     1
290
     1
176
     1
290
     1
176
     1
290
     0
176
     1
290
     0
176
     1
290
     0
176
     1
290
     0
176
     1
290
     0
176
     1
290
     0
176
     1
 90
       50
176
     1
 40
0.0
176
     1
 40
1.0
176
     1
 90
        0
176
     1
 62
    18
420
        0
176
     1
 90
       50
176
     1
 90
        3
176
     1
 62
     5
420
      255
176
     1
290
     0
176
     1
 90
       50
176
     1
 90
       50
176
     1
 90
       50
176
     1
290
     0
176
     1
 90
       50
176
     1
 62
   256
176
     0
 40
1.0
176
     0
 90
        2
176
     1
  1
strokes_ogs.tif
176
     1
290
     0
176
     1
 40
1.0
176
     1
 40
1.0
176
     1
  0
VISUALSTYLE
  5
3A89
102
{ACAD_REACTORS
330
3A82
102
}
330
3A82
100
AcDbVisualStyle
  2
Wireframe
 70
     5
177
     3
291
     0
 70
    58
 90
        0
176
     1
 90
        2
176
     1
 90
        0
176
     1
 90
        0
176
     1
 40
0.6
176
     1
 40
30.0
176
     1
 62
     7
420
 16777215
176
     1
 90
        1
176
     1
 90
        4
176
     1
 62
     7
176
     1
 62
   257
176
     1
 90
        1
176
     1
 90
        1
176
     1
 40
1.0
176
     1
 90
        0
176
     1
 62
   257
176
     1
 40
1.0
176
     1
 90
        1
176
     1
 90
        6
176
     1
 90
        2
176
     1
 62
     7
176
     1
 90
        3
176
     1
 90
        0
176
     1
 90
        0
176
     1
290
     0
176
     1
 90
        1
176
     1
 40
0.0
176
     1
 90
        0
176
     1
290
     0
176
     1
290
     1
176
     1
290
     1
176
     1
290
     0
176
     1
290
     0
176
     1
290
     0
176
     1
290
     0
176
     1
290
     0
176
     1
290
     0
176
     1
 90
       50
176
     1
 40
0.0
176
     1
 40
1.0
176
     1
 90
        0
176
     1
 62
    18
420
        0
176
     1
 90
       50
176
     1
 90
        3
176
     1
 62
     5
420
      255
176
     1
290
     0
176
     1
 90
       50
176
     1
 90
       50
176
     1
 90
       50
176
     1
290
     0
176
     1
 90
       50
176
     1
 62
   256
176
     0
 40
1.0
176
     0
 90
        2
176
     1
  1
strokes_ogs.tif
176
     1
290
     0
176
     1
 40
1.0
176
     1
 40
1.0
176
     1
  0
VISUALSTYLE
  5
3A95
102
{ACAD_REACTORS
330
3A82
102
}
330
3A82
100
AcDbVisualStyle
  2
X-Ray
 70
    25
177
     3
291
     0
 70
    58
 90
        2
176
     1
 90
        2
176
     1
 90
        1
176
     1
 90
        1
176
     1
 40
0.5
176
     1
 40
30.0
176
     1
 62
     7
420
 16777215
176
     1
 90
        1
176
     1
 90
        0
176
     1
 62
     7
176
     1
 62
   257
176
     1
 90
        1
176
     1
 90
        1
176
     1
 40
1.0
176
     1
 90
        8
176
     1
 62
     7
176
     1
 40
1.0
176
     1
 90
        1
176
     1
 90
        6
176
     1
 90
        2
176
     1
 62
     7
176
     1
 90
        3
176
     1
 90
        0
176
     1
 90
        0
176
     1
290
     0
176
     1
 90
       13
176
     1
 40
0.0
176
     1
 90
        0
176
     1
290
     0
176
     1
290
     1
176
     1
290
     1
176
     1
290
     0
176
     1
290
     0
176
     1
290
     0
176
     1
290
     0
176
     1
290
     0
176
     1
290
     0
176
     1
 90
       50
176
     1
 40
0.0
176
     1
 40
1.0
176
     1
 90
        0
176
     1
 62
    18
420
        0
176
     1
 90
       50
176
     1
 90
        3
176
     1
 62
     5
420
      255
176
     1
290
     0
176
     1
 90
       50
176
     1
 90
       50
176
     1
 90
       50
176
     1
290
     0
176
     1
 90
       50
176
     1
 62
   256
176
     0
 40
1.0
176
     0
 90
        2
176
     1
  1
strokes_ogs.tif
176
     1
290
     0
176
     1
 40
1.0
176
     1
 40
1.0
176
     1
  0
DICTIONARYVAR
  5
3AD1
102
{ACAD_REACTORS
330
5E
102
}
330
5E
100
DictionaryVariables
280
     0
  1
1:1
  0
DICTIONARYVAR
  5
3ACD
102
{ACAD_REACTORS
330
5E
102
}
330
5E
100
DictionaryVariables
280
     0
  1
STANDARD
  0
DICTIONARYVAR
  5
84
102
{ACAD_REACTORS
330
5E
102
}
330
5E
100
DictionaryVariables
280
     0
  1
STANDARD
  0
DICTIONARYVAR
  5
3ACE
102
{ACAD_REACTORS
330
5E
102
}
330
5E
100
DictionaryVariables
280
     0
  1
Metric50
  0
DICTIONARYVAR
  5
3ACF
102
{ACAD_REACTORS
330
5E
102
}
330
5E
100
DictionaryVariables
280
     0
  1
Metric50
  0
DICTIONARYVAR
  5
5F
102
{ACAD_REACTORS
330
5E
102
}
330
5E
100
DictionaryVariables
280
     0
  1
2
  0
DICTIONARYVAR
  5
63
102
{ACAD_REACTORS
330
5E
102
}
330
5E
100
DictionaryVariables
280
     0
  1
1
  0
DICTIONARYVAR
  5
3AD3
102
{ACAD_REACTORS
330
5E
102
}
330
5E
100
DictionaryVariables
280
     0
  1
1
  0
DICTIONARYVAR
  5
3AD4
102
{ACAD_REACTORS
330
5E
102
}
330
5E
100
DictionaryVariables
280
     0
  1
15
  0
DICTIONARYVAR
  5
3AD2
102
{ACAD_REACTORS
330
5E
102
}
330
5E
100
DictionaryVariables
280
     0
  1
0
  0
DICTIONARYVAR
  5
3AD0
102
{ACAD_REACTORS
330
5E
102
}
330
5E
100
DictionaryVariables
280
     0
  1
0
  0
DICTIONARY
  5
3AD9
330
3AB2
100
AcDbDictionary
280
     1
281
     1
  3
ACAD_XREC_ROUNDTRIP
360
3ADA
  0
DICTIONARY
  5
3A73
330
3A72
100
AcDbDictionary
280
     1
281
     1
  3
BUMPTILE
360
3A75
  3
DIFFUSETILE
360
3A74
  3
OPACITYTILE
360
3A78
  3
REFLECTIONTILE
360
3A77
  3
REFRACTIONTILE
360
3A79
  3
SPECULARTILE
360
3A76
  0
DICTIONARY
  5
3A6B
330
3A6A
100
AcDbDictionary
280
     1
281
     1
  3
BUMPTILE
360
3A6D
  3
DIFFUSETILE
360
3A6C
  3
OPACITYTILE
360
3A70
  3
REFLECTIONTILE
360
3A6F
  3
REFRACTIONTILE
360
3A71
  3
SPECULARTILE
360
3A6E
  0
DICTIONARY
  5
3A7B
330
3A7A
100
AcDbDictionary
280
     1
281
     1
  3
BUMPTILE
360
3A7D
  3
DIFFUSETILE
360
3A7C
  3
OPACITYTILE
360
3A80
  3
REFLECTIONTILE
360
3A7F
  3
REFRACTIONTILE
360
3A81
  3
SPECULARTILE
360
3A7E
  0
DICTIONARY
  5
3AD7
330
3AB0
100
AcDbDictionary
280
     1
281
     1
  3
ACAD_XREC_ROUNDTRIP
360
3AD8
  0
DICTIONARY
  5
3AD5
330
7F
100
AcDbDictionary
280
     1
281
     1
  3
ACAD_ROUNDTRIP_2008_TABLESTYLE_CELLSTYLEMAP
360
3AD6
  0
XRECORD
  5
3ADA
102
{ACAD_REACTORS
330
3AD9
102
}
330
3AD9
100
AcDbXrecord
280
     1
102
DISPLAYNAME
  1
Metric50
102
FLAGS
 90
        0
  0
XRECORD
  5
3A75
102
{ACAD_REACTORS
330
3A73
102
}
330
3A73
100
AcDbXrecord
280
     1
270
     1
271
     1
  0
XRECORD
  5
3A74
102
{ACAD_REACTORS
330
3A73
102
}
330
3A73
100
AcDbXrecord
280
     1
270
     1
271
     1
  0
XRECORD
  5
3A78
102
{ACAD_REACTORS
330
3A73
102
}
330
3A73
100
AcDbXrecord
280
     1
270
     1
271
     1
  0
XRECORD
  5
3A77
102
{ACAD_REACTORS
330
3A73
102
}
330
3A73
100
AcDbXrecord
280
     1
270
     1
271
     1
  0
XRECORD
  5
3A79
102
{ACAD_REACTORS
330
3A73
102
}
330
3A73
100
AcDbXrecord
280
     1
270
     1
271
     1
  0
XRECORD
  5
3A76
102
{ACAD_REACTORS
330
3A73
102
}
330
3A73
100
AcDbXrecord
280
     1
270
     1
271
     1
  0
XRECORD
  5
3A6D
102
{ACAD_REACTORS
330
3A6B
102
}
330
3A6B
100
AcDbXrecord
280
     1
270
     1
271
     1
  0
XRECORD
  5
3A6C
102
{ACAD_REACTORS
330
3A6B
102
}
330
3A6B
100
AcDbXrecord
280
     1
270
     1
271
     1
  0
XRECORD
  5
3A70
102
{ACAD_REACTORS
330
3A6B
102
}
330
3A6B
100
AcDbXrecord
280
     1
270
     1
271
     1
  0
XRECORD
  5
3A6F
102
{ACAD_REACTORS
330
3A6B
102
}
330
3A6B
100
AcDbXrecord
280
     1
270
     1
271
     1
  0
XRECORD
  5
3A71
102
{ACAD_REACTORS
330
3A6B
102
}
330
3A6B
100
AcDbXrecord
280
     1
270
     1
271
     1
  0
XRECORD
  5
3A6E
102
{ACAD_REACTORS
330
3A6B
102
}
330
3A6B
100
AcDbXrecord
280
     1
270
     1
271
     1
  0
XRECORD
  5
3A7D
102
{ACAD_REACTORS
330
3A7B
102
}
330
3A7B
100
AcDbXrecord
280
     1
270
     1
271
     1
  0
XRECORD
  5
3A7C
102
{ACAD_REACTORS
330
3A7B
102
}
330
3A7B
100
AcDbXrecord
280
     1
270
     1
271
     1
  0
XRECORD
  5
3A80
102
{ACAD_REACTORS
330
3A7B
102
}
330
3A7B
100
AcDbXrecord
280
     1
270
     1
271
     1
  0
XRECORD
  5
3A7F
102
{ACAD_REACTORS
330
3A7B
102
}
330
3A7B
100
AcDbXrecord
280
     1
270
     1
271
     1
  0
XRECORD
  5
3A81
102
{ACAD_REACTORS
330
3A7B
102
}
330
3A7B
100
AcDbXrecord
280
     1
270
     1
271
     1
  0
XRECORD
  5
3A7E
102
{ACAD_REACTORS
330
3A7B
102
}
330
3A7B
100
AcDbXrecord
280
     1
270
     1
271
     1
  0
XRECORD
  5
3AD8
102
{ACAD_REACTORS
330
3AD7
102
}
330
3AD7
100
AcDbXrecord
280
     1
102
DISPLAYNAME
  1
Metric50
102
FLAGS
 90
        0
  0
CELLSTYLEMAP
  5
3AD6
102
{ACAD_REACTORS
330
3AD5
102
}
330
3AD5
100
AcDbCellStyleMap
 90
        3
300
CELLSTYLE
  1
TABLEFORMAT_BEGIN
 90
        5
170
     1
 91
        0
 92
    32768
 62
   257
 93
        1
300
CONTENTFORMAT
  1
CONTENTFORMAT_BEGIN
 90
        0
 91
        0
 92
        4
 93
        0
300

 40
0.0
140
1.0
 94
        5
 62
     0
340
11
144
6.0
309
CONTENTFORMAT_END
171
     1
301
MARGIN
  1
CELLMARGIN_BEGIN
 40
1.5
 40
1.5
 40
1.5
 40
1.5
 40
0.18
 40
0.18
309
CELLMARGIN_END
 94
        6
 95
        1
302
GRIDFORMAT
  1
GRIDFORMAT_BEGIN
 90
        0
 91
        1
 62
     0
 92
       -2
340
0
 93
        0
 40
0.045
309
GRIDFORMAT_END
 95
        2
302
GRIDFORMAT
  1
GRIDFORMAT_BEGIN
 90
        0
 91
        1
 62
     0
 92
       -2
340
0
 93
        0
 40
0.045
309
GRIDFORMAT_END
 95
        4
302
GRIDFORMAT
  1
GRIDFORMAT_BEGIN
 90
        0
 91
        1
 62
     0
 92
       -2
340
0
 93
        0
 40
0.045
309
GRIDFORMAT_END
 95
        8
302
GRIDFORMAT
  1
GRIDFORMAT_BEGIN
 90
        0
 91
        1
 62
     0
 92
       -2
340
0
 93
        0
 40
0.045
309
GRIDFORMAT_END
 95
       16
302
GRIDFORMAT
  1
GRIDFORMAT_BEGIN
 90
        0
 91
        1
 62
     0
 92
       -2
340
0
 93
        0
 40
0.045
309
GRIDFORMAT_END
 95
       32
302
GRIDFORMAT
  1
GRIDFORMAT_BEGIN
 90
        0
 91
        1
 62
     0
 92
       -2
340
0
 93
        0
 40
0.045
309
GRIDFORMAT_END
309
TABLEFORMAT_END
  1
CELLSTYLE_BEGIN
 90
        1
 91
        1
300
_TITLE
309
CELLSTYLE_END
300
CELLSTYLE
  1
TABLEFORMAT_BEGIN
 90
        5
170
     1
 91
        0
 92
        0
 62
   257
 93
        1
300
CONTENTFORMAT
  1
CONTENTFORMAT_BEGIN
 90
        0
 91
        0
 92
        4
 93
        0
300

 40
0.0
140
1.0
 94
        5
 62
     0
340
11
144
4.5
309
CONTENTFORMAT_END
171
     1
301
MARGIN
  1
CELLMARGIN_BEGIN
 40
1.5
 40
1.5
 40
1.5
 40
1.5
 40
0.18
 40
0.18
309
CELLMARGIN_END
 94
        6
 95
        1
302
GRIDFORMAT
  1
GRIDFORMAT_BEGIN
 90
        0
 91
        1
 62
     0
 92
       -2
340
0
 93
        0
 40
0.045
309
GRIDFORMAT_END
 95
        2
302
GRIDFORMAT
  1
GRIDFORMAT_BEGIN
 90
        0
 91
        1
 62
     0
 92
       -2
340
0
 93
        0
 40
0.045
309
GRIDFORMAT_END
 95
        4
302
GRIDFORMAT
  1
GRIDFORMAT_BEGIN
 90
        0
 91
        1
 62
     0
 92
       -2
340
0
 93
        0
 40
0.045
309
GRIDFORMAT_END
 95
        8
302
GRIDFORMAT
  1
GRIDFORMAT_BEGIN
 90
        0
 91
        1
 62
     0
 92
       -2
340
0
 93
        0
 40
0.045
309
GRIDFORMAT_END
 95
       16
302
GRIDFORMAT
  1
GRIDFORMAT_BEGIN
 90
        0
 91
        1
 62
     0
 92
       -2
340
0
 93
        0
 40
0.045
309
GRIDFORMAT_END
 95
       32
302
GRIDFORMAT
  1
GRIDFORMAT_BEGIN
 90
        0
 91
        1
 62
     0
 92
       -2
340
0
 93
        0
 40
0.045
309
GRIDFORMAT_END
309
TABLEFORMAT_END
  1
CELLSTYLE_BEGIN
 90
        2
 91
        1
300
_HEADER
309
CELLSTYLE_END
300
CELLSTYLE
  1
TABLEFORMAT_BEGIN
 90
        5
170
     1
 91
        0
 92
        0
 62
   257
 93
        1
300
CONTENTFORMAT
  1
CONTENTFORMAT_BEGIN
 90
        0
 91
        0
 92
        4
 93
        0
300

 40
0.0
140
1.0
 94
        2
 62
     0
340
11
144
4.5
309
CONTENTFORMAT_END
171
     1
301
MARGIN
  1
CELLMARGIN_BEGIN
 40
1.5
 40
1.5
 40
1.5
 40
1.5
 40
0.18
 40
0.18
309
CELLMARGIN_END
 94
        6
 95
        1
302
GRIDFORMAT
  1
GRIDFORMAT_BEGIN
 90
        0
 91
        1
 62
     0
 92
       -2
340
0
 93
        0
 40
0.045
309
GRIDFORMAT_END
 95
        2
302
GRIDFORMAT
  1
GRIDFORMAT_BEGIN
 90
        0
 91
        1
 62
     0
 92
       -2
340
0
 93
        0
 40
0.045
309
GRIDFORMAT_END
 95
        4
302
GRIDFORMAT
  1
GRIDFORMAT_BEGIN
 90
        0
 91
        1
 62
     0
 92
       -2
340
0
 93
        0
 40
0.045
309
GRIDFORMAT_END
 95
        8
302
GRIDFORMAT
  1
GRIDFORMAT_BEGIN
 90
        0
 91
        1
 62
     0
 92
       -2
340
0
 93
        0
 40
0.045
309
GRIDFORMAT_END
 95
       16
302
GRIDFORMAT
  1
GRIDFORMAT_BEGIN
 90
        0
 91
        1
 62
     0
 92
       -2
340
0
 93
        0
 40
0.045
309
GRIDFORMAT_END
 95
       32
302
GRIDFORMAT
  1
GRIDFORMAT_BEGIN
 90
        0
 91
        1
 62
     0
 92
       -2
340
0
 93
        0
 40
0.045
309
GRIDFORMAT_END
309
TABLEFORMAT_END
  1
CELLSTYLE_BEGIN
 90
        3
 91
        2
300
_DATA
309
CELLSTYLE_END
  0
ENDSEC
  0
EOF
