  0
SECTION
  2
HEADER
  9
$ACADVER
  1
AC1027
  9
$ACADMAINTVER
 70
   125
  9
$DWGCODEPAGE
  3
ANSI_1252
  9
$LASTSAVEDBY
  1
fleminab
  9
$REQUIREDVERSIONS
160
                 0
  9
$INSBASE
 10
0.0
 20
0.0
 30
0.0
  9
$EXTMIN
 10
-1391.082455890489
 20
-3275.290079440976
 30
-0.0015258207003583
  9
$EXTMAX
 10
-886.1230410521967
 20
-3093.17877799683
 30
0.0000000349246037
  9
$LIMMIN
 10
0.0
 20
0.0
  9
$LIMMAX
 10
0.0
 20
0.0
  9
$ORTHOMODE
 70
     0
  9
$REGENMODE
 70
     1
  9
$FILLMODE
 70
     1
  9
$QTEXTMODE
 70
     0
  9
$MIRRTEXT
 70
     1
  9
$LTSCALE
 40
0.5
  9
$ATTMODE
 70
     1
  9
$TEXTSIZE
 40
2.5
  9
$TRACEWID
 40
1.0
  9
$TEXTSTYLE
  7
Standard
  9
$CLAYER
  8
0
  9
$CELTYPE
  6
ByLayer
  9
$CECOLOR
 62
   256
  9
$CELTSCALE
 40
0.5
  9
$DISPSILH
 70
     0
  9
$DIMSCALE
 40
1.0
  9
$DIMASZ
 40
2.5
  9
$DIMEXO
 40
1.0
  9
$DIMDLI
 40
3.75
  9
$DIMRND
 40
0.0
  9
$DIMDLE
 40
0.0
  9
$DIMEXE
 40
1.0
  9
$DIMTP
 40
0.0
  9
$DIMTM
 40
0.0
  9
$DIMTXT
 40
8.0
  9
$DIMCEN
 40
2.5
  9
$DIMTSZ
 40
0.0
  9
$DIMTOL
 70
     0
  9
$DIMLIM
 70
     0
  9
$DIMTIH
 70
     0
  9
$DIMTOH
 70
     0
  9
$DIMSE1
 70
     0
  9
$DIMSE2
 70
     0
  9
$DIMTAD
 70
     1
  9
$DIMZIN
 70
     8
  9
$DIMBLK
  1
Open30
  9
$DIMASO
 70
     1
  9
$DIMSHO
 70
     1
  9
$DIMPOST
  1

  9
$DIMAPOST
  1

  9
$DIMALT
 70
     0
  9
$DIMALTD
 70
     3
  9
$DIMALTF
 40
0.0393700787401575
  9
$DIMLFAC
 40
1.0
  9
$DIMTOFL
 70
     1
  9
$DIMTVP
 40
0.0
  9
$DIMTIX
 70
     0
  9
$DIMSOXD
 70
     0
  9
$DIMSAH
 70
     0
  9
$DIMBLK1
  1

  9
$DIMBLK2
  1

  9
$DIMSTYLE
  2
ISO-25
  9
$DIMCLRD
 70
     0
  9
$DIMCLRE
 70
     0
  9
$DIMCLRT
 70
     0
  9
$DIMTFAC
 40
1.0
  9
$DIMGAP
 40
0.526
  9
$DIMJUST
 70
     0
  9
$DIMSD1
 70
     0
  9
$DIMSD2
 70
     0
  9
$DIMTOLJ
 70
     0
  9
$DIMTZIN
 70
     0
  9
$DIMALTZ
 70
     0
  9
$DIMALTTZ
 70
     0
  9
$DIMUPT
 70
     0
  9
$DIMDEC
 70
     1
  9
$DIMTDEC
 70
     1
  9
$DIMALTU
 70
     2
  9
$DIMALTTD
 70
     3
  9
$DIMTXSTY
  7
Standard
  9
$DIMAUNIT
 70
     0
  9
$DIMADEC
 70
     0
  9
$DIMALTRND
 40
0.0
  9
$DIMAZIN
 70
     0
  9
$DIMDSEP
 70
    46
  9
$DIMATFIT
 70
     3
  9
$DIMFRAC
 70
     0
  9
$DIMLDRBLK
  1
Dot
  9
$DIMLUNIT
 70
     2
  9
$DIMLWD
 70
    -2
  9
$DIMLWE
 70
    -2
  9
$DIMTMOVE
 70
     0
  9
$DIMFXL
 40
1.0
  9
$DIMFXLON
 70
     0
  9
$DIMJOGANG
 40
0.7853981633974483
  9
$DIMTFILL
 70
     0
  9
$DIMTFILLCLR
 70
     0
  9
$DIMARCSYM
 70
     0
  9
$DIMLTYPE
  6

  9
$DIMLTEX1
  6

  9
$DIMLTEX2
  6

  9
$DIMTXTDIRECTION
 70
     0
  9
$LUNITS
 70
     2
  9
$LUPREC
 70
     4
  9
$SKETCHINC
 40
1.0
  9
$FILLETRAD
 40
1.5
  9
$AUNITS
 70
     0
  9
$AUPREC
 70
     0
  9
$MENU
  1
.
  9
$ELEVATION
 40
0.0
  9
$PELEVATION
 40
0.0
  9
$THICKNESS
 40
0.0
  9
$LIMCHECK
 70
     0
  9
$CHAMFERA
 40
0.5
  9
$CHAMFERB
 40
0.5
  9
$CHAMFERC
 40
20.0
  9
$CHAMFERD
 40
0.0
  9
$SKPOLY
 70
     0
  9
$TDCREATE
 40
2454454.816539352
  9
$TDUCREATE
 40
2454454.358216864
  9
$TDUPDATE
 40
2458219.410335649
  9
$TDUUPDATE
 40
2458218.993668982
  9
$TDINDWG
 40
8.5588836343
  9
$TDUSRTIMER
 40
8.5588836343
  9
$USRTIMER
 70
     1
  9
$ANGBASE
 50
0.0
  9
$ANGDIR
 70
     0
  9
$PDMODE
 70
     0
  9
$PDSIZE
 40
-1.0
  9
$PLINEWID
 40
0.0
  9
$SPLFRAME
 70
     0
  9
$SPLINETYPE
 70
     6
  9
$SPLINESEGS
 70
     8
  9
$HANDSEED
  5
101B58D
  9
$SURFTAB1
 70
     6
  9
$SURFTAB2
 70
     6
  9
$SURFTYPE
 70
     6
  9
$SURFU
 70
     6
  9
$SURFV
 70
     6
  9
$UCSBASE
  2

  9
$UCSNAME
  2

  9
$UCSORG
 10
0.0
 20
0.0
 30
0.0
  9
$UCSXDIR
 10
1.0
 20
0.0
 30
0.0
  9
$UCSYDIR
 10
0.0
 20
1.0
 30
0.0
  9
$UCSORTHOREF
  2

  9
$UCSORTHOVIEW
 70
     0
  9
$UCSORGTOP
 10
0.0
 20
0.0
 30
0.0
  9
$UCSORGBOTTOM
 10
0.0
 20
0.0
 30
0.0
  9
$UCSORGLEFT
 10
0.0
 20
0.0
 30
0.0
  9
$UCSORGRIGHT
 10
0.0
 20
0.0
 30
0.0
  9
$UCSORGFRONT
 10
0.0
 20
0.0
 30
0.0
  9
$UCSORGBACK
 10
0.0
 20
0.0
 30
0.0
  9
$PUCSBASE
  2

  9
$PUCSNAME
  2

  9
$PUCSORG
 10
0.0
 20
0.0
 30
0.0
  9
$PUCSXDIR
 10
1.0
 20
0.0
 30
0.0
  9
$PUCSYDIR
 10
0.0
 20
1.0
 30
0.0
  9
$PUCSORTHOREF
  2

  9
$PUCSORTHOVIEW
 70
     0
  9
$PUCSORGTOP
 10
0.0
 20
0.0
 30
0.0
  9
$PUCSORGBOTTOM
 10
0.0
 20
0.0
 30
0.0
  9
$PUCSORGLEFT
 10
0.0
 20
0.0
 30
0.0
  9
$PUCSORGRIGHT
 10
0.0
 20
0.0
 30
0.0
  9
$PUCSORGFRONT
 10
0.0
 20
0.0
 30
0.0
  9
$PUCSORGBACK
 10
0.0
 20
0.0
 30
0.0
  9
$USERI1
 70
     0
  9
$USERI2
 70
     0
  9
$USERI3
 70
     0
  9
$USERI4
 70
     0
  9
$USERI5
 70
     0
  9
$USERR1
 40
0.0
  9
$USERR2
 40
0.0
  9
$USERR3
 40
0.0
  9
$USERR4
 40
0.0
  9
$USERR5
 40
0.0
  9
$WORLDVIEW
 70
     1
  9
$SHADEDGE
 70
     3
  9
$SHADEDIF
 70
    70
  9
$TILEMODE
 70
     1
  9
$MAXACTVP
 70
    64
  9
$PINSBASE
 10
0.0
 20
0.0
 30
0.0
  9
$PLIMCHECK
 70
     0
  9
$PEXTMIN
 10
1.000000000000000E+20
 20
1.000000000000000E+20
 30
1.000000000000000E+20
  9
$PEXTMAX
 10
-1.000000000000000E+20
 20
-1.000000000000000E+20
 30
-1.000000000000000E+20
  9
$PLIMMIN
 10
0.0
 20
0.0
  9
$PLIMMAX
 10
420.0
 20
297.0
  9
$UNITMODE
 70
     0
  9
$VISRETAIN
 70
     1
  9
$PLINEGEN
 70
     0
  9
$PSLTSCALE
 70
     1
  9
$TREEDEPTH
 70
  3020
  9
$CMLSTYLE
  2
Standard
  9
$CMLJUST
 70
     0
  9
$CMLSCALE
 40
20.0
  9
$PROXYGRAPHICS
 70
     1
  9
$MEASUREMENT
 70
     1
  9
$CELWEIGHT
370
    -1
  9
$ENDCAPS
280
     0
  9
$JOINSTYLE
280
     0
  9
$LWDISPLAY
290
     0
  9
$INSUNITS
 70
     4
  9
$HYPERLINKBASE
  1

  9
$STYLESHEET
  1

  9
$XEDIT
290
     1
  9
$CEPSNTYPE
380
     0
  9
$PSTYLEMODE
290
     1
  9
$FINGERPRINTGUID
  2
{A12051D7-B147-4678-A729-AB49B70941BD}
  9
$VERSIONGUID
  2
{604208E8-1E62-A64F-8DCE-EDEACFB53EEB}
  9
$EXTNAMES
290
     1
  9
$PSVPSCALE
 40
0.0
  9
$OLESTARTUP
290
     0
  9
$SORTENTS
280
   127
  9
$INDEXCTL
280
     0
  9
$HIDETEXT
280
     0
  9
$XCLIPFRAME
280
     2
  9
$HALOGAP
280
     0
  9
$OBSCOLOR
 70
   257
  9
$OBSLTYPE
280
     0
  9
$INTERSECTIONDISPLAY
280
     0
  9
$INTERSECTIONCOLOR
 70
   257
  9
$DIMASSOC
280
     1
  9
$PROJECTNAME
  1

  9
$CAMERADISPLAY
290
     0
  9
$LENSLENGTH
 40
50.0
  9
$CAMERAHEIGHT
 40
0.0
  9
$STEPSPERSEC
 40
2.0
  9
$STEPSIZE
 40
6.0
  9
$3DDWFPREC
 40
2.0
  9
$PSOLWIDTH
 40
0.25
  9
$PSOLHEIGHT
 40
4.0
  9
$LOFTANG1
 40
1.570796326794896
  9
$LOFTANG2
 40
1.570796326794896
  9
$LOFTMAG1
 40
0.0
  9
$LOFTMAG2
 40
0.0
  9
$LOFTPARAM
 70
     7
  9
$LOFTNORMALS
280
     1
  9
$LATITUDE
 40
37.795
  9
$LONGITUDE
 40
-122.394
  9
$NORTHDIRECTION
 40
0.0
  9
$TIMEZONE
 70
 -8000
  9
$LIGHTGLYPHDISPLAY
280
     1
  9
$TILEMODELIGHTSYNCH
280
     1
  9
$CMATERIAL
347
101B50F
  9
$SOLIDHIST
280
     0
  9
$SHOWHIST
280
     1
  9
$DWFFRAME
280
     2
  9
$DGNFRAME
280
     0
  9
$REALWORLDSCALE
290
     1
  9
$INTERFERECOLOR
 62
     1
  9
$INTERFEREOBJVS
345
101B531
  9
$INTERFEREVPVS
346
101B52E
  9
$CSHADOW
280
     0
  9
$SHADOWPLANELOCATION
 40
0.0
  0
ENDSEC
  0
SECTION
  2
CLASSES
  0
CLASS
  1
ACDBDICTIONARYWDFLT
  2
AcDbDictionaryWithDefault
  3
ObjectDBX Classes
 90
        0
 91
        1
280
     0
281
     0
  0
CLASS
  1
TABLESTYLE
  2
AcDbTableStyle
  3
ObjectDBX Classes
 90
     4095
 91
        1
280
     0
281
     0
  0
CLASS
  1
SORTENTSTABLE
  2
AcDbSortentsTable
  3
ObjectDBX Classes
 90
        0
 91
        1
280
     0
281
     0
  0
CLASS
  1
DICTIONARYVAR
  2
AcDbDictionaryVar
  3
ObjectDBX Classes
 90
        0
 91
       19
280
     0
281
     0
  0
CLASS
  1
DIMASSOC
  2
AcDbDimAssoc
  3
"AcDbDimAssoc|Product Desc:     AcDim ARX App For Dimension|Company:          Autodesk, Inc.|WEB Address:      www.autodesk.com"
 90
        0
 91
        0
280
     0
281
     0
  0
CLASS
  1
ARC_DIMENSION
  2
AcDbArcDimension
  3
ObjectDBX Classes
 90
     1025
 91
        0
280
     0
281
     1
  0
CLASS
  1
MATERIAL
  2
AcDbMaterial
  3
ObjectDBX Classes
 90
     1153
 91
        3
280
     0
281
     0
  0
CLASS
  1
VISUALSTYLE
  2
AcDbVisualStyle
  3
ObjectDBX Classes
 90
     4095
 91
       24
280
     0
281
     0
  0
CLASS
  1
SCALE
  2
AcDbScale
  3
ObjectDBX Classes
 90
     1153
 91
       17
280
     0
281
     0
  0
CLASS
  1
MLEADERSTYLE
  2
AcDbMLeaderStyle
  3
ACDB_MLEADERSTYLE_CLASS
 90
     4095
 91
        1
280
     0
281
     0
  0
CLASS
  1
ACDBSECTIONVIEWSTYLE
  2
AcDbSectionViewStyle
  3
ObjectDBX Classes
 90
     1025
 91
        1
280
     0
281
     0
  0
CLASS
  1
ACDBDETAILVIEWSTYLE
  2
AcDbDetailViewStyle
  3
ObjectDBX Classes
 90
     1025
 91
        1
280
     0
281
     0
  0
CLASS
  1
CELLSTYLEMAP
  2
AcDbCellStyleMap
  3
ObjectDBX Classes
 90
     1152
 91
        1
280
     0
281
     0
  0
ENDSEC
  0
SECTION
  2
TABLES
  0
TABLE
  2
VPORT
  5
8
330
0
100
AcDbSymbolTable
 70
     1
1001
ACAD
1000
DbSaveVer
1071
        5
  0
VPORT
  5
1B506
330
8
100
AcDbSymbolTableRecord
100
AcDbViewportTableRecord
  2
*Active
 70
     0
 10
0.0
 20
0.0
 11
1.0
 21
1.0
 12
-1138.602748471343
 22
-3184.234428718902
 13
0.0
 23
0.0
 14
10.0
 24
10.0
 15
10.0
 25
10.0
 16
0.0
 26
0.0
 36
1.0
 17
0.0
 27
0.0
 37
0.0
 40
220.9332600415307
 41
2.292712066905615
 42
50.0
 43
0.0
 44
0.0
 50
0.0
 51
0.0
 71
     0
 72
  2000
 73
     1
 74
     3
 75
     0
 76
     0
 77
     0
 78
     0
281
     0
 65
     1
110
0.0
120
0.0
130
0.0
111
1.0
121
0.0
131
0.0
112
0.0
122
1.0
132
0.0
 79
     0
146
0.0
348
101B52D
 60
     3
 61
     5
292
     1
282
     1
141
0.0
142
0.0
 63
   250
421
  3355443
1001
ACAD_NAV_VCDISPLAY
1070
     3
  0
ENDTAB
  0
TABLE
  2
LTYPE
  5
5
330
0
100
AcDbSymbolTable
 70
     4
  0
LTYPE
  5
14
330
5
100
AcDbSymbolTableRecord
100
AcDbLinetypeTableRecord
  2
ByBlock
 70
     0
  3

 72
    65
 73
     0
 40
0.0
  0
LTYPE
  5
15
330
5
100
AcDbSymbolTableRecord
100
AcDbLinetypeTableRecord
  2
ByLayer
 70
     0
  3

 72
    65
 73
     0
 40
0.0
  0
LTYPE
  5
16
330
5
100
AcDbSymbolTableRecord
100
AcDbLinetypeTableRecord
  2
Continuous
 70
     0
  3
Solid line
 72
    65
 73
     0
 40
0.0
  0
LTYPE
  5
40E
330
5
100
AcDbSymbolTableRecord
100
AcDbLinetypeTableRecord
  2
CENTER2
 70
     0
  3
Center (.5x) ___ _ ___ _ ___ _ ___ _ ___ _ ___
 72
    65
 73
     4
 40
28.575
 49
19.05
 74
     0
 49
-3.174999999999999
 74
     0
 49
3.174999999999999
 74
     0
 49
-3.174999999999999
 74
     0
  0
LTYPE
  5
281C
330
5
100
AcDbSymbolTableRecord
100
AcDbLinetypeTableRecord
  2
PHANTOM
 70
     0
  3
Phantom ______  __  __  ______  __  __  ______
 72
    65
 73
     6
 40
63.5
 49
31.75
 74
     0
 49
-6.349999999999999
 74
     0
 49
6.349999999999999
 74
     0
 49
-6.349999999999999
 74
     0
 49
6.349999999999999
 74
     0
 49
-6.349999999999999
 74
     0
  0
LTYPE
  5
2EF9
330
5
100
AcDbSymbolTableRecord
100
AcDbLinetypeTableRecord
  2
ACAD_ISO02W100
 70
     0
  3
ISO dash __ __ __ __ __ __ __ __ __ __ __ __ __
 72
    65
 73
     2
 40
15.0
 49
12.0
 74
     0
 49
-3.0
 74
     0
  0
ENDTAB
  0
TABLE
  2
LAYER
  5
2
102
{ACAD_XDICTIONARY
360
411
102
}
330
0
100
AcDbSymbolTable
 70
    10
  0
LAYER
  5
10
102
{ACAD_XDICTIONARY
360
101B55E
102
}
330
2
100
AcDbSymbolTableRecord
100
AcDbLayerTableRecord
  2
0
 70
     0
 62
     7
  6
Continuous
370
    50
390
F
347
101B51F
348
0
  0
LAYER
  5
20A
330
2
100
AcDbSymbolTableRecord
100
AcDbLayerTableRecord
  2
Defpoints
 70
     0
 62
     7
  6
Continuous
290
     0
370
    -3
390
F
347
101B51F
348
0
  0
LAYER
  5
40A
102
{ACAD_XDICTIONARY
360
101B560
102
}
330
2
100
AcDbSymbolTableRecord
100
AcDbLayerTableRecord
  2
中心线
 70
     0
 62
     1
  6
CENTER2
370
    -3
390
F
347
101B51F
348
0
1001
AcAecLayerStandard
1000

1000

1001
AcadStringInfo
1000
MIFCodePage
1070
     5
  0
LAYER
  5
40F
102
{ACAD_XDICTIONARY
360
101B562
102
}
330
2
100
AcDbSymbolTableRecord
100
AcDbLayerTableRecord
  2
尺寸线
 70
     0
 62
     5
  6
Continuous
370
    -3
390
F
347
101B51F
348
0
1001
AcAecLayerStandard
1000

1000

1001
AcadStringInfo
1000
MIFCodePage
1070
     5
  0
LAYER
  5
410
102
{ACAD_XDICTIONARY
360
101B564
102
}
330
2
100
AcDbSymbolTableRecord
100
AcDbLayerTableRecord
  2
细实线
 70
     0
 62
     7
  6
Continuous
370
    -3
390
F
347
101B51F
348
0
1001
AcAecLayerStandard
1000

1000

1001
AcadStringInfo
1000
MIFCodePage
1070
     5
  0
LAYER
  5
281D
102
{ACAD_XDICTIONARY
360
101B566
102
}
330
2
100
AcDbSymbolTableRecord
100
AcDbLayerTableRecord
  2
双点划线
 70
     0
 62
     7
  6
PHANTOM
370
    -3
390
F
347
101B51F
348
0
1001
AcadStringInfo
1000
MIFCodePage
1070
     5
  0
LAYER
  5
4262
102
{ACAD_XDICTIONARY
360
101B568
102
}
330
2
100
AcDbSymbolTableRecord
100
AcDbLayerTableRecord
  2
虚线
 70
     0
 62
     7
  6
ACAD_ISO02W100
370
    -3
390
F
347
101B51F
348
0
1001
AcAecLayerStandard
1000

1000

1001
AcadStringInfo
1000
MIFCodePage
1070
     5
  0
LAYER
  5
CAEE
102
{ACAD_XDICTIONARY
360
101B56A
102
}
330
2
100
AcDbSymbolTableRecord
100
AcDbLayerTableRecord
  2
图层3
 70
     0
 62
     5
  6
Continuous
370
    15
390
F
347
101B51F
348
0
1001
AcadStringInfo
1000
MIFCodePage
1070
     5
  0
LAYER
  5
CAF2
102
{ACAD_XDICTIONARY
360
101B56C
102
}
330
2
100
AcDbSymbolTableRecord
100
AcDbLayerTableRecord
  2
图层7
 70
     0
 62
     7
  6
Continuous
370
    15
390
F
347
101B51F
348
0
1001
AcadStringInfo
1000
MIFCodePage
1070
     5
  0
LAYER
  5
1B41A
102
{ACAD_XDICTIONARY
360
101B56E
102
}
330
2
100
AcDbSymbolTableRecord
100
AcDbLayerTableRecord
  2
02___PRT_ALL_AXES
 70
     0
 62
     7
  6
Continuous
370
    -3
390
F
347
101B51F
348
0
  0
ENDTAB
  0
TABLE
  2
STYLE
  5
3
330
0
100
AcDbSymbolTable
 70
     3
  0
STYLE
  5
11
330
3
100
AcDbSymbolTableRecord
100
AcDbTextStyleTableRecord
  2
Standard
 70
     0
 40
0.0
 41
1.0
 50
0.0
 71
     0
 42
2.5
  3
txt
  4

  0
STYLE
  5
281F
330
3
100
AcDbSymbolTableRecord
100
AcDbTextStyleTableRecord
  2
样式 1
 70
     0
 40
2.5
 41
1.0
 50
0.0
 71
     0
 42
2.5
  3
SimSun.ttf
  4

1001
ACAD
1000
SimSun
1071
    34306
1001
AcadStringInfo
1000
MIFCodePage
1070
     5
  0
STYLE
  5
CAF4
330
3
100
AcDbSymbolTableRecord
100
AcDbTextStyleTableRecord
  2
样式 2
 70
     0
 40
3.2
 41
1.0
 50
0.0
 71
     0
 42
3.2
  3
SimSun.ttf
  4

1001
ACAD
1000
SimSun
1071
    34306
1001
AcadStringInfo
1000
MIFCodePage
1070
     5
  0
ENDTAB
  0
TABLE
  2
VIEW
  5
6
330
0
100
AcDbSymbolTable
 70
     0
  0
ENDTAB
  0
TABLE
  2
UCS
  5
7
330
0
100
AcDbSymbolTable
 70
     0
  0
ENDTAB
  0
TABLE
  2
APPID
  5
9
330
0
100
AcDbSymbolTable
 70
    15
  0
APPID
  5
12
330
9
100
AcDbSymbolTableRecord
100
AcDbRegAppTableRecord
  2
ACAD
 70
     0
  0
APPID
  5
26F
330
9
100
AcDbSymbolTableRecord
100
AcDbRegAppTableRecord
  2
ACAD_DSTYLE_DIMTEXT_FILL
 70
     0
  0
APPID
  5
270
330
9
100
AcDbSymbolTableRecord
100
AcDbRegAppTableRecord
  2
ACAD_DSTYLE_DIMEXT_LENGTH
 70
     0
  0
APPID
  5
271
330
9
100
AcDbSymbolTableRecord
100
AcDbRegAppTableRecord
  2
ACAD_DSTYLE_DIMEXT_ENABLED
 70
     0
  0
APPID
  5
272
330
9
100
AcDbSymbolTableRecord
100
AcDbRegAppTableRecord
  2
ACAD_DSTYLE_DIM_LINETYPE
 70
     0
  0
APPID
  5
273
330
9
100
AcDbSymbolTableRecord
100
AcDbRegAppTableRecord
  2
ACAD_DSTYLE_DIM_EXT1_LINETYPE
 70
     0
  0
APPID
  5
274
330
9
100
AcDbSymbolTableRecord
100
AcDbRegAppTableRecord
  2
ACAD_DSTYLE_DIM_EXT2_LINETYPE
 70
     0
  0
APPID
  5
330
330
9
100
AcDbSymbolTableRecord
100
AcDbRegAppTableRecord
  2
ACAD_DSTYLE_DIMJOGGED_JOGANGLE_SYMBOL
 70
     0
  0
APPID
  5
3C4
330
9
100
AcDbSymbolTableRecord
100
AcDbRegAppTableRecord
  2
ACAD_DSTYLE_DIMARC_LENGTH_SYMBOL
 70
     0
  0
APPID
  5
3FB
330
9
100
AcDbSymbolTableRecord
100
AcDbRegAppTableRecord
  2
ACAD_EXEMPT_FROM_CAD_STANDARDS
 70
     0
  0
APPID
  5
40B
330
9
100
AcDbSymbolTableRecord
100
AcDbRegAppTableRecord
  2
AcAecLayerStandard
 70
     0
  0
APPID
  5
5D3
330
9
100
AcDbSymbolTableRecord
100
AcDbRegAppTableRecord
  2
ACAD_PSEXT
 70
     0
  0
APPID
  5
AB62
330
9
100
AcDbSymbolTableRecord
100
AcDbRegAppTableRecord
  2
DCO15
 70
     0
  0
APPID
  5
101B555
330
9
100
AcDbSymbolTableRecord
100
AcDbRegAppTableRecord
  2
AcadStringInfo
 70
     0
  0
APPID
  5
101B570
330
9
100
AcDbSymbolTableRecord
100
AcDbRegAppTableRecord
  2
ACAD_NAV_VCDISPLAY
 70
     0
  0
ENDTAB
  0
TABLE
  2
DIMSTYLE
  5
A
330
0
100
AcDbSymbolTable
 70
     2
100
AcDbDimStyleTable
 71
     1
340
27
  0
DIMSTYLE
105
27
102
{ACAD_REACTORS
330
1B156
330
1B163
330
1B369
330
15080
330
1B3D8
330
1B3E5
102
}
330
A
100
AcDbSymbolTableRecord
100
AcDbDimStyleTableRecord
  2
ISO-25
 70
     0
 41
2.5
 42
0.625
 43
3.75
 44
1.25
 73
     0
 74
     0
 77
     1
 78
     8
140
2.5
141
2.5
143
0.03937007874016
147
0.625
171
     3
172
     1
271
     2
272
     2
274
     3
278
    44
283
     0
284
     8
340
11
  0
DIMSTYLE
105
AB60
330
A
100
AcDbSymbolTableRecord
100
AcDbDimStyleTableRecord
  2
STANDARD
 70
     0
 41
0.1875
 47
0.01
 48
0.01
 78
     4
140
0.15625
271
     2
272
     2
284
     4
340
11
  0
ENDTAB
  0
TABLE
  2
BLOCK_RECORD
  5
1
330
0
100
AcDbSymbolTable
 70
    10
  0
BLOCK_RECORD
  5
1F
102
{ACAD_XDICTIONARY
360
206
102
}
330
1
100
AcDbSymbolTableRecord
100
AcDbBlockTableRecord
  2
*Model_Space
340
22
 70
     0
280
     1
281
     0
  0
BLOCK_RECORD
  5
1B
330
1
100
AcDbSymbolTableRecord
100
AcDbBlockTableRecord
  2
*Paper_Space
340
1E
 70
     0
280
     1
281
     0
  0
BLOCK_RECORD
  5
23
330
1
100
AcDbSymbolTableRecord
100
AcDbBlockTableRecord
  2
*Paper_Space0
340
26
 70
     0
280
     1
281
     0
  0
BLOCK_RECORD
  5
111D
330
1
100
AcDbSymbolTableRecord
100
AcDbBlockTableRecord
  2
_Open30
340
0
102
{BLKREFS
331
1B168
331
1B169
331
1B382
331
1B383
331
1B3D2
331
1B3D3
331
1B3DD
331
1B3DE
331
1B414
331
1B415
331
1B4F4
331
1B4F5
102
}
 70
     0
280
     1
281
     0
  0
BLOCK_RECORD
  5
12E9
330
1
100
AcDbSymbolTableRecord
100
AcDbBlockTableRecord
  2
_DotSmall
340
0
 70
     0
280
     1
281
     0
  0
BLOCK_RECORD
  5
15081
330
1
100
AcDbSymbolTableRecord
100
AcDbBlockTableRecord
  2
*D3
340
0
 70
     0
280
     1
281
     0
  0
BLOCK_RECORD
  5
1B157
330
1
100
AcDbSymbolTableRecord
100
AcDbBlockTableRecord
  2
*D4
340
0
 70
     0
280
     1
281
     0
  0
BLOCK_RECORD
  5
1B164
330
1
100
AcDbSymbolTableRecord
100
AcDbBlockTableRecord
  2
*D5
340
0
 70
     0
280
     1
281
     0
  0
BLOCK_RECORD
  5
1B2C0
330
1
100
AcDbSymbolTableRecord
100
AcDbBlockTableRecord
  2
_Dot
340
0
 70
     0
280
     1
281
     0
  0
BLOCK_RECORD
  5
1B36A
330
1
100
AcDbSymbolTableRecord
100
AcDbBlockTableRecord
  2
*D7
340
0
 70
     0
280
     1
281
     0
  0
BLOCK_RECORD
  5
1B3D9
330
1
100
AcDbSymbolTableRecord
100
AcDbBlockTableRecord
  2
*D8
340
0
 70
     0
280
     1
281
     0
  0
BLOCK_RECORD
  5
1B3E6
330
1
100
AcDbSymbolTableRecord
100
AcDbBlockTableRecord
  2
*D9
340
0
 70
     0
280
     1
281
     0
  0
ENDTAB
  0
ENDSEC
  0
SECTION
  2
BLOCKS
  0
BLOCK
  5
20
330
1F
100
AcDbEntity
  8
0
100
AcDbBlockBegin
  2
*Model_Space
 70
     0
 10
0.0
 20
0.0
 30
0.0
  3
*Model_Space
  1

  0
ENDBLK
  5
21
330
1F
100
AcDbEntity
  8
0
100
AcDbBlockEnd
  0
BLOCK
  5
1C
330
1B
100
AcDbEntity
 67
     1
  8
0
100
AcDbBlockBegin
  2
*Paper_Space
 70
     0
 10
0.0
 20
0.0
 30
0.0
  3
*Paper_Space
  1

  0
ENDBLK
  5
1D
330
1B
100
AcDbEntity
 67
     1
  8
0
100
AcDbBlockEnd
  0
BLOCK
  5
24
330
23
100
AcDbEntity
 67
     1
  8
0
100
AcDbBlockBegin
  2
*Paper_Space0
 70
     0
 10
0.0
 20
0.0
 30
0.0
  3
*Paper_Space0
  1

  0
ENDBLK
  5
25
330
23
100
AcDbEntity
 67
     1
  8
0
100
AcDbBlockEnd
  0
BLOCK
  5
1121
330
111D
100
AcDbEntity
  8
0
 48
0.5
100
AcDbBlockBegin
  2
_Open30
 70
     0
 10
0.0
 20
0.0
 30
0.0
  3
_Open30
  1

  0
LINE
  5
111E
330
111D
100
AcDbEntity
  8
0
  6
ByBlock
 62
     0
370
    -2
100
AcDbLine
 10
-1.0
 20
0.26794919
 30
0.0
 11
0.0
 21
0.0
 31
0.0
  0
LINE
  5
111F
330
111D
100
AcDbEntity
  8
0
  6
ByBlock
 62
     0
370
    -2
100
AcDbLine
 10
0.0
 20
0.0
 30
0.0
 11
-1.0
 21
-0.26794919
 31
0.0
  0
LINE
  5
1120
330
111D
100
AcDbEntity
  8
0
  6
ByBlock
 62
     0
370
    -2
100
AcDbLine
 10
0.0
 20
0.0
 30
0.0
 11
-1.0
 21
0.0
 31
0.0
  0
ENDBLK
  5
1122
330
111D
100
AcDbEntity
  8
0
 48
0.5
100
AcDbBlockEnd
  0
BLOCK
  5
12EB
330
12E9
100
AcDbEntity
  8
0
 48
0.5
100
AcDbBlockBegin
  2
_DotSmall
 70
     0
 10
0.0
 20
0.0
 30
0.0
  3
_DotSmall
  1

  0
LWPOLYLINE
  5
12EA
330
12E9
100
AcDbEntity
  8
0
  6
ByBlock
 62
     0
100
AcDbPolyline
 90
        2
 70
     1
 43
0.5
 10
-0.0625
 20
0.0
 42
1.0
 10
0.0625
 20
0.0
 42
1.0
  0
ENDBLK
  5
12EC
330
12E9
100
AcDbEntity
  8
0
 48
0.5
100
AcDbBlockEnd
  0
BLOCK
  5
1508B
330
15081
100
AcDbEntity
  8
0
 48
0.5
100
AcDbBlockBegin
  2
*D3
 70
     1
 10
0.0
 20
0.0
 30
0.0
  3
*D3
  1

  0
LINE
  5
1B3CF
330
15081
100
AcDbEntity
  8
尺寸线
 62
     0
440
 16777216
 48
0.5
370
    -2
100
AcDbLine
 10
-924.7858126912515
 20
-3176.511067132724
 30
0.0
 11
-936.6897883902421
 21
-3176.511067132724
 31
0.0
  0
LINE
  5
1B3D0
330
15081
100
AcDbEntity
  8
尺寸线
 62
     0
440
 16777216
 48
0.5
370
    -2
100
AcDbLine
 10
-924.7858126912515
 20
-3246.511067132723
 30
0.0
 11
-936.6897883902421
 21
-3246.511067132723
 31
0.0
  0
LINE
  5
1B3D1
330
15081
100
AcDbEntity
  8
尺寸线
 62
     0
440
 16777216
 48
0.5
370
    -2
100
AcDbLine
 10
-935.6897883902419
 20
-3179.011067132723
 30
0.0
 11
-935.6897883902419
 21
-3244.011067132723
 31
0.0
  0
INSERT
  5
1B3D2
330
15081
100
AcDbEntity
  8
尺寸线
 62
     0
440
 16777216
 48
0.5
370
    -2
100
AcDbBlockReference
  2
_Open30
 10
-935.6897883902419
 20
-3176.511067132724
 30
0.0
 41
2.5
 42
2.5
 43
2.5
 50
90.0
  0
INSERT
  5
1B3D3
330
15081
100
AcDbEntity
  8
尺寸线
 62
     0
440
 16777216
 48
0.5
370
    -2
100
AcDbBlockReference
  2
_Open30
 10
-935.6897883902419
 20
-3246.511067132723
 30
0.0
 41
2.5
 42
2.5
 43
2.5
 50
270.0
  0
MTEXT
  5
1B3D4
330
15081
100
AcDbEntity
  8
尺寸线
 62
     0
440
 16777216
 48
0.5
100
AcDbMText
 10
-940.2157883902415
 20
-3211.511067132724
 30
0.0
 40
8.0
 41
0.0
 46
0.0
 71
     5
 72
     1
  1
70
 11
0.0000000000000001
 21
1.0
 31
0.0
 73
     1
 44
1.0
  0
POINT
  5
1B3D5
330
15081
100
AcDbEntity
  8
Defpoints
 62
     0
440
 16777216
 48
0.5
100
AcDbPoint
 10
-923.7858126912515
 20
-3176.511067132724
 30
0.0
  0
POINT
  5
1B3D6
330
15081
100
AcDbEntity
  8
Defpoints
 62
     0
440
 16777216
 48
0.5
100
AcDbPoint
 10
-923.7858126912515
 20
-3246.511067132723
 30
0.0
  0
POINT
  5
1B3D7
330
15081
100
AcDbEntity
  8
Defpoints
 62
     0
440
 16777216
 48
0.5
100
AcDbPoint
 10
-935.6897883902419
 20
-3246.511067132723
 30
0.0
  0
ENDBLK
  5
1508C
330
15081
100
AcDbEntity
  8
0
 48
0.5
100
AcDbBlockEnd
  0
BLOCK
  5
1B161
330
1B157
100
AcDbEntity
  8
0
 48
0.5
100
AcDbBlockBegin
  2
*D4
 70
     1
 10
0.0
 20
0.0
 30
0.0
  3
*D4
  1

  0
LINE
  5
1B4F1
330
1B157
100
AcDbEntity
  8
尺寸线
 62
     0
440
 16777216
 48
0.5
370
    -2
100
AcDbLine
 10
-1391.060439168722
 20
-3115.511067132724
 30
0.0
 11
-1391.060439168722
 21
-3100.72345386989
 31
0.0
  0
LINE
  5
1B4F2
330
1B157
100
AcDbEntity
  8
尺寸线
 62
     0
440
 16777216
 48
0.5
370
    -2
100
AcDbLine
 10
-968.1693669350524
 20
-3115.511067132724
 30
0.0
 11
-968.1693669350524
 21
-3100.72345386989
 31
0.0
  0
LINE
  5
1B4F3
330
1B157
100
AcDbEntity
  8
尺寸线
 62
     0
440
 16777216
 48
0.5
370
    -2
100
AcDbLine
 10
-1388.560439168722
 20
-3101.723453869891
 30
0.0
 11
-970.6693669350524
 21
-3101.723453869891
 31
0.0
  0
INSERT
  5
1B4F4
330
1B157
100
AcDbEntity
  8
尺寸线
 62
     0
440
 16777216
 48
0.5
370
    -2
100
AcDbBlockReference
  2
_Open30
 10
-1391.060439168722
 20
-3101.723453869891
 30
0.0
 41
2.5
 42
2.5
 43
2.5
 50
180.0
  0
INSERT
  5
1B4F5
330
1B157
100
AcDbEntity
  8
尺寸线
 62
     0
440
 16777216
 48
0.5
370
    -2
100
AcDbBlockReference
  2
_Open30
 10
-968.1693669350524
 20
-3101.723453869891
 30
0.0
 41
2.5
 42
2.5
 43
2.5
  0
MTEXT
  5
1B4F6
330
1B157
100
AcDbEntity
  8
尺寸线
 62
     0
440
 16777216
 48
0.5
100
AcDbMText
 10
-1179.614903051887
 20
-3097.19745386989
 30
0.0
 40
8.0
 41
0.0
 46
0.0
 71
     5
 72
     1
  1
420
 73
     1
 44
1.0
  0
POINT
  5
1B4F7
330
1B157
100
AcDbEntity
  8
Defpoints
 62
     0
440
 16777216
 48
0.5
100
AcDbPoint
 10
-1391.060439168722
 20
-3116.511067132723
 30
0.0
  0
POINT
  5
1B4F8
330
1B157
100
AcDbEntity
  8
Defpoints
 62
     0
440
 16777216
 48
0.5
100
AcDbPoint
 10
-968.1693669350524
 20
-3116.511067132723
 30
0.0
  0
POINT
  5
1B4F9
330
1B157
100
AcDbEntity
  8
Defpoints
 62
     0
440
 16777216
 48
0.5
100
AcDbPoint
 10
-968.1693669350524
 20
-3101.723453869891
 30
0.0
  0
ENDBLK
  5
1B162
330
1B157
100
AcDbEntity
  8
0
 48
0.5
100
AcDbBlockEnd
  0
BLOCK
  5
1B16E
330
1B164
100
AcDbEntity
  8
0
 48
0.5
100
AcDbBlockBegin
  2
*D5
 70
     1
 10
0.0
 20
0.0
 30
0.0
  3
*D5
  1

  0
LINE
  5
1B165
330
1B164
100
AcDbEntity
  8
尺寸线
 62
     0
440
 16777216
 48
0.5
370
    -2
100
AcDbLine
 10
-967.1693669350524
 20
-3116.511067132723
 30
0.0
 11
-951.9159716901739
 21
-3116.511067132723
 31
0.0
  0
LINE
  5
1B166
330
1B164
100
AcDbEntity
  8
尺寸线
 62
     0
440
 16777216
 48
0.5
370
    -2
100
AcDbLine
 10
-967.1693669350515
 20
-3241.511067132723
 30
0.0
 11
-951.9159716901739
 21
-3241.511067132723
 31
0.0
  0
LINE
  5
1B167
330
1B164
100
AcDbEntity
  8
尺寸线
 62
     0
440
 16777216
 48
0.5
370
    -2
100
AcDbLine
 10
-952.9159716901741
 20
-3119.011067132724
 30
0.0
 11
-952.9159716901741
 21
-3239.011067132724
 31
0.0
  0
INSERT
  5
1B168
330
1B164
100
AcDbEntity
  8
尺寸线
 62
     0
440
 16777216
 48
0.5
370
    -2
100
AcDbBlockReference
  2
_Open30
 10
-952.9159716901741
 20
-3116.511067132723
 30
0.0
 41
2.5
 42
2.5
 43
2.5
 50
90.0
  0
INSERT
  5
1B169
330
1B164
100
AcDbEntity
  8
尺寸线
 62
     0
440
 16777216
 48
0.5
370
    -2
100
AcDbBlockReference
  2
_Open30
 10
-952.9159716901741
 20
-3241.511067132723
 30
0.0
 41
2.5
 42
2.5
 43
2.5
 50
270.0
  0
MTEXT
  5
1B16A
330
1B164
100
AcDbEntity
  8
尺寸线
 62
     0
440
 16777216
 48
0.5
100
AcDbMText
 10
-957.4419716901735
 20
-3179.011067132723
 30
0.0
 40
8.0
 41
0.0
 46
0.0
 71
     5
 72
     1
  1
125
 11
0.0000000000000001
 21
1.0
 31
0.0
 73
     1
 44
1.0
  0
POINT
  5
1B16B
330
1B164
100
AcDbEntity
  8
Defpoints
 62
     0
440
 16777216
 48
0.5
100
AcDbPoint
 10
-968.1693669350524
 20
-3116.511067132723
 30
0.0
  0
POINT
  5
1B16C
330
1B164
100
AcDbEntity
  8
Defpoints
 62
     0
440
 16777216
 48
0.5
100
AcDbPoint
 10
-968.1693669350515
 20
-3241.511067132723
 30
0.0
  0
POINT
  5
1B16D
330
1B164
100
AcDbEntity
  8
Defpoints
 62
     0
440
 16777216
 48
0.5
100
AcDbPoint
 10
-952.9159716901741
 20
-3241.511067132723
 30
0.0
  0
ENDBLK
  5
1B16F
330
1B164
100
AcDbEntity
  8
0
 48
0.5
100
AcDbBlockEnd
  0
BLOCK
  5
1B2C3
330
1B2C0
100
AcDbEntity
  8
0
 48
0.5
100
AcDbBlockBegin
  2
_Dot
 70
     0
 10
0.0
 20
0.0
 30
0.0
  3
_Dot
  1

  0
LWPOLYLINE
  5
1B2C1
330
1B2C0
100
AcDbEntity
  8
0
  6
ByBlock
 62
     0
100
AcDbPolyline
 90
        2
 70
     1
 43
0.5
 10
-0.25
 20
0.0
 42
1.0
 10
0.25
 20
0.0
 42
1.0
  0
LINE
  5
1B2C2
330
1B2C0
100
AcDbEntity
  8
0
  6
ByBlock
 62
     0
370
    -2
100
AcDbLine
 10
-0.5
 20
0.0
 30
0.0
 11
-1.0
 21
0.0
 31
0.0
  0
ENDBLK
  5
1B2C4
330
1B2C0
100
AcDbEntity
  8
0
 48
0.5
100
AcDbBlockEnd
  0
BLOCK
  5
1B374
330
1B36A
100
AcDbEntity
  8
0
 48
0.5
100
AcDbBlockBegin
  2
*D7
 70
     1
 10
0.0
 20
0.0
 30
0.0
  3
*D7
  1

  0
LINE
  5
1B37F
330
1B36A
100
AcDbEntity
  8
尺寸线
 62
     0
440
 16777216
 48
0.5
370
    -2
100
AcDbLine
 10
-1323.560439168722
 20
-3253.564848813752
 30
0.0
 11
-1323.560439168722
 21
-3275.281051941855
 31
0.0
  0
LINE
  5
1B380
330
1B36A
100
AcDbEntity
  8
尺寸线
 62
     0
440
 16777216
 48
0.5
370
    -2
100
AcDbLine
 10
-1035.669366935052
 20
-3253.564848813752
 30
0.0
 11
-1035.669366935052
 21
-3275.281051941855
 31
0.0
  0
LINE
  5
1B381
330
1B36A
100
AcDbEntity
  8
尺寸线
 62
     0
440
 16777216
 48
0.5
370
    -2
100
AcDbLine
 10
-1321.060439168722
 20
-3274.281051941855
 30
0.0
 11
-1038.169366935052
 21
-3274.281051941855
 31
0.0
  0
INSERT
  5
1B382
330
1B36A
100
AcDbEntity
  8
尺寸线
 62
     0
440
 16777216
 48
0.5
370
    -2
100
AcDbBlockReference
  2
_Open30
 10
-1323.560439168722
 20
-3274.281051941855
 30
0.0
 41
2.5
 42
2.5
 43
2.5
 50
180.0
  0
INSERT
  5
1B383
330
1B36A
100
AcDbEntity
  8
尺寸线
 62
     0
440
 16777216
 48
0.5
370
    -2
100
AcDbBlockReference
  2
_Open30
 10
-1035.669366935052
 20
-3274.281051941855
 30
0.0
 41
2.5
 42
2.5
 43
2.5
  0
MTEXT
  5
1B384
330
1B36A
100
AcDbEntity
  8
尺寸线
 62
     0
440
 16777216
 48
0.5
100
AcDbMText
 10
-1179.614903051887
 20
-3269.755051941855
 30
0.0
 40
8.0
 41
0.0
 46
0.0
 71
     5
 72
     1
  1
380
 73
     1
 44
1.0
  0
POINT
  5
1B385
330
1B36A
100
AcDbEntity
  8
Defpoints
 62
     0
440
 16777216
 48
0.5
100
AcDbPoint
 10
-1323.560439168722
 20
-3252.564848813752
 30
0.0
  0
POINT
  5
1B386
330
1B36A
100
AcDbEntity
  8
Defpoints
 62
     0
440
 16777216
 48
0.5
100
AcDbPoint
 10
-1035.669366935052
 20
-3252.564848813752
 30
0.0
  0
POINT
  5
1B387
330
1B36A
100
AcDbEntity
  8
Defpoints
 62
     0
440
 16777216
 48
0.5
100
AcDbPoint
 10
-1035.669366935052
 20
-3274.281051941855
 30
0.0
  0
ENDBLK
  5
1B375
330
1B36A
100
AcDbEntity
  8
0
 48
0.5
100
AcDbBlockEnd
  0
BLOCK
  5
1B3E3
330
1B3D9
100
AcDbEntity
  8
0
 48
0.5
100
AcDbBlockBegin
  2
*D8
 70
     1
 10
0.0
 20
0.0
 30
0.0
  3
*D8
  1

  0
LINE
  5
1B3DA
330
1B3D9
100
AcDbEntity
  8
尺寸线
 62
     0
440
 16777216
 48
0.5
370
    -2
100
AcDbLine
 10
-1017.169366935052
 20
-3246.511067132724
 30
0.0
 11
-998.7203327199841
 21
-3246.511067132724
 31
0.0
  0
LINE
  5
1B3DB
330
1B3D9
100
AcDbEntity
  8
尺寸线
 62
     0
440
 16777216
 48
0.5
370
    -2
100
AcDbLine
 10
-1008.192461233574
 20
-3221.511067132723
 30
0.0
 11
-998.7203327199841
 21
-3221.511067132723
 31
0.0
  0
LINE
  5
1B3DC
330
1B3D9
100
AcDbEntity
  8
尺寸线
 62
     0
440
 16777216
 48
0.5
370
    -2
100
AcDbLine
 10
-999.7203327199841
 20
-3244.011067132724
 30
0.0
 11
-999.7203327199841
 21
-3224.011067132724
 31
0.0
  0
INSERT
  5
1B3DD
330
1B3D9
100
AcDbEntity
  8
尺寸线
 62
     0
440
 16777216
 48
0.5
370
    -2
100
AcDbBlockReference
  2
_Open30
 10
-999.7203327199841
 20
-3246.511067132724
 30
0.0
 41
2.5
 42
2.5
 43
2.5
 50
270.0
  0
INSERT
  5
1B3DE
330
1B3D9
100
AcDbEntity
  8
尺寸线
 62
     0
440
 16777216
 48
0.5
370
    -2
100
AcDbBlockReference
  2
_Open30
 10
-999.7203327199841
 20
-3221.511067132723
 30
0.0
 41
2.5
 42
2.5
 43
2.5
 50
90.0
  0
MTEXT
  5
1B3DF
330
1B3D9
100
AcDbEntity
  8
尺寸线
 62
     0
440
 16777216
 48
0.5
100
AcDbMText
 10
-1004.246332719983
 20
-3234.011067132724
 30
0.0
 40
8.0
 41
0.0
 46
0.0
 71
     5
 72
     1
  1
25
 11
0.0000000000000001
 21
1.0
 31
0.0
 73
     1
 44
1.0
  0
POINT
  5
1B3E0
330
1B3D9
100
AcDbEntity
  8
Defpoints
 62
     0
440
 16777216
 48
0.5
100
AcDbPoint
 10
-1018.169366935052
 20
-3246.511067132724
 30
0.0
  0
POINT
  5
1B3E1
330
1B3D9
100
AcDbEntity
  8
Defpoints
 62
     0
440
 16777216
 48
0.5
100
AcDbPoint
 10
-1009.192461233574
 20
-3221.511067132723
 30
0.0
  0
POINT
  5
1B3E2
330
1B3D9
100
AcDbEntity
  8
Defpoints
 62
     0
440
 16777216
 48
0.5
100
AcDbPoint
 10
-999.7203327199841
 20
-3221.511067132723
 30
0.0
  0
ENDBLK
  5
1B3E4
330
1B3D9
100
AcDbEntity
  8
0
 48
0.5
100
AcDbBlockEnd
  0
BLOCK
  5
1B3F0
330
1B3E6
100
AcDbEntity
  8
0
 48
0.5
100
AcDbBlockBegin
  2
*D9
 70
     1
 10
0.0
 20
0.0
 30
0.0
  3
*D9
  1

  0
LINE
  5
1B411
330
1B3E6
100
AcDbEntity
  8
尺寸线
 62
     0
440
 16777216
 48
0.5
370
    -2
100
AcDbLine
 10
-1023.041535233527
 20
-3221.511067132725
 30
0.0
 11
-998.7203327199841
 21
-3221.511067132725
 31
0.0
  0
LINE
  5
1B412
330
1B3E6
100
AcDbEntity
  8
尺寸线
 62
     0
440
 16777216
 48
0.5
370
    -2
100
AcDbLine
 10
-1023.440305022693
 20
-3186.511067132724
 30
0.0
 11
-998.7203327199841
 21
-3186.511067132724
 31
0.0
  0
LINE
  5
1B413
330
1B3E6
100
AcDbEntity
  8
尺寸线
 62
     0
440
 16777216
 48
0.5
370
    -2
100
AcDbLine
 10
-999.7203327199841
 20
-3219.011067132725
 30
0.0
 11
-999.7203327199841
 21
-3189.011067132724
 31
0.0
  0
INSERT
  5
1B414
330
1B3E6
100
AcDbEntity
  8
尺寸线
 62
     0
440
 16777216
 48
0.5
370
    -2
100
AcDbBlockReference
  2
_Open30
 10
-999.7203327199841
 20
-3221.511067132725
 30
0.0
 41
2.5
 42
2.5
 43
2.5
 50
270.0
  0
INSERT
  5
1B415
330
1B3E6
100
AcDbEntity
  8
尺寸线
 62
     0
440
 16777216
 48
0.5
370
    -2
100
AcDbBlockReference
  2
_Open30
 10
-999.7203327199841
 20
-3186.511067132724
 30
0.0
 41
2.5
 42
2.5
 43
2.5
 50
90.0
  0
MTEXT
  5
1B416
330
1B3E6
100
AcDbEntity
  8
尺寸线
 62
     0
440
 16777216
 48
0.5
100
AcDbMText
 10
-1004.246332719983
 20
-3204.011067132724
 30
0.0
 40
8.0
 41
0.0
 46
0.0
 71
     5
 72
     1
  1
35
 11
0.0000000000000001
 21
1.0
 31
0.0
 73
     1
 44
1.0
  0
POINT
  5
1B417
330
1B3E6
100
AcDbEntity
  8
Defpoints
 62
     0
440
 16777216
 48
0.5
100
AcDbPoint
 10
-1024.041535233527
 20
-3221.511067132724
 30
0.0
  0
POINT
  5
1B418
330
1B3E6
100
AcDbEntity
  8
Defpoints
 62
     0
440
 16777216
 48
0.5
100
AcDbPoint
 10
-1024.440305022693
 20
-3186.511067132723
 30
0.0
  0
POINT
  5
1B419
330
1B3E6
100
AcDbEntity
  8
Defpoints
 62
     0
440
 16777216
 48
0.5
100
AcDbPoint
 10
-999.7203327199841
 20
-3186.511067132724
 30
0.0
  0
ENDBLK
  5
1B3F1
330
1B3E6
100
AcDbEntity
  8
0
 48
0.5
100
AcDbBlockEnd
  0
ENDSEC
  0
SECTION
  2
ENTITIES
  0
LINE
  5
DCE7
330
1F
100
AcDbEntity
  8
0
 48
0.5
100
AcDbLine
 10
-1391.060439168722
 20
-3116.511067132723
 30
0.0
 11
-1187.503798849902
 21
-3116.511067132723
 31
0.0
  0
LINE
  5
DCE8
330
1F
100
AcDbEntity
  8
0
 48
0.5
100
AcDbLine
 10
-968.1693669350524
 20
-3116.511067132723
 30
0.0
 11
-968.1693669350524
 21
-3241.511067132723
 31
0.0
  0
LINE
  5
DCEA
330
1F
100
AcDbEntity
  8
0
 48
0.5
100
AcDbLine
 10
-1391.060439168722
 20
-3241.511067132723
 30
0.0
 11
-1391.060439168722
 21
-3116.511067132723
 31
0.0
  0
LINE
  5
DCF0
330
1F
100
AcDbEntity
  8
0
 48
0.5
100
AcDbLine
 10
-1053.169366935052
 20
-3246.511067132723
 30
0.0
 11
-1053.169366935052
 21
-3176.511067132723
 31
0.0
  0
LINE
  5
DCF1
330
1F
100
AcDbEntity
  8
0
 48
0.5
100
AcDbLine
 10
-1053.169366935052
 20
-3246.511067132723
 30
0.0
 11
-1018.169366935052
 21
-3246.511067132723
 31
0.0
  0
LINE
  5
DCF2
330
1F
100
AcDbEntity
  8
0
 48
0.5
100
AcDbLine
 10
-1053.169366935052
 20
-3176.511067132723
 30
0.0
 11
-1018.169366935052
 21
-3176.511067132723
 31
0.0
  0
LINE
  5
DD00
330
1F
100
AcDbEntity
  8
中心线
 48
0.5
100
AcDbLine
 10
-1035.669366935052
 20
-3169.125343681431
 30
0.0
 11
-1035.669366935052
 21
-3252.564848813752
 31
0.0
  0
LINE
  5
DD01
330
1F
100
AcDbEntity
  8
中心线
 48
0.5
100
AcDbLine
 10
-1047.170190518188
 20
-3186.511067132723
 30
0.0
 11
-1024.440305022693
 21
-3186.511067132723
 31
0.0
  0
LINE
  5
DD03
330
1F
100
AcDbEntity
  8
中心线
 48
0.5
100
AcDbLine
 10
-1024.041535233527
 20
-3221.511067132724
 30
0.0
 11
-1046.970804684479
 21
-3221.511067132723
 31
0.0
  0
LINE
  5
14EDC
330
1F
100
AcDbEntity
  8
0
 48
0.5
100
AcDbLine
 10
-1018.169366935052
 20
-3176.511067132723
 30
0.0
 11
-1018.169366935052
 21
-3246.511067132724
 31
0.0
  0
LINE
  5
14EDD
330
1F
100
AcDbEntity
  8
0
 48
0.5
100
AcDbLine
 10
-968.1693669350524
 20
-3241.511067132723
 30
0.0
 11
-1178.02832928716
 21
-3241.511067132723
 31
0.0
  0
LINE
  5
14EE4
330
1F
100
AcDbEntity
  8
0
 48
0.5
100
AcDbLine
 10
-1341.060439168722
 20
-3246.511067132724
 30
0.0
 11
-1306.060439168722
 21
-3246.511067132724
 31
0.0
  0
LINE
  5
14EE6
330
1F
100
AcDbEntity
  8
0
 48
0.5
100
AcDbLine
 10
-896.7858126912515
 20
-3116.511067132723
 30
0.0
 11
-902.7858126912516
 21
-3116.511067132723
 31
0.0
  0
LINE
  5
14EE7
330
1F
100
AcDbEntity
  8
0
 48
0.5
100
AcDbLine
 10
-896.7858126912515
 20
-3116.511067132723
 30
0.0
 11
-896.7858126912515
 21
-3241.511067132723
 31
0.0
  0
LINE
  5
14EE8
330
1F
100
AcDbEntity
  8
0
 48
0.5
100
AcDbLine
 10
-902.7858126912516
 20
-3116.511067132723
 30
0.0
 11
-902.7858126912516
 21
-3241.511067132723
 31
0.0
  0
LINE
  5
14EEA
330
1F
100
AcDbEntity
  8
0
 48
0.5
100
AcDbLine
 10
-923.7858126912515
 20
-3175.011067132724
 30
0.0
 11
-923.7858126912515
 21
-3246.511067132723
 31
0.0
  0
LINE
  5
14EEC
330
1F
100
AcDbEntity
  8
0
 48
0.5
100
AcDbLine
 10
-896.7858126912515
 20
-3241.511067132723
 30
0.0
 11
-902.7858126912516
 21
-3241.511067132723
 31
0.0
  0
LINE
  5
14EED
330
1F
100
AcDbEntity
  8
0
 48
0.5
100
AcDbLine
 10
-903.7858126912515
 20
-3176.511067132724
 30
0.0
 11
-923.7858126912515
 21
-3176.511067132724
 31
0.0
  0
LINE
  5
14EFB
330
1F
100
AcDbEntity
  8
中心线
 48
0.5
100
AcDbLine
 10
-887.2220474567047
 20
-3221.511067132723
 30
0.0
 11
-908.5421366646224
 21
-3221.511067132724
 31
0.0
  0
LINE
  5
14F01
330
1F
100
AcDbEntity
  8
中心线
 48
0.5
100
AcDbLine
 10
-886.2145746509767
 20
-3186.511067132724
 30
0.0
 11
-908.7648804393424
 21
-3186.511067132723
 31
0.0
  0
LINE
  5
14F06
330
1F
100
AcDbEntity
  8
0
 48
0.5
100
AcDbLine
 10
-892.7858126912514
 20
-3179.011067132723
 30
0.0
 11
-892.7858126912514
 21
-3194.011067132723
 31
0.0
  0
LINE
  5
14F1F
330
1F
100
AcDbEntity
  8
0
 48
0.5
100
AcDbLine
 10
-892.7858126912514
 20
-3179.011067132724
 30
0.0
 11
-895.7858126912515
 21
-3179.011067132725
 31
0.0
  0
LINE
  5
14F20
330
1F
100
AcDbEntity
  8
0
 48
0.5
100
AcDbLine
 10
-892.7858126912514
 20
-3194.011067132723
 30
0.0
 11
-895.7858126912515
 21
-3194.011067132724
 31
0.0
  0
LINE
  5
14F21
330
1F
100
AcDbEntity
  8
0
 48
0.5
100
AcDbLine
 10
-892.7858126912514
 20
-3229.011067132724
 30
0.0
 11
-895.7858126912515
 21
-3229.011067132724
 31
0.0
  0
LINE
  5
14F22
330
1F
100
AcDbEntity
  8
0
 48
0.5
100
AcDbLine
 10
-892.7858126912514
 20
-3214.011067132724
 30
0.0
 11
-895.7858126912515
 21
-3214.011067132725
 31
0.0
  0
LINE
  5
14F23
330
1F
100
AcDbEntity
  8
0
 48
0.5
100
AcDbLine
 10
-892.7858126912514
 20
-3214.011067132723
 30
0.0
 11
-892.7858126912514
 21
-3229.011067132724
 31
0.0
  0
LINE
  5
14F25
330
1F
100
AcDbEntity
  8
0
 48
0.5
100
AcDbLine
 10
-895.7858126912515
 20
-3214.011067132725
 30
0.0
 11
-895.7858126912492
 21
-3229.011067132724
 31
0.0
  0
LINE
  5
14F26
330
1F
100
AcDbEntity
  8
0
 48
0.5
100
AcDbLine
 10
-895.7858126912515
 20
-3179.011067132725
 30
0.0
 11
-895.7858126912492
 21
-3194.011067132724
 31
0.0
  0
LINE
  5
14F27
330
1F
100
AcDbEntity
  8
0
 48
0.5
100
AcDbLine
 10
-895.7858126912512
 20
-3180.511067132723
 30
0.0
 11
-896.7858126912515
 21
-3180.511067132723
 31
0.0
  0
LINE
  5
14F28
330
1F
100
AcDbEntity
  8
0
 48
0.5
100
AcDbLine
 10
-895.7858126912494
 20
-3192.511067132723
 30
0.0
 11
-896.7858126912515
 21
-3192.511067132724
 31
0.0
  0
LINE
  5
14F29
330
1F
100
AcDbEntity
  8
0
 48
0.5
100
AcDbLine
 10
-895.7858126912494
 20
-3227.511067132723
 30
0.0
 11
-896.7858126912515
 21
-3227.511067132723
 31
0.0
  0
LINE
  5
14F2A
330
1F
100
AcDbEntity
  8
0
 48
0.5
100
AcDbLine
 10
-895.7858126912512
 20
-3215.511067132722
 30
0.0
 11
-896.7858126912515
 21
-3215.511067132722
 31
0.0
  0
LINE
  5
14F2B
330
1F
100
AcDbEntity
  8
0
 48
0.5
100
AcDbLine
 10
-902.7858126912505
 20
-3192.511067132723
 30
0.0
 11
-903.7858126912526
 21
-3192.511067132723
 31
0.0
  0
LINE
  5
14F2C
330
1F
100
AcDbEntity
  8
0
 48
0.5
100
AcDbLine
 10
-902.7858126912525
 20
-3180.511067132722
 30
0.0
 11
-903.7858126912526
 21
-3180.511067132723
 31
0.0
  0
LINE
  5
14F2D
330
1F
100
AcDbEntity
  8
0
 48
0.5
100
AcDbLine
 10
-902.7858126912505
 20
-3227.511067132723
 30
0.0
 11
-903.7858126912526
 21
-3227.511067132724
 31
0.0
  0
LINE
  5
14F2E
330
1F
100
AcDbEntity
  8
0
 48
0.5
100
AcDbLine
 10
-902.7858126912525
 20
-3215.511067132722
 30
0.0
 11
-903.7858126912526
 21
-3215.511067132723
 31
0.0
  0
DIMENSION
  5
15080
330
1F
100
AcDbEntity
  8
尺寸线
 48
0.5
100
AcDbDimension
280
     0
  2
*D3
 10
-935.6897883902419
 20
-3246.511067132723
 30
0.0
 11
-940.2157883902415
 21
-3211.511067132724
 31
0.0
 70
    32
 71
     5
 42
70.0
 73
     0
 74
     0
 75
     0
  3
ISO-25
100
AcDbAlignedDimension
 13
-923.7858126912515
 23
-3176.511067132724
 33
0.0
 14
-923.7858126912515
 24
-3246.511067132723
 34
0.0
 50
90.0
100
AcDbRotatedDimension
1001
ACAD
1000
DSTYLE
1002
{
1070
    42
1040
1.0
1070
    44
1040
1.0
1070
   140
1040
8.0
1070
   143
1040
0.0393700787401575
1070
   147
1040
0.526
1070
   271
1070
     1
1070
   272
1070
     1
1070
   278
1070
    46
1070
   284
1070
     0
1070
   342
1005
111D
1002
}
  0
LINE
  5
15092
330
1F
100
AcDbEntity
  8
中心线
 48
0.5
100
AcDbLine
 10
-1336.536742642532
 20
-3221.511067132723
 30
0.0
 11
-1312.017271855178
 21
-3221.511067132723
 31
0.0
  0
LINE
  5
15093
330
1F
100
AcDbEntity
  8
0
 48
0.5
100
AcDbLine
 10
-1306.060439168722
 20
-3246.511067132723
 30
0.0
 11
-1306.060439168722
 21
-3176.511067132723
 31
0.0
  0
LINE
  5
15094
330
1F
100
AcDbEntity
  8
0
 48
0.5
100
AcDbLine
 10
-1306.060439168722
 20
-3176.511067132723
 30
0.0
 11
-1341.060439168722
 21
-3176.511067132723
 31
0.0
  0
LINE
  5
15095
330
1F
100
AcDbEntity
  8
中心线
 48
0.5
100
AcDbLine
 10
-1311.738642572511
 20
-3186.511067132723
 30
0.0
 11
-1334.864959433518
 21
-3186.511067132723
 31
0.0
  0
LINE
  5
15096
330
1F
100
AcDbEntity
  8
中心线
 48
0.5
100
AcDbLine
 10
-1323.560439168722
 20
-3170.103849564646
 30
0.0
 11
-1323.560439168722
 21
-3252.564848813752
 31
0.0
  0
LINE
  5
15097
330
1F
100
AcDbEntity
  8
0
 48
0.5
100
AcDbLine
 10
-1341.060439168722
 20
-3176.511067132723
 30
0.0
 11
-1341.060439168722
 21
-3246.511067132724
 31
0.0
  0
CIRCLE
  5
15099
330
1F
100
AcDbEntity
  8
0
 48
0.5
100
AcDbCircle
 10
-1035.669366935052
 20
-3186.511067132723
 30
0.0
 40
7.49999999999909
  0
CIRCLE
  5
1509B
330
1F
100
AcDbEntity
  8
0
 48
0.5
100
AcDbCircle
 10
-1035.669366935052
 20
-3221.511067132723
 30
0.0
 40
7.49999999999909
  0
CIRCLE
  5
1509C
330
1F
100
AcDbEntity
  8
0
 48
0.5
100
AcDbCircle
 10
-1323.560439168722
 20
-3186.511067132723
 30
0.0
 40
7.49999999999909
  0
CIRCLE
  5
1509D
330
1F
100
AcDbEntity
  8
0
 48
0.5
100
AcDbCircle
 10
-1323.560439168722
 20
-3221.511067132723
 30
0.0
 40
7.49999999999909
  0
SPLINE
  5
1AD39
330
1F
100
AcDbEntity
  8
细实线
 48
0.5
100
AcDbSpline
210
0.0
220
0.0
230
1.0
 70
     8
 71
     3
 72
    10
 73
     6
 74
     0
 42
0.000000001
 43
0.0000000001
 40
0.0
 40
0.0
 40
0.0
 40
0.0
 40
48.57698476658719
 40
95.63991575132412
 40
152.9808235986845
 40
152.9808235986845
 40
152.9808235986845
 40
152.9808235986845
 10
-1187.503798849902
 20
-3116.511067132723
 30
0.0
 10
-1199.346078333956
 20
-3132.510086425845
 30
0.0
 10
-1222.661535594234
 20
-3164.009465497029
 30
0.0
 10
-1154.890810368518
 20
-3195.083119571246
 30
0.0
 10
-1174.402855059955
 20
-3224.541012437182
 30
0.0
 10
-1191.42462955421
 20
-3241.511067132724
 30
0.0
  0
SPLINE
  5
1AD3A
330
1F
100
AcDbEntity
  8
细实线
 48
0.5
100
AcDbSpline
210
0.0
220
0.0
230
1.0
 70
     8
 71
     3
 72
    10
 73
     6
 74
     0
 42
0.000000001
 43
0.0000000001
 40
0.0
 40
0.0
 40
0.0
 40
0.0
 40
48.57698476658719
 40
95.63991575132412
 40
152.9808235986845
 40
152.9808235986845
 40
152.9808235986845
 40
152.9808235986845
 10
-1174.107498582853
 20
-3116.511067132723
 30
0.0
 10
-1185.949778066906
 20
-3132.510086425845
 30
0.0
 10
-1209.265235327184
 20
-3164.009465497029
 30
0.0
 10
-1141.494510101468
 20
-3195.083119571246
 30
0.0
 10
-1161.006554792905
 20
-3224.541012437182
 30
0.0
 10
-1178.02832928716
 20
-3241.511067132724
 30
0.0
  0
LINE
  5
1AD3B
330
1F
100
AcDbEntity
  8
0
 48
0.5
100
AcDbLine
 10
-1174.107498582853
 20
-3116.511067132723
 30
0.0
 11
-968.1693669350524
 21
-3116.511067132723
 31
0.0
  0
LINE
  5
1AD3C
330
1F
100
AcDbEntity
  8
0
 48
0.5
100
AcDbLine
 10
-1191.42462955421
 20
-3241.511067132724
 30
0.0
 11
-1391.060439168722
 21
-3241.511067132724
 31
0.0
  0
DIMENSION
  5
1B156
330
1F
100
AcDbEntity
  8
尺寸线
 48
0.5
100
AcDbDimension
280
     0
  2
*D4
 10
-968.1693669350524
 20
-3101.723453869891
 30
0.0
 11
-1179.614903051887
 21
-3097.19745386989
 31
0.0
 70
    32
  1
420
 71
     5
 42
422.8910722336695
 73
     0
 74
     0
 75
     0
  3
ISO-25
100
AcDbAlignedDimension
 13
-1391.060439168722
 23
-3116.511067132723
 33
0.0
 14
-968.1693669350524
 24
-3116.511067132723
 34
0.0
100
AcDbRotatedDimension
1001
ACAD
1000
DSTYLE
1002
{
1070
    42
1040
1.0
1070
    44
1040
1.0
1070
   140
1040
8.0
1070
   143
1040
0.0393700787401575
1070
   147
1040
0.526
1070
   271
1070
     1
1070
   272
1070
     1
1070
   278
1070
    46
1070
   284
1070
     0
1070
   342
1005
111D
1002
}
  0
DIMENSION
  5
1B163
330
1F
100
AcDbEntity
  8
尺寸线
 48
0.5
100
AcDbDimension
280
     0
  2
*D5
 10
-952.9159716901741
 20
-3241.511067132723
 30
0.0
 11
-957.4419716901735
 21
-3179.011067132723
 31
0.0
 70
    32
 71
     5
 42
125.0
 73
     0
 74
     0
 75
     0
  3
ISO-25
100
AcDbAlignedDimension
 13
-968.1693669350524
 23
-3116.511067132723
 33
0.0
 14
-968.1693669350515
 24
-3241.511067132723
 34
0.0
 50
90.0
100
AcDbRotatedDimension
1001
ACAD
1000
DSTYLE
1002
{
1070
    42
1040
1.0
1070
    44
1040
1.0
1070
   140
1040
8.0
1070
   143
1040
0.0393700787401575
1070
   147
1040
0.526
1070
   271
1070
     1
1070
   272
1070
     1
1070
   278
1070
    46
1070
   284
1070
     0
1070
   342
1005
111D
1002
}
  0
DIMENSION
  5
1B369
330
1F
100
AcDbEntity
  8
尺寸线
 48
0.5
100
AcDbDimension
280
     0
  2
*D7
 10
-1035.669366935052
 20
-3274.281051941855
 30
0.0
 11
-1179.614903051887
 21
-3269.755051941855
 31
0.0
 70
    32
  1
380
 71
     5
 42
287.8910722336696
 73
     0
 74
     0
 75
     0
  3
ISO-25
100
AcDbAlignedDimension
 13
-1323.560439168722
 23
-3252.564848813752
 33
0.0
 14
-1035.669366935052
 24
-3252.564848813752
 34
0.0
100
AcDbRotatedDimension
1001
ACAD
1000
DSTYLE
1002
{
1070
    42
1040
1.0
1070
    44
1040
1.0
1070
   140
1040
8.0
1070
   143
1040
0.0393700787401575
1070
   147
1040
0.526
1070
   271
1070
     1
1070
   272
1070
     1
1070
   278
1070
    46
1070
   284
1070
     0
1070
   341
1005
1B2C0
1070
   342
1005
111D
1002
}
  0
DIMENSION
  5
1B3D8
330
1F
100
AcDbEntity
  8
尺寸线
 48
0.5
100
AcDbDimension
280
     0
  2
*D8
 10
-999.7203327199841
 20
-3221.511067132723
 30
0.0
 11
-1004.246332719983
 21
-3234.011067132724
 31
0.0
 70
    32
 71
     5
 42
25.00000000000046
 73
     0
 74
     0
 75
     0
  3
ISO-25
100
AcDbAlignedDimension
 13
-1018.169366935052
 23
-3246.511067132724
 33
0.0
 14
-1009.192461233574
 24
-3221.511067132723
 34
0.0
 50
90.0
100
AcDbRotatedDimension
1001
ACAD
1000
DSTYLE
1002
{
1070
    42
1040
1.0
1070
    44
1040
1.0
1070
   140
1040
8.0
1070
   143
1040
0.0393700787401575
1070
   147
1040
0.526
1070
   271
1070
     1
1070
   272
1070
     1
1070
   278
1070
    46
1070
   284
1070
     0
1070
   341
1005
1B2C0
1070
   342
1005
111D
1002
}
  0
DIMENSION
  5
1B3E5
330
1F
100
AcDbEntity
  8
尺寸线
 48
0.5
100
AcDbDimension
280
     0
  2
*D9
 10
-999.7203327199841
 20
-3186.511067132724
 30
0.0
 11
-1004.246332719983
 21
-3204.011067132724
 31
0.0
 70
    32
 71
     5
 42
35.00000000000091
 73
     0
 74
     0
 75
     0
  3
ISO-25
100
AcDbAlignedDimension
 13
-1024.041535233527
 23
-3221.511067132724
 33
0.0
 14
-1024.440305022693
 24
-3186.511067132723
 34
0.0
 50
90.0
100
AcDbRotatedDimension
1001
ACAD
1000
DSTYLE
1002
{
1070
    42
1040
1.0
1070
    44
1040
1.0
1070
   140
1040
8.0
1070
   143
1040
0.0393700787401575
1070
   147
1040
0.526
1070
   271
1070
     1
1070
   272
1070
     1
1070
   278
1070
    46
1070
   284
1070
     0
1070
   341
1005
1B2C0
1070
   342
1005
111D
1002
}
  0
LINE
  5
1B3F2
330
1F
100
AcDbEntity
  8
0
 48
0.5
100
AcDbLine
 10
-903.7858126912515
 20
-3175.011067132724
 30
0.0
 11
-923.7858126912515
 21
-3175.011067132724
 31
0.0
  0
ARC
  5
1B3F4
330
1F
100
AcDbEntity
  8
0
 48
0.5
100
AcDbCircle
 10
-913.7858126912513
 20
-3224.511067132702
 30
0.0
 40
50.49999999997862
100
AcDbArc
 50
78.5788137249978
 51
101.4211862750022
  0
LINE
  5
1B3FF
330
1F
100
AcDbEntity
  8
0
 48
0.5
100
AcDbLine
 10
-1018.169366935053
 20
-3175.011067132723
 30
0.0
 11
-1018.169366935053
 21
-3176.511067132723
 31
0.0
  0
LINE
  5
1B400
330
1F
100
AcDbEntity
  8
0
 48
0.5
100
AcDbLine
 10
-1053.169366935053
 20
-3174.011067132723
 30
0.0
 11
-1053.169366935052
 21
-3176.511067132723
 31
0.0
  0
LINE
  5
1B401
330
1F
100
AcDbEntity
  8
0
 48
0.5
100
AcDbLine
 10
-1028.169366935053
 20
-3174.011067132723
 30
0.0
 11
-1053.169366935053
 21
-3174.011067132723
 31
0.0
  0
ARC
  5
1B402
330
1F
100
AcDbEntity
  8
0
 48
0.5
100
AcDbCircle
 10
-1028.169366935053
 20
-3224.511067132723
 30
0.0
 40
50.50000000000002
100
AcDbArc
 50
78.57881372500675
 51
90.0
  0
LINE
  5
1B404
330
1F
100
AcDbEntity
  8
0
 48
0.5
100
AcDbLine
 10
-1341.060439168722
 20
-3175.011067132723
 30
0.0
 11
-1341.060439168722
 21
-3176.511067132723
 31
0.0
  0
LINE
  5
1B405
330
1F
100
AcDbEntity
  8
0
 48
0.5
100
AcDbLine
 10
-1306.060439168722
 20
-3174.011067132723
 30
0.0
 11
-1306.060439168722
 21
-3176.511067132723
 31
0.0
  0
LINE
  5
1B406
330
1F
100
AcDbEntity
  8
0
 48
0.5
100
AcDbLine
 10
-1331.060439168722
 20
-3174.011067132723
 30
0.0
 11
-1306.060439168722
 21
-3174.011067132723
 31
0.0
  0
ARC
  5
1B407
330
1F
100
AcDbEntity
  8
0
 48
0.5
100
AcDbCircle
 10
-1331.060439168722
 20
-3224.511067132723
 30
0.0
 40
50.50000000000004
100
AcDbArc
 50
90.0
 51
101.4211862749924
  0
ENDSEC
  0
SECTION
  2
OBJECTS
  0
DICTIONARY
  5
C
330
0
100
AcDbDictionary
281
     1
  3
ACAD_CIP_PREVIOUS_PRODUCT_INFO
350
101B55D
  3
ACAD_COLOR
350
1D4
  3
ACAD_DETAILVIEWSTYLE
350
101B557
  3
ACAD_GROUP
350
D
  3
ACAD_LAYOUT
350
1A
  3
ACAD_MATERIAL
350
1D3
  3
ACAD_MLEADERSTYLE
350
101B552
  3
ACAD_MLINESTYLE
350
17
  3
ACAD_PLOTSETTINGS
350
19
  3
ACAD_PLOTSTYLENAME
350
E
  3
ACAD_SCALELIST
350
101B540
  3
ACAD_SECTIONVIEWSTYLE
350
101B554
  3
ACAD_TABLESTYLE
350
1D5
  3
ACAD_VISUALSTYLE
350
101B527
  3
AcadDim
350
1B19D
  3
ACDB_RECOMPOSE_DATA
350
101B58C
  3
AcDbVariableDictionary
350
265
  0
DICTIONARY
  5
411
330
2
100
AcDbDictionary
280
     1
281
     1
  3
ACAD_LAYERFILTERS
360
4264
  3
ACLYDICTIONARY
360
4263
  0
DICTIONARY
  5
101B55E
330
10
100
AcDbDictionary
280
     1
281
     1
  3
ADSK_XREC_LAYER_RECONCILED
360
101B55F
  0
DICTIONARY
  5
101B560
330
40A
100
AcDbDictionary
280
     1
281
     1
  3
ADSK_XREC_LAYER_RECONCILED
360
101B561
  0
DICTIONARY
  5
101B562
330
40F
100
AcDbDictionary
280
     1
281
     1
  3
ADSK_XREC_LAYER_RECONCILED
360
101B563
  0
DICTIONARY
  5
101B564
330
410
100
AcDbDictionary
280
     1
281
     1
  3
ADSK_XREC_LAYER_RECONCILED
360
101B565
  0
DICTIONARY
  5
101B566
330
281D
100
AcDbDictionary
280
     1
281
     1
  3
ADSK_XREC_LAYER_RECONCILED
360
101B567
  0
DICTIONARY
  5
101B568
330
4262
100
AcDbDictionary
280
     1
281
     1
  3
ADSK_XREC_LAYER_RECONCILED
360
101B569
  0
DICTIONARY
  5
101B56A
330
CAEE
100
AcDbDictionary
280
     1
281
     1
  3
ADSK_XREC_LAYER_RECONCILED
360
101B56B
  0
DICTIONARY
  5
101B56C
330
CAF2
100
AcDbDictionary
280
     1
281
     1
  3
ADSK_XREC_LAYER_RECONCILED
360
101B56D
  0
DICTIONARY
  5
101B56E
330
1B41A
100
AcDbDictionary
280
     1
281
     1
  3
ADSK_XREC_LAYER_RECONCILED
360
101B56F
  0
DICTIONARY
  5
206
330
1F
100
AcDbDictionary
280
     1
281
     1
  3
ACAD_SORTENTS
360
207
  0
XRECORD
  5
101B55D
102
{ACAD_REACTORS
330
C
102
}
330
C
100
AcDbXrecord
280
     1
300
ACD
300
2017
300
ACD_F_S
  0
DICTIONARY
  5
1D4
102
{ACAD_REACTORS
330
C
102
}
330
C
100
AcDbDictionary
281
     1
  0
DICTIONARY
  5
101B557
102
{ACAD_REACTORS
330
C
102
}
330
C
100
AcDbDictionary
281
     1
  3
Metric50
350
101B558
  0
DICTIONARY
  5
D
102
{ACAD_REACTORS
330
C
102
}
330
C
100
AcDbDictionary
281
     1
  0
DICTIONARY
  5
1A
102
{ACAD_REACTORS
330
C
102
}
330
C
100
AcDbDictionary
281
     1
  3
Layout1
350
1E
  3
Layout2
350
26
  3
Model
350
22
  0
DICTIONARY
  5
1D3
102
{ACAD_REACTORS
330
C
102
}
330
C
100
AcDbDictionary
281
     1
  3
ByBlock
350
101B517
  3
ByLayer
350
101B50F
  3
Global
350
101B51F
  0
DICTIONARY
  5
101B552
102
{ACAD_REACTORS
330
C
102
}
330
C
100
AcDbDictionary
281
     1
  3
Standard
350
101B553
  0
DICTIONARY
  5
17
102
{ACAD_REACTORS
330
C
102
}
330
C
100
AcDbDictionary
281
     1
  3
Standard
350
18
  0
DICTIONARY
  5
19
102
{ACAD_REACTORS
330
C
102
}
330
C
100
AcDbDictionary
281
     1
  0
ACDBDICTIONARYWDFLT
  5
E
102
{ACAD_REACTORS
330
C
102
}
330
C
100
AcDbDictionary
281
     1
  3
Normal
350
F
100
AcDbDictionaryWithDefault
340
F
  0
DICTIONARY
  5
101B540
102
{ACAD_REACTORS
330
C
102
}
330
C
100
AcDbDictionary
281
     1
  3
A0
350
101B541
  3
A1
350
101B542
  3
A2
350
101B543
  3
A3
350
101B544
  3
A4
350
101B545
  3
A5
350
101B546
  3
A6
350
101B547
  3
A7
350
101B548
  3
A8
350
101B549
  3
A9
350
101B54A
  3
B0
350
101B54B
  3
B1
350
101B54C
  3
B2
350
101B54D
  3
B3
350
101B54E
  3
B4
350
101B54F
  3
B5
350
101B550
  3
B6
350
101B551
  0
DICTIONARY
  5
101B554
102
{ACAD_REACTORS
330
C
102
}
330
C
100
AcDbDictionary
281
     1
  3
Metric50
350
101B556
  0
DICTIONARY
  5
1D5
102
{ACAD_REACTORS
330
C
102
}
330
C
100
AcDbDictionary
281
     1
  3
Standard
350
1D6
  0
DICTIONARY
  5
101B527
102
{ACAD_REACTORS
330
C
102
}
330
C
100
AcDbDictionary
281
     1
  3
2dWireframe
350
101B52D
  3
Basic
350
101B52C
  3
Brighten
350
101B533
  3
ColorChange
350
101B537
  3
Conceptual
350
101B530
  3
Dim
350
101B532
  3
EdgeColorOff
350
101B53F
  3
Facepattern
350
101B536
  3
Flat
350
101B528
  3
FlatWithEdges
350
101B529
  3
Gouraud
350
101B52A
  3
GouraudWithEdges
350
101B52B
  3
Hidden
350
101B52F
  3
JitterOff
350
101B53D
  3
Linepattern
350
101B535
  3
OverhangOff
350
101B53E
  3
Realistic
350
101B531
  3
Shaded
350
101B53C
  3
Shaded with edges
350
101B53B
  3
Shades of Gray
350
101B538
  3
Sketchy
350
101B539
  3
Thicken
350
101B534
  3
Wireframe
350
101B52E
  3
X-Ray
350
101B53A
  0
XRECORD
  5
1B19D
102
{ACAD_REACTORS
330
C
102
}
330
C
100
AcDbXrecord
280
     1
 90
   990106
  3

 60
     0
 61
     0
 62
     1
 63
     3
 64
     0
 65
     0
 66
     0
 67
     3
 68
     1
 69
     0
 70
     0
 71
     0
 72
     0
 40
51.92405077377407
170
     0
  0
XRECORD
  5
101B58C
102
{ACAD_REACTORS
330
C
102
}
330
C
100
AcDbXrecord
280
     1
 90
        1
330
1D6
330
101B556
330
101B558
  0
DICTIONARY
  5
265
102
{ACAD_REACTORS
330
C
102
}
330
C
100
AcDbDictionary
281
     1
  3
CANNOSCALE
350
101B582
  3
CMLEADERSTYLE
350
101B57E
  3
CTABLESTYLE
350
266
  3
CVIEWDETAILSTYLE
350
101B57F
  3
CVIEWSECTIONSTYLE
350
101B580
  3
DIMASSOC
350
1A744
  3
LAYEREVAL
350
101B584
  3
LAYERNOTIFY
350
101B585
  3
LIGHTINGUNITS
350
101B583
  3
MSLTSCALE
350
101B581
  3
PROJECTNAME
350
1A745
  0
DICTIONARY
  5
4264
102
{ACAD_REACTORS
330
411
102
}
330
411
100
AcDbDictionary
281
     1
  0
DICTIONARY
  5
4263
102
{ACAD_REACTORS
330
411
102
}
330
411
100
AcDbDictionary
281
     1
1001
ACAD
1000
<All
  0
XRECORD
  5
101B55F
102
{ACAD_REACTORS
330
101B55E
102
}
330
101B55E
100
AcDbXrecord
280
     1
290
     1
  0
XRECORD
  5
101B561
102
{ACAD_REACTORS
330
101B560
102
}
330
101B560
100
AcDbXrecord
280
     1
290
     1
  0
XRECORD
  5
101B563
102
{ACAD_REACTORS
330
101B562
102
}
330
101B562
100
AcDbXrecord
280
     1
290
     1
  0
XRECORD
  5
101B565
102
{ACAD_REACTORS
330
101B564
102
}
330
101B564
100
AcDbXrecord
280
     1
290
     1
  0
XRECORD
  5
101B567
102
{ACAD_REACTORS
330
101B566
102
}
330
101B566
100
AcDbXrecord
280
     1
290
     1
  0
XRECORD
  5
101B569
102
{ACAD_REACTORS
330
101B568
102
}
330
101B568
100
AcDbXrecord
280
     1
290
     1
  0
XRECORD
  5
101B56B
102
{ACAD_REACTORS
330
101B56A
102
}
330
101B56A
100
AcDbXrecord
280
     1
290
     1
  0
XRECORD
  5
101B56D
102
{ACAD_REACTORS
330
101B56C
102
}
330
101B56C
100
AcDbXrecord
280
     1
290
     1
  0
XRECORD
  5
101B56F
102
{ACAD_REACTORS
330
101B56E
102
}
330
101B56E
100
AcDbXrecord
280
     1
290
     1
  0
SORTENTSTABLE
  5
207
102
{ACAD_REACTORS
330
206
102
}
330
206
100
AcDbSortentsTable
330
1F
331
1509B
  5
1519B
331
DCE7
  5
DDFB
331
1B163
  5
1B191
331
14F20
  5
15169
331
DCE8
  5
DDFD
331
DCF0
  5
DE05
331
1AD3C
  5
DE01
331
14EDC
  5
15093
331
14EE4
  5
15094
331
14F2B
  5
1518B
331
DD00
  5
DE09
331
14EEC
  5
1509E
331
14EE8
  5
15097
331
15097
  5
15199
331
15093
  5
15195
331
1509C
  5
1AD3B
331
14F01
  5
15163
331
14F25
  5
15185
331
14F21
  5
15182
331
DCF1
  5
DE06
331
1AD39
  5
1AD46
331
14EDD
  5
DE00
331
14F2C
  5
1518C
331
14F28
  5
15167
331
1B3D8
  5
1B3F2
331
15080
  5
15193
331
DD01
  5
DE08
331
14EED
  5
1509F
331
15094
  5
15196
331
1B369
  5
1B3E5
331
1509D
  5
1AD3C
331
15099
  5
1519A
331
14F06
  5
15181
331
14F26
  5
15187
331
14F22
  5
15183
331
DCEA
  5
DE04
331
DCF2
  5
DE07
331
1AD3A
  5
1AD47
331
14F2D
  5
15191
331
14F29
  5
15189
331
14EE6
  5
15095
331
1B3E5
  5
1B3F3
331
14EEA
  5
1509B
331
15095
  5
15197
331
1B156
  5
1B173
331
14EFB
  5
15162
331
14F1F
  5
15180
331
14F27
  5
15168
331
14F23
  5
15184
331
1AD3B
  5
DDFC
331
14F2E
  5
15192
331
14F2A
  5
1518A
331
14EE7
  5
15096
331
DD03
  5
DE03
331
15096
  5
15198
331
1B3F2
  5
150A0
331
15092
  5
15194
  0
ACDBDETAILVIEWSTYLE
  5
101B558
102
{ACAD_XDICTIONARY
360
101B58A
102
}
102
{ACAD_REACTORS
330
101B557
102
}
330
101B557
100
AcDbModelDocViewStyle
 70
     0
  3
Metric50
290
     0
100
AcDbDetailViewStyle
 70
     0
 71
     0
 90
        3
 71
     1
340
11
 62
   256
 40
5.0
340
0
 62
   256
 40
5.0
300

 40
0.0
280
     1
 71
     2
340
16
 90
       25
 62
   256
 71
     3
340
11
 62
   256
 40
5.0
 90
        0
 40
15.0
 90
        1
300
%<\AcVar ViewDetailId>% (%<\AcVar ViewScale \f "%sn">%)
 71
     4
340
16
 90
       25
 62
   256
340
16
 90
       25
 62
   256
280
     0
  0
LAYOUT
  5
1E
102
{ACAD_REACTORS
330
1A
102
}
330
1A
100
AcDbPlotSettings
  1

  2

  4

  6

 40
0.0
 41
0.0
 42
0.0
 43
0.0
 44
0.0
 45
0.0
 46
0.0
 47
0.0
 48
0.0
 49
0.0
140
0.0
141
0.0
142
1.0
143
1.0
 70
   688
 72
     0
 73
     0
 74
     5
  7

 75
    16
147
1.0
 76
     0
 77
     2
 78
   300
148
0.0
149
0.0
100
AcDbLayout
  1
Layout1
 70
     1
 71
     1
 10
0.0
 20
0.0
 11
420.0
 21
297.0
 12
0.0
 22
0.0
 32
0.0
 14
1.000000000000000E+20
 24
1.000000000000000E+20
 34
1.000000000000000E+20
 15
-1.000000000000000E+20
 25
-1.000000000000000E+20
 35
-1.000000000000000E+20
146
0.0
 13
0.0
 23
0.0
 33
0.0
 16
1.0
 26
0.0
 36
0.0
 17
0.0
 27
1.0
 37
0.0
 76
     0
330
1B
  0
LAYOUT
  5
26
102
{ACAD_REACTORS
330
1A
102
}
330
1A
100
AcDbPlotSettings
  1

  2

  4

  6

 40
0.0
 41
0.0
 42
0.0
 43
0.0
 44
0.0
 45
0.0
 46
0.0
 47
0.0
 48
0.0
 49
0.0
140
0.0
141
0.0
142
1.0
143
1.0
 70
   688
 72
     0
 73
     0
 74
     5
  7

 75
    16
147
1.0
 76
     0
 77
     2
 78
   300
148
0.0
149
0.0
100
AcDbLayout
  1
Layout2
 70
     1
 71
     2
 10
0.0
 20
0.0
 11
0.0
 21
0.0
 12
0.0
 22
0.0
 32
0.0
 14
0.0
 24
0.0
 34
0.0
 15
0.0
 25
0.0
 35
0.0
146
0.0
 13
0.0
 23
0.0
 33
0.0
 16
1.0
 26
0.0
 36
0.0
 17
0.0
 27
1.0
 37
0.0
 76
     0
330
23
  0
LAYOUT
  5
22
102
{ACAD_REACTORS
330
1A
102
}
330
1A
100
AcDbPlotSettings
  1

  2
Adobe PDF
  4
A4
  6

 40
3.174999952316284
 41
3.174999952316284
 42
3.175003051757812
 43
3.17498779296875
 44
209.9733276367187
 45
297.0318298339844
 46
0.0
 47
0.0
 48
0.0
 49
0.0
140
0.0
141
0.0
142
1.0
143
0.7475498042581874
 70
 11952
 72
     1
 73
     1
 74
     0
  7

 75
     0
147
1.337703513938212
 76
     0
 77
     2
 78
   300
148
-62.04520941299825
149
-114.2038463351312
100
AcDbLayout
  1
Model
 70
     1
 71
     0
 10
0.0
 20
0.0
 11
0.0
 21
0.0
 12
0.0
 22
0.0
 32
0.0
 14
0.0
 24
0.0
 34
0.0
 15
297.0
 25
210.0
 35
0.0
146
0.0
 13
0.0
 23
0.0
 33
0.0
 16
1.0
 26
0.0
 36
0.0
 17
0.0
 27
1.0
 37
0.0
 76
     0
330
1F
331
1B506
1001
ACAD_PSEXT
1000
Adobe PDF
1000
Adobe PDF Converter
1000
My Documents
1000

1070
     0
  0
MATERIAL
  5
101B517
102
{ACAD_XDICTIONARY
360
101B518
102
}
102
{ACAD_REACTORS
330
1D3
102
}
330
1D3
100
AcDbMaterial
  1
ByBlock
 72
     0
 43
0.0008202099737533
 43
0.0
 43
0.0
 43
0.0
 43
0.0
 43
0.0008202099737533
 43
0.0
 43
0.0
 43
0.0
 43
0.0
 43
1.0
 43
0.0
 43
0.0
 43
0.0
 43
0.0
 43
1.0
 77
     0
 47
0.0008202099737533
 47
0.0
 47
0.0
 47
0.0
 47
0.0
 47
0.0008202099737533
 47
0.0
 47
0.0
 47
0.0
 47
0.0
 47
1.0
 47
0.0
 47
0.0
 47
0.0
 47
0.0
 47
1.0
171
     0
 49
0.0008202099737533
 49
0.0
 49
0.0
 49
0.0
 49
0.0
 49
0.0008202099737533
 49
0.0
 49
0.0
 49
0.0
 49
0.0
 49
1.0
 49
0.0
 49
0.0
 49
0.0
 49
0.0
 49
1.0
175
     0
142
0.0008202099737533
142
0.0
142
0.0
142
0.0
142
0.0
142
0.0008202099737533
142
0.0
142
0.0
142
0.0
142
0.0
142
1.0
142
0.0
142
0.0
142
0.0
142
0.0
142
1.0
179
     0
144
0.0008202099737533
144
0.0
144
0.0
144
0.0
144
0.0
144
0.0008202099737533
144
0.0
144
0.0
144
0.0
144
0.0
144
1.0
144
0.0
144
0.0
144
0.0
144
0.0
144
1.0
147
0.0008202099737533
147
0.0
147
0.0
147
0.0
147
0.0
147
0.0008202099737533
147
0.0
147
0.0
147
0.0
147
0.0
147
1.0
147
0.0
147
0.0
147
0.0
147
0.0
147
1.0
  0
MATERIAL
  5
101B50F
102
{ACAD_XDICTIONARY
360
101B510
102
}
102
{ACAD_REACTORS
330
1D3
102
}
330
1D3
100
AcDbMaterial
  1
ByLayer
 72
     0
 43
0.0008202099737533
 43
0.0
 43
0.0
 43
0.0
 43
0.0
 43
0.0008202099737533
 43
0.0
 43
0.0
 43
0.0
 43
0.0
 43
1.0
 43
0.0
 43
0.0
 43
0.0
 43
0.0
 43
1.0
 77
     0
 47
0.0008202099737533
 47
0.0
 47
0.0
 47
0.0
 47
0.0
 47
0.0008202099737533
 47
0.0
 47
0.0
 47
0.0
 47
0.0
 47
1.0
 47
0.0
 47
0.0
 47
0.0
 47
0.0
 47
1.0
171
     0
 49
0.0008202099737533
 49
0.0
 49
0.0
 49
0.0
 49
0.0
 49
0.0008202099737533
 49
0.0
 49
0.0
 49
0.0
 49
0.0
 49
1.0
 49
0.0
 49
0.0
 49
0.0
 49
0.0
 49
1.0
175
     0
142
0.0008202099737533
142
0.0
142
0.0
142
0.0
142
0.0
142
0.0008202099737533
142
0.0
142
0.0
142
0.0
142
0.0
142
1.0
142
0.0
142
0.0
142
0.0
142
0.0
142
1.0
179
     0
144
0.0008202099737533
144
0.0
144
0.0
144
0.0
144
0.0
144
0.0008202099737533
144
0.0
144
0.0
144
0.0
144
0.0
144
1.0
144
0.0
144
0.0
144
0.0
144
0.0
144
1.0
147
0.0008202099737533
147
0.0
147
0.0
147
0.0
147
0.0
147
0.0008202099737533
147
0.0
147
0.0
147
0.0
147
0.0
147
1.0
147
0.0
147
0.0
147
0.0
147
0.0
147
1.0
  0
MATERIAL
  5
101B51F
102
{ACAD_XDICTIONARY
360
101B520
102
}
102
{ACAD_REACTORS
330
1D3
102
}
330
1D3
100
AcDbMaterial
  1
Global
 72
     0
 43
0.0008202099737533
 43
0.0
 43
0.0
 43
0.0
 43
0.0
 43
0.0008202099737533
 43
0.0
 43
0.0
 43
0.0
 43
0.0
 43
1.0
 43
0.0
 43
0.0
 43
0.0
 43
0.0
 43
1.0
 77
     0
 47
0.0008202099737533
 47
0.0
 47
0.0
 47
0.0
 47
0.0
 47
0.0008202099737533
 47
0.0
 47
0.0
 47
0.0
 47
0.0
 47
1.0
 47
0.0
 47
0.0
 47
0.0
 47
0.0
 47
1.0
171
     0
 49
0.0008202099737533
 49
0.0
 49
0.0
 49
0.0
 49
0.0
 49
0.0008202099737533
 49
0.0
 49
0.0
 49
0.0
 49
0.0
 49
1.0
 49
0.0
 49
0.0
 49
0.0
 49
0.0
 49
1.0
175
     0
142
0.0008202099737533
142
0.0
142
0.0
142
0.0
142
0.0
142
0.0008202099737533
142
0.0
142
0.0
142
0.0
142
0.0
142
1.0
142
0.0
142
0.0
142
0.0
142
0.0
142
1.0
179
     0
144
0.0008202099737533
144
0.0
144
0.0
144
0.0
144
0.0
144
0.0008202099737533
144
0.0
144
0.0
144
0.0
144
0.0
144
1.0
144
0.0
144
0.0
144
0.0
144
0.0
144
1.0
147
0.0008202099737533
147
0.0
147
0.0
147
0.0
147
0.0
147
0.0008202099737533
147
0.0
147
0.0
147
0.0
147
0.0
147
1.0
147
0.0
147
0.0
147
0.0
147
0.0
147
1.0
  0
MLEADERSTYLE
  5
101B553
102
{ACAD_REACTORS
330
101B552
102
}
330
101B552
100
AcDbMLeaderStyle
179
     2
170
     2
171
     1
172
     0
 90
        2
 40
0.0
 41
0.0
173
     1
 91
-1056964608
340
14
 92
       -2
290
     1
 42
2.0
291
     1
 43
0.36
  3
Standard
 44
4.0
300

342
11
174
     1
178
     6
175
     1
176
     0
 93
-1056964608
 45
4.0
292
     0
297
     0
 46
4.0
 94
-1056964608
 47
1.0
 49
1.0
140
1.0
293
     1
141
0.0
294
     1
177
     0
142
1.0
295
     1
296
     0
143
0.125
271
     0
272
     9
273
     9
298
     1
  0
MLINESTYLE
  5
18
102
{ACAD_REACTORS
330
17
102
}
330
17
100
AcDbMlineStyle
  2
STANDARD
 70
     0
  3

 62
   256
 51
90.0
 52
90.0
 71
     2
 49
0.5
 62
   256
  6
BYLAYER
 49
-0.5
 62
   256
  6
BYLAYER
  0
ACDBPLACEHOLDER
  5
F
102
{ACAD_REACTORS
330
E
102
}
330
E
  0
SCALE
  5
101B541
102
{ACAD_REACTORS
330
101B540
102
}
330
101B540
100
AcDbScale
 70
     0
300
1:1
140
1.0
141
1.0
290
     1
  0
SCALE
  5
101B542
102
{ACAD_REACTORS
330
101B540
102
}
330
101B540
100
AcDbScale
 70
     0
300
1:2
140
1.0
141
2.0
290
     0
  0
SCALE
  5
101B543
102
{ACAD_REACTORS
330
101B540
102
}
330
101B540
100
AcDbScale
 70
     0
300
1:4
140
1.0
141
4.0
290
     0
  0
SCALE
  5
101B544
102
{ACAD_REACTORS
330
101B540
102
}
330
101B540
100
AcDbScale
 70
     0
300
1:5
140
1.0
141
5.0
290
     0
  0
SCALE
  5
101B545
102
{ACAD_REACTORS
330
101B540
102
}
330
101B540
100
AcDbScale
 70
     0
300
1:8
140
1.0
141
8.0
290
     0
  0
SCALE
  5
101B546
102
{ACAD_REACTORS
330
101B540
102
}
330
101B540
100
AcDbScale
 70
     0
300
1:10
140
1.0
141
10.0
290
     0
  0
SCALE
  5
101B547
102
{ACAD_REACTORS
330
101B540
102
}
330
101B540
100
AcDbScale
 70
     0
300
1:16
140
1.0
141
16.0
290
     0
  0
SCALE
  5
101B548
102
{ACAD_REACTORS
330
101B540
102
}
330
101B540
100
AcDbScale
 70
     0
300
1:20
140
1.0
141
20.0
290
     0
  0
SCALE
  5
101B549
102
{ACAD_REACTORS
330
101B540
102
}
330
101B540
100
AcDbScale
 70
     0
300
1:30
140
1.0
141
30.0
290
     0
  0
SCALE
  5
101B54A
102
{ACAD_REACTORS
330
101B540
102
}
330
101B540
100
AcDbScale
 70
     0
300
1:40
140
1.0
141
40.0
290
     0
  0
SCALE
  5
101B54B
102
{ACAD_REACTORS
330
101B540
102
}
330
101B540
100
AcDbScale
 70
     0
300
1:50
140
1.0
141
50.0
290
     0
  0
SCALE
  5
101B54C
102
{ACAD_REACTORS
330
101B540
102
}
330
101B540
100
AcDbScale
 70
     0
300
1:100
140
1.0
141
100.0
290
     0
  0
SCALE
  5
101B54D
102
{ACAD_REACTORS
330
101B540
102
}
330
101B540
100
AcDbScale
 70
     0
300
2:1
140
2.0
141
1.0
290
     0
  0
SCALE
  5
101B54E
102
{ACAD_REACTORS
330
101B540
102
}
330
101B540
100
AcDbScale
 70
     0
300
4:1
140
4.0
141
1.0
290
     0
  0
SCALE
  5
101B54F
102
{ACAD_REACTORS
330
101B540
102
}
330
101B540
100
AcDbScale
 70
     0
300
8:1
140
8.0
141
1.0
290
     0
  0
SCALE
  5
101B550
102
{ACAD_REACTORS
330
101B540
102
}
330
101B540
100
AcDbScale
 70
     0
300
10:1
140
10.0
141
1.0
290
     0
  0
SCALE
  5
101B551
102
{ACAD_REACTORS
330
101B540
102
}
330
101B540
100
AcDbScale
 70
     0
300
100:1
140
100.0
141
1.0
290
     0
  0
ACDBSECTIONVIEWSTYLE
  5
101B556
102
{ACAD_XDICTIONARY
360
101B588
102
}
102
{ACAD_REACTORS
330
101B554
102
}
330
101B554
100
AcDbModelDocViewStyle
 70
     0
  3
Metric50
290
     0
100
AcDbSectionViewStyle
 70
     0
 71
     0
 90
      102
 71
     1
340
11
 62
   256
 40
5.0
340
0
340
0
 62
   256
 40
5.0
300
I, O, Q, S, X, Z
 40
10.0
 90
        0
 40
2.5
 90
        0
 71
     2
340
16
 90
       25
 62
   256
340
16
 90
       50
 62
   256
 40
5.0
 40
2.5
 40
5.0
 71
     3
340
11
 62
   256
 40
5.0
 90
        0
 40
15.0
 90
        1
300
%<\AcVar ViewSectionStartId>%-%<\AcVar ViewSectionEndId>% (%<\AcVar ViewScale \f "%sn">%)
 71
     4
 62
   256
 62
   257
300
ANSI31
 40
1.0
 90
        0
290
     0
290
     0
 90
        6
 40
0.0
 40
1.570796326794896
 40
0.2617993877991494
 40
1.308996938995747
 40
-0.2617993877991494
 40
1.832595714594046
  0
TABLESTYLE
  5
1D6
102
{ACAD_XDICTIONARY
360
101B586
102
}
102
{ACAD_REACTORS
330
1D5
102
}
330
1D5
100
AcDbTableStyle
280
     0
  3
Standard
 70
     0
 71
     0
 40
1.5
 41
1.5
280
     0
281
     0
  7
Standard
140
4.5
170
     2
 62
     0
 63
     7
283
     0
 90
        4
 91
        0
  1

274
    -2
284
     1
 64
     0
275
    -2
285
     1
 65
     0
276
    -2
286
     1
 66
     0
277
    -2
287
     1
 67
     0
278
    -2
288
     1
 68
     0
279
    -2
289
     1
 69
     0
  7
Standard
140
6.0
170
     5
 62
     0
 63
     7
283
     0
 90
        4
 91
        0
  1

274
    -2
284
     1
 64
     0
275
    -2
285
     1
 65
     0
276
    -2
286
     1
 66
     0
277
    -2
287
     1
 67
     0
278
    -2
288
     1
 68
     0
279
    -2
289
     1
 69
     0
  7
Standard
140
4.5
170
     5
 62
     0
 63
     7
283
     0
 90
        4
 91
        0
  1

274
    -2
284
     1
 64
     0
275
    -2
285
     1
 65
     0
276
    -2
286
     1
 66
     0
277
    -2
287
     1
 67
     0
278
    -2
288
     1
 68
     0
279
    -2
289
     1
 69
     0
  0
VISUALSTYLE
  5
101B52D
102
{ACAD_REACTORS
330
101B527
102
}
330
101B527
100
AcDbVisualStyle
  2
2dWireframe
 70
     4
177
     3
291
     0
 70
    58
 90
        0
176
     1
 90
        2
176
     1
 90
        0
176
     1
 90
        0
176
     1
 40
0.6
176
     1
 40
30.0
176
     1
 62
     7
420
 16777215
176
     1
 90
        1
176
     1
 90
        4
176
     1
 62
     7
176
     1
 62
   257
176
     1
 90
        1
176
     1
 90
        1
176
     1
 40
1.0
176
     1
 90
        0
176
     1
 62
   257
176
     1
 40
1.0
176
     1
 90
        1
176
     1
 90
        6
176
     1
 90
        2
176
     1
 62
     7
176
     1
 90
        5
176
     1
 90
        0
176
     1
 90
        0
176
     1
290
     0
176
     1
 90
        1
176
     1
 40
0.0
176
     1
 90
        0
176
     1
290
     1
176
     1
290
     1
176
     1
290
     0
176
     1
290
     0
176
     1
290
     0
176
     1
290
     0
176
     1
290
     0
176
     1
290
     0
176
     1
290
     0
176
     1
 90
       50
176
     1
 40
0.0
176
     1
 40
1.0
176
     1
 90
        0
176
     1
 62
    18
420
        0
176
     1
 90
       50
176
     1
 90
        3
176
     1
 62
     5
420
      255
176
     1
290
     0
176
     1
 90
       50
176
     1
 90
       50
176
     1
 90
       50
176
     1
290
     0
176
     1
 90
       50
176
     1
 62
   256
176
     0
 40
1.0
176
     0
 90
        2
176
     1
  1
strokes_ogs.tif
176
     1
290
     0
176
     1
 40
1.0
176
     1
 40
1.0
176
     1
  0
VISUALSTYLE
  5
101B52C
102
{ACAD_REACTORS
330
101B527
102
}
330
101B527
100
AcDbVisualStyle
  2
Basic
 70
     7
177
     3
291
     1
 70
    58
 90
        1
176
     1
 90
        0
176
     1
 90
        1
176
     1
 90
        0
176
     1
 40
0.6
176
     1
 40
30.0
176
     1
 62
     7
420
 16777215
176
     1
 90
        0
176
     1
 90
        4
176
     1
 62
     7
176
     1
 62
   257
176
     1
 90
        1
176
     1
 90
        1
176
     1
 40
1.0
176
     1
 90
        8
176
     1
 62
     7
176
     1
 40
1.0
176
     1
 90
        1
176
     1
 90
        6
176
     1
 90
        2
176
     1
 62
     7
176
     1
 90
        5
176
     1
 90
        0
176
     1
 90
        0
176
     1
290
     0
176
     1
 90
        1
176
     1
 40
0.0
176
     1
 90
        0
176
     1
290
     0
176
     1
290
     1
176
     1
290
     1
176
     1
290
     0
176
     1
290
     0
176
     1
290
     0
176
     1
290
     0
176
     1
290
     0
176
     1
290
     0
176
     1
 90
       50
176
     1
 40
0.0
176
     1
 40
1.0
176
     1
 90
        0
176
     1
 62
    18
420
        0
176
     1
 90
       50
176
     1
 90
        3
176
     1
 62
     5
420
      255
176
     1
290
     0
176
     1
 90
       50
176
     1
 90
       50
176
     1
 90
       50
176
     1
290
     0
176
     1
 90
       50
176
     1
 62
   256
176
     0
 40
1.0
176
     0
 90
        2
176
     1
  1
strokes_ogs.tif
176
     1
290
     0
176
     1
 40
1.0
176
     1
 40
1.0
176
     1
  0
VISUALSTYLE
  5
101B533
102
{ACAD_REACTORS
330
101B527
102
}
330
101B527
100
AcDbVisualStyle
  2
Brighten
 70
    12
177
     3
291
     1
 70
    58
 90
        2
176
     1
 90
        2
176
     1
 90
        0
176
     1
 90
        0
176
     1
 40
0.6
176
     1
 40
30.0
176
     1
 62
     7
420
 16777215
176
     1
 90
        1
176
     1
 90
        4
176
     1
 62
     7
176
     1
 62
   257
176
     1
 90
        1
176
     1
 90
        1
176
     1
 40
1.0
176
     1
 90
        8
176
     1
 62
     7
176
     1
 40
1.0
176
     1
 90
        1
176
     1
 90
        6
176
     1
 90
        2
176
     1
 62
     7
176
     1
 90
        5
176
     1
 90
        0
176
     1
 90
        0
176
     1
290
     0
176
     1
 90
        1
176
     1
 40
50.0
176
     1
 90
        0
176
     1
290
     0
176
     1
290
     1
176
     1
290
     1
176
     1
290
     0
176
     1
290
     0
176
     1
290
     0
176
     1
290
     0
176
     1
290
     0
176
     1
290
     0
176
     1
 90
       50
176
     1
 40
0.0
176
     1
 40
1.0
176
     1
 90
        0
176
     1
 62
    18
420
        0
176
     1
 90
       50
176
     1
 90
        3
176
     1
 62
     5
420
      255
176
     1
290
     0
176
     1
 90
       50
176
     1
 90
       50
176
     1
 90
       50
176
     1
290
     0
176
     1
 90
       50
176
     1
 62
   256
176
     0
 40
1.0
176
     0
 90
        2
176
     1
  1
strokes_ogs.tif
176
     1
290
     0
176
     1
 40
1.0
176
     1
 40
1.0
176
     1
  0
VISUALSTYLE
  5
101B537
102
{ACAD_REACTORS
330
101B527
102
}
330
101B527
100
AcDbVisualStyle
  2
ColorChange
 70
    16
177
     3
291
     1
 70
    58
 90
        2
176
     1
 90
        2
176
     1
 90
        3
176
     1
 90
        0
176
     1
 40
0.6
176
     1
 40
30.0
176
     1
 62
     8
420
  8421504
176
     1
 90
        1
176
     1
 90
        4
176
     1
 62
     7
176
     1
 62
   257
176
     1
 90
        1
176
     1
 90
        1
176
     1
 40
1.0
176
     1
 90
        8
176
     1
 62
     8
420
  8421504
176
     1
 40
1.0
176
     1
 90
        1
176
     1
 90
        6
176
     1
 90
        2
176
     1
 62
     7
176
     1
 90
        5
176
     1
 90
        0
176
     1
 90
        0
176
     1
290
     0
176
     1
 90
        1
176
     1
 40
0.0
176
     1
 90
        0
176
     1
290
     0
176
     1
290
     1
176
     1
290
     1
176
     1
290
     0
176
     1
290
     0
176
     1
290
     0
176
     1
290
     0
176
     1
290
     0
176
     1
290
     0
176
     1
 90
       50
176
     1
 40
0.0
176
     1
 40
1.0
176
     1
 90
        0
176
     1
 62
    18
420
        0
176
     1
 90
       50
176
     1
 90
        3
176
     1
 62
     5
420
      255
176
     1
290
     0
176
     1
 90
       50
176
     1
 90
       50
176
     1
 90
       50
176
     1
290
     0
176
     1
 90
       50
176
     1
 62
   256
176
     0
 40
1.0
176
     0
 90
        2
176
     1
  1
strokes_ogs.tif
176
     1
290
     0
176
     1
 40
1.0
176
     1
 40
1.0
176
     1
  0
VISUALSTYLE
  5
101B530
102
{ACAD_REACTORS
330
101B527
102
}
330
101B527
100
AcDbVisualStyle
  2
Conceptual
 70
     9
177
     3
291
     0
 70
    58
 90
        3
176
     1
 90
        2
176
     1
 90
        0
176
     1
 90
        0
176
     1
 40
0.6
176
     1
 40
30.0
176
     1
 62
     7
420
 16777215
176
     1
 90
        2
176
     1
 90
        2
176
     1
 62
     7
176
     1
 62
   257
176
     1
 90
        1
176
     1
 90
        1
176
     1
 40
179.0
176
     1
 90
        8
176
     1
 62
     7
176
     1
 40
1.0
176
     1
 90
        1
176
     1
 90
        6
176
     1
 90
        2
176
     1
 62
     7
176
     1
 90
        3
176
     1
 90
        0
176
     1
 90
        0
176
     1
290
     0
176
     1
 90
        1
176
     1
 40
0.0
176
     1
 90
        0
176
     1
290
     0
176
     1
290
     1
176
     1
290
     1
176
     1
290
     0
176
     1
290
     0
176
     1
290
     0
176
     1
290
     0
176
     1
290
     0
176
     1
290
     0
176
     1
 90
       50
176
     1
 40
0.0
176
     1
 40
1.0
176
     1
 90
        0
176
     1
 62
    18
420
        0
176
     1
 90
       50
176
     1
 90
        3
176
     1
 62
     5
420
      255
176
     1
290
     0
176
     1
 90
       50
176
     1
 90
       50
176
     1
 90
       50
176
     1
290
     0
176
     1
 90
       50
176
     1
 62
   256
176
     0
 40
1.0
176
     0
 90
        2
176
     1
  1
strokes_ogs.tif
176
     1
290
     0
176
     1
 40
1.0
176
     1
 40
1.0
176
     1
  0
VISUALSTYLE
  5
101B532
102
{ACAD_REACTORS
330
101B527
102
}
330
101B527
100
AcDbVisualStyle
  2
Dim
 70
    11
177
     3
291
     1
 70
    58
 90
        2
176
     1
 90
        2
176
     1
 90
        0
176
     1
 90
        0
176
     1
 40
0.6
176
     1
 40
30.0
176
     1
 62
     7
420
 16777215
176
     1
 90
        1
176
     1
 90
        4
176
     1
 62
     7
176
     1
 62
   257
176
     1
 90
        1
176
     1
 90
        1
176
     1
 40
1.0
176
     1
 90
        8
176
     1
 62
     7
176
     1
 40
1.0
176
     1
 90
        1
176
     1
 90
        6
176
     1
 90
        2
176
     1
 62
     7
176
     1
 90
        5
176
     1
 90
        0
176
     1
 90
        0
176
     1
290
     0
176
     1
 90
        1
176
     1
 40
-50.0
176
     1
 90
        0
176
     1
290
     0
176
     1
290
     1
176
     1
290
     1
176
     1
290
     0
176
     1
290
     0
176
     1
290
     0
176
     1
290
     0
176
     1
290
     0
176
     1
290
     0
176
     1
 90
       50
176
     1
 40
0.0
176
     1
 40
1.0
176
     1
 90
        0
176
     1
 62
    18
420
        0
176
     1
 90
       50
176
     1
 90
        3
176
     1
 62
     5
420
      255
176
     1
290
     0
176
     1
 90
       50
176
     1
 90
       50
176
     1
 90
       50
176
     1
290
     0
176
     1
 90
       50
176
     1
 62
   256
176
     0
 40
1.0
176
     0
 90
        2
176
     1
  1
strokes_ogs.tif
176
     1
290
     0
176
     1
 40
1.0
176
     1
 40
1.0
176
     1
  0
VISUALSTYLE
  5
101B53F
102
{ACAD_REACTORS
330
101B527
102
}
330
101B527
100
AcDbVisualStyle
  2
EdgeColorOff
 70
    22
177
     3
291
     1
 70
    58
 90
        2
176
     0
 90
        2
176
     0
 90
        0
176
     0
 90
        0
176
     0
 40
0.6
176
     0
 40
30.0
176
     0
 62
     7
420
 16777215
176
     0
 90
        1
176
     0
 90
        4
176
     0
 62
     7
176
     0
 62
   257
176
     0
 90
        1
176
     0
 90
        1
176
     0
 40
1.0
176
     0
 90
        8
176
     2
 62
     7
176
     0
 40
1.0
176
     0
 90
        1
176
     0
 90
        6
176
     0
 90
        2
176
     0
 62
     7
176
     0
 90
        5
176
     0
 90
        0
176
     0
 90
        0
176
     0
290
     0
176
     0
 90
        1
176
     0
 40
0.0
176
     0
 90
        0
176
     0
290
     0
176
     0
290
     1
176
     0
290
     1
176
     0
290
     0
176
     0
290
     0
176
     0
290
     0
176
     0
290
     0
176
     0
290
     0
176
     0
290
     0
176
     0
 90
       50
176
     0
 40
0.0
176
     0
 40
1.0
176
     0
 90
        0
176
     0
 62
    18
420
        0
176
     0
 90
       50
176
     0
 90
        3
176
     0
 62
     5
420
      255
176
     0
290
     0
176
     0
 90
       50
176
     0
 90
       50
176
     0
 90
       50
176
     0
290
     0
176
     0
 90
       50
176
     0
 62
   256
176
     0
 40
1.0
176
     0
 90
        2
176
     0
  1
strokes_ogs.tif
176
     0
290
     0
176
     0
 40
1.0
176
     0
 40
1.0
176
     0
  0
VISUALSTYLE
  5
101B536
102
{ACAD_REACTORS
330
101B527
102
}
330
101B527
100
AcDbVisualStyle
  2
Facepattern
 70
    15
177
     3
291
     1
 70
    58
 90
        2
176
     1
 90
        2
176
     1
 90
        0
176
     1
 90
        0
176
     1
 40
0.6
176
     1
 40
30.0
176
     1
 62
     7
420
 16777215
176
     1
 90
        1
176
     1
 90
        4
176
     1
 62
     7
176
     1
 62
   257
176
     1
 90
        1
176
     1
 90
        1
176
     1
 40
1.0
176
     1
 90
        8
176
     1
 62
     7
176
     1
 40
1.0
176
     1
 90
        1
176
     1
 90
        6
176
     1
 90
        2
176
     1
 62
     7
176
     1
 90
        5
176
     1
 90
        0
176
     1
 90
        0
176
     1
290
     0
176
     1
 90
        1
176
     1
 40
0.0
176
     1
 90
        0
176
     1
290
     0
176
     1
290
     1
176
     1
290
     1
176
     1
290
     0
176
     1
290
     0
176
     1
290
     0
176
     1
290
     0
176
     1
290
     0
176
     1
290
     0
176
     1
 90
       50
176
     1
 40
0.0
176
     1
 40
1.0
176
     1
 90
        0
176
     1
 62
    18
420
        0
176
     1
 90
       50
176
     1
 90
        3
176
     1
 62
     5
420
      255
176
     1
290
     0
176
     1
 90
       50
176
     1
 90
       50
176
     1
 90
       50
176
     1
290
     0
176
     1
 90
       50
176
     1
 62
   256
176
     0
 40
1.0
176
     0
 90
        2
176
     1
  1
strokes_ogs.tif
176
     1
290
     0
176
     1
 40
1.0
176
     1
 40
1.0
176
     1
  0
VISUALSTYLE
  5
101B528
102
{ACAD_REACTORS
330
101B527
102
}
330
101B527
100
AcDbVisualStyle
  2
Flat
 70
     0
177
     3
291
     1
 70
    58
 90
        2
176
     1
 90
        1
176
     1
 90
        1
176
     1
 90
        2
176
     1
 40
0.6
176
     1
 40
30.0
176
     1
 62
     7
420
 16777215
176
     1
 90
        0
176
     1
 90
        0
176
     1
 62
     7
176
     1
 62
   257
176
     1
 90
        1
176
     1
 90
        1
176
     1
 40
1.0
176
     1
 90
        8
176
     1
 62
     7
176
     1
 40
1.0
176
     1
 90
        1
176
     1
 90
        6
176
     1
 90
        2
176
     1
 62
     7
176
     1
 90
        5
176
     1
 90
        0
176
     1
 90
        0
176
     1
290
     0
176
     1
 90
       13
176
     1
 40
0.0
176
     1
 90
        0
176
     1
290
     0
176
     1
290
     1
176
     1
290
     1
176
     1
290
     0
176
     1
290
     0
176
     1
290
     0
176
     1
290
     0
176
     1
290
     0
176
     1
290
     0
176
     1
 90
       50
176
     1
 40
0.0
176
     1
 40
1.0
176
     1
 90
        0
176
     1
 62
    18
420
        0
176
     1
 90
       50
176
     1
 90
        3
176
     1
 62
     5
420
      255
176
     1
290
     0
176
     1
 90
       50
176
     1
 90
       50
176
     1
 90
       50
176
     1
290
     0
176
     1
 90
       50
176
     1
 62
   256
176
     0
 40
1.0
176
     0
 90
        2
176
     1
  1
strokes_ogs.tif
176
     1
290
     0
176
     1
 40
1.0
176
     1
 40
1.0
176
     1
  0
VISUALSTYLE
  5
101B529
102
{ACAD_REACTORS
330
101B527
102
}
330
101B527
100
AcDbVisualStyle
  2
FlatWithEdges
 70
     1
177
     3
291
     1
 70
    58
 90
        2
176
     1
 90
        1
176
     1
 90
        1
176
     1
 90
        2
176
     1
 40
0.6
176
     1
 40
30.0
176
     1
 62
     7
420
 16777215
176
     1
 90
        1
176
     1
 90
        0
176
     1
 62
     7
176
     1
 62
   257
176
     1
 90
        1
176
     1
 90
        1
176
     1
 40
1.0
176
     1
 90
        0
176
     1
 62
   257
176
     1
 40
1.0
176
     1
 90
        1
176
     1
 90
        6
176
     1
 90
        2
176
     1
 62
     7
176
     1
 90
        5
176
     1
 90
        0
176
     1
 90
        0
176
     1
290
     0
176
     1
 90
       13
176
     1
 40
0.0
176
     1
 90
        0
176
     1
290
     0
176
     1
290
     1
176
     1
290
     1
176
     1
290
     0
176
     1
290
     0
176
     1
290
     0
176
     1
290
     0
176
     1
290
     0
176
     1
290
     0
176
     1
 90
       50
176
     1
 40
0.0
176
     1
 40
1.0
176
     1
 90
        0
176
     1
 62
    18
420
        0
176
     1
 90
       50
176
     1
 90
        3
176
     1
 62
     5
420
      255
176
     1
290
     0
176
     1
 90
       50
176
     1
 90
       50
176
     1
 90
       50
176
     1
290
     0
176
     1
 90
       50
176
     1
 62
   256
176
     0
 40
1.0
176
     0
 90
        2
176
     1
  1
strokes_ogs.tif
176
     1
290
     0
176
     1
 40
1.0
176
     1
 40
1.0
176
     1
  0
VISUALSTYLE
  5
101B52A
102
{ACAD_REACTORS
330
101B527
102
}
330
101B527
100
AcDbVisualStyle
  2
Gouraud
 70
     2
177
     3
291
     1
 70
    58
 90
        2
176
     1
 90
        2
176
     1
 90
        1
176
     1
 90
        2
176
     1
 40
0.6
176
     1
 40
30.0
176
     1
 62
     7
420
 16777215
176
     1
 90
        0
176
     1
 90
        0
176
     1
 62
     7
176
     1
 62
   257
176
     1
 90
        1
176
     1
 90
        1
176
     1
 40
1.0
176
     1
 90
        0
176
     1
 62
     7
176
     1
 40
1.0
176
     1
 90
        1
176
     1
 90
        6
176
     1
 90
        2
176
     1
 62
     7
176
     1
 90
        5
176
     1
 90
        0
176
     1
 90
        0
176
     1
290
     0
176
     1
 90
       13
176
     1
 40
0.0
176
     1
 90
        0
176
     1
290
     0
176
     1
290
     1
176
     1
290
     1
176
     1
290
     0
176
     1
290
     0
176
     1
290
     0
176
     1
290
     0
176
     1
290
     0
176
     1
290
     0
176
     1
 90
       50
176
     1
 40
0.0
176
     1
 40
1.0
176
     1
 90
        0
176
     1
 62
    18
420
        0
176
     1
 90
       50
176
     1
 90
        3
176
     1
 62
     5
420
      255
176
     1
290
     0
176
     1
 90
       50
176
     1
 90
       50
176
     1
 90
       50
176
     1
290
     0
176
     1
 90
       50
176
     1
 62
   256
176
     0
 40
1.0
176
     0
 90
        2
176
     1
  1
strokes_ogs.tif
176
     1
290
     0
176
     1
 40
1.0
176
     1
 40
1.0
176
     1
  0
VISUALSTYLE
  5
101B52B
102
{ACAD_REACTORS
330
101B527
102
}
330
101B527
100
AcDbVisualStyle
  2
GouraudWithEdges
 70
     3
177
     3
291
     1
 70
    58
 90
        2
176
     1
 90
        2
176
     1
 90
        1
176
     1
 90
        2
176
     1
 40
0.6
176
     1
 40
30.0
176
     1
 62
     7
420
 16777215
176
     1
 90
        1
176
     1
 90
        0
176
     1
 62
     7
176
     1
 62
   257
176
     1
 90
        1
176
     1
 90
        1
176
     1
 40
1.0
176
     1
 90
        0
176
     1
 62
   257
176
     1
 40
1.0
176
     1
 90
        1
176
     1
 90
        6
176
     1
 90
        2
176
     1
 62
     7
176
     1
 90
        5
176
     1
 90
        0
176
     1
 90
        0
176
     1
290
     0
176
     1
 90
       13
176
     1
 40
0.0
176
     1
 90
        0
176
     1
290
     0
176
     1
290
     1
176
     1
290
     1
176
     1
290
     0
176
     1
290
     0
176
     1
290
     0
176
     1
290
     0
176
     1
290
     0
176
     1
290
     0
176
     1
 90
       50
176
     1
 40
0.0
176
     1
 40
1.0
176
     1
 90
        0
176
     1
 62
    18
420
        0
176
     1
 90
       50
176
     1
 90
        3
176
     1
 62
     5
420
      255
176
     1
290
     0
176
     1
 90
       50
176
     1
 90
       50
176
     1
 90
       50
176
     1
290
     0
176
     1
 90
       50
176
     1
 62
   256
176
     0
 40
1.0
176
     0
 90
        2
176
     1
  1
strokes_ogs.tif
176
     1
290
     0
176
     1
 40
1.0
176
     1
 40
1.0
176
     1
  0
VISUALSTYLE
  5
101B52F
102
{ACAD_REACTORS
330
101B527
102
}
330
101B527
100
AcDbVisualStyle
  2
Hidden
 70
     6
177
     3
291
     0
 70
    58
 90
        1
176
     1
 90
        2
176
     1
 90
        2
176
     1
 90
        0
176
     1
 40
0.6
176
     1
 40
30.0
176
     1
 62
     7
420
 16777215
176
     1
 90
        2
176
     1
 90
        2
176
     1
 62
     7
176
     1
 62
   257
176
     1
 90
        2
176
     1
 90
        1
176
     1
 40
40.0
176
     1
 90
        0
176
     1
 62
   257
176
     1
 40
1.0
176
     1
 90
        1
176
     1
 90
        6
176
     1
 90
        2
176
     1
 62
     7
176
     1
 90
        3
176
     1
 90
        0
176
     1
 90
        0
176
     1
290
     0
176
     1
 90
        1
176
     1
 40
0.0
176
     1
 90
        0
176
     1
290
     0
176
     1
290
     1
176
     1
290
     1
176
     1
290
     0
176
     1
290
     0
176
     1
290
     0
176
     1
290
     0
176
     1
290
     0
176
     1
290
     0
176
     1
 90
       50
176
     1
 40
0.0
176
     1
 40
1.0
176
     1
 90
        0
176
     1
 62
    18
420
        0
176
     1
 90
       50
176
     1
 90
        3
176
     1
 62
     5
420
      255
176
     1
290
     0
176
     1
 90
       50
176
     1
 90
       50
176
     1
 90
       50
176
     1
290
     0
176
     1
 90
       50
176
     1
 62
   256
176
     0
 40
1.0
176
     0
 90
        2
176
     1
  1
strokes_ogs.tif
176
     1
290
     0
176
     1
 40
1.0
176
     1
 40
1.0
176
     1
  0
VISUALSTYLE
  5
101B53D
102
{ACAD_REACTORS
330
101B527
102
}
330
101B527
100
AcDbVisualStyle
  2
JitterOff
 70
    20
177
     3
291
     1
 70
    58
 90
        2
176
     0
 90
        2
176
     0
 90
        0
176
     0
 90
        0
176
     0
 40
0.6
176
     0
 40
30.0
176
     0
 62
     7
420
 16777215
176
     0
 90
        1
176
     0
 90
        4
176
     0
 62
     7
176
     0
 62
   257
176
     0
 90
        1
176
     0
 90
        1
176
     0
 40
1.0
176
     0
 90
       10
176
     2
 62
     7
176
     0
 40
1.0
176
     0
 90
        1
176
     0
 90
        6
176
     0
 90
        2
176
     0
 62
     7
176
     0
 90
        5
176
     0
 90
        0
176
     0
 90
        0
176
     0
290
     0
176
     0
 90
        1
176
     0
 40
0.0
176
     0
 90
        0
176
     0
290
     0
176
     0
290
     1
176
     0
290
     1
176
     0
290
     0
176
     0
290
     0
176
     0
290
     0
176
     0
290
     0
176
     0
290
     0
176
     0
290
     0
176
     0
 90
       50
176
     0
 40
0.0
176
     0
 40
1.0
176
     0
 90
        0
176
     0
 62
    18
420
        0
176
     0
 90
       50
176
     0
 90
        3
176
     0
 62
     5
420
      255
176
     0
290
     0
176
     0
 90
       50
176
     0
 90
       50
176
     0
 90
       50
176
     0
290
     0
176
     0
 90
       50
176
     0
 62
   256
176
     0
 40
1.0
176
     0
 90
        2
176
     0
  1
strokes_ogs.tif
176
     0
290
     0
176
     0
 40
1.0
176
     0
 40
1.0
176
     0
  0
VISUALSTYLE
  5
101B535
102
{ACAD_REACTORS
330
101B527
102
}
330
101B527
100
AcDbVisualStyle
  2
Linepattern
 70
    14
177
     3
291
     1
 70
    58
 90
        2
176
     1
 90
        2
176
     1
 90
        0
176
     1
 90
        0
176
     1
 40
0.6
176
     1
 40
30.0
176
     1
 62
     7
420
 16777215
176
     1
 90
        1
176
     1
 90
        4
176
     1
 62
     7
176
     1
 62
   257
176
     1
 90
        7
176
     1
 90
        7
176
     1
 40
1.0
176
     1
 90
        8
176
     1
 62
     7
176
     1
 40
1.0
176
     1
 90
        1
176
     1
 90
        6
176
     1
 90
        2
176
     1
 62
     7
176
     1
 90
        5
176
     1
 90
        0
176
     1
 90
        0
176
     1
290
     0
176
     1
 90
        1
176
     1
 40
0.0
176
     1
 90
        0
176
     1
290
     0
176
     1
290
     1
176
     1
290
     1
176
     1
290
     0
176
     1
290
     0
176
     1
290
     0
176
     1
290
     0
176
     1
290
     0
176
     1
290
     0
176
     1
 90
       50
176
     1
 40
0.0
176
     1
 40
1.0
176
     1
 90
        0
176
     1
 62
    18
420
        0
176
     1
 90
       50
176
     1
 90
        3
176
     1
 62
     5
420
      255
176
     1
290
     0
176
     1
 90
       50
176
     1
 90
       50
176
     1
 90
       50
176
     1
290
     0
176
     1
 90
       50
176
     1
 62
   256
176
     0
 40
1.0
176
     0
 90
        2
176
     1
  1
strokes_ogs.tif
176
     1
290
     0
176
     1
 40
1.0
176
     1
 40
1.0
176
     1
  0
VISUALSTYLE
  5
101B53E
102
{ACAD_REACTORS
330
101B527
102
}
330
101B527
100
AcDbVisualStyle
  2
OverhangOff
 70
    21
177
     3
291
     1
 70
    58
 90
        2
176
     0
 90
        2
176
     0
 90
        0
176
     0
 90
        0
176
     0
 40
0.6
176
     0
 40
30.0
176
     0
 62
     7
420
 16777215
176
     0
 90
        1
176
     0
 90
        4
176
     0
 62
     7
176
     0
 62
   257
176
     0
 90
        1
176
     0
 90
        1
176
     0
 40
1.0
176
     0
 90
        9
176
     2
 62
     7
176
     0
 40
1.0
176
     0
 90
        1
176
     0
 90
        6
176
     0
 90
        2
176
     0
 62
     7
176
     0
 90
        5
176
     0
 90
        0
176
     0
 90
        0
176
     0
290
     0
176
     0
 90
        1
176
     0
 40
0.0
176
     0
 90
        0
176
     0
290
     0
176
     0
290
     1
176
     0
290
     1
176
     0
290
     0
176
     0
290
     0
176
     0
290
     0
176
     0
290
     0
176
     0
290
     0
176
     0
290
     0
176
     0
 90
       50
176
     0
 40
0.0
176
     0
 40
1.0
176
     0
 90
        0
176
     0
 62
    18
420
        0
176
     0
 90
       50
176
     0
 90
        3
176
     0
 62
     5
420
      255
176
     0
290
     0
176
     0
 90
       50
176
     0
 90
       50
176
     0
 90
       50
176
     0
290
     0
176
     0
 90
       50
176
     0
 62
   256
176
     0
 40
1.0
176
     0
 90
        2
176
     0
  1
strokes_ogs.tif
176
     0
290
     0
176
     0
 40
1.0
176
     0
 40
1.0
176
     0
  0
VISUALSTYLE
  5
101B531
102
{ACAD_REACTORS
330
101B527
102
}
330
101B527
100
AcDbVisualStyle
  2
Realistic
 70
     8
177
     3
291
     0
 70
    58
 90
        2
176
     1
 90
        3
176
     1
 90
        0
176
     1
 90
        2
176
     1
 40
0.6
176
     1
 40
30.0
176
     1
 62
     7
420
 16777215
176
     1
 90
        0
176
     1
 90
        0
176
     1
 62
     7
176
     1
 62
   257
176
     1
 90
        1
176
     1
 90
        1
176
     1
 40
1.0
176
     1
 90
        8
176
     1
 62
   257
176
     1
 40
1.0
176
     1
 90
        1
176
     1
 90
        6
176
     1
 90
        2
176
     1
 62
     7
176
     1
 90
        3
176
     1
 90
        0
176
     1
 90
        0
176
     1
290
     0
176
     1
 90
       13
176
     1
 40
0.0
176
     1
 90
        0
176
     1
290
     0
176
     1
290
     1
176
     1
290
     1
176
     1
290
     0
176
     1
290
     0
176
     1
290
     0
176
     1
290
     0
176
     1
290
     0
176
     1
290
     0
176
     1
 90
       50
176
     1
 40
0.0
176
     1
 40
1.0
176
     1
 90
        0
176
     1
 62
    18
420
        0
176
     1
 90
       50
176
     1
 90
        3
176
     1
 62
     5
420
      255
176
     1
290
     0
176
     1
 90
       50
176
     1
 90
       50
176
     1
 90
       50
176
     1
290
     0
176
     1
 90
       50
176
     1
 62
   256
176
     0
 40
1.0
176
     0
 90
        2
176
     1
  1
strokes_ogs.tif
176
     1
290
     0
176
     1
 40
1.0
176
     1
 40
1.0
176
     1
  0
VISUALSTYLE
  5
101B53C
102
{ACAD_REACTORS
330
101B527
102
}
330
101B527
100
AcDbVisualStyle
  2
Shaded
 70
    27
177
     3
291
     0
 70
    58
 90
        2
176
     1
 90
        2
176
     1
 90
        1
176
     1
 90
        2
176
     1
 40
0.6
176
     1
 40
30.0
176
     1
 62
     7
420
 16777215
176
     1
 90
        0
176
     1
 90
        4
176
     1
 62
     7
176
     1
 62
   257
176
     1
 90
        1
176
     1
 90
        1
176
     1
 40
1.0
176
     1
 90
        8
176
     1
 62
   257
176
     1
 40
1.0
176
     1
 90
        1
176
     1
 90
        6
176
     1
 90
        2
176
     1
 62
     8
420
  7895160
176
     1
 90
        3
176
     1
 90
        0
176
     1
 90
        0
176
     1
290
     0
176
     1
 90
        5
176
     1
 40
0.0
176
     1
 90
        0
176
     1
290
     0
176
     1
290
     1
176
     1
290
     1
176
     1
290
     0
176
     1
290
     0
176
     1
290
     0
176
     1
290
     0
176
     1
290
     0
176
     1
290
     0
176
     1
 90
       50
176
     1
 40
0.0
176
     1
 40
1.0
176
     1
 90
        0
176
     1
 62
    18
420
        0
176
     1
 90
       50
176
     1
 90
        3
176
     1
 62
     5
420
      255
176
     1
290
     0
176
     1
 90
       50
176
     1
 90
       50
176
     1
 90
       50
176
     1
290
     0
176
     1
 90
       50
176
     1
 62
   256
176
     0
 40
1.0
176
     0
 90
        2
176
     1
  1
strokes_ogs.tif
176
     1
290
     0
176
     1
 40
1.0
176
     1
 40
1.0
176
     1
  0
VISUALSTYLE
  5
101B53B
102
{ACAD_REACTORS
330
101B527
102
}
330
101B527
100
AcDbVisualStyle
  2
Shaded with edges
 70
    26
177
     3
291
     0
 70
    58
 90
        2
176
     1
 90
        2
176
     1
 90
        1
176
     1
 90
        2
176
     1
 40
0.6
176
     1
 40
30.0
176
     1
 62
     7
420
 16777215
176
     1
 90
        1
176
     1
 90
        2
176
     1
 62
     7
176
     1
 62
   257
176
     1
 90
        2
176
     1
 90
        1
176
     1
 40
1.0
176
     1
 90
        8
176
     1
 62
   257
176
     1
 40
1.0
176
     1
 90
        1
176
     1
 90
        6
176
     1
 90
        2
176
     1
 62
     7
176
     1
 90
        3
176
     1
 90
        0
176
     1
 90
        0
176
     1
290
     0
176
     1
 90
        5
176
     1
 40
0.0
176
     1
 90
        0
176
     1
290
     0
176
     1
290
     1
176
     1
290
     1
176
     1
290
     0
176
     1
290
     0
176
     1
290
     0
176
     1
290
     0
176
     1
290
     0
176
     1
290
     0
176
     1
 90
       50
176
     1
 40
0.0
176
     1
 40
1.0
176
     1
 90
        0
176
     1
 62
    18
420
        0
176
     1
 90
       50
176
     1
 90
        3
176
     1
 62
     5
420
      255
176
     1
290
     0
176
     1
 90
       50
176
     1
 90
       50
176
     1
 90
       50
176
     1
290
     0
176
     1
 90
       50
176
     1
 62
   256
176
     0
 40
1.0
176
     0
 90
        2
176
     1
  1
strokes_ogs.tif
176
     1
290
     0
176
     1
 40
1.0
176
     1
 40
1.0
176
     1
  0
VISUALSTYLE
  5
101B538
102
{ACAD_REACTORS
330
101B527
102
}
330
101B527
100
AcDbVisualStyle
  2
Shades of Gray
 70
    23
177
     3
291
     0
 70
    58
 90
        2
176
     1
 90
        2
176
     1
 90
        3
176
     1
 90
        0
176
     1
 40
0.6
176
     1
 40
30.0
176
     1
 62
     7
420
 16777215
176
     1
 90
        2
176
     1
 90
        2
176
     1
 62
     7
176
     1
 62
     7
176
     1
 90
        1
176
     1
 90
        1
176
     1
 40
40.0
176
     1
 90
        8
176
     1
 62
     7
176
     1
 40
1.0
176
     1
 90
        1
176
     1
 90
        6
176
     1
 90
        2
176
     1
 62
     7
176
     1
 90
        3
176
     1
 90
        0
176
     1
 90
        0
176
     1
290
     0
176
     1
 90
        1
176
     1
 40
0.0
176
     1
 90
        0
176
     1
290
     0
176
     1
290
     1
176
     1
290
     1
176
     1
290
     0
176
     1
290
     0
176
     1
290
     0
176
     1
290
     0
176
     1
290
     0
176
     1
290
     0
176
     1
 90
       50
176
     1
 40
0.0
176
     1
 40
1.0
176
     1
 90
        0
176
     1
 62
    18
420
        0
176
     1
 90
       50
176
     1
 90
        3
176
     1
 62
     5
420
      255
176
     1
290
     0
176
     1
 90
       50
176
     1
 90
       50
176
     1
 90
       50
176
     1
290
     0
176
     1
 90
       50
176
     1
 62
   256
176
     0
 40
1.0
176
     0
 90
        2
176
     1
  1
strokes_ogs.tif
176
     1
290
     0
176
     1
 40
1.0
176
     1
 40
1.0
176
     1
  0
VISUALSTYLE
  5
101B539
102
{ACAD_REACTORS
330
101B527
102
}
330
101B527
100
AcDbVisualStyle
  2
Sketchy
 70
    24
177
     3
291
     0
 70
    58
 90
        1
176
     1
 90
        2
176
     1
 90
        2
176
     1
 90
        0
176
     1
 40
0.6
176
     1
 40
30.0
176
     1
 62
     7
420
 16777215
176
     1
 90
        2
176
     1
 90
        2
176
     1
 62
     7
176
     1
 62
     7
176
     1
 90
        1
176
     1
 90
        1
176
     1
 40
40.0
176
     1
 90
       11
176
     1
 62
     7
176
     1
 40
1.0
176
     1
 90
        1
176
     1
 90
        6
176
     1
 90
        2
176
     1
 62
     7
176
     1
 90
        6
176
     1
 90
        0
176
     1
 90
        0
176
     1
290
     0
176
     1
 90
        1
176
     1
 40
0.0
176
     1
 90
        0
176
     1
290
     0
176
     1
290
     1
176
     1
290
     1
176
     1
290
     0
176
     1
290
     0
176
     1
290
     0
176
     1
290
     0
176
     1
290
     0
176
     1
290
     0
176
     1
 90
       50
176
     1
 40
0.0
176
     1
 40
1.0
176
     1
 90
        0
176
     1
 62
    18
420
        0
176
     1
 90
       50
176
     1
 90
        3
176
     1
 62
     5
420
      255
176
     1
290
     0
176
     1
 90
       50
176
     1
 90
       50
176
     1
 90
       50
176
     1
290
     0
176
     1
 90
       50
176
     1
 62
   256
176
     0
 40
1.0
176
     0
 90
        2
176
     1
  1
strokes_ogs.tif
176
     1
290
     0
176
     1
 40
1.0
176
     1
 40
1.0
176
     1
  0
VISUALSTYLE
  5
101B534
102
{ACAD_REACTORS
330
101B527
102
}
330
101B527
100
AcDbVisualStyle
  2
Thicken
 70
    13
177
     3
291
     1
 70
    58
 90
        2
176
     1
 90
        2
176
     1
 90
        0
176
     1
 90
        0
176
     1
 40
0.6
176
     1
 40
30.0
176
     1
 62
     7
420
 16777215
176
     1
 90
        1
176
     1
 90
        4
176
     1
 62
     7
176
     1
 62
   257
176
     1
 90
        1
176
     1
 90
        1
176
     1
 40
1.0
176
     1
 90
       12
176
     1
 62
     7
176
     1
 40
1.0
176
     1
 90
        1
176
     1
 90
        6
176
     1
 90
        2
176
     1
 62
     7
176
     1
 90
        5
176
     1
 90
        0
176
     1
 90
        0
176
     1
290
     0
176
     1
 90
        1
176
     1
 40
0.0
176
     1
 90
        0
176
     1
290
     0
176
     1
290
     1
176
     1
290
     1
176
     1
290
     0
176
     1
290
     0
176
     1
290
     0
176
     1
290
     0
176
     1
290
     0
176
     1
290
     0
176
     1
 90
       50
176
     1
 40
0.0
176
     1
 40
1.0
176
     1
 90
        0
176
     1
 62
    18
420
        0
176
     1
 90
       50
176
     1
 90
        3
176
     1
 62
     5
420
      255
176
     1
290
     0
176
     1
 90
       50
176
     1
 90
       50
176
     1
 90
       50
176
     1
290
     0
176
     1
 90
       50
176
     1
 62
   256
176
     0
 40
1.0
176
     0
 90
        2
176
     1
  1
strokes_ogs.tif
176
     1
290
     0
176
     1
 40
1.0
176
     1
 40
1.0
176
     1
  0
VISUALSTYLE
  5
101B52E
102
{ACAD_REACTORS
330
101B527
102
}
330
101B527
100
AcDbVisualStyle
  2
Wireframe
 70
     5
177
     3
291
     0
 70
    58
 90
        0
176
     1
 90
        2
176
     1
 90
        0
176
     1
 90
        0
176
     1
 40
0.6
176
     1
 40
30.0
176
     1
 62
     7
420
 16777215
176
     1
 90
        1
176
     1
 90
        4
176
     1
 62
     7
176
     1
 62
   257
176
     1
 90
        1
176
     1
 90
        1
176
     1
 40
1.0
176
     1
 90
        0
176
     1
 62
   257
176
     1
 40
1.0
176
     1
 90
        1
176
     1
 90
        6
176
     1
 90
        2
176
     1
 62
     7
176
     1
 90
        3
176
     1
 90
        0
176
     1
 90
        0
176
     1
290
     0
176
     1
 90
        1
176
     1
 40
0.0
176
     1
 90
        0
176
     1
290
     0
176
     1
290
     1
176
     1
290
     1
176
     1
290
     0
176
     1
290
     0
176
     1
290
     0
176
     1
290
     0
176
     1
290
     0
176
     1
290
     0
176
     1
 90
       50
176
     1
 40
0.0
176
     1
 40
1.0
176
     1
 90
        0
176
     1
 62
    18
420
        0
176
     1
 90
       50
176
     1
 90
        3
176
     1
 62
     5
420
      255
176
     1
290
     0
176
     1
 90
       50
176
     1
 90
       50
176
     1
 90
       50
176
     1
290
     0
176
     1
 90
       50
176
     1
 62
   256
176
     0
 40
1.0
176
     0
 90
        2
176
     1
  1
strokes_ogs.tif
176
     1
290
     0
176
     1
 40
1.0
176
     1
 40
1.0
176
     1
  0
VISUALSTYLE
  5
101B53A
102
{ACAD_REACTORS
330
101B527
102
}
330
101B527
100
AcDbVisualStyle
  2
X-Ray
 70
    25
177
     3
291
     0
 70
    58
 90
        2
176
     1
 90
        2
176
     1
 90
        1
176
     1
 90
        1
176
     1
 40
0.5
176
     1
 40
30.0
176
     1
 62
     7
420
 16777215
176
     1
 90
        1
176
     1
 90
        0
176
     1
 62
     7
176
     1
 62
   257
176
     1
 90
        1
176
     1
 90
        1
176
     1
 40
1.0
176
     1
 90
        8
176
     1
 62
     7
176
     1
 40
1.0
176
     1
 90
        1
176
     1
 90
        6
176
     1
 90
        2
176
     1
 62
     7
176
     1
 90
        3
176
     1
 90
        0
176
     1
 90
        0
176
     1
290
     0
176
     1
 90
       13
176
     1
 40
0.0
176
     1
 90
        0
176
     1
290
     0
176
     1
290
     1
176
     1
290
     1
176
     1
290
     0
176
     1
290
     0
176
     1
290
     0
176
     1
290
     0
176
     1
290
     0
176
     1
290
     0
176
     1
 90
       50
176
     1
 40
0.0
176
     1
 40
1.0
176
     1
 90
        0
176
     1
 62
    18
420
        0
176
     1
 90
       50
176
     1
 90
        3
176
     1
 62
     5
420
      255
176
     1
290
     0
176
     1
 90
       50
176
     1
 90
       50
176
     1
 90
       50
176
     1
290
     0
176
     1
 90
       50
176
     1
 62
   256
176
     0
 40
1.0
176
     0
 90
        2
176
     1
  1
strokes_ogs.tif
176
     1
290
     0
176
     1
 40
1.0
176
     1
 40
1.0
176
     1
  0
DICTIONARYVAR
  5
101B582
102
{ACAD_REACTORS
330
265
102
}
330
265
100
DictionaryVariables
280
     0
  1
1:1
  0
DICTIONARYVAR
  5
101B57E
102
{ACAD_REACTORS
330
265
102
}
330
265
100
DictionaryVariables
280
     0
  1
STANDARD
  0
DICTIONARYVAR
  5
266
102
{ACAD_REACTORS
330
265
102
}
330
265
100
DictionaryVariables
280
     0
  1
STANDARD
  0
DICTIONARYVAR
  5
101B57F
102
{ACAD_REACTORS
330
265
102
}
330
265
100
DictionaryVariables
280
     0
  1
Metric50
  0
DICTIONARYVAR
  5
101B580
102
{ACAD_REACTORS
330
265
102
}
330
265
100
DictionaryVariables
280
     0
  1
Metric50
  0
DICTIONARYVAR
  5
1A744
102
{ACAD_REACTORS
330
265
102
}
330
265
100
DictionaryVariables
280
     0
  1
1
  0
DICTIONARYVAR
  5
101B584
102
{ACAD_REACTORS
330
265
102
}
330
265
100
DictionaryVariables
280
     0
  1
1
  0
DICTIONARYVAR
  5
101B585
102
{ACAD_REACTORS
330
265
102
}
330
265
100
DictionaryVariables
280
     0
  1
15
  0
DICTIONARYVAR
  5
101B583
102
{ACAD_REACTORS
330
265
102
}
330
265
100
DictionaryVariables
280
     0
  1
0
  0
DICTIONARYVAR
  5
101B581
102
{ACAD_REACTORS
330
265
102
}
330
265
100
DictionaryVariables
280
     0
  1
0
  0
DICTIONARYVAR
  5
1A745
102
{ACAD_REACTORS
330
265
102
}
330
265
100
DictionaryVariables
280
     0
  1

  0
DICTIONARY
  5
101B58A
330
101B558
100
AcDbDictionary
280
     1
281
     1
  3
ACAD_XREC_ROUNDTRIP
360
101B58B
  0
DICTIONARY
  5
101B518
330
101B517
100
AcDbDictionary
280
     1
281
     1
  3
BUMPTILE
360
101B51A
  3
DIFFUSETILE
360
101B519
  3
OPACITYTILE
360
101B51D
  3
REFLECTIONTILE
360
101B51C
  3
REFRACTIONTILE
360
101B51E
  3
SPECULARTILE
360
101B51B
  0
DICTIONARY
  5
101B510
330
101B50F
100
AcDbDictionary
280
     1
281
     1
  3
BUMPTILE
360
101B512
  3
DIFFUSETILE
360
101B511
  3
OPACITYTILE
360
101B515
  3
REFLECTIONTILE
360
101B514
  3
REFRACTIONTILE
360
101B516
  3
SPECULARTILE
360
101B513
  0
DICTIONARY
  5
101B520
330
101B51F
100
AcDbDictionary
280
     1
281
     1
  3
BUMPTILE
360
101B522
  3
DIFFUSETILE
360
101B521
  3
OPACITYTILE
360
101B525
  3
REFLECTIONTILE
360
101B524
  3
REFRACTIONTILE
360
101B526
  3
SPECULARTILE
360
101B523
  0
DICTIONARY
  5
101B588
330
101B556
100
AcDbDictionary
280
     1
281
     1
  3
ACAD_XREC_ROUNDTRIP
360
101B589
  0
DICTIONARY
  5
101B586
330
1D6
100
AcDbDictionary
280
     1
281
     1
  3
ACAD_ROUNDTRIP_2008_TABLESTYLE_CELLSTYLEMAP
360
101B587
  0
XRECORD
  5
101B58B
102
{ACAD_REACTORS
330
101B58A
102
}
330
101B58A
100
AcDbXrecord
280
     1
102
DISPLAYNAME
  1
Metric50
102
FLAGS
 90
        0
  0
XRECORD
  5
101B51A
102
{ACAD_REACTORS
330
101B518
102
}
330
101B518
100
AcDbXrecord
280
     1
270
     1
271
     1
  0
XRECORD
  5
101B519
102
{ACAD_REACTORS
330
101B518
102
}
330
101B518
100
AcDbXrecord
280
     1
270
     1
271
     1
  0
XRECORD
  5
101B51D
102
{ACAD_REACTORS
330
101B518
102
}
330
101B518
100
AcDbXrecord
280
     1
270
     1
271
     1
  0
XRECORD
  5
101B51C
102
{ACAD_REACTORS
330
101B518
102
}
330
101B518
100
AcDbXrecord
280
     1
270
     1
271
     1
  0
XRECORD
  5
101B51E
102
{ACAD_REACTORS
330
101B518
102
}
330
101B518
100
AcDbXrecord
280
     1
270
     1
271
     1
  0
XRECORD
  5
101B51B
102
{ACAD_REACTORS
330
101B518
102
}
330
101B518
100
AcDbXrecord
280
     1
270
     1
271
     1
  0
XRECORD
  5
101B512
102
{ACAD_REACTORS
330
101B510
102
}
330
101B510
100
AcDbXrecord
280
     1
270
     1
271
     1
  0
XRECORD
  5
101B511
102
{ACAD_REACTORS
330
101B510
102
}
330
101B510
100
AcDbXrecord
280
     1
270
     1
271
     1
  0
XRECORD
  5
101B515
102
{ACAD_REACTORS
330
101B510
102
}
330
101B510
100
AcDbXrecord
280
     1
270
     1
271
     1
  0
XRECORD
  5
101B514
102
{ACAD_REACTORS
330
101B510
102
}
330
101B510
100
AcDbXrecord
280
     1
270
     1
271
     1
  0
XRECORD
  5
101B516
102
{ACAD_REACTORS
330
101B510
102
}
330
101B510
100
AcDbXrecord
280
     1
270
     1
271
     1
  0
XRECORD
  5
101B513
102
{ACAD_REACTORS
330
101B510
102
}
330
101B510
100
AcDbXrecord
280
     1
270
     1
271
     1
  0
XRECORD
  5
101B522
102
{ACAD_REACTORS
330
101B520
102
}
330
101B520
100
AcDbXrecord
280
     1
270
     1
271
     1
  0
XRECORD
  5
101B521
102
{ACAD_REACTORS
330
101B520
102
}
330
101B520
100
AcDbXrecord
280
     1
270
     1
271
     1
  0
XRECORD
  5
101B525
102
{ACAD_REACTORS
330
101B520
102
}
330
101B520
100
AcDbXrecord
280
     1
270
     1
271
     1
  0
XRECORD
  5
101B524
102
{ACAD_REACTORS
330
101B520
102
}
330
101B520
100
AcDbXrecord
280
     1
270
     1
271
     1
  0
XRECORD
  5
101B526
102
{ACAD_REACTORS
330
101B520
102
}
330
101B520
100
AcDbXrecord
280
     1
270
     1
271
     1
  0
XRECORD
  5
101B523
102
{ACAD_REACTORS
330
101B520
102
}
330
101B520
100
AcDbXrecord
280
     1
270
     1
271
     1
  0
XRECORD
  5
101B589
102
{ACAD_REACTORS
330
101B588
102
}
330
101B588
100
AcDbXrecord
280
     1
102
DISPLAYNAME
  1
Metric50
102
FLAGS
 90
        0
  0
CELLSTYLEMAP
  5
101B587
102
{ACAD_REACTORS
330
101B586
102
}
330
101B586
100
AcDbCellStyleMap
 90
        3
300
CELLSTYLE
  1
TABLEFORMAT_BEGIN
 90
        5
170
     1
 91
        0
 92
    32768
 62
   257
 93
        1
300
CONTENTFORMAT
  1
CONTENTFORMAT_BEGIN
 90
        0
 91
        0
 92
        4
 93
        0
300

 40
0.0
140
1.0
 94
        5
 62
     0
340
11
144
6.0
309
CONTENTFORMAT_END
171
     1
301
MARGIN
  1
CELLMARGIN_BEGIN
 40
1.5
 40
1.5
 40
1.5
 40
1.5
 40
0.18
 40
0.18
309
CELLMARGIN_END
 94
        6
 95
        1
302
GRIDFORMAT
  1
GRIDFORMAT_BEGIN
 90
        0
 91
        1
 62
     0
 92
       -2
340
0
 93
        0
 40
0.045
309
GRIDFORMAT_END
 95
        2
302
GRIDFORMAT
  1
GRIDFORMAT_BEGIN
 90
        0
 91
        1
 62
     0
 92
       -2
340
0
 93
        0
 40
0.045
309
GRIDFORMAT_END
 95
        4
302
GRIDFORMAT
  1
GRIDFORMAT_BEGIN
 90
        0
 91
        1
 62
     0
 92
       -2
340
0
 93
        0
 40
0.045
309
GRIDFORMAT_END
 95
        8
302
GRIDFORMAT
  1
GRIDFORMAT_BEGIN
 90
        0
 91
        1
 62
     0
 92
       -2
340
0
 93
        0
 40
0.045
309
GRIDFORMAT_END
 95
       16
302
GRIDFORMAT
  1
GRIDFORMAT_BEGIN
 90
        0
 91
        1
 62
     0
 92
       -2
340
0
 93
        0
 40
0.045
309
GRIDFORMAT_END
 95
       32
302
GRIDFORMAT
  1
GRIDFORMAT_BEGIN
 90
        0
 91
        1
 62
     0
 92
       -2
340
0
 93
        0
 40
0.045
309
GRIDFORMAT_END
309
TABLEFORMAT_END
  1
CELLSTYLE_BEGIN
 90
        1
 91
        1
300
_TITLE
309
CELLSTYLE_END
300
CELLSTYLE
  1
TABLEFORMAT_BEGIN
 90
        5
170
     1
 91
        0
 92
        0
 62
   257
 93
        1
300
CONTENTFORMAT
  1
CONTENTFORMAT_BEGIN
 90
        0
 91
        0
 92
        4
 93
        0
300

 40
0.0
140
1.0
 94
        5
 62
     0
340
11
144
4.5
309
CONTENTFORMAT_END
171
     1
301
MARGIN
  1
CELLMARGIN_BEGIN
 40
1.5
 40
1.5
 40
1.5
 40
1.5
 40
0.18
 40
0.18
309
CELLMARGIN_END
 94
        6
 95
        1
302
GRIDFORMAT
  1
GRIDFORMAT_BEGIN
 90
        0
 91
        1
 62
     0
 92
       -2
340
0
 93
        0
 40
0.045
309
GRIDFORMAT_END
 95
        2
302
GRIDFORMAT
  1
GRIDFORMAT_BEGIN
 90
        0
 91
        1
 62
     0
 92
       -2
340
0
 93
        0
 40
0.045
309
GRIDFORMAT_END
 95
        4
302
GRIDFORMAT
  1
GRIDFORMAT_BEGIN
 90
        0
 91
        1
 62
     0
 92
       -2
340
0
 93
        0
 40
0.045
309
GRIDFORMAT_END
 95
        8
302
GRIDFORMAT
  1
GRIDFORMAT_BEGIN
 90
        0
 91
        1
 62
     0
 92
       -2
340
0
 93
        0
 40
0.045
309
GRIDFORMAT_END
 95
       16
302
GRIDFORMAT
  1
GRIDFORMAT_BEGIN
 90
        0
 91
        1
 62
     0
 92
       -2
340
0
 93
        0
 40
0.045
309
GRIDFORMAT_END
 95
       32
302
GRIDFORMAT
  1
GRIDFORMAT_BEGIN
 90
        0
 91
        1
 62
     0
 92
       -2
340
0
 93
        0
 40
0.045
309
GRIDFORMAT_END
309
TABLEFORMAT_END
  1
CELLSTYLE_BEGIN
 90
        2
 91
        1
300
_HEADER
309
CELLSTYLE_END
300
CELLSTYLE
  1
TABLEFORMAT_BEGIN
 90
        5
170
     1
 91
        0
 92
        0
 62
   257
 93
        1
300
CONTENTFORMAT
  1
CONTENTFORMAT_BEGIN
 90
        0
 91
        0
 92
        4
 93
        0
300

 40
0.0
140
1.0
 94
        2
 62
     0
340
11
144
4.5
309
CONTENTFORMAT_END
171
     1
301
MARGIN
  1
CELLMARGIN_BEGIN
 40
1.5
 40
1.5
 40
1.5
 40
1.5
 40
0.18
 40
0.18
309
CELLMARGIN_END
 94
        6
 95
        1
302
GRIDFORMAT
  1
GRIDFORMAT_BEGIN
 90
        0
 91
        1
 62
     0
 92
       -2
340
0
 93
        0
 40
0.045
309
GRIDFORMAT_END
 95
        2
302
GRIDFORMAT
  1
GRIDFORMAT_BEGIN
 90
        0
 91
        1
 62
     0
 92
       -2
340
0
 93
        0
 40
0.045
309
GRIDFORMAT_END
 95
        4
302
GRIDFORMAT
  1
GRIDFORMAT_BEGIN
 90
        0
 91
        1
 62
     0
 92
       -2
340
0
 93
        0
 40
0.045
309
GRIDFORMAT_END
 95
        8
302
GRIDFORMAT
  1
GRIDFORMAT_BEGIN
 90
        0
 91
        1
 62
     0
 92
       -2
340
0
 93
        0
 40
0.045
309
GRIDFORMAT_END
 95
       16
302
GRIDFORMAT
  1
GRIDFORMAT_BEGIN
 90
        0
 91
        1
 62
     0
 92
       -2
340
0
 93
        0
 40
0.045
309
GRIDFORMAT_END
 95
       32
302
GRIDFORMAT
  1
GRIDFORMAT_BEGIN
 90
        0
 91
        1
 62
     0
 92
       -2
340
0
 93
        0
 40
0.045
309
GRIDFORMAT_END
309
TABLEFORMAT_END
  1
CELLSTYLE_BEGIN
 90
        3
 91
        2
300
_DATA
309
CELLSTYLE_END
  0
ENDSEC
  0
EOF
