  0
SECTION
  2
HEADER
  9
$ACADVER
  1
AC1027
  9
$ACADMAINTVER
 70
   125
  9
$DWGCODEPAGE
  3
ANSI_1252
  9
$LASTSAVEDBY
  1
fleminab
  9
$REQUIREDVERSIONS
160
                 0
  9
$INSBASE
 10
8.0
 20
5.0
 30
0.0
  9
$EXTMIN
 10
807.9637528631646
 20
340.3827697704183
 30
0.0
  9
$EXTMAX
 10
6174.231363979916
 20
4791.33971016941
 30
0.0
  9
$LIMMIN
 10
0.0
 20
0.0
  9
$LIMMAX
 10
420.0
 20
297.0
  9
$ORTHOMODE
 70
     0
  9
$REGENMODE
 70
     1
  9
$FILLMODE
 70
     1
  9
$QTEXTMODE
 70
     0
  9
$MIRRTEXT
 70
     1
  9
$LTSCALE
 40
0.5
  9
$ATTMODE
 70
     1
  9
$TEXTSIZE
 40
6.0
  9
$TRACEWID
 40
1.0
  9
$TEXTSTYLE
  7
黑体
  9
$CLAYER
  8
0
  9
$CELTYPE
  6
ByLayer
  9
$CECOLOR
 62
   256
  9
$CELTSCALE
 40
1.0
  9
$DISPSILH
 70
     1
  9
$DIMSCALE
 40
1.0
  9
$DIMASZ
 40
2.5
  9
$DIMEXO
 40
0.625
  9
$DIMDLI
 40
3.75
  9
$DIMRND
 40
0.0
  9
$DIMDLE
 40
0.0
  9
$DIMEXE
 40
1.25
  9
$DIMTP
 40
0.0
  9
$DIMTM
 40
0.0
  9
$DIMTXT
 40
30.0
  9
$DIMCEN
 40
2.5
  9
$DIMTSZ
 40
0.0
  9
$DIMTOL
 70
     0
  9
$DIMLIM
 70
     0
  9
$DIMTIH
 70
     0
  9
$DIMTOH
 70
     0
  9
$DIMSE1
 70
     0
  9
$DIMSE2
 70
     0
  9
$DIMTAD
 70
     1
  9
$DIMZIN
 70
     8
  9
$DIMBLK
  1
ClosedBlank
  9
$DIMASO
 70
     1
  9
$DIMSHO
 70
     1
  9
$DIMPOST
  1

  9
$DIMAPOST
  1

  9
$DIMALT
 70
     0
  9
$DIMALTD
 70
     3
  9
$DIMALTF
 40
0.03937007874016
  9
$DIMLFAC
 40
1.0
  9
$DIMTOFL
 70
     1
  9
$DIMTVP
 40
0.0
  9
$DIMTIX
 70
     0
  9
$DIMSOXD
 70
     0
  9
$DIMSAH
 70
     0
  9
$DIMBLK1
  1

  9
$DIMBLK2
  1

  9
$DIMSTYLE
  2
线性标注
  9
$DIMCLRD
 70
     0
  9
$DIMCLRE
 70
     0
  9
$DIMCLRT
 70
     0
  9
$DIMTFAC
 40
1.0
  9
$DIMGAP
 40
0.625
  9
$DIMJUST
 70
     0
  9
$DIMSD1
 70
     0
  9
$DIMSD2
 70
     0
  9
$DIMTOLJ
 70
     0
  9
$DIMTZIN
 70
     8
  9
$DIMALTZ
 70
     0
  9
$DIMALTTZ
 70
     0
  9
$DIMUPT
 70
     0
  9
$DIMDEC
 70
     1
  9
$DIMTDEC
 70
     1
  9
$DIMALTU
 70
     2
  9
$DIMALTTD
 70
     3
  9
$DIMTXSTY
  7
样式 1
  9
$DIMAUNIT
 70
     0
  9
$DIMADEC
 70
     0
  9
$DIMALTRND
 40
0.0
  9
$DIMAZIN
 70
     0
  9
$DIMDSEP
 70
    46
  9
$DIMATFIT
 70
     3
  9
$DIMFRAC
 70
     0
  9
$DIMLDRBLK
  1

  9
$DIMLUNIT
 70
     2
  9
$DIMLWD
 70
    -2
  9
$DIMLWE
 70
    -2
  9
$DIMTMOVE
 70
     0
  9
$DIMFXL
 40
1.25
  9
$DIMFXLON
 70
     0
  9
$DIMJOGANG
 40
1.570796326794896
  9
$DIMTFILL
 70
     0
  9
$DIMTFILLCLR
 70
     0
  9
$DIMARCSYM
 70
     0
  9
$DIMLTYPE
  6

  9
$DIMLTEX1
  6

  9
$DIMLTEX2
  6

  9
$DIMTXTDIRECTION
 70
     0
  9
$LUNITS
 70
     2
  9
$LUPREC
 70
     4
  9
$SKETCHINC
 40
1.0
  9
$FILLETRAD
 40
46.0
  9
$AUNITS
 70
     0
  9
$AUPREC
 70
     0
  9
$MENU
  1
.
  9
$ELEVATION
 40
0.0
  9
$PELEVATION
 40
0.0
  9
$THICKNESS
 40
0.0
  9
$LIMCHECK
 70
     0
  9
$CHAMFERA
 40
1.0
  9
$CHAMFERB
 40
1.0
  9
$CHAMFERC
 40
0.5
  9
$CHAMFERD
 40
0.7853981633974483
  9
$SKPOLY
 70
     0
  9
$TDCREATE
 40
2454593.406203704
  9
$TDUCREATE
 40
2454592.989546620
  9
$TDUPDATE
 40
2458015.622835648
  9
$TDUUPDATE
 40
2458015.206168981
  9
$TDINDWG
 40
8.3181257176
  9
$TDUSRTIMER
 40
8.3181199306
  9
$USRTIMER
 70
     1
  9
$ANGBASE
 50
0.0
  9
$ANGDIR
 70
     0
  9
$PDMODE
 70
    34
  9
$PDSIZE
 40
-2.0
  9
$PLINEWID
 40
0.0
  9
$SPLFRAME
 70
     0
  9
$SPLINETYPE
 70
     6
  9
$SPLINESEGS
 70
     8
  9
$HANDSEED
  5
6062E44
  9
$SURFTAB1
 70
     6
  9
$SURFTAB2
 70
     6
  9
$SURFTYPE
 70
     6
  9
$SURFU
 70
     6
  9
$SURFV
 70
     6
  9
$UCSBASE
  2

  9
$UCSNAME
  2

  9
$UCSORG
 10
0.0
 20
0.0
 30
0.0
  9
$UCSXDIR
 10
1.0
 20
0.0
 30
0.0
  9
$UCSYDIR
 10
0.0
 20
1.0
 30
0.0
  9
$UCSORTHOREF
  2

  9
$UCSORTHOVIEW
 70
     1
  9
$UCSORGTOP
 10
0.0
 20
0.0
 30
0.0
  9
$UCSORGBOTTOM
 10
0.0
 20
0.0
 30
0.0
  9
$UCSORGLEFT
 10
0.0
 20
0.0
 30
0.0
  9
$UCSORGRIGHT
 10
0.0
 20
0.0
 30
0.0
  9
$UCSORGFRONT
 10
0.0
 20
0.0
 30
0.0
  9
$UCSORGBACK
 10
0.0
 20
0.0
 30
0.0
  9
$PUCSBASE
  2

  9
$PUCSNAME
  2

  9
$PUCSORG
 10
0.0
 20
0.0
 30
0.0
  9
$PUCSXDIR
 10
1.0
 20
0.0
 30
0.0
  9
$PUCSYDIR
 10
0.0
 20
1.0
 30
0.0
  9
$PUCSORTHOREF
  2

  9
$PUCSORTHOVIEW
 70
     0
  9
$PUCSORGTOP
 10
0.0
 20
0.0
 30
0.0
  9
$PUCSORGBOTTOM
 10
0.0
 20
0.0
 30
0.0
  9
$PUCSORGLEFT
 10
0.0
 20
0.0
 30
0.0
  9
$PUCSORGRIGHT
 10
0.0
 20
0.0
 30
0.0
  9
$PUCSORGFRONT
 10
0.0
 20
0.0
 30
0.0
  9
$PUCSORGBACK
 10
0.0
 20
0.0
 30
0.0
  9
$USERI1
 70
     0
  9
$USERI2
 70
     0
  9
$USERI3
 70
     0
  9
$USERI4
 70
     0
  9
$USERI5
 70
     0
  9
$USERR1
 40
0.0
  9
$USERR2
 40
0.0
  9
$USERR3
 40
0.0
  9
$USERR4
 40
0.0
  9
$USERR5
 40
0.0
  9
$WORLDVIEW
 70
     1
  9
$SHADEDGE
 70
     3
  9
$SHADEDIF
 70
    70
  9
$TILEMODE
 70
     1
  9
$MAXACTVP
 70
    64
  9
$PINSBASE
 10
0.0
 20
0.0
 30
0.0
  9
$PLIMCHECK
 70
     0
  9
$PEXTMIN
 10
0.0451739414299368
 20
0.0000025706221436
 30
0.0
  9
$PEXTMAX
 10
287.29517394143
 20
200.4000025706222
 30
0.0
  9
$PLIMMIN
 10
-4.7730712890625
 20
-4.773083209991455
  9
$PLIMMAX
 10
292.2375793457031
 20
205.2425875663757
  9
$UNITMODE
 70
     0
  9
$VISRETAIN
 70
     1
  9
$PLINEGEN
 70
     0
  9
$PSLTSCALE
 70
     0
  9
$TREEDEPTH
 70
  3020
  9
$CMLSTYLE
  2
Standard
  9
$CMLJUST
 70
     0
  9
$CMLSCALE
 40
20.0
  9
$PROXYGRAPHICS
 70
     1
  9
$MEASUREMENT
 70
     1
  9
$CELWEIGHT
370
    -1
  9
$ENDCAPS
280
     0
  9
$JOINSTYLE
280
     0
  9
$LWDISPLAY
290
     0
  9
$INSUNITS
 70
     4
  9
$HYPERLINKBASE
  1

  9
$STYLESHEET
  1
acad.ctb
  9
$XEDIT
290
     1
  9
$CEPSNTYPE
380
     0
  9
$PSTYLEMODE
290
     1
  9
$FINGERPRINTGUID
  2
{FDEAD578-A652-11D2-9A35-0060089B3A3F}
  9
$VERSIONGUID
  2
{4832E3D2-F40F-3744-A034-EA1B2FF764DD}
  9
$EXTNAMES
290
     1
  9
$PSVPSCALE
 40
1.0
  9
$OLESTARTUP
290
     0
  9
$SORTENTS
280
   127
  9
$INDEXCTL
280
     0
  9
$HIDETEXT
280
     1
  9
$XCLIPFRAME
280
     2
  9
$HALOGAP
280
     0
  9
$OBSCOLOR
 70
   257
  9
$OBSLTYPE
280
     0
  9
$INTERSECTIONDISPLAY
280
     0
  9
$INTERSECTIONCOLOR
 70
   257
  9
$DIMASSOC
280
     1
  9
$PROJECTNAME
  1

  9
$CAMERADISPLAY
290
     0
  9
$LENSLENGTH
 40
50.0
  9
$CAMERAHEIGHT
 40
0.0
  9
$STEPSPERSEC
 40
2.0
  9
$STEPSIZE
 40
6.0
  9
$3DDWFPREC
 40
2.0
  9
$PSOLWIDTH
 40
0.25
  9
$PSOLHEIGHT
 40
4.0
  9
$LOFTANG1
 40
1.570795999999999
  9
$LOFTANG2
 40
1.570795999999999
  9
$LOFTMAG1
 40
0.0
  9
$LOFTMAG2
 40
0.0
  9
$LOFTPARAM
 70
     7
  9
$LOFTNORMALS
280
     1
  9
$LATITUDE
 40
37.795
  9
$LONGITUDE
 40
-122.394
  9
$NORTHDIRECTION
 40
0.0
  9
$TIMEZONE
 70
 -8000
  9
$LIGHTGLYPHDISPLAY
280
     1
  9
$TILEMODELIGHTSYNCH
280
     1
  9
$CMATERIAL
347
982F
  9
$SOLIDHIST
280
     0
  9
$SHOWHIST
280
     1
  9
$DWFFRAME
280
     2
  9
$DGNFRAME
280
     2
  9
$REALWORLDSCALE
290
     1
  9
$INTERFERECOLOR
 62
   256
  9
$INTERFEREOBJVS
345
9851
  9
$INTERFEREVPVS
346
6062E1B
  9
$CSHADOW
280
     0
  9
$SHADOWPLANELOCATION
 40
0.0
  0
ENDSEC
  0
SECTION
  2
CLASSES
  0
CLASS
  1
ACDBDICTIONARYWDFLT
  2
AcDbDictionaryWithDefault
  3
ObjectDBX Classes
 90
        0
 91
        1
280
     0
281
     0
  0
CLASS
  1
ACDBPLACEHOLDER
  2
AcDbPlaceHolder
  3
ObjectDBX Classes
 90
        0
 91
        1
280
     0
281
     0
  0
CLASS
  1
LAYOUT
  2
AcDbLayout
  3
ObjectDBX Classes
 90
        0
 91
        2
280
     0
281
     0
  0
CLASS
  1
PLOTSETTINGS
  2
AcDbPlotSettings
  3
ObjectDBX Classes
 90
        0
 91
        1
280
     0
281
     0
  0
CLASS
  1
DICTIONARYVAR
  2
AcDbDictionaryVar
  3
ObjectDBX Classes
 90
        0
 91
       21
280
     0
281
     0
  0
CLASS
  1
WIPEOUT
  2
AcDbWipeout
  3
WipeOut|Product Desc: Object Enabler for WipeOut entity | Company: Autodesk, Inc. | WEB Address: www.autodesk.com
 90
     2175
 91
        0
280
     0
281
     1
  0
CLASS
  1
WIPEOUTVARIABLES
  2
AcDbWipeoutVariables
  3
"WipeOut|Product Desc:     WipeOut Dbx Application|Company:          Autodesk, Inc.|WEB Address:      www.autodesk.com"
 90
        0
 91
        0
280
     0
281
     0
  0
CLASS
  1
DIMASSOC
  2
AcDbDimAssoc
  3
"AcDbDimAssoc|Product Desc:     AcDim ARX App For Dimension|Company:          Autodesk, Inc.|WEB Address:      www.autodesk.com"
 90
        0
 91
        0
280
     0
281
     0
  0
CLASS
  1
RASTERVARIABLES
  2
AcDbRasterVariables
  3
ISM
 90
        0
 91
        3
280
     0
281
     0
  0
CLASS
  1
IMAGEDEF
  2
AcDbRasterImageDef
  3
ISM
 90
        0
 91
        1
280
     0
281
     0
  0
CLASS
  1
IMAGEDEF_REACTOR
  2
AcDbRasterImageDefReactor
  3
ISM
 90
        1
 91
        0
280
     0
281
     0
  0
CLASS
  1
IMAGE
  2
AcDbRasterImage
  3
ISM
 90
     2175
 91
        0
280
     0
281
     1
  0
CLASS
  1
MATERIAL
  2
AcDbMaterial
  3
ObjectDBX Classes
 90
     1153
 91
        3
280
     0
281
     0
  0
CLASS
  1
VISUALSTYLE
  2
AcDbVisualStyle
  3
ObjectDBX Classes
 90
     4095
 91
       26
280
     0
281
     0
  0
CLASS
  1
TABLESTYLE
  2
AcDbTableStyle
  3
ObjectDBX Classes
 90
     4095
 91
        1
280
     0
281
     0
  0
CLASS
  1
SCALE
  2
AcDbScale
  3
ObjectDBX Classes
 90
     1153
 91
       33
280
     0
281
     0
  0
CLASS
  1
MLEADERSTYLE
  2
AcDbMLeaderStyle
  3
ACDB_MLEADERSTYLE_CLASS
 90
     4095
 91
        1
280
     0
281
     0
  0
CLASS
  1
CELLSTYLEMAP
  2
AcDbCellStyleMap
  3
ObjectDBX Classes
 90
     1152
 91
        2
280
     0
281
     0
  0
CLASS
  1
SORTENTSTABLE
  2
AcDbSortentsTable
  3
ObjectDBX Classes
 90
        0
 91
        1
280
     0
281
     0
  0
CLASS
  1
SOLID_BACKGROUND
  2
AcDbSolidBackground
  3
SCENEOE
 90
     4095
 91
        0
280
     0
281
     0
  0
CLASS
  1
NPOCOLLECTION
  2
AcDbImpNonPersistentObjectsCollection
  3
ObjectDBX Classes
 90
     1153
 91
        0
280
     0
281
     0
  0
CLASS
  1
ACDBSECTIONVIEWSTYLE
  2
AcDbSectionViewStyle
  3
ObjectDBX Classes
 90
     1025
 91
        1
280
     0
281
     0
  0
CLASS
  1
ACDBDETAILVIEWSTYLE
  2
AcDbDetailViewStyle
  3
ObjectDBX Classes
 90
     1025
 91
        1
280
     0
281
     0
  0
ENDSEC
  0
SECTION
  2
TABLES
  0
TABLE
  2
VPORT
  5
1A
102
{ACAD_XDICTIONARY
360
62463
102
}
330
0
100
AcDbSymbolTable
 70
     1
1001
ACAD
1000
DbSaveVer
1071
        5
  0
VPORT
  5
62E0C
330
1A
100
AcDbSymbolTableRecord
100
AcDbViewportTableRecord
  2
*Active
 70
     0
 10
0.0
 20
0.0
 11
1.0
 21
1.0
 12
4964.948375864691
 22
3610.034791490193
 13
0.0
 23
0.0
 14
10.0
 24
10.0
 15
10.0
 25
10.0
 16
0.0
 26
0.0
 36
1.0
 17
0.0
 27
0.0
 37
0.0
 40
1979.185659170124
 41
2.292712066905615
 42
50.0
 43
0.0
 44
0.0
 50
0.0
 51
0.0
 71
    16
 72
 20000
 73
     1
 74
     1
 75
     0
 76
     0
 77
     0
 78
     1
281
     0
 65
     1
110
0.0
120
0.0
130
0.0
111
1.0
121
0.0
131
0.0
112
0.0
122
1.0
132
0.0
 79
     0
146
0.0
348
984D
 60
     3
 61
     5
292
     1
282
     1
141
0.0
142
0.0
 63
   250
421
  3355443
1001
ACAD_NAV_VCDISPLAY
1070
     3
  0
ENDTAB
  0
TABLE
  2
LTYPE
  5
15
330
0
100
AcDbSymbolTable
 70
     2
  0
LTYPE
  5
16
330
15
100
AcDbSymbolTableRecord
100
AcDbLinetypeTableRecord
  2
ByBlock
 70
     0
  3

 72
    65
 73
     0
 40
0.0
  0
LTYPE
  5
17
330
15
100
AcDbSymbolTableRecord
100
AcDbLinetypeTableRecord
  2
ByLayer
 70
     0
  3

 72
    65
 73
     0
 40
0.0
  0
LTYPE
  5
8
330
15
100
AcDbSymbolTableRecord
100
AcDbLinetypeTableRecord
  2
Continuous
 70
     0
  3
Solid line
 72
    65
 73
     0
 40
0.0
  0
LTYPE
  5
3FE
330
15
100
AcDbSymbolTableRecord
100
AcDbLinetypeTableRecord
  2
CENTER
 70
     0
  3
Center ____ _ ____ _ ____ _ ____ _ ____ _ ____
 72
    65
 73
     4
 40
50.8
 49
31.75
 74
     0
 49
-6.349999999999998
 74
     0
 49
6.349999999999998
 74
     0
 49
-6.349999999999998
 74
     0
  0
ENDTAB
  0
TABLE
  2
LAYER
  5
10
102
{ACAD_XDICTIONARY
360
3FD7
102
}
330
0
100
AcDbSymbolTable
 70
     7
  0
LAYER
  5
4
102
{ACAD_XDICTIONARY
360
9891
102
}
330
10
100
AcDbSymbolTableRecord
100
AcDbLayerTableRecord
  2
0
 70
     0
 62
     7
  6
Continuous
370
    30
390
5
347
983F
348
0
  0
LAYER
  5
400
102
{ACAD_XDICTIONARY
360
9893
102
}
330
10
100
AcDbSymbolTableRecord
100
AcDbLayerTableRecord
  2
标注
 70
     0
 62
   221
  6
Continuous
370
     9
390
5
347
983F
348
0
1001
AcadStringInfo
1000
MIFCodePage
1070
     5
  0
LAYER
  5
401
330
10
100
AcDbSymbolTableRecord
100
AcDbLayerTableRecord
  2
Defpoints
 70
     0
 62
     7
  6
Continuous
290
     0
370
    -3
390
5
347
983F
348
0
  0
LAYER
  5
403
102
{ACAD_XDICTIONARY
360
9897
102
}
330
10
100
AcDbSymbolTableRecord
100
AcDbLayerTableRecord
  2
中心线
 70
     0
 62
     1
  6
CENTER
370
     9
390
5
347
983F
348
0
1001
AcadStringInfo
1000
MIFCodePage
1070
     5
  0
LAYER
  5
405
102
{ACAD_XDICTIONARY
360
989B
102
}
330
10
100
AcDbSymbolTableRecord
100
AcDbLayerTableRecord
  2
剖面线
 70
     0
 62
    50
  6
Continuous
370
     9
390
5
347
983F
348
0
1001
AcadStringInfo
1000
MIFCodePage
1070
     5
  0
LAYER
  5
92F
102
{ACAD_XDICTIONARY
360
989F
102
}
330
10
100
AcDbSymbolTableRecord
100
AcDbLayerTableRecord
  2
ASHADE
 70
     4
 62
    -7
  6
Continuous
370
    -3
390
5
347
983F
348
0
  0
LAYER
  5
4563
102
{ACAD_XDICTIONARY
360
98A9
102
}
330
10
100
AcDbSymbolTableRecord
100
AcDbLayerTableRecord
  2
图层1
 70
     0
 62
     7
  6
Continuous
370
    13
390
5
347
983F
348
0
1001
AcadStringInfo
1000
MIFCodePage
1070
     5
  0
ENDTAB
  0
TABLE
  2
STYLE
  5
11
330
0
100
AcDbSymbolTable
 70
     5
  0
STYLE
  5
12
330
11
100
AcDbSymbolTableRecord
100
AcDbTextStyleTableRecord
  2
Standard
 70
     0
 40
0.0
 41
1.0
 50
0.0
 71
     0
 42
4.5
  3
SIMHEI.TTF
  4

1001
ACAD
1000
SimHei
1071
    34306
  0
STYLE
  5
406
330
11
100
AcDbSymbolTableRecord
100
AcDbTextStyleTableRecord
  2
样式 1
 70
     0
 40
0.0
 41
1.0
 50
0.0
 71
     0
 42
4.5
  3

  4

1001
ACAD
1000
LiSu
1071
    34353
1001
AcadStringInfo
1000
MIFCodePage
1070
     5
  0
STYLE
  5
3FD6
330
11
100
AcDbSymbolTableRecord
100
AcDbTextStyleTableRecord
  2
黑体
 70
     0
 40
0.0
 41
1.0
 50
0.0
 71
     0
 42
6.0
  3
SIMHEI.TTF
  4

1001
ACAD
1000
SimHei
1071
    34306
1001
AcadStringInfo
1000
MIFCodePage
1070
     5
  0
STYLE
  5
62D25
330
11
100
AcDbSymbolTableRecord
100
AcDbTextStyleTableRecord
  2
GN3
 70
     0
 40
0.156
 41
1.0
 50
0.0
 71
     0
 42
0.2
  3
ROMANK
  4

  0
STYLE
  5
62D26
330
11
100
AcDbSymbolTableRecord
100
AcDbTextStyleTableRecord
  2
GN4
 70
     0
 40
0.188
 41
1.0
 50
0.0
 71
     0
 42
0.2
  3
ROMAND
  4

  0
ENDTAB
  0
TABLE
  2
VIEW
  5
18
330
0
100
AcDbSymbolTable
 70
     0
  0
ENDTAB
  0
TABLE
  2
UCS
  5
19
330
0
100
AcDbSymbolTable
 70
     0
  0
ENDTAB
  0
TABLE
  2
APPID
  5
1C
330
0
100
AcDbSymbolTable
 70
    19
  0
APPID
  5
13
330
1C
100
AcDbSymbolTableRecord
100
AcDbRegAppTableRecord
  2
ACAD
 70
     0
  0
APPID
  5
2BE8
330
1C
100
AcDbSymbolTableRecord
100
AcDbRegAppTableRecord
  2
DCO15
 70
     0
  0
APPID
  5
987D
330
1C
100
AcDbSymbolTableRecord
100
AcDbRegAppTableRecord
  2
ACAD_MLEADERVER
 70
     0
  0
APPID
  5
988A
330
1C
100
AcDbSymbolTableRecord
100
AcDbRegAppTableRecord
  2
ACAD_EXEMPT_FROM_CAD_STANDARDS
 70
     0
  0
APPID
  5
A534
330
1C
100
AcDbSymbolTableRecord
100
AcDbRegAppTableRecord
  2
ACAD_DSTYLE_DIMRADIAL_EXTENSION
 70
     0
  0
APPID
  5
30A41
330
1C
100
AcDbSymbolTableRecord
100
AcDbRegAppTableRecord
  2
ACAD_PSEXT
 70
     0
  0
APPID
  5
46FFE
330
1C
100
AcDbSymbolTableRecord
100
AcDbRegAppTableRecord
  2
ACAD_DSTYLE_DIMJAG
 70
     0
  0
APPID
  5
46FFF
330
1C
100
AcDbSymbolTableRecord
100
AcDbRegAppTableRecord
  2
ACAD_DSTYLE_DIMTALN
 70
     0
  0
APPID
  5
628BA
330
1C
100
AcDbSymbolTableRecord
100
AcDbRegAppTableRecord
  2
ACAD_DSTYLE_DIMTEXT_FILL
 70
     0
  0
APPID
  5
628BB
330
1C
100
AcDbSymbolTableRecord
100
AcDbRegAppTableRecord
  2
ACAD_DSTYLE_DIMEXT_LENGTH
 70
     0
  0
APPID
  5
628BC
330
1C
100
AcDbSymbolTableRecord
100
AcDbRegAppTableRecord
  2
ACAD_DSTYLE_DIMEXT_ENABLED
 70
     0
  0
APPID
  5
628BD
330
1C
100
AcDbSymbolTableRecord
100
AcDbRegAppTableRecord
  2
ACAD_DSTYLE_DIM_LINETYPE
 70
     0
  0
APPID
  5
628BE
330
1C
100
AcDbSymbolTableRecord
100
AcDbRegAppTableRecord
  2
ACAD_DSTYLE_DIM_EXT1_LINETYPE
 70
     0
  0
APPID
  5
628BF
330
1C
100
AcDbSymbolTableRecord
100
AcDbRegAppTableRecord
  2
ACAD_DSTYLE_DIM_EXT2_LINETYPE
 70
     0
  0
APPID
  5
6297B
330
1C
100
AcDbSymbolTableRecord
100
AcDbRegAppTableRecord
  2
ACAD_DSTYLE_DIMJOGGED_JOGANGLE_SYMBOL
 70
     0
  0
APPID
  5
629DF
330
1C
100
AcDbSymbolTableRecord
100
AcDbRegAppTableRecord
  2
ACAD_DSTYLE_DIMARC_LENGTH_SYMBOL
 70
     0
  0
APPID
  5
62D27
330
1C
100
AcDbSymbolTableRecord
100
AcDbRegAppTableRecord
  2
PSP
 70
     0
  0
APPID
  5
6062E26
330
1C
100
AcDbSymbolTableRecord
100
AcDbRegAppTableRecord
  2
AcadStringInfo
 70
     0
  0
APPID
  5
6062E30
330
1C
100
AcDbSymbolTableRecord
100
AcDbRegAppTableRecord
  2
ACAD_NAV_VCDISPLAY
 70
     0
  0
ENDTAB
  0
TABLE
  2
DIMSTYLE
  5
1D
330
0
100
AcDbSymbolTable
 70
     2
100
AcDbDimStyleTable
 71
     1
340
18F2E
  0
DIMSTYLE
105
4564
330
1D
100
AcDbSymbolTableRecord
100
AcDbDimStyleTableRecord
  2
STANDARD
 70
     0
 41
15.0
 42
6.0
 44
5.0
140
15.0
271
     0
272
     0
340
12
  0
DIMSTYLE
105
18F2E
102
{ACAD_REACTORS
330
61C87
330
61C9D
330
61CAB
330
61CB7
330
61CC3
330
61CDC
330
61CE9
330
61D0C
330
61D16
330
61D20
330
61D2D
330
61EEA
330
61F00
330
6207D
330
62087
330
620E2
330
62BCA
330
62BD7
330
62BE4
330
62C54
102
}
330
1D
100
AcDbSymbolTableRecord
100
AcDbDimStyleTableRecord
  2
线性标注
 70
     0
 41
2.5
 42
0.625
 43
3.75
 44
1.25
 49
1.25
 50
90.0
 73
     0
 74
     0
 77
     1
 78
     8
140
30.0
141
2.5
143
0.03937007874016
147
0.625
171
     3
172
     1
271
     1
272
     1
274
     3
283
     0
284
     8
340
406
342
18F26
1001
ACAD_DSTYLE_DIMJAG
1070
   388
1040
1.5
1001
ACAD_DSTYLE_DIMTALN
1070
   392
1070
     0
1001
ACAD_DSTYLE_DIMJOGGED_JOGANGLE_SYMBOL
1070
   384
1040
1.570796326794896
1001
AcadStringInfo
1000
MIFCodePage
1070
     5
  0
ENDTAB
  0
TABLE
  2
BLOCK_RECORD
  5
1
330
0
100
AcDbSymbolTable
 70
    21
  0
BLOCK_RECORD
  5
2
102
{ACAD_XDICTIONARY
360
98C5
102
}
330
1
100
AcDbSymbolTableRecord
100
AcDbBlockTableRecord
  2
*Model_Space
340
A
 70
     0
280
     1
281
     0
  0
BLOCK_RECORD
  5
C
330
1
100
AcDbSymbolTableRecord
100
AcDbBlockTableRecord
  2
*Paper_Space
340
F
 70
     0
280
     1
281
     0
  0
BLOCK_RECORD
  5
18F26
330
1
100
AcDbSymbolTableRecord
100
AcDbBlockTableRecord
  2
_ClosedBlank
340
0
102
{BLKREFS
331
62A25
331
62A2B
331
62A39
331
62A3F
331
62A40
331
62A49
331
62A4A
331
62A52
331
62A58
331
62A59
331
62A62
331
62A63
331
62AC1
331
62AC2
331
629E7
331
629E8
331
629F1
331
629F2
331
629FB
331
629FC
331
62A03
331
62A04
331
62A0B
331
62A0C
331
62A12
331
62A13
331
62A1C
331
62A1D
331
62C8B
331
62C8C
331
62C94
331
62C95
331
62C9D
331
62C9E
331
62CA7
331
62CA8
102
}
 70
     0
280
     1
281
     0
  0
BLOCK_RECORD
  5
61C88
330
1
100
AcDbSymbolTableRecord
100
AcDbBlockTableRecord
  2
*D1
340
0
 70
     0
280
     1
281
     0
  0
BLOCK_RECORD
  5
61C9E
330
1
100
AcDbSymbolTableRecord
100
AcDbBlockTableRecord
  2
*D2
340
0
 70
     0
280
     1
281
     0
  0
BLOCK_RECORD
  5
61CAC
330
1
100
AcDbSymbolTableRecord
100
AcDbBlockTableRecord
  2
*D3
340
0
 70
     0
280
     1
281
     0
  0
BLOCK_RECORD
  5
61CB8
330
1
100
AcDbSymbolTableRecord
100
AcDbBlockTableRecord
  2
*D4
340
0
 70
     0
280
     1
281
     0
  0
BLOCK_RECORD
  5
61CC4
330
1
100
AcDbSymbolTableRecord
100
AcDbBlockTableRecord
  2
*D5
340
0
 70
     0
280
     1
281
     0
  0
BLOCK_RECORD
  5
61CDD
330
1
100
AcDbSymbolTableRecord
100
AcDbBlockTableRecord
  2
*D6
340
0
 70
     0
280
     1
281
     0
  0
BLOCK_RECORD
  5
61CEA
330
1
100
AcDbSymbolTableRecord
100
AcDbBlockTableRecord
  2
*D7
340
0
 70
     0
280
     1
281
     0
  0
BLOCK_RECORD
  5
61D0D
330
1
100
AcDbSymbolTableRecord
100
AcDbBlockTableRecord
  2
*D8
340
0
 70
     0
280
     1
281
     0
  0
BLOCK_RECORD
  5
61D17
330
1
100
AcDbSymbolTableRecord
100
AcDbBlockTableRecord
  2
*D9
340
0
 70
     0
280
     1
281
     0
  0
BLOCK_RECORD
  5
61D21
330
1
100
AcDbSymbolTableRecord
100
AcDbBlockTableRecord
  2
*D10
340
0
 70
     0
280
     1
281
     0
  0
BLOCK_RECORD
  5
61D2E
330
1
100
AcDbSymbolTableRecord
100
AcDbBlockTableRecord
  2
*D11
340
0
 70
     0
280
     1
281
     0
  0
BLOCK_RECORD
  5
61EEB
330
1
100
AcDbSymbolTableRecord
100
AcDbBlockTableRecord
  2
*D12
340
0
 70
     0
280
     1
281
     0
  0
BLOCK_RECORD
  5
61F01
330
1
100
AcDbSymbolTableRecord
100
AcDbBlockTableRecord
  2
*D13
340
0
 70
     0
280
     1
281
     0
  0
BLOCK_RECORD
  5
6207E
330
1
100
AcDbSymbolTableRecord
100
AcDbBlockTableRecord
  2
*D14
340
0
 70
     0
280
     1
281
     0
  0
BLOCK_RECORD
  5
62088
330
1
100
AcDbSymbolTableRecord
100
AcDbBlockTableRecord
  2
*D15
340
0
 70
     0
280
     1
281
     0
  0
BLOCK_RECORD
  5
620E3
330
1
100
AcDbSymbolTableRecord
100
AcDbBlockTableRecord
  2
*D16
340
0
 70
     0
280
     1
281
     0
  0
BLOCK_RECORD
  5
62BCB
330
1
100
AcDbSymbolTableRecord
100
AcDbBlockTableRecord
  2
*D17
340
0
 70
     0
280
     1
281
     0
  0
BLOCK_RECORD
  5
62BD8
330
1
100
AcDbSymbolTableRecord
100
AcDbBlockTableRecord
  2
*D18
340
0
 70
     0
280
     1
281
     0
  0
BLOCK_RECORD
  5
62BE5
330
1
100
AcDbSymbolTableRecord
100
AcDbBlockTableRecord
  2
*D19
340
0
 70
     0
280
     1
281
     0
  0
BLOCK_RECORD
  5
62C55
330
1
100
AcDbSymbolTableRecord
100
AcDbBlockTableRecord
  2
*D20
340
0
 70
     0
280
     1
281
     0
  0
ENDTAB
  0
ENDSEC
  0
SECTION
  2
BLOCKS
  0
BLOCK
  5
3
330
2
100
AcDbEntity
  8
0
100
AcDbBlockBegin
  2
*Model_Space
 70
     2
 10
0.0
 20
0.0
 30
0.0
  3
*Model_Space
  1

  0
ENDBLK
  5
9
330
2
100
AcDbEntity
  8
0
100
AcDbBlockEnd
  0
BLOCK
  5
D
330
C
100
AcDbEntity
 67
     1
  8
0
100
AcDbBlockBegin
  2
*Paper_Space
 70
     0
 10
0.0
 20
0.0
 30
0.0
  3
*Paper_Space
  1

  0
ENDBLK
  5
E
330
C
100
AcDbEntity
 67
     1
  8
0
100
AcDbBlockEnd
  0
BLOCK
  5
18F27
330
18F26
100
AcDbEntity
  8
0
 48
0.2
100
AcDbBlockBegin
  2
_ClosedBlank
 70
     0
 10
0.0
 20
0.0
 30
0.0
  3
_ClosedBlank
  1

  0
LINE
  5
18F28
330
18F26
100
AcDbEntity
  8
0
  6
ByBlock
 62
     0
370
    -2
100
AcDbLine
 10
-1.0
 20
0.1666666666666666
 30
0.0
 11
0.0
 21
0.0
 31
0.0
  0
LINE
  5
18F29
330
18F26
100
AcDbEntity
  8
0
  6
ByBlock
 62
     0
370
    -2
100
AcDbLine
 10
0.0
 20
0.0
 30
0.0
 11
-1.0
 21
-0.1666666666666666
 31
0.0
  0
LINE
  5
18F2A
330
18F26
100
AcDbEntity
  8
0
  6
ByBlock
 62
     0
370
    -2
100
AcDbLine
 10
-1.0
 20
0.1666666666666666
 30
0.0
 11
-1.0
 21
-0.1666666666666666
 31
0.0
  0
ENDBLK
  5
18F2B
330
18F26
100
AcDbEntity
  8
0
 48
0.2
100
AcDbBlockEnd
  0
BLOCK
  5
61C89
330
61C88
100
AcDbEntity
  8
0
100
AcDbBlockBegin
  2
*D1
 70
     1
 10
0.0
 20
0.0
 30
0.0
  3
*D1
  1

  0
LINE
  5
629E4
330
61C88
100
AcDbEntity
  8
标注
 62
     0
440
 16777216
370
    -2
100
AcDbLine
 10
4200.310381233033
 20
3437.089357926524
 30
0.0
 11
4151.134413554241
 21
3437.089357926524
 31
0.0
  0
LINE
  5
629E5
330
61C88
100
AcDbEntity
  8
标注
 62
     0
440
 16777216
370
    -2
100
AcDbLine
 10
4255.310381233033
 20
3334.289357926524
 30
0.0
 11
4151.134413554241
 21
3334.289357926524
 31
0.0
  0
LINE
  5
629E6
330
61C88
100
AcDbEntity
  8
标注
 62
     0
440
 16777216
370
    -2
100
AcDbLine
 10
4152.384413554241
 20
3434.589357926525
 30
0.0
 11
4152.384413554241
 21
3336.789357926524
 31
0.0
  0
INSERT
  5
629E7
330
61C88
100
AcDbEntity
  8
标注
 62
     0
440
 16777216
370
    -2
100
AcDbBlockReference
  2
_ClosedBlank
 10
4152.384413554241
 20
3437.089357926524
 30
0.0
 41
2.5
 42
2.5
 43
2.5
 50
90.0
  0
INSERT
  5
629E8
330
61C88
100
AcDbEntity
  8
标注
 62
     0
440
 16777216
370
    -2
100
AcDbBlockReference
  2
_ClosedBlank
 10
4152.384413554241
 20
3334.289357926524
 30
0.0
 41
2.5
 42
2.5
 43
2.5
 50
270.0
  0
MTEXT
  5
629E9
330
61C88
100
AcDbEntity
  8
标注
 62
     0
440
 16777216
100
AcDbMText
 10
4136.75941355424
 20
3385.689357926525
 30
0.0
 40
30.0
 41
0.0
 46
0.0
 71
     5
 72
     1
  1
88
  7
样式 1
 11
0.0000000000000001
 21
1.0
 31
0.0
 73
     1
 44
1.0
  0
POINT
  5
629EA
330
61C88
100
AcDbEntity
  8
Defpoints
 62
     0
440
 16777216
100
AcDbPoint
 10
4200.935381233033
 20
3437.089357926524
 30
0.0
  0
POINT
  5
629EB
330
61C88
100
AcDbEntity
  8
Defpoints
 62
     0
440
 16777216
100
AcDbPoint
 10
4255.935381233032
 20
3334.289357926524
 30
0.0
  0
POINT
  5
629EC
330
61C88
100
AcDbEntity
  8
Defpoints
 62
     0
440
 16777216
100
AcDbPoint
 10
4152.384413554241
 20
3334.289357926524
 30
0.0
  0
ENDBLK
  5
61C8A
330
61C88
100
AcDbEntity
  8
0
100
AcDbBlockEnd
  0
BLOCK
  5
61C9F
330
61C9E
100
AcDbEntity
  8
0
100
AcDbBlockBegin
  2
*D2
 70
     1
 10
0.0
 20
0.0
 30
0.0
  3
*D2
  1

  0
LINE
  5
629ED
330
61C9E
100
AcDbEntity
  8
标注
 62
     0
440
 16777216
370
    -2
100
AcDbLine
 10
3958.520709824133
 20
3692.612895010194
 30
0.0
 11
3958.520709824133
 21
3710.750461479654
 31
0.0
  0
LINE
  5
629EE
330
61C9E
100
AcDbEntity
  8
标注
 62
     0
440
 16777216
370
    -2
100
AcDbLine
 10
3971.520709824132
 20
3692.612895010194
 30
0.0
 11
3971.520709824132
 21
3710.750461479654
 31
0.0
  0
LINE
  5
629EF
330
61C9E
100
AcDbEntity
  8
标注
 62
     0
440
 16777216
370
    -2
100
AcDbLine
 10
3961.020709824133
 20
3709.500461479655
 30
0.0
 11
3969.020709824132
 21
3709.500461479655
 31
0.0
  0
LINE
  5
629F0
330
61C9E
100
AcDbEntity
  8
标注
 62
     0
440
 16777216
370
    -2
100
AcDbLine
 10
3971.520709824132
 20
3709.500461479655
 30
0.0
 11
4018.127852681274
 21
3709.500461479655
 31
0.0
  0
INSERT
  5
629F1
330
61C9E
100
AcDbEntity
  8
标注
 62
     0
440
 16777216
370
    -2
100
AcDbBlockReference
  2
_ClosedBlank
 10
3958.520709824133
 20
3709.500461479655
 30
0.0
 41
2.5
 42
2.5
 43
2.5
 50
180.0
  0
INSERT
  5
629F2
330
61C9E
100
AcDbEntity
  8
标注
 62
     0
440
 16777216
370
    -2
100
AcDbBlockReference
  2
_ClosedBlank
 10
3971.520709824132
 20
3709.500461479655
 30
0.0
 41
2.5
 42
2.5
 43
2.5
  0
MTEXT
  5
629F3
330
61C9E
100
AcDbEntity
  8
标注
 62
     0
440
 16777216
100
AcDbMText
 10
3996.074281252703
 20
3725.125461479655
 30
0.0
 40
30.0
 41
0.0
 46
0.0
 71
     5
 72
     1
  1
13
  7
样式 1
 73
     1
 44
1.0
  0
POINT
  5
629F4
330
61C9E
100
AcDbEntity
  8
Defpoints
 62
     0
440
 16777216
100
AcDbPoint
 10
3958.520709824133
 20
3691.987895010195
 30
0.0
  0
POINT
  5
629F5
330
61C9E
100
AcDbEntity
  8
Defpoints
 62
     0
440
 16777216
100
AcDbPoint
 10
3971.520709824132
 20
3691.987895010195
 30
0.0
  0
POINT
  5
629F6
330
61C9E
100
AcDbEntity
  8
Defpoints
 62
     0
440
 16777216
100
AcDbPoint
 10
3971.520709824132
 20
3709.500461479655
 30
0.0
  0
ENDBLK
  5
61CA0
330
61C9E
100
AcDbEntity
  8
0
100
AcDbBlockEnd
  0
BLOCK
  5
61CAD
330
61CAC
100
AcDbEntity
  8
0
100
AcDbBlockBegin
  2
*D3
 70
     1
 10
0.0
 20
0.0
 30
0.0
  3
*D3
  1

  0
LINE
  5
629F7
330
61CAC
100
AcDbEntity
  8
标注
 62
     0
440
 16777216
370
    -2
100
AcDbLine
 10
3781.925186625312
 20
3729.983990013467
 30
0.0
 11
3883.407352448324
 21
3672.550586969795
 31
0.0
  0
LINE
  5
629F8
330
61CAC
100
AcDbEntity
  8
标注
 62
     0
440
 16777216
370
    -2
100
AcDbLine
 10
3915.434067199941
 20
3654.425203050592
 30
0.0
 11
3917.609795104263
 21
3653.193859034341
 31
0.0
  0
MTEXT
  5
629F9
330
61CAC
100
AcDbEntity
  8
标注
 62
     0
440
 16777216
100
AcDbMText
 10
3839.274305686221
 20
3715.481259901768
 30
0.0
 40
30.0
 41
0.0
 46
0.0
 71
     5
 72
     1
  1
∅31.8
  7
样式 1
 11
0.8702911617287393
 21
-0.4925376065000938
 31
0.0
 73
     1
 44
1.0
  0
LINE
  5
629FA
330
61CAC
100
AcDbEntity
  8
标注
 62
     0
440
 16777216
370
    -2
100
AcDbLine
 10
3913.258339295619
 20
3655.656547066841
 30
0.0
 11
3885.583080352645
 21
3671.319242953545
 31
0.0
  0
INSERT
  5
629FB
330
61CAC
100
AcDbEntity
  8
标注
 62
     0
440
 16777216
370
    -2
100
AcDbBlockReference
  2
_ClosedBlank
 10
3913.258339295619
 20
3655.656547066841
 30
0.0
 41
2.5
 42
2.5
 43
2.5
 50
150.4924920127741
  0
INSERT
  5
629FC
330
61CAC
100
AcDbEntity
  8
标注
 62
     0
440
 16777216
370
    -2
100
AcDbBlockReference
  2
_ClosedBlank
 10
3885.583080352645
 20
3671.319242953545
 30
0.0
 41
2.5
 42
2.5
 43
2.5
 50
330.4924920127742
  0
POINT
  5
629FD
330
61CAC
100
AcDbEntity
  8
Defpoints
 62
     0
440
 16777216
100
AcDbPoint
 10
3885.583080352645
 20
3671.319242953545
 30
0.0
  0
POINT
  5
629FE
330
61CAC
100
AcDbEntity
  8
Defpoints
 62
     0
440
 16777216
100
AcDbPoint
 10
3913.258339295619
 20
3655.656547066841
 30
0.0
  0
ENDBLK
  5
61CAE
330
61CAC
100
AcDbEntity
  8
0
100
AcDbBlockEnd
  0
BLOCK
  5
61CB9
330
61CB8
100
AcDbEntity
  8
0
100
AcDbBlockBegin
  2
*D4
 70
     1
 10
0.0
 20
0.0
 30
0.0
  3
*D4
  1

  0
LINE
  5
629FF
330
61CB8
100
AcDbEntity
  8
标注
 62
     0
440
 16777216
370
    -2
100
AcDbLine
 10
3779.983536017659
 20
3593.975110010394
 30
0.0
 11
3884.468684447625
 21
3654.785772444963
 31
0.0
  0
LINE
  5
62A00
330
61CB8
100
AcDbEntity
  8
标注
 62
     0
440
 16777216
370
    -2
100
AcDbLine
 10
3914.372735200638
 20
3672.190017575424
 30
0.0
 11
3916.533432509383
 21
3673.447549738029
 31
0.0
  0
MTEXT
  5
62A01
330
61CB8
100
AcDbEntity
  8
标注
 62
     0
440
 16777216
100
AcDbMText
 10
3823.286185561985
 20
3637.256033326024
 30
0.0
 40
30.0
 41
0.0
 46
0.0
 71
     5
 72
     1
  1
∅29.6
  7
样式 1
 11
0.8642789234975078
 21
0.5030128650422264
 31
0.0
 73
     1
 44
1.0
  0
LINE
  5
62A02
330
61CB8
100
AcDbEntity
  8
标注
 62
     0
440
 16777216
370
    -2
100
AcDbLine
 10
3912.212037891894
 20
3670.932485412818
 30
0.0
 11
3886.629381756369
 21
3656.043304607568
 31
0.0
  0
INSERT
  5
62A03
330
61CB8
100
AcDbEntity
  8
标注
 62
     0
440
 16777216
370
    -2
100
AcDbBlockReference
  2
_ClosedBlank
 10
3912.212037891894
 20
3670.932485412818
 30
0.0
 41
2.5
 42
2.5
 43
2.5
 50
210.1995305380456
  0
INSERT
  5
62A04
330
61CB8
100
AcDbEntity
  8
标注
 62
     0
440
 16777216
370
    -2
100
AcDbBlockReference
  2
_ClosedBlank
 10
3886.629381756369
 20
3656.043304607568
 30
0.0
 41
2.5
 42
2.5
 43
2.5
 50
30.19953053804557
  0
POINT
  5
62A05
330
61CB8
100
AcDbEntity
  8
Defpoints
 62
     0
440
 16777216
100
AcDbPoint
 10
3886.629381756369
 20
3656.043304607568
 30
0.0
  0
POINT
  5
62A06
330
61CB8
100
AcDbEntity
  8
Defpoints
 62
     0
440
 16777216
100
AcDbPoint
 10
3912.212037891894
 20
3670.932485412818
 30
0.0
  0
ENDBLK
  5
61CBA
330
61CB8
100
AcDbEntity
  8
0
100
AcDbBlockEnd
  0
BLOCK
  5
61CC5
330
61CC4
100
AcDbEntity
  8
0
100
AcDbBlockBegin
  2
*D5
 70
     1
 10
0.0
 20
0.0
 30
0.0
  3
*D5
  1

  0
LINE
  5
62A07
330
61CC4
100
AcDbEntity
  8
标注
 62
     0
440
 16777216
370
    -2
100
AcDbLine
 10
4313.283002404702
 20
3775.921594045827
 30
0.0
 11
4222.847295669342
 21
3685.416597792979
 31
0.0
  0
LINE
  5
62A08
330
61CC4
100
AcDbEntity
  8
标注
 62
     0
440
 16777216
370
    -2
100
AcDbLine
 10
4179.023466796722
 20
3641.559192227406
 30
0.0
 11
4177.256376922826
 21
3639.790748454601
 31
0.0
  0
MTEXT
  5
62A09
330
61CC4
100
AcDbEntity
  8
标注
 62
     0
440
 16777216
100
AcDbMText
 10
4257.090583815641
 20
3743.402349540124
 30
0.0
 40
30.0
 41
0.0
 46
0.0
 71
     5
 72
     1
  1
{\fGulim|b0|i0|c129|p34;3-∅57}
  7
样式 1
 11
0.7068359495584034
 21
0.7073775091221592
 31
0.0
 73
     1
 44
1.0
  0
LINE
  5
62A0A
330
61CC4
100
AcDbEntity
  8
标注
 62
     0
440
 16777216
370
    -2
100
AcDbLine
 10
4180.790556670618
 20
3643.327636000212
 30
0.0
 11
4221.080205795446
 21
3683.648154020174
 31
0.0
  0
INSERT
  5
62A0B
330
61CC4
100
AcDbEntity
  8
标注
 62
     0
440
 16777216
370
    -2
100
AcDbBlockReference
  2
_ClosedBlank
 10
4180.790556670618
 20
3643.327636000212
 30
0.0
 41
2.5
 42
2.5
 43
2.5
 50
45.02194087155016
  0
INSERT
  5
62A0C
330
61CC4
100
AcDbEntity
  8
标注
 62
     0
440
 16777216
370
    -2
100
AcDbBlockReference
  2
_ClosedBlank
 10
4221.080205795446
 20
3683.648154020174
 30
0.0
 41
2.5
 42
2.5
 43
2.5
 50
225.0219408715501
  0
POINT
  5
62A0D
330
61CC4
100
AcDbEntity
  8
Defpoints
 62
     0
440
 16777216
100
AcDbPoint
 10
4221.080205795446
 20
3683.648154020174
 30
0.0
  0
POINT
  5
62A0E
330
61CC4
100
AcDbEntity
  8
Defpoints
 62
     0
440
 16777216
100
AcDbPoint
 10
4180.790556670618
 20
3643.327636000212
 30
0.0
  0
ENDBLK
  5
61CC6
330
61CC4
100
AcDbEntity
  8
0
100
AcDbBlockEnd
  0
BLOCK
  5
61CDE
330
61CDD
100
AcDbEntity
  8
0
100
AcDbBlockBegin
  2
*D6
 70
     1
 10
0.0
 20
0.0
 30
0.0
  3
*D6
  1

  0
LINE
  5
62A0F
330
61CDD
100
AcDbEntity
  8
标注
 62
     0
440
 16777216
370
    -2
100
AcDbLine
 10
4705.189224764424
 20
3666.591450889133
 30
0.0
 11
4761.074782181935
 21
3599.268576199968
 31
0.0
  0
LINE
  5
62A10
330
61CDD
100
AcDbEntity
  8
标注
 62
     0
440
 16777216
370
    -2
100
AcDbLine
 10
5247.078948451576
 20
4116.420864842407
 30
0.0
 11
5302.964505869088
 21
4049.097990153241
 31
0.0
  0
LINE
  5
62A11
330
61CDD
100
AcDbEntity
  8
标注
 62
     0
440
 16777216
370
    -2
100
AcDbLine
 10
4762.199978118951
 20
3601.827176227974
 30
0.0
 11
5300.24250828447
 21
4048.462986886049
 31
0.0
  0
INSERT
  5
62A12
330
61CDD
100
AcDbEntity
  8
标注
 62
     0
440
 16777216
370
    -2
100
AcDbBlockReference
  2
_ClosedBlank
 10
4760.276381358135
 20
3600.230374580376
 30
0.0
 41
2.5
 42
2.5
 43
2.5
 50
219.696488283776
  0
INSERT
  5
62A13
330
61CDD
100
AcDbEntity
  8
标注
 62
     0
440
 16777216
370
    -2
100
AcDbBlockReference
  2
_ClosedBlank
 10
5302.166105045287
 20
4050.05978853365
 30
0.0
 41
2.5
 42
2.5
 43
2.5
 50
39.69648828377594
  0
MTEXT
  5
62A14
330
61CDD
100
AcDbEntity
  8
标注
 62
     0
440
 16777216
100
AcDbMText
 10
5021.241232904217
 20
3837.167561312118
 30
0.0
 40
30.0
 41
0.0
 46
0.0
 71
     5
 72
     1
  1
700
  7
样式 1
 11
0.7694387043267259
 21
0.6387206590396222
 31
0.0
 73
     1
 44
1.0
  0
POINT
  5
62A15
330
61CDD
100
AcDbEntity
  8
Defpoints
 62
     0
440
 16777216
100
AcDbPoint
 10
4704.790024352525
 20
3667.072350079337
 30
0.0
  0
POINT
  5
62A16
330
61CDD
100
AcDbEntity
  8
Defpoints
 62
     0
440
 16777216
100
AcDbPoint
 10
5246.679748039677
 20
4116.90176403261
 30
0.0
  0
POINT
  5
62A17
330
61CDD
100
AcDbEntity
  8
Defpoints
 62
     0
440
 16777216
100
AcDbPoint
 10
5302.166105045287
 20
4050.05978853365
 30
0.0
  0
ENDBLK
  5
61CDF
330
61CDD
100
AcDbEntity
  8
0
100
AcDbBlockEnd
  0
BLOCK
  5
61CEB
330
61CEA
100
AcDbEntity
  8
0
100
AcDbBlockBegin
  2
*D7
 70
     1
 10
0.0
 20
0.0
 30
0.0
  3
*D7
  1

  0
LINE
  5
62A18
330
61CEA
100
AcDbEntity
  8
标注
 62
     0
440
 16777216
370
    -2
100
AcDbLine
 10
4230.060381233033
 20
3437.089357926524
 30
0.0
 11
4240.917348757845
 21
3437.089357926524
 31
0.0
  0
LINE
  5
62A19
330
61CEA
100
AcDbEntity
  8
标注
 62
     0
440
 16777216
370
    -2
100
AcDbLine
 10
4230.060381233033
 20
3424.089357926525
 30
0.0
 11
4240.917348757845
 21
3424.089357926525
 31
0.0
  0
LINE
  5
62A1A
330
61CEA
100
AcDbEntity
  8
标注
 62
     0
440
 16777216
370
    -2
100
AcDbLine
 10
4239.667348757844
 20
3426.589357926525
 30
0.0
 11
4239.667348757844
 21
3434.589357926525
 31
0.0
  0
LINE
  5
62A1B
330
61CEA
100
AcDbEntity
  8
标注
 62
     0
440
 16777216
370
    -2
100
AcDbLine
 10
4239.667348757844
 20
3437.089357926524
 30
0.0
 11
4239.667348757844
 21
3483.696500783667
 31
0.0
  0
INSERT
  5
62A1C
330
61CEA
100
AcDbEntity
  8
标注
 62
     0
440
 16777216
370
    -2
100
AcDbBlockReference
  2
_ClosedBlank
 10
4239.667348757844
 20
3424.089357926525
 30
0.0
 41
2.5
 42
2.5
 43
2.5
 50
270.0
  0
INSERT
  5
62A1D
330
61CEA
100
AcDbEntity
  8
标注
 62
     0
440
 16777216
370
    -2
100
AcDbBlockReference
  2
_ClosedBlank
 10
4239.667348757844
 20
3437.089357926524
 30
0.0
 41
2.5
 42
2.5
 43
2.5
 50
90.0
  0
MTEXT
  5
62A1E
330
61CEA
100
AcDbEntity
  8
标注
 62
     0
440
 16777216
100
AcDbMText
 10
4224.042348757843
 20
3461.642929355097
 30
0.0
 40
30.0
 41
0.0
 46
0.0
 71
     5
 72
     1
  1
13
  7
样式 1
 11
0.0000000000000001
 21
1.0
 31
0.0
 73
     1
 44
1.0
  0
POINT
  5
62A1F
330
61CEA
100
AcDbEntity
  8
Defpoints
 62
     0
440
 16777216
100
AcDbPoint
 10
4229.435381233033
 20
3437.089357926524
 30
0.0
  0
POINT
  5
62A20
330
61CEA
100
AcDbEntity
  8
Defpoints
 62
     0
440
 16777216
100
AcDbPoint
 10
4229.435381233033
 20
3424.089357926525
 30
0.0
  0
POINT
  5
62A21
330
61CEA
100
AcDbEntity
  8
Defpoints
 62
     0
440
 16777216
100
AcDbPoint
 10
4239.667348757844
 20
3424.089357926525
 30
0.0
  0
ENDBLK
  5
61CEC
330
61CEA
100
AcDbEntity
  8
0
100
AcDbBlockEnd
  0
BLOCK
  5
61D0E
330
61D0D
100
AcDbEntity
  8
0
100
AcDbBlockBegin
  2
*D8
 70
     1
 10
0.0
 20
0.0
 30
0.0
  3
*D8
  1

  0
LINE
  5
62A22
330
61D0D
100
AcDbEntity
  8
标注
 62
     0
440
 16777216
370
    -2
100
AcDbLine
 10
4162.046374707932
 20
3281.206602547711
 30
0.0
 11
4221.025809870615
 21
3358.399404684123
 31
0.0
  0
MTEXT
  5
62A23
330
61D0D
100
AcDbEntity
  8
标注
 62
     0
440
 16777216
100
AcDbMText
 10
4173.861338343928
 20
3322.40626728028
 30
0.0
 40
30.0
 41
0.0
 46
0.0
 71
     5
 72
     1
  1
R55
  7
样式 1
 11
0.6071229802159319
 21
0.7946078824764611
 31
0.0
 73
     1
 44
1.0
  0
LINE
  5
62A24
330
61D0D
100
AcDbEntity
  8
标注
 62
     0
440
 16777216
370
    -2
100
AcDbLine
 10
4255.935381233036
 20
3404.089357926527
 30
0.0
 11
4222.543617321155
 21
3360.385924390314
 31
0.0
  0
INSERT
  5
62A25
330
61D0D
100
AcDbEntity
  8
标注
 62
     0
440
 16777216
370
    -2
100
AcDbBlockReference
  2
_ClosedBlank
 10
4222.543617321155
 20
3360.385924390314
 30
0.0
 41
2.5
 42
2.5
 43
2.5
 50
52.61823483611018
  0
POINT
  5
62A26
330
61D0D
100
AcDbEntity
  8
Defpoints
 62
     0
440
 16777216
100
AcDbPoint
 10
4222.543617321155
 20
3360.385924390314
 30
0.0
  0
POINT
  5
62A27
330
61D0D
100
AcDbEntity
  8
Defpoints
 62
     0
440
 16777216
100
AcDbPoint
 10
4255.935381233036
 20
3404.089357926527
 30
0.0
  0
ENDBLK
  5
61D0F
330
61D0D
100
AcDbEntity
  8
0
100
AcDbBlockEnd
  0
BLOCK
  5
61D18
330
61D17
100
AcDbEntity
  8
0
100
AcDbBlockBegin
  2
*D9
 70
     1
 10
0.0
 20
0.0
 30
0.0
  3
*D9
  1

  0
LINE
  5
62A28
330
61D17
100
AcDbEntity
  8
标注
 62
     0
440
 16777216
370
    -2
100
AcDbLine
 10
5535.191785223372
 20
3882.948992359032
 30
0.0
 11
5447.704057747997
 21
3868.6624379181
 31
0.0
  0
MTEXT
  5
62A29
330
61D17
100
AcDbEntity
  8
标注
 62
     0
440
 16777216
100
AcDbMText
 10
5493.284618466362
 20
3891.937602607344
 30
0.0
 40
30.0
 41
0.0
 46
0.0
 71
     5
 72
     1
  1
R55
  7
样式 1
 11
0.9869277786220242
 21
0.1611631464826762
 31
0.0
 73
     1
 44
1.0
  0
LINE
  5
62A2A
330
61D17
100
AcDbEntity
  8
标注
 62
     0
440
 16777216
370
    -2
100
AcDbLine
 10
5390.955710477228
 20
3859.395556995347
 30
0.0
 11
5445.23673830144
 21
3868.259530051894
 31
0.0
  0
INSERT
  5
62A2B
330
61D17
100
AcDbEntity
  8
标注
 62
     0
440
 16777216
370
    -2
100
AcDbBlockReference
  2
_ClosedBlank
 10
5445.23673830144
 20
3868.259530051894
 30
0.0
 41
2.5
 42
2.5
 43
2.5
 50
189.2744158408986
  0
POINT
  5
62A2C
330
61D17
100
AcDbEntity
  8
Defpoints
 62
     0
440
 16777216
100
AcDbPoint
 10
5445.23673830144
 20
3868.259530051894
 30
0.0
  0
POINT
  5
62A2D
330
61D17
100
AcDbEntity
  8
Defpoints
 62
     0
440
 16777216
100
AcDbPoint
 10
5390.955710477228
 20
3859.395556995347
 30
0.0
  0
ENDBLK
  5
61D19
330
61D17
100
AcDbEntity
  8
0
100
AcDbBlockEnd
  0
BLOCK
  5
61D22
330
61D21
100
AcDbEntity
  8
0
100
AcDbBlockBegin
  2
*D10
 70
     1
 10
0.0
 20
0.0
 30
0.0
  3
*D10
  1

  0
ARC
  5
62AC0
330
61D21
100
AcDbEntity
  8
标注
 62
     0
440
 16777216
370
    -2
100
AcDbCircle
 10
4706.322140700175
 20
3663.487895010194
 30
0.0
 40
159.8243262316349
100
AcDbArc
 50
40.89623971839752
 51
179.1037602816026
  0
INSERT
  5
62AC1
330
61D21
100
AcDbEntity
  8
标注
 62
     0
440
 16777216
370
    -2
100
AcDbBlockReference
  2
_ClosedBlank
 10
4828.754677685154
 20
3766.220991638389
 30
0.0
 41
2.5
 42
2.5
 43
2.5
 50
310.4481198591988
  0
INSERT
  5
62AC2
330
61D21
100
AcDbEntity
  8
标注
 62
     0
440
 16777216
370
    -2
100
AcDbBlockReference
  2
_ClosedBlank
 10
4546.49781446854
 20
3663.487895010194
 30
0.0
 41
2.5
 42
2.5
 43
2.5
 50
269.5518801408013
  0
MTEXT
  5
62AC3
330
61D21
100
AcDbEntity
  8
标注
 62
     0
440
 16777216
100
AcDbMText
 10
4642.578418437599
 20
3826.947993955613
 30
0.0
 40
30.0
 41
0.0
 46
0.0
 71
     5
 72
     1
  1
140°
  7
样式 1
 11
0.9316655837686889
 21
0.3633169966034461
 31
0.0
 73
     1
 44
1.0
  0
POINT
  5
62AC4
330
61D21
100
AcDbEntity
  8
Defpoints
 62
     0
440
 16777216
100
AcDbPoint
 10
4715.615098804645
 20
3823.041823777444
 30
0.0
  0
POINT
  5
62AC5
330
61D21
100
AcDbEntity
  8
Defpoints
 62
     0
440
 16777216
100
AcDbPoint
 10
4164.043984727055
 20
3663.487895010194
 30
0.0
  0
POINT
  5
62AC6
330
61D21
100
AcDbEntity
  8
Defpoints
 62
     0
440
 16777216
100
AcDbPoint
 10
4725.783593504514
 20
3679.817992880489
 30
0.0
  0
POINT
  5
62AC7
330
61D21
100
AcDbEntity
  8
Defpoints
 62
     0
440
 16777216
100
AcDbPoint
 10
5275.091529575397
 20
4140.742079440322
 30
0.0
  0
POINT
  5
62AC8
330
61D21
100
AcDbEntity
  8
Defpoints
 62
     0
440
 16777216
100
AcDbPoint
 10
4680.917018348394
 20
3663.487895010194
 30
0.0
  0
ENDBLK
  5
61D23
330
61D21
100
AcDbEntity
  8
0
100
AcDbBlockEnd
  0
BLOCK
  5
61D2F
330
61D2E
100
AcDbEntity
  8
0
100
AcDbBlockBegin
  2
*D11
 70
     1
 10
0.0
 20
0.0
 30
0.0
  3
*D11
  1

  0
LINE
  5
62A37
330
61D2E
100
AcDbEntity
  8
标注
 62
     0
440
 16777216
370
    -2
100
AcDbLine
 10
4675.65612135765
 20
3749.783552161585
 30
0.0
 11
4701.365959465965
 21
3669.169794545739
 31
0.0
  0
MTEXT
  5
62A38
330
61D2E
100
AcDbEntity
  8
标注
 62
     0
440
 16777216
100
AcDbMText
 10
4702.669155029957
 20
3716.5074082802
 30
0.0
 40
30.0
 41
0.0
 46
0.0
 71
     5
 72
     1
  1
R55
  7
样式 1
 11
0.3038475648972513
 21
-0.9527206606902208
 31
0.0
 73
     1
 44
1.0
  0
INSERT
  5
62A39
330
61D2E
100
AcDbEntity
  8
标注
 62
     0
440
 16777216
370
    -2
100
AcDbBlockReference
  2
_ClosedBlank
 10
4702.125578378208
 20
3666.787992894012
 30
0.0
 41
2.5
 42
2.5
 43
2.5
 50
287.6888440861631
  0
POINT
  5
62A3A
330
61D2E
100
AcDbEntity
  8
Defpoints
 62
     0
440
 16777216
100
AcDbPoint
 10
4702.125578378208
 20
3666.787992894012
 30
0.0
  0
POINT
  5
62A3B
330
61D2E
100
AcDbEntity
  8
Defpoints
 62
     0
440
 16777216
100
AcDbPoint
 10
4680.917018348378
 20
3733.287895010191
 30
0.0
  0
ENDBLK
  5
61D30
330
61D2E
100
AcDbEntity
  8
0
100
AcDbBlockEnd
  0
BLOCK
  5
61EEC
330
61EEB
100
AcDbEntity
  8
0
100
AcDbBlockBegin
  2
*D12
 70
     1
 10
0.0
 20
0.0
 30
0.0
  3
*D12
  1

  0
LINE
  5
62A3C
330
61EEB
100
AcDbEntity
  8
标注
 62
     0
440
 16777216
370
    -2
100
AcDbLine
 10
4200.935381233033
 20
3621.141267830633
 30
0.0
 11
4200.935381233033
 21
3537.999010043592
 31
0.0
  0
LINE
  5
62A3D
330
61EEB
100
AcDbEntity
  8
标注
 62
     0
440
 16777216
370
    -2
100
AcDbLine
 10
4648.220504363499
 20
3621.141267830633
 30
0.0
 11
4648.220504363499
 21
3537.999010043592
 31
0.0
  0
LINE
  5
62A3E
330
61EEB
100
AcDbEntity
  8
标注
 62
     0
440
 16777216
370
    -2
100
AcDbLine
 10
4203.435381233033
 20
3539.249010043592
 30
0.0
 11
4645.720504363499
 21
3539.249010043592
 31
0.0
  0
INSERT
  5
62A3F
330
61EEB
100
AcDbEntity
  8
标注
 62
     0
440
 16777216
370
    -2
100
AcDbBlockReference
  2
_ClosedBlank
 10
4200.935381233033
 20
3539.249010043592
 30
0.0
 41
2.5
 42
2.5
 43
2.5
 50
180.0
  0
INSERT
  5
62A40
330
61EEB
100
AcDbEntity
  8
标注
 62
     0
440
 16777216
370
    -2
100
AcDbBlockReference
  2
_ClosedBlank
 10
4648.220504363499
 20
3539.249010043592
 30
0.0
 41
2.5
 42
2.5
 43
2.5
  0
MTEXT
  5
62A41
330
61EEB
100
AcDbEntity
  8
标注
 62
     0
440
 16777216
100
AcDbMText
 10
4424.577942798266
 20
3554.874010043592
 30
0.0
 40
30.0
 41
0.0
 46
0.0
 71
     5
 72
     1
  1
740
  7
样式 1
 73
     1
 44
1.0
  0
POINT
  5
62A42
330
61EEB
100
AcDbEntity
  8
Defpoints
 62
     0
440
 16777216
100
AcDbPoint
 10
4200.935381233033
 20
3621.766267830633
 30
0.0
  0
POINT
  5
62A43
330
61EEB
100
AcDbEntity
  8
Defpoints
 62
     0
440
 16777216
100
AcDbPoint
 10
4648.220504363499
 20
3621.766267830633
 30
0.0
  0
POINT
  5
62A44
330
61EEB
100
AcDbEntity
  8
Defpoints
 62
     0
440
 16777216
100
AcDbPoint
 10
4648.220504363499
 20
3539.249010043592
 30
0.0
  0
ENDBLK
  5
61EED
330
61EEB
100
AcDbEntity
  8
0
100
AcDbBlockEnd
  0
BLOCK
  5
61F02
330
61F01
100
AcDbEntity
  8
0
100
AcDbBlockBegin
  2
*D13
 70
     1
 10
0.0
 20
0.0
 30
0.0
  3
*D13
  1

  0
LINE
  5
62A45
330
61F01
100
AcDbEntity
  8
标注
 62
     0
440
 16777216
370
    -2
100
AcDbLine
 10
4648.220504363499
 20
3538.624010043592
 30
0.0
 11
4648.220504363499
 21
3537.778075716214
 31
0.0
  0
LINE
  5
62A46
330
61F01
100
AcDbEntity
  8
标注
 62
     0
440
 16777216
370
    -2
100
AcDbLine
 10
4702.12557837821
 20
3666.162992894013
 30
0.0
 11
4702.12557837821
 21
3537.778075716214
 31
0.0
  0
LINE
  5
62A47
330
61F01
100
AcDbEntity
  8
标注
 62
     0
440
 16777216
370
    -2
100
AcDbLine
 10
4650.7205043635
 20
3539.028075716213
 30
0.0
 11
4699.625578378209
 21
3539.028075716213
 31
0.0
  0
LINE
  5
62A48
330
61F01
100
AcDbEntity
  8
标注
 62
     0
440
 16777216
370
    -2
100
AcDbLine
 10
4702.12557837821
 20
3539.028075716213
 30
0.0
 11
4777.304149806781
 21
3539.028075716213
 31
0.0
  0
INSERT
  5
62A49
330
61F01
100
AcDbEntity
  8
标注
 62
     0
440
 16777216
370
    -2
100
AcDbBlockReference
  2
_ClosedBlank
 10
4648.220504363499
 20
3539.028075716213
 30
0.0
 41
2.5
 42
2.5
 43
2.5
 50
180.0
  0
INSERT
  5
62A4A
330
61F01
100
AcDbEntity
  8
标注
 62
     0
440
 16777216
370
    -2
100
AcDbBlockReference
  2
_ClosedBlank
 10
4702.12557837821
 20
3539.028075716213
 30
0.0
 41
2.5
 42
2.5
 43
2.5
  0
MTEXT
  5
62A4B
330
61F01
100
AcDbEntity
  8
标注
 62
     0
440
 16777216
100
AcDbMText
 10
4740.964864092495
 20
3554.653075716213
 30
0.0
 40
30.0
 41
0.0
 46
0.0
 71
     5
 72
     1
  1
100
  7
样式 1
 73
     1
 44
1.0
  0
POINT
  5
62A4C
330
61F01
100
AcDbEntity
  8
Defpoints
 62
     0
440
 16777216
100
AcDbPoint
 10
4648.220504363499
 20
3539.249010043592
 30
0.0
  0
POINT
  5
62A4D
330
61F01
100
AcDbEntity
  8
Defpoints
 62
     0
440
 16777216
100
AcDbPoint
 10
4702.12557837821
 20
3666.787992894013
 30
0.0
  0
POINT
  5
62A4E
330
61F01
100
AcDbEntity
  8
Defpoints
 62
     0
440
 16777216
100
AcDbPoint
 10
4702.12557837821
 20
3539.028075716213
 30
0.0
  0
ENDBLK
  5
61F03
330
61F01
100
AcDbEntity
  8
0
100
AcDbBlockEnd
  0
BLOCK
  5
6207F
330
6207E
100
AcDbEntity
  8
0
100
AcDbBlockBegin
  2
*D14
 70
     1
 10
0.0
 20
0.0
 30
0.0
  3
*D14
  1

  0
LINE
  5
62A4F
330
6207E
100
AcDbEntity
  8
标注
 62
     0
440
 16777216
370
    -2
100
AcDbLine
 10
3816.203994880392
 20
3582.6897329635
 30
0.0
 11
3899.819262227501
 21
3612.972508938664
 31
0.0
  0
MTEXT
  5
62A50
330
6207E
100
AcDbEntity
  8
标注
 62
     0
440
 16777216
100
AcDbMText
 10
3847.737210882607
 20
3610.728223049682
 30
0.0
 40
30.0
 41
0.0
 46
0.0
 71
     5
 72
     1
  1
R46
  7
样式 1
 11
0.9402360329202142
 21
0.3405234241553111
 31
0.0
 73
     1
 44
1.0
  0
LINE
  5
62A51
330
6207E
100
AcDbEntity
  8
标注
 62
     0
440
 16777216
370
    -2
100
AcDbLine
 10
3945.420709824127
 20
3629.487895010195
 30
0.0
 11
3902.169852309801
 21
3613.823817499052
 31
0.0
  0
INSERT
  5
62A52
330
6207E
100
AcDbEntity
  8
标注
 62
     0
440
 16777216
370
    -2
100
AcDbBlockReference
  2
_ClosedBlank
 10
3902.169852309801
 20
3613.823817499052
 30
0.0
 41
2.5
 42
2.5
 43
2.5
 50
19.90876709784753
  0
POINT
  5
62A53
330
6207E
100
AcDbEntity
  8
Defpoints
 62
     0
440
 16777216
100
AcDbPoint
 10
3902.169852309801
 20
3613.823817499052
 30
0.0
  0
POINT
  5
62A54
330
6207E
100
AcDbEntity
  8
Defpoints
 62
     0
440
 16777216
100
AcDbPoint
 10
3945.420709824127
 20
3629.487895010195
 30
0.0
  0
ENDBLK
  5
62080
330
6207E
100
AcDbEntity
  8
0
100
AcDbBlockEnd
  0
BLOCK
  5
62089
330
62088
100
AcDbEntity
  8
0
100
AcDbBlockBegin
  2
*D15
 70
     1
 10
0.0
 20
0.0
 30
0.0
  3
*D15
  1

  0
LINE
  5
62A55
330
62088
100
AcDbEntity
  8
标注
 62
     0
440
 16777216
370
    -2
100
AcDbLine
 10
3972.145709824133
 20
3663.487895010194
 30
0.0
 11
4012.174109780113
 21
3663.487895010194
 31
0.0
  0
LINE
  5
62A56
330
62088
100
AcDbEntity
  8
标注
 62
     0
440
 16777216
370
    -2
100
AcDbLine
 10
3972.145709824133
 20
3583.487895010195
 30
0.0
 11
4012.174109780113
 21
3583.487895010195
 31
0.0
  0
LINE
  5
62A57
330
62088
100
AcDbEntity
  8
标注
 62
     0
440
 16777216
370
    -2
100
AcDbLine
 10
4010.924109780113
 20
3660.987895010194
 30
0.0
 11
4010.924109780113
 21
3585.987895010195
 31
0.0
  0
INSERT
  5
62A58
330
62088
100
AcDbEntity
  8
标注
 62
     0
440
 16777216
370
    -2
100
AcDbBlockReference
  2
_ClosedBlank
 10
4010.924109780113
 20
3663.487895010194
 30
0.0
 41
2.5
 42
2.5
 43
2.5
 50
90.0
  0
INSERT
  5
62A59
330
62088
100
AcDbEntity
  8
标注
 62
     0
440
 16777216
370
    -2
100
AcDbBlockReference
  2
_ClosedBlank
 10
4010.924109780113
 20
3583.487895010195
 30
0.0
 41
2.5
 42
2.5
 43
2.5
 50
270.0
  0
MTEXT
  5
62A5A
330
62088
100
AcDbEntity
  8
标注
 62
     0
440
 16777216
100
AcDbMText
 10
3995.299109780113
 20
3623.487895010195
 30
0.0
 40
30.0
 41
0.0
 46
0.0
 71
     5
 72
     1
  1
80
  7
样式 1
 11
0.0000000000000001
 21
1.0
 31
0.0
 73
     1
 44
1.0
  0
POINT
  5
62A5B
330
62088
100
AcDbEntity
  8
Defpoints
 62
     0
440
 16777216
100
AcDbPoint
 10
3971.520709824133
 20
3663.487895010194
 30
0.0
  0
POINT
  5
62A5C
330
62088
100
AcDbEntity
  8
Defpoints
 62
     0
440
 16777216
100
AcDbPoint
 10
3971.520709824133
 20
3583.487895010195
 30
0.0
  0
POINT
  5
62A5D
330
62088
100
AcDbEntity
  8
Defpoints
 62
     0
440
 16777216
100
AcDbPoint
 10
4010.924109780113
 20
3583.487895010195
 30
0.0
  0
ENDBLK
  5
6208A
330
62088
100
AcDbEntity
  8
0
100
AcDbBlockEnd
  0
BLOCK
  5
620E4
330
620E3
100
AcDbEntity
  8
0
100
AcDbBlockBegin
  2
*D16
 70
     1
 10
0.0
 20
0.0
 30
0.0
  3
*D16
  1

  0
LINE
  5
62A5E
330
620E3
100
AcDbEntity
  8
标注
 62
     0
440
 16777216
370
    -2
100
AcDbLine
 10
4563.056500870903
 20
3548.781665655047
 30
0.0
 11
4636.644814568389
 21
3578.770543447359
 31
0.0
  0
LINE
  5
62A5F
330
620E3
100
AcDbEntity
  8
标注
 62
     0
440
 16777216
370
    -2
100
AcDbLine
 10
4659.796194158611
 20
3588.205246573031
 30
0.0
 11
4662.111332117634
 21
3589.148716885598
 31
0.0
  0
MTEXT
  5
62A60
330
620E3
100
AcDbEntity
  8
标注
 62
     0
440
 16777216
100
AcDbMText
 10
4592.79639928659
 20
3577.773981638807
 30
0.0
 40
30.0
 41
0.0
 46
0.0
 71
     5
 72
     1
  1
∅20
  7
样式 1
 11
0.9260551836087987
 21
0.3773881250268403
 31
0.0
 73
     1
 44
1.0
  0
LINE
  5
62A61
330
620E3
100
AcDbEntity
  8
标注
 62
     0
440
 16777216
370
    -2
100
AcDbLine
 10
4657.481056199588
 20
3587.261776260464
 30
0.0
 11
4638.95995252741
 21
3579.714013759926
 31
0.0
  0
INSERT
  5
62A62
330
620E3
100
AcDbEntity
  8
标注
 62
     0
440
 16777216
370
    -2
100
AcDbBlockReference
  2
_ClosedBlank
 10
4657.481056199588
 20
3587.261776260464
 30
0.0
 41
2.5
 42
2.5
 43
2.5
 50
202.1719906595255
  0
INSERT
  5
62A63
330
620E3
100
AcDbEntity
  8
标注
 62
     0
440
 16777216
370
    -2
100
AcDbBlockReference
  2
_ClosedBlank
 10
4638.95995252741
 20
3579.714013759926
 30
0.0
 41
2.5
 42
2.5
 43
2.5
 50
22.17199065952554
  0
POINT
  5
62A64
330
620E3
100
AcDbEntity
  8
Defpoints
 62
     0
440
 16777216
100
AcDbPoint
 10
4638.95995252741
 20
3579.714013759926
 30
0.0
  0
POINT
  5
62A65
330
620E3
100
AcDbEntity
  8
Defpoints
 62
     0
440
 16777216
100
AcDbPoint
 10
4657.481056199588
 20
3587.261776260464
 30
0.0
  0
ENDBLK
  5
620E5
330
620E3
100
AcDbEntity
  8
0
100
AcDbBlockEnd
  0
BLOCK
  5
62BD5
330
62BCB
100
AcDbEntity
  8
0
100
AcDbBlockBegin
  2
*D17
 70
     1
 10
0.0
 20
0.0
 30
0.0
  3
*D17
  1

  0
LINE
  5
62C88
330
62BCB
100
AcDbEntity
  8
标注
 62
     0
440
 16777216
370
    -2
100
AcDbLine
 10
4972.406205717221
 20
3262.328682578907
 30
0.0
 11
4897.599211481754
 21
3215.483613802651
 31
0.0
  0
LINE
  5
62C89
330
62BCB
100
AcDbEntity
  8
标注
 62
     0
440
 16777216
370
    -2
100
AcDbLine
 10
5361.185773489721
 20
3201.618276272974
 30
0.0
 11
5286.378779254254
 21
3154.773207496718
 31
0.0
  0
LINE
  5
62C8A
330
62BCB
100
AcDbEntity
  8
标注
 62
     0
440
 16777216
370
    -2
100
AcDbLine
 10
4901.686351452871
 20
3216.110529572369
 30
0.0
 11
5285.525788527626
 21
3156.171556146982
 31
0.0
  0
INSERT
  5
62C8B
330
62BCB
100
AcDbEntity
  8
标注
 62
     0
440
 16777216
370
    -2
100
AcDbBlockReference
  2
_ClosedBlank
 10
4899.216286103999
 20
3216.496246012642
 30
0.0
 41
2.5
 42
2.5
 43
2.5
 50
171.1245776384726
  0
INSERT
  5
62C8C
330
62BCB
100
AcDbEntity
  8
标注
 62
     0
440
 16777216
370
    -2
100
AcDbBlockReference
  2
_ClosedBlank
 10
5287.995853876498
 20
3155.785839706709
 30
0.0
 41
2.5
 42
2.5
 43
2.5
 50
351.1245776384726
  0
MTEXT
  5
62C8D
330
62BCB
100
AcDbEntity
  8
标注
 62
     0
440
 16777216
100
AcDbMText
 10
5068.55961593522
 20
3205.86656515074
 30
0.0
 40
30.0
 41
0.0
 46
0.0
 71
     5
 72
     1
  1
740
  7
样式 1
 11
0.9880261395491702
 21
-0.1542865761094059
 31
0.0
 73
     1
 44
1.0
  0
POINT
  5
62C8E
330
62BCB
100
AcDbEntity
  8
Defpoints
 62
     0
440
 16777216
100
AcDbPoint
 10
4973.214743028343
 20
3262.834998683903
 30
0.0
  0
POINT
  5
62C8F
330
62BCB
100
AcDbEntity
  8
Defpoints
 62
     0
440
 16777216
100
AcDbPoint
 10
5361.994310800842
 20
3202.124592377969
 30
0.0
  0
POINT
  5
62C90
330
62BCB
100
AcDbEntity
  8
Defpoints
 62
     0
440
 16777216
100
AcDbPoint
 10
5287.995853876498
 20
3155.785839706709
 30
0.0
  0
ENDBLK
  5
62BD6
330
62BCB
100
AcDbEntity
  8
0
100
AcDbBlockEnd
  0
BLOCK
  5
62BE2
330
62BD8
100
AcDbEntity
  8
0
100
AcDbBlockBegin
  2
*D18
 70
     1
 10
0.0
 20
0.0
 30
0.0
  3
*D18
  1

  0
LINE
  5
62C91
330
62BD8
100
AcDbEntity
  8
标注
 62
     0
440
 16777216
370
    -2
100
AcDbLine
 10
5361.199895613847
 20
3201.627119722476
 30
0.0
 11
5286.407023502505
 21
3154.790894395721
 31
0.0
  0
LINE
  5
62C92
330
62BD8
100
AcDbEntity
  8
标注
 62
     0
440
 16777216
370
    -2
100
AcDbLine
 10
5447.69913825878
 20
3186.74101404068
 30
0.0
 11
5372.906266147439
 21
3139.904788713925
 31
0.0
  0
LINE
  5
62C93
330
62BD8
100
AcDbEntity
  8
标注
 62
     0
440
 16777216
370
    -2
100
AcDbLine
 10
5290.459635470366
 20
3155.361834685834
 30
0.0
 11
5372.031314927566
 21
3141.323739045784
 31
0.0
  0
INSERT
  5
62C94
330
62BD8
100
AcDbEntity
  8
标注
 62
     0
440
 16777216
370
    -2
100
AcDbBlockReference
  2
_ClosedBlank
 10
5287.995853876498
 20
3155.785839706708
 30
0.0
 41
2.5
 42
2.5
 43
2.5
 50
170.2353202051128
  0
INSERT
  5
62C95
330
62BD8
100
AcDbEntity
  8
标注
 62
     0
440
 16777216
370
    -2
100
AcDbBlockReference
  2
_ClosedBlank
 10
5374.495096521432
 20
3140.899734024911
 30
0.0
 41
2.5
 42
2.5
 43
2.5
 50
350.2353202051128
  0
MTEXT
  5
62C96
330
62BD8
100
AcDbEntity
  8
标注
 62
     0
440
 16777216
100
AcDbMText
 10
5333.895506579422
 20
3163.741421827474
 30
0.0
 40
30.0
 41
0.0
 46
0.0
 71
     5
 72
     1
  1
100
  7
样式 1
 11
0.9855126375465347
 21
-0.1696020083491727
 31
0.0
 73
     1
 44
1.0
  0
POINT
  5
62C97
330
62BD8
100
AcDbEntity
  8
Defpoints
 62
     0
440
 16777216
100
AcDbPoint
 10
5361.994310800842
 20
3202.124592377969
 30
0.0
  0
POINT
  5
62C98
330
62BD8
100
AcDbEntity
  8
Defpoints
 62
     0
440
 16777216
100
AcDbPoint
 10
5448.493553445776
 20
3187.238486696173
 30
0.0
  0
POINT
  5
62C99
330
62BD8
100
AcDbEntity
  8
Defpoints
 62
     0
440
 16777216
100
AcDbPoint
 10
5374.495096521432
 20
3140.899734024911
 30
0.0
  0
ENDBLK
  5
62BE3
330
62BD8
100
AcDbEntity
  8
0
100
AcDbBlockEnd
  0
BLOCK
  5
62BEF
330
62BE5
100
AcDbEntity
  8
0
100
AcDbBlockBegin
  2
*D19
 70
     1
 10
0.0
 20
0.0
 30
0.0
  3
*D19
  1

  0
LINE
  5
62C9A
330
62BE5
100
AcDbEntity
  8
标注
 62
     0
440
 16777216
370
    -2
100
AcDbLine
 10
5945.56520324398
 20
3464.660641130289
 30
0.0
 11
6074.869143152398
 21
3443.807084464716
 31
0.0
  0
LINE
  5
62C9B
330
62BE5
100
AcDbEntity
  8
标注
 62
     0
440
 16777216
370
    -2
100
AcDbLine
 10
5499.812029954212
 20
3198.287170775995
 30
0.0
 11
5629.11596986263
 21
3177.433614110422
 31
0.0
  0
LINE
  5
62C9C
330
62BE5
100
AcDbEntity
  8
标注
 62
     0
440
 16777216
370
    -2
100
AcDbLine
 10
6070.804203497871
 20
3442.834139540099
 30
0.0
 11
5629.343069192984
 21
3179.02550862567
 31
0.0
  0
INSERT
  5
62C9D
330
62BE5
100
AcDbEntity
  8
标注
 62
     0
440
 16777216
370
    -2
100
AcDbBlockReference
  2
_ClosedBlank
 10
6072.950222990311
 20
3444.116559260031
 30
0.0
 41
2.5
 42
2.5
 43
2.5
 50
30.86172226806274
  0
INSERT
  5
62C9E
330
62BE5
100
AcDbEntity
  8
标注
 62
     0
440
 16777216
370
    -2
100
AcDbBlockReference
  2
_ClosedBlank
 10
5627.197049700544
 20
3177.743088905738
 30
0.0
 41
2.5
 42
2.5
 43
2.5
 50
210.8617222680627
  0
MTEXT
  5
62C9F
330
62BE5
100
AcDbEntity
  8
标注
 62
     0
440
 16777216
100
AcDbMText
 10
5880.838790008526
 20
3347.516788936147
 30
0.0
 40
30.0
 41
0.0
 46
0.0
 71
     5
 72
     1
  1
700
  7
样式 1
 11
0.8584077969757457
 21
0.5129678879727725
 31
0.0
 73
     1
 44
1.0
  0
POINT
  5
62CA0
330
62BE5
100
AcDbEntity
  8
Defpoints
 62
     0
440
 16777216
100
AcDbPoint
 10
5944.605743162937
 20
3464.815378527946
 30
0.0
  0
POINT
  5
62CA1
330
62BE5
100
AcDbEntity
  8
Defpoints
 62
     0
440
 16777216
100
AcDbPoint
 10
5498.85256987317
 20
3198.441908173653
 30
0.0
  0
POINT
  5
62CA2
330
62BE5
100
AcDbEntity
  8
Defpoints
 62
     0
440
 16777216
100
AcDbPoint
 10
5627.197049700544
 20
3177.743088905738
 30
0.0
  0
ENDBLK
  5
62BF0
330
62BE5
100
AcDbEntity
  8
0
100
AcDbBlockEnd
  0
BLOCK
  5
62C5F
330
62C55
100
AcDbEntity
  8
0
100
AcDbBlockBegin
  2
*D20
 70
     1
 10
0.0
 20
0.0
 30
0.0
  3
*D20
  1

  0
LINE
  5
62CA3
330
62C55
100
AcDbEntity
  8
标注
 62
     0
440
 16777216
370
    -2
100
AcDbLine
 10
5893.815208256373
 20
3478.765140387287
 30
0.0
 11
5944.757747851092
 21
3509.131653130429
 31
0.0
  0
LINE
  5
62CA4
330
62C55
100
AcDbEntity
  8
标注
 62
     0
440
 16777216
370
    -2
100
AcDbLine
 10
5933.533354547581
 20
3477.968418294206
 30
0.0
 11
5984.475894142301
 21
3508.334931037347
 31
0.0
  0
LINE
  5
62CA5
330
62C55
100
AcDbEntity
  8
标注
 62
     0
440
 16777216
370
    -2
100
AcDbLine
 10
5979.947271361254
 20
3507.175521020973
 30
0.0
 11
5945.228119424932
 21
3507.871966298099
 31
0.0
  0
LINE
  5
62CA6
330
62C55
100
AcDbEntity
  8
标注
 62
     0
440
 16777216
370
    -2
100
AcDbLine
 10
5942.728622247489
 20
3507.922104706076
 30
0.0
 11
5889.01558189595
 21
3508.999555945137
 31
0.0
  0
INSERT
  5
62CA7
330
62C55
100
AcDbEntity
  8
标注
 62
     0
440
 16777216
370
    -2
100
AcDbBlockReference
  2
_ClosedBlank
 10
5982.446768538697
 20
3507.125382612996
 30
0.0
 41
2.5
 42
2.5
 43
2.5
 50
358.8508352880594
  0
INSERT
  5
62CA8
330
62C55
100
AcDbEntity
  8
标注
 62
     0
440
 16777216
370
    -2
100
AcDbBlockReference
  2
_ClosedBlank
 10
5942.728622247489
 20
3507.922104706076
 30
0.0
 41
2.5
 42
2.5
 43
2.5
 50
178.8508352880593
  0
MTEXT
  5
62CA9
330
62C55
100
AcDbEntity
  8
标注
 62
     0
440
 16777216
100
AcDbMText
 10
5914.234650963902
 20
3524.121819881807
 30
0.0
 40
30.0
 41
0.0
 46
0.0
 71
     5
 72
     1
  1
88
  7
样式 1
 11
0.9997988709771956
 21
-0.0200553631910471
 31
0.0
 73
     1
 44
1.0
  0
POINT
  5
62CAA
330
62C55
100
AcDbEntity
  8
Defpoints
 62
     0
440
 16777216
100
AcDbPoint
 10
5892.80064545457
 20
3478.160366175111
 30
0.0
  0
POINT
  5
62CAB
330
62C55
100
AcDbEntity
  8
Defpoints
 62
     0
440
 16777216
100
AcDbPoint
 10
5932.518791745779
 20
3477.36364408203
 30
0.0
  0
POINT
  5
62CAC
330
62C55
100
AcDbEntity
  8
Defpoints
 62
     0
440
 16777216
100
AcDbPoint
 10
5982.446768538697
 20
3507.125382612996
 30
0.0
  0
ENDBLK
  5
62C60
330
62C55
100
AcDbEntity
  8
0
100
AcDbBlockEnd
  0
ENDSEC
  0
SECTION
  2
ENTITIES
  0
HATCH
  5
47A0
330
2
100
AcDbEntity
  8
标注
100
AcDbHatch
 10
0.0
 20
0.0
 30
0.0
210
0.0
220
0.0
230
1.0
  2
ANSI31
 70
     0
 71
     0
 91
        1
 92
        7
 72
     0
 73
     1
 93
        6
 10
808.9637528631646
 20
341.4077636669027
 10
807.9637528631646
 20
340.4077636669027
 10
807.9637528631646
 20
340.3827697704183
 10
808.9637528631646
 20
340.3827697704183
 10
817.9637528631646
 20
340.3827697704183
 10
817.9637528631646
 20
341.4077636669027
 97
        0
 75
     0
 76
     1
 52
0.0
 41
1.0
 77
     0
 78
     1
 53
45.0
 43
0.0
 44
0.0
 45
-57.02462636878911
 46
57.02462636878912
 79
     0
 47
0.0
 98
        2
 10
811.6304195298312
 20
290.00483008513
 10
814.540916511757
 20
290.1885128832553
  0
HATCH
  5
47AF
330
2
100
AcDbEntity
  8
标注
100
AcDbHatch
 10
0.0
 20
0.0
 30
0.0
210
0.0
220
0.0
230
1.0
  2
ANSI31
 70
     0
 71
     0
 91
        1
 92
        7
 72
     0
 73
     1
 93
        6
 10
807.9637528631646
 20
340.4077636669027
 10
807.9637528631646
 20
340.3827697704183
 10
808.9637528631646
 20
340.3827697704183
 10
817.9637528631646
 20
340.3827697704183
 10
817.9637528631646
 20
341.4077636669027
 10
808.9637528631646
 20
341.4077636669027
 97
        0
 75
     0
 76
     1
 52
0.0
 41
1.0
 77
     0
 78
     1
 53
45.0
 43
0.0
 44
0.0
 45
-57.02462636878911
 46
57.02462636878912
 79
     0
 47
0.0
 98
        2
 10
811.6304195298312
 20
290.00483008513
 10
815.1155934479202
 20
290.0208102015142
  0
HATCH
  5
47C4
330
2
100
AcDbEntity
  8
标注
100
AcDbHatch
 10
0.0
 20
0.0
 30
0.0
210
0.0
220
0.0
230
1.0
  2
ANSI31
 70
     0
 71
     0
 91
        1
 92
        7
 72
     0
 73
     1
 93
        6
 10
807.9637528631646
 20
340.4077636669027
 10
807.9637528631646
 20
340.3827697704183
 10
808.9637528631646
 20
340.3827697704183
 10
817.9637528631646
 20
340.3827697704183
 10
817.9637528631646
 20
341.4077636669027
 10
808.9637528631646
 20
341.4077636669027
 97
        0
 75
     0
 76
     1
 52
0.0
 41
1.0
 77
     0
 78
     1
 53
45.0
 43
0.0
 44
0.0
 45
-57.02462636878911
 46
57.02462636878912
 79
     0
 47
0.0
 98
        2
 10
811.6304195298312
 20
290.00483008513
 10
811.6304195298312
 20
290.00483008513
  0
HATCH
  5
7FDE
330
2
100
AcDbEntity
  8
剖面线
100
AcDbHatch
 10
0.0
 20
0.0
 30
0.0
210
0.0
220
0.0
230
1.0
  2
ANSI31
 70
     0
 71
     1
 91
        0
 75
     0
 76
     1
 52
0.0
 41
0.25
 77
     0
 78
     1
 53
45.0
 43
0.0
 44
0.0
 45
-0.5612660075668221
 46
0.5612660075668221
 79
     0
 98
        1
 10
267.1978866720704
 20
1009.396111914461
  0
HATCH
  5
807B
330
2
100
AcDbEntity
  8
剖面线
100
AcDbHatch
 10
0.0
 20
0.0
 30
0.0
210
0.0
220
0.0
230
1.0
  2
ANSI31
 70
     0
 71
     1
 91
        0
 75
     0
 76
     1
 52
0.0
 41
0.25
 77
     0
 78
     1
 53
45.0
 43
0.0
 44
0.0
 45
-0.5612660075668221
 46
0.5612660075668221
 79
     0
 98
        1
 10
260.9063311437414
 20
1015.611866868925
  0
HATCH
  5
80BB
330
2
100
AcDbEntity
  8
0
100
AcDbHatch
 10
0.0
 20
0.0
 30
0.0
210
0.0
220
0.0
230
1.0
  2
ANSI31
 70
     0
 71
     1
 91
        0
 75
     0
 76
     1
 52
0.0
 41
0.25
 77
     0
 78
     1
 53
45.0
 43
0.0
 44
0.0
 45
-0.5612660075668221
 46
0.5612660075668221
 79
     0
 98
        1
 10
0.0
 20
0.0
  0
HATCH
  5
8127
330
2
100
AcDbEntity
  8
0
100
AcDbHatch
 10
0.0
 20
0.0
 30
0.0
210
0.0
220
0.0
230
1.0
  2
ANSI31
 70
     0
 71
     1
 91
        0
 75
     0
 76
     1
 52
0.0
 41
0.25
 77
     0
 78
     1
 53
45.0
 43
0.0
 44
0.0
 45
-0.5612660075668221
 46
0.5612660075668221
 79
     0
 98
        1
 10
0.0
 20
0.0
  0
HATCH
  5
8151
330
2
100
AcDbEntity
  8
0
100
AcDbHatch
 10
0.0
 20
0.0
 30
0.0
210
0.0
220
0.0
230
1.0
  2
ANSI31
 70
     0
 71
     1
 91
        0
 75
     0
 76
     1
 52
0.0
 41
0.25
 77
     0
 78
     1
 53
45.0
 43
0.0
 44
0.0
 45
-0.5612660075668221
 46
0.5612660075668221
 79
     0
 98
        1
 10
0.0
 20
0.0
  0
HATCH
  5
8184
330
2
100
AcDbEntity
  8
剖面线
100
AcDbHatch
 10
0.0
 20
0.0
 30
0.0
210
0.0
220
0.0
230
1.0
  2
ANSI31
 70
     0
 71
     0
 91
        0
 75
     0
 76
     1
 52
0.0
 41
0.25
 77
     0
 78
     1
 53
45.00000000000436
 43
1662.819978524104
 44
0.3206117319112991
 45
-0.5612660075669284
 46
0.5612660075668221
 79
     0
 98
        2
 10
2060.042234542995
 20
923.3992186555811
 10
2042.482776698473
 20
923.3050660666023
  0
HATCH
  5
81A8
330
2
100
AcDbEntity
  8
0
100
AcDbHatch
 10
0.0
 20
0.0
 30
0.0
210
0.0
220
0.0
230
1.0
  2
ANSI31
 70
     0
 71
     1
 91
        0
 75
     0
 76
     1
 52
0.0
 41
0.1
 77
     0
 78
     1
 53
45.0
 43
0.0
 44
0.0
 45
-0.2245064030267288
 46
0.2245064030267288
 79
     0
 98
        1
 10
0.0
 20
0.0
  0
HATCH
  5
81BF
330
2
100
AcDbEntity
  8
0
100
AcDbHatch
 10
0.0
 20
0.0
 30
0.0
210
0.0
220
0.0
230
1.0
  2
ANSI31
 70
     0
 71
     1
 91
        0
 75
     0
 76
     1
 52
0.0
 41
0.1
 77
     0
 78
     1
 53
45.0
 43
0.0
 44
0.0
 45
-0.2245064030267288
 46
0.2245064030267288
 79
     0
 98
        1
 10
0.0
 20
0.0
  0
HATCH
  5
81C7
330
2
100
AcDbEntity
  8
0
100
AcDbHatch
 10
0.0
 20
0.0
 30
0.0
210
0.0
220
0.0
230
1.0
  2
ANSI31
 70
     0
 71
     1
 91
        0
 75
     0
 76
     1
 52
0.0
 41
0.25
 77
     0
 78
     1
 53
45.0
 43
0.0
 44
0.0
 45
-0.5612660075668221
 46
0.5612660075668221
 79
     0
 98
        1
 10
0.0
 20
0.0
  0
HATCH
  5
8D7A
330
2
100
AcDbEntity
  8
标注
100
AcDbHatch
 10
0.0
 20
0.0
 30
0.0
210
0.0
220
0.0
230
1.0
  2
ANSI31
 70
     0
 71
     0
 91
        1
 92
       10
 72
     0
 73
     1
 93
        4
 10
2048.785847868912
 20
971.5216843808956
 10
2048.785847868912
 20
966.6558651718558
 10
2053.651667077952
 20
966.6558651718558
 10
2053.651667077952
 20
971.5216843808956
 97
        0
 75
     0
 76
     1
 52
0.0
 41
0.25
 77
     0
 78
     1
 53
45.0
 43
0.0
 44
0.0
 45
-0.5612660075668221
 46
0.5612660075668221
 79
     0
 98
        1
 10
0.0
 20
0.0
  0
HATCH
  5
8ED7
330
2
100
AcDbEntity
  8
标注
100
AcDbHatch
 10
0.0
 20
0.0
 30
0.0
210
0.0
220
0.0
230
1.0
  2
ANSI31
 70
     0
 71
     1
 91
        0
 75
     0
 76
     1
 52
0.0
 41
0.25
 77
     0
 78
     1
 53
45.0
 43
0.0
 44
0.0
 45
-0.5612660075668221
 46
0.5612660075668221
 79
     0
 98
        1
 10
0.0
 20
0.0
  0
MTEXT
  5
47027
330
2
100
AcDbEntity
  8
标注
100
AcDbMText
 10
851.2901663856801
 20
335.199601009439
 30
0.0
 40
6.0
 41
13.70396488517739
 46
0.0
 71
     1
 72
     1
  1

 73
     1
 44
1.0
  0
LINE
  5
61BB9
330
2
100
AcDbEntity
  8
0
100
AcDbLine
 10
4200.935381233033
 20
3678.287895010195
 30
0.0
 11
4680.917018348394
 21
3678.287895010195
 31
0.0
  0
LINE
  5
61BBA
330
2
100
AcDbEntity
  8
0
100
AcDbLine
 10
4716.270336881152
 20
3691.155450638651
 30
0.0
 11
5237.166491416318
 21
4128.239221790772
 31
0.0
  0
ARC
  5
61BBB
330
2
100
AcDbEntity
  8
0
100
AcDbCircle
 10
4680.917018348394
 20
3733.287895010195
 30
0.0
 40
55.0
100
AcDbArc
 50
270.0
 51
309.9999999999905
  0
LINE
  5
61BBC
330
2
100
AcDbEntity
  8
0
100
AcDbLine
 10
4200.935381233033
 20
3648.687895010195
 30
0.0
 11
4638.220504363499
 21
3648.687895010195
 31
0.0
  0
ARC
  5
61BBD
330
2
100
AcDbEntity
  8
0
100
AcDbCircle
 10
4680.917018348394
 20
3733.287895010195
 30
0.0
 40
84.59999999999999
100
AcDbArc
 50
270.0
 51
309.9999999999905
  0
LINE
  5
61BBE
330
2
100
AcDbEntity
  8
0
100
AcDbLine
 10
4735.296850127872
 20
3668.480535122329
 30
0.0
 11
5256.193004663039
 21
4105.56430627445
 31
0.0
  0
ARC
  5
61BBF
330
2
100
AcDbEntity
  8
0
100
AcDbCircle
 10
4200.935381233033
 20
3663.487895010194
 30
0.0
 40
14.79999999999995
100
AcDbArc
 50
90.0
 51
270.0
  0
ARC
  5
61BC0
330
2
100
AcDbEntity
  8
0
100
AcDbCircle
 10
5246.679748039677
 20
4116.90176403261
 30
0.0
 40
14.79999999999962
100
AcDbArc
 50
309.9999999999905
 51
129.9999999999905
  0
ARC
  5
61BC1
330
2
100
AcDbEntity
  8
0
100
AcDbCircle
 10
4200.935381233033
 20
3663.487895010194
 30
0.0
 40
28.5
100
AcDbArc
 50
31.28519096500538
 51
328.7148090349946
  0
ARC
  5
61BC2
330
2
100
AcDbEntity
  8
0
100
AcDbCircle
 10
5246.679748039677
 20
4116.90176403261
 30
0.0
 40
28.5
100
AcDbArc
 50
251.2851909649977
 51
188.7148090350049
  0
LINE
  5
61BC6
330
2
100
AcDbEntity
  8
中心线
100
AcDbLine
 10
4164.043984727055
 20
3663.487895010194
 30
0.0
 11
4680.917018348394
 21
3663.487895010194
 31
0.0
  0
ARC
  5
61BC7
330
2
100
AcDbEntity
  8
中心线
100
AcDbCircle
 10
4680.917018348394
 20
3733.287895010195
 30
0.0
 40
69.8
100
AcDbArc
 50
270.0
 51
309.9999999999905
  0
LINE
  5
61BC8
330
2
100
AcDbEntity
  8
中心线
100
AcDbLine
 10
4725.783593504514
 20
3679.81799288049
 30
0.0
 11
5275.091529575398
 21
4140.742079440322
 31
0.0
  0
LINE
  5
61BDC
330
2
100
AcDbEntity
  8
中心线
100
AcDbLine
 10
4200.935381233033
 20
3702.964707714209
 30
0.0
 11
4200.935381233033
 21
3621.766267830633
 31
0.0
  0
LINE
  5
61BDF
330
2
100
AcDbEntity
  8
0
100
AcDbLine
 10
4172.435381233032
 20
3424.089357926525
 30
0.0
 11
4229.435381233033
 21
3424.089357926525
 31
0.0
  0
LINE
  5
61BE0
330
2
100
AcDbEntity
  8
0
100
AcDbLine
 10
4172.435381233032
 20
3437.089357926524
 30
0.0
 11
4229.435381233033
 21
3437.089357926524
 31
0.0
  0
LINE
  5
61BE1
330
2
100
AcDbEntity
  8
0
100
AcDbLine
 10
4172.435381233032
 20
3437.089357926524
 30
0.0
 11
4172.435381233032
 21
3424.089357926525
 31
0.0
  0
LINE
  5
61BE2
330
2
100
AcDbEntity
  8
0
100
AcDbLine
 10
4229.435381233033
 20
3437.089357926524
 30
0.0
 11
4229.435381233033
 21
3424.089357926525
 31
0.0
  0
LINE
  5
61BE3
330
2
100
AcDbEntity
  8
中心线
100
AcDbLine
 10
4200.935381233033
 20
3438.949921777067
 30
0.0
 11
4200.935381233033
 21
3404.089357926525
 31
0.0
  0
LINE
  5
61BE4
330
2
100
AcDbEntity
  8
中心线
100
AcDbLine
 10
4255.935381233032
 20
3349.089357926525
 30
0.0
 11
4723.2984423259
 21
3349.089357926525
 31
0.0
  0
ARC
  5
61BE5
330
2
100
AcDbEntity
  8
中心线
100
AcDbCircle
 10
4255.935381233032
 20
3404.089357926525
 30
0.0
 40
55.0
100
AcDbArc
 50
180.0
 51
270.0
  0
ARC
  5
61BE7
330
2
100
AcDbEntity
  8
0
100
AcDbCircle
 10
4255.935381233032
 20
3404.089357926525
 30
0.0
 40
40.2
100
AcDbArc
 50
180.0
 51
270.0
  0
LINE
  5
61BE8
330
2
100
AcDbEntity
  8
0
100
AcDbLine
 10
4255.935381233032
 20
3363.889357926524
 30
0.0
 11
4638.220504363499
 21
3363.889357926524
 31
0.0
  0
ARC
  5
61BEA
330
2
100
AcDbEntity
  8
0
100
AcDbCircle
 10
4255.935381233032
 20
3404.089357926525
 30
0.0
 40
69.8
100
AcDbArc
 50
180.0
 51
270.0
  0
LINE
  5
61BEB
330
2
100
AcDbEntity
  8
0
100
AcDbLine
 10
4255.935381233032
 20
3334.289357926524
 30
0.0
 11
4719.562031453675
 21
3334.289357926524
 31
0.0
  0
SPLINE
  5
61BEC
330
2
100
AcDbEntity
  8
0
100
AcDbSpline
210
0.0
220
0.0
230
1.0
 70
  1064
 71
     3
 72
     9
 73
     5
 74
     3
 42
0.000000001
 43
0.0000000001
 44
0.0000000001
 40
0.0
 40
0.0
 40
0.0
 40
0.0
 40
15.66579547199628
 40
31.3315909439917
 40
31.3315909439917
 40
31.3315909439917
 40
31.3315909439917
 10
4719.562031453675
 20
3363.889357926524
 30
0.0
 10
4716.994097080954
 20
3358.956024593191
 30
0.0
 10
4711.858228335512
 20
3349.089357926524
 30
0.0
 10
4716.994097080954
 20
3339.222691259858
 30
0.0
 10
4719.562031453675
 20
3334.289357926524
 30
0.0
 11
4719.562031453675
 21
3363.889357926524
 31
0.0
 11
4714.426162708234
 21
3349.089357926524
 31
0.0
 11
4719.562031453675
 21
3334.289357926524
 31
0.0
  0
LINE
  5
61BEF
330
2
100
AcDbEntity
  8
0
100
AcDbLine
 10
4186.135381233032
 20
3424.089357926525
 30
0.0
 11
4186.135381233032
 21
3404.089357926525
 31
0.0
  0
LINE
  5
61BF0
330
2
100
AcDbEntity
  8
0
100
AcDbLine
 10
4215.735381233033
 20
3424.089357926525
 30
0.0
 11
4215.735381233033
 21
3404.089357926525
 31
0.0
  0
LINE
  5
61BF2
330
2
100
AcDbEntity
  8
0
100
AcDbLine
 10
5442.064669283936
 20
3928.389211266555
 30
0.0
 11
5398.400136026153
 21
3891.750317514422
 31
0.0
  0
LINE
  5
61BF3
330
2
100
AcDbEntity
  8
0
100
AcDbLine
 10
5433.708430358009
 20
3938.347789027101
 30
0.0
 11
5390.043897100229
 21
3901.708895274969
 31
0.0
  0
LINE
  5
61BF4
330
2
100
AcDbEntity
  8
0
100
AcDbLine
 10
5433.708430358009
 20
3938.347789027101
 30
0.0
 11
5442.064669283936
 21
3928.389211266555
 31
0.0
  0
LINE
  5
61BF5
330
2
100
AcDbEntity
  8
0
100
AcDbLine
 10
5390.043897100229
 20
3901.708895274969
 30
0.0
 11
5398.400136026153
 21
3891.750317514422
 31
0.0
  0
LINE
  5
61BF6
330
2
100
AcDbEntity
  8
中心线
100
AcDbLine
 10
5405.076242471847
 20
3928.132172738747
 30
0.0
 11
5433.088154848775
 21
3894.748875528108
 31
0.0
  0
LINE
  5
61BF7
330
2
100
AcDbEntity
  8
0
100
AcDbLine
 10
5431.569860413204
 20
3919.583021013849
 30
0.0
 11
5444.425612606937
 21
3904.262132151469
 31
0.0
  0
LINE
  5
61BF8
330
2
100
AcDbEntity
  8
0
100
AcDbLine
 10
5408.894944896884
 20
3900.556507767127
 30
0.0
 11
5421.750697090613
 21
3885.235618904748
 31
0.0
  0
LINE
  5
61BF9
330
2
100
AcDbEntity
  8
中心线
100
AcDbLine
 10
5426.309029009991
 20
3817.263112623805
 30
0.0
 11
5125.014916762465
 21
3564.44733416102
 31
0.0
  0
LINE
  5
61BFA
330
2
100
AcDbEntity
  8
0
100
AcDbLine
 10
5435.822285633351
 20
3805.925654865644
 30
0.0
 11
5134.528173385827
 21
3553.109876402859
 31
0.0
  0
LINE
  5
61BFB
330
2
100
AcDbEntity
  8
0
100
AcDbLine
 10
5416.79577238663
 20
3828.600570381966
 30
0.0
 11
5115.501660139106
 21
3575.784791919181
 31
0.0
  0
ARC
  5
61BFC
330
2
100
AcDbEntity
  8
中心线
100
AcDbCircle
 10
5390.955710477231
 20
3859.395556995348
 30
0.0
 40
55.0
100
AcDbArc
 50
309.9999999999538
 51
40.0000000000368
  0
ARC
  5
61BFD
330
2
100
AcDbEntity
  8
0
100
AcDbCircle
 10
5390.955710477231
 20
3859.395556995348
 30
0.0
 40
69.79999999999998
100
AcDbArc
 50
309.9999999999538
 51
40.0000000000368
  0
ARC
  5
61BFE
330
2
100
AcDbEntity
  8
0
100
AcDbCircle
 10
5390.955710477231
 20
3859.395556995348
 30
0.0
 40
40.19999999999999
100
AcDbArc
 50
309.9999999999538
 51
40.0000000000368
  0
SPLINE
  5
61BFF
330
2
100
AcDbEntity
  8
0
100
AcDbSpline
210
0.0
220
0.0
230
1.0
 70
  1064
 71
     3
 72
     9
 73
     5
 74
     3
 42
0.000000001
 43
0.0000000001
 44
0.0000000001
 40
0.0
 40
0.0
 40
0.0
 40
0.0
 40
15.66579547199473
 40
31.33159094399148
 40
31.33159094399148
 40
31.33159094399148
 40
31.33159094399148
 10
5115.501660139106
 20
3575.784791919181
 30
0.0
 10
5120.639897536743
 20
3573.656275730401
 30
0.0
 10
5130.916372332016
 20
3569.399243352839
 30
0.0
 10
5133.324239701225
 20
3558.539665386187
 30
0.0
 10
5134.528173385827
 20
3553.109876402859
 30
0.0
 11
5115.501660139106
 21
3575.784791919181
 31
0.0
 11
5128.9492204755
 21
3567.748606955567
 31
0.0
 11
5134.528173385827
 21
3553.109876402859
 31
0.0
  0
LINE
  5
61C01
330
2
100
AcDbEntity
  8
中心线
100
AcDbLine
 10
5223.958565171931
 20
4143.979815343239
 30
0.0
 11
5274.816688015445
 21
4083.369464731885
 31
0.0
  0
LINE
  5
61C03
330
2
100
AcDbEntity
  8
0
100
AcDbLine
 10
3971.520709824133
 20
3634.987895010195
 30
0.0
 11
3971.520709824133
 21
3691.987895010195
 31
0.0
  0
LINE
  5
61C04
330
2
100
AcDbEntity
  8
中心线
100
AcDbLine
 10
3971.520709824133
 20
3663.487895010194
 30
0.0
 11
3883.520709824133
 21
3663.487895010194
 31
0.0
  0
LINE
  5
61C07
330
2
100
AcDbEntity
  8
0
100
AcDbLine
 10
3899.420709824133
 20
3679.387895010194
 30
0.0
 11
3958.520709824132
 21
3679.387895010194
 31
0.0
  0
LINE
  5
61C09
330
2
100
AcDbEntity
  8
0
100
AcDbLine
 10
3958.520709824133
 20
3634.987895010195
 30
0.0
 11
3958.520709824133
 21
3691.987895010195
 31
0.0
  0
LINE
  5
61C0A
330
2
100
AcDbEntity
  8
0
100
AcDbLine
 10
3958.520709824133
 20
3691.987895010195
 30
0.0
 11
3971.520709824132
 21
3691.987895010195
 31
0.0
  0
LINE
  5
61C0B
330
2
100
AcDbEntity
  8
0
100
AcDbLine
 10
3958.520709824133
 20
3634.987895010195
 30
0.0
 11
3971.520709824132
 21
3634.987895010195
 31
0.0
  0
DIMENSION
  5
61C87
330
2
100
AcDbEntity
  8
标注
100
AcDbDimension
280
     0
  2
*D1
 10
4152.384413554241
 20
3334.289357926524
 30
0.0
 11
4136.75941355424
 21
3385.689357926525
 31
0.0
 70
    32
  1
88
 71
     5
 42
102.8000000000002
 73
     0
 74
     0
 75
     0
  3
线性标注
100
AcDbAlignedDimension
 13
4200.935381233033
 23
3437.089357926524
 33
0.0
 14
4255.935381233032
 24
3334.289357926524
 34
0.0
 50
90.0
100
AcDbRotatedDimension
  0
DIMENSION
  5
61C9D
330
2
100
AcDbEntity
  8
标注
100
AcDbDimension
280
     0
  2
*D2
 10
3971.520709824132
 20
3709.500461479655
 30
0.0
 11
3996.074281252703
 21
3725.125461479655
 31
0.0
 70
    32
 71
     5
 42
12.99999999999909
 73
     0
 74
     0
 75
     0
  3
线性标注
100
AcDbAlignedDimension
 13
3958.520709824133
 23
3691.987895010195
 33
0.0
 14
3971.520709824132
 24
3691.987895010195
 34
0.0
100
AcDbRotatedDimension
  0
DIMENSION
  5
61CAB
330
2
100
AcDbEntity
  8
标注
100
AcDbDimension
280
     0
  2
*D3
 10
3913.258339295619
 20
3655.656547066841
 30
0.0
 11
3839.274305686221
 21
3715.481259901768
 31
0.0
 70
    35
 71
     5
 42
31.80000000000041
 73
     0
 74
     0
 75
     0
  3
线性标注
100
AcDbDiametricDimension
 15
3885.583080352645
 25
3671.319242953545
 35
0.0
 40
0.0
1001
ACAD
1000
DSTYLE
1002
{
1070
   288
1070
     1
1002
}
1001
ACAD_DSTYLE_DIMRADIAL_EXTENSION
1070
   387
1070
     1
1070
   388
1040
0.0
1070
   390
1040
0.0
  0
DIMENSION
  5
61CB7
330
2
100
AcDbEntity
  8
标注
100
AcDbDimension
280
     0
  2
*D4
 10
3912.212037891894
 20
3670.932485412818
 30
0.0
 11
3823.286185561985
 21
3637.256033326024
 31
0.0
 70
    35
 71
     5
 42
29.60000000000036
 73
     0
 74
     0
 75
     0
  3
线性标注
100
AcDbDiametricDimension
 15
3886.629381756369
 25
3656.043304607568
 35
0.0
 40
0.0
1001
ACAD
1000
DSTYLE
1002
{
1070
   288
1070
     1
1002
}
1001
ACAD_DSTYLE_DIMRADIAL_EXTENSION
1070
   387
1070
     1
1070
   388
1040
0.0
1070
   390
1040
0.0
  0
DIMENSION
  5
61CC3
330
2
100
AcDbEntity
  8
标注
100
AcDbDimension
280
     0
  2
*D5
 10
4180.790556670618
 20
3643.327636000212
 30
0.0
 11
4257.090583815641
 21
3743.402349540124
 31
0.0
 70
    35
  1
{\fGulim|b0|i0|c129|p34;3-<>}
 71
     5
 42
56.99999999999818
 73
     0
 74
     0
 75
     0
  3
线性标注
100
AcDbDiametricDimension
 15
4221.080205795446
 25
3683.648154020174
 35
0.0
 40
0.0
1001
ACAD
1000
DSTYLE
1002
{
1070
   288
1070
     1
1002
}
1001
ACAD_DSTYLE_DIMRADIAL_EXTENSION
1070
   387
1070
     1
1070
   388
1040
0.5460295894543931
1070
   390
1040
5.737155717725193
  0
DIMENSION
  5
61CDC
330
2
100
AcDbEntity
  8
标注
100
AcDbDimension
280
     0
  2
*D6
 10
5302.166105045287
 20
4050.05978853365
 30
0.0
 11
5021.241232904217
 21
3837.167561312118
 31
0.0
 70
    33
  1
700
 71
     5
 42
704.2662666174519
 73
     0
 74
     0
 75
     0
  3
线性标注
100
AcDbAlignedDimension
 13
4704.790024352525
 23
3667.072350079338
 33
0.0
 14
5246.679748039677
 24
4116.90176403261
 34
0.0
  0
DIMENSION
  5
61CE9
330
2
100
AcDbEntity
  8
标注
100
AcDbDimension
280
     0
  2
*D7
 10
4239.667348757844
 20
3424.089357926525
 30
0.0
 11
4239.667348757843
 21
3461.642929355097
 31
0.0
 70
   160
 71
     5
 42
13.0
 73
     0
 74
     0
 75
     0
  3
线性标注
100
AcDbAlignedDimension
 13
4229.435381233033
 23
3437.089357926524
 33
0.0
 14
4229.435381233033
 24
3424.089357926525
 34
0.0
 50
90.0
100
AcDbRotatedDimension
  0
DIMENSION
  5
61D0C
330
2
100
AcDbEntity
  8
标注
100
AcDbDimension
280
     0
  2
*D8
 10
4255.935381233036
 20
3404.089357926527
 30
0.0
 11
4186.277086507621
 21
3312.919970714406
 31
0.0
 70
   164
 71
     5
 42
55.00000000000728
 73
     0
 74
     0
 75
     0
  3
线性标注
100
AcDbRadialDimension
 15
4222.543617321155
 25
3360.385924390314
 35
0.0
 40
0.0
1001
ACAD
1000
DSTYLE
1002
{
1070
   288
1070
     1
1002
}
1001
ACAD_DSTYLE_DIMRADIAL_EXTENSION
1070
   387
1070
     1
1070
   388
1040
3.141592653589793
1070
   390
1040
4.712388980384689
  0
DIMENSION
  5
61D16
330
2
100
AcDbEntity
  8
标注
100
AcDbDimension
280
     0
  2
*D9
 10
5390.955710477228
 20
3859.395556995347
 30
0.0
 11
5495.802792630154
 21
3876.516856066375
 31
0.0
 70
   164
 71
     5
 42
55.00000000000091
 73
     0
 74
     0
 75
     0
  3
线性标注
100
AcDbRadialDimension
 15
5445.23673830144
 25
3868.259530051894
 35
0.0
 40
0.0
1001
ACAD
1000
DSTYLE
1002
{
1070
   288
1070
     1
1002
}
1001
ACAD_DSTYLE_DIMRADIAL_EXTENSION
1070
   387
1070
     1
1070
   388
1040
5.410520681181646
1070
   390
1040
0.6981317007982393
  0
DIMENSION
  5
61D20
330
2
100
AcDbEntity
  8
标注
100
AcDbDimension
280
     0
  2
*D10
 10
4680.917018348394
 20
3663.487895010194
 30
0.0
 11
4648.255246509527
 21
3812.390719209228
 31
0.0
 70
   162
 71
     5
 42
2.443460952792059
 73
     0
 74
     0
 75
     0
  3
线性标注
100
AcDb2LineAngularDimension
 13
4725.783593504514
 23
3679.81799288049
 33
0.0
 14
5275.091529575398
 24
4140.742079440322
 34
0.0
 15
4164.043984727055
 25
3663.487895010194
 35
0.0
 16
4715.615098804645
 26
3823.041823777444
 36
0.0
  0
DIMENSION
  5
61D2D
330
2
100
AcDbEntity
  8
标注
100
AcDbDimension
280
     0
  2
*D11
 10
4680.917018348378
 20
3733.287895010191
 30
0.0
 11
4687.782894706674
 21
3711.75979007868
 31
0.0
 70
   164
  1
R55
 71
     5
 42
69.800000000002
 73
     0
 74
     0
 75
     0
  3
线性标注
100
AcDbRadialDimension
 15
4702.125578378208
 25
3666.787992894012
 35
0.0
 40
0.0
1001
ACAD
1000
DSTYLE
1002
{
1070
   288
1070
     1
1002
}
1001
ACAD_DSTYLE_DIMRADIAL_EXTENSION
1070
   387
1070
     1
1070
   388
1040
4.712388980384689
1070
   390
1040
5.410520681182421
  0
LINE
  5
61E9B
330
2
100
AcDbEntity
  8
中心线
100
AcDbLine
 10
4648.220504363499
 20
3696.80304040421
 30
0.0
 11
4648.220504363499
 21
3549.537073539471
 31
0.0
  0
LINE
  5
61E9E
330
2
100
AcDbEntity
  8
0
100
AcDbLine
 10
4638.220504363499
 20
3648.687895010195
 30
0.0
 11
4638.220504363499
 21
3583.487895010195
 31
0.0
  0
LINE
  5
61E9F
330
2
100
AcDbEntity
  8
0
100
AcDbLine
 10
4658.220504363499
 20
3648.687895010194
 30
0.0
 11
4658.220504363499
 21
3583.487895010195
 31
0.0
  0
ARC
  5
61EA3
330
2
100
AcDbEntity
  8
0
100
AcDbCircle
 10
4648.220504363499
 20
3583.487895010195
 30
0.0
 40
10.00000000000091
100
AcDbArc
 50
180.0
 51
0.0
  0
ARC
  5
61EA4
330
2
100
AcDbEntity
  8
0
100
AcDbCircle
 10
4648.220504363499
 20
3583.487895010195
 30
0.0
 40
28.5
100
AcDbArc
 50
110.5409775375404
 51
69.45902246245953
  0
LINE
  5
61EC9
330
2
100
AcDbEntity
  8
中心线
100
AcDbLine
 10
4648.220504363499
 20
3443.025902233998
 30
0.0
 11
4648.220504363499
 21
3304.589424991641
 31
0.0
  0
ARC
  5
61ECC
330
2
100
AcDbEntity
  8
0
100
AcDbCircle
 10
4648.220504363499
 20
3616.994868657767
 30
0.0
 40
33.23323516264469
100
AcDbArc
 50
72.4881166716355
 51
107.5118833283644
  0
LINE
  5
61ECD
330
2
100
AcDbEntity
  8
0
100
AcDbLine
 10
4658.220504363499
 20
3648.687895010194
 30
0.0
 11
4680.917018348394
 21
3648.687895010195
 31
0.0
  0
ARC
  5
61ED1
330
2
100
AcDbEntity
  8
0
100
AcDbCircle
 10
4648.220504363499
 20
3398.048800397567
 30
0.0
 40
35.59308233256089
100
AcDbArc
 50
253.6828809708515
 51
286.3171190291485
  0
LINE
  5
61ED3
330
2
100
AcDbEntity
  8
0
100
AcDbLine
 10
4658.220504363503
 20
3363.889357926524
 30
0.0
 11
4719.562031453675
 21
3363.889357926524
 31
0.0
  0
LINE
  5
61ED8
330
2
100
AcDbEntity
  8
0
100
AcDbLine
 10
4619.720504363499
 20
3424.089357926525
 30
0.0
 11
4676.720504363499
 21
3424.089357926525
 31
0.0
  0
LINE
  5
61ED9
330
2
100
AcDbEntity
  8
0
100
AcDbLine
 10
4619.720504363499
 20
3424.089357926525
 30
0.0
 11
4676.720504363499
 21
3424.089357926525
 31
0.0
  0
LINE
  5
61EDB
330
2
100
AcDbEntity
  8
0
100
AcDbLine
 10
4658.220504363499
 20
3411.089357926524
 30
0.0
 11
4658.220504363499
 21
3363.889357926524
 31
0.0
  0
LINE
  5
61EDC
330
2
100
AcDbEntity
  8
0
100
AcDbLine
 10
4638.220504363501
 20
3411.089357926524
 30
0.0
 11
4638.220504363499
 21
3363.889357926524
 31
0.0
  0
LINE
  5
61EDD
330
2
100
AcDbEntity
  8
0
100
AcDbLine
 10
4619.720504363499
 20
3411.089357926524
 30
0.0
 11
4676.720504363499
 21
3411.089357926524
 31
0.0
  0
LINE
  5
61EDE
330
2
100
AcDbEntity
  8
0
100
AcDbLine
 10
4619.720504363499
 20
3424.089357926525
 30
0.0
 11
4619.720504363499
 21
3411.089357926524
 31
0.0
  0
LINE
  5
61EDF
330
2
100
AcDbEntity
  8
0
100
AcDbLine
 10
4676.720504363499
 20
3424.089357926525
 30
0.0
 11
4676.720504363499
 21
3411.089357926524
 31
0.0
  0
DIMENSION
  5
61EEA
330
2
100
AcDbEntity
  8
标注
100
AcDbDimension
280
     0
  2
*D12
 10
4648.220504363499
 20
3539.249010043592
 30
0.0
 11
4424.577942798266
 21
3554.874010043592
 31
0.0
 70
    32
  1
740
 71
     5
 42
447.2851231304666
 73
     0
 74
     0
 75
     0
  3
线性标注
100
AcDbAlignedDimension
 13
4200.935381233033
 23
3621.766267830633
 33
0.0
 14
4648.220504363499
 24
3621.766267830633
 34
0.0
100
AcDbRotatedDimension
  0
DIMENSION
  5
61F00
330
2
100
AcDbEntity
  8
标注
100
AcDbDimension
280
     0
  2
*D13
 10
4702.12557837821
 20
3539.028075716213
 30
0.0
 11
4740.964864092495
 21
3554.653075716213
 31
0.0
 70
    32
  1
100
 71
     5
 42
53.9050740147104
 73
     0
 74
     0
 75
     0
  3
线性标注
100
AcDbAlignedDimension
 13
4648.220504363499
 23
3539.249010043592
 33
0.0
 14
4702.12557837821
 24
3666.787992894013
 34
0.0
100
AcDbRotatedDimension
  0
LINE
  5
62068
330
2
100
AcDbEntity
  8
0
100
AcDbLine
 10
3971.520709824133
 20
3554.987895010194
 30
0.0
 11
3971.520709824133
 21
3611.987895010194
 31
0.0
  0
LINE
  5
62069
330
2
100
AcDbEntity
  8
0
100
AcDbLine
 10
3958.520709824133
 20
3554.987895010194
 30
0.0
 11
3958.520709824133
 21
3611.987895010194
 31
0.0
  0
LINE
  5
6206A
330
2
100
AcDbEntity
  8
0
100
AcDbLine
 10
3958.520709824133
 20
3611.987895010194
 30
0.0
 11
3971.520709824132
 21
3611.987895010194
 31
0.0
  0
LINE
  5
6206B
330
2
100
AcDbEntity
  8
0
100
AcDbLine
 10
3958.520709824133
 20
3554.987895010194
 30
0.0
 11
3971.520709824132
 21
3554.987895010194
 31
0.0
  0
LINE
  5
6206C
330
2
100
AcDbEntity
  8
中心线
100
AcDbLine
 10
3899.420709824131
 20
3666.354919579426
 30
0.0
 11
3899.420709824131
 21
3629.487895010195
 31
0.0
  0
ARC
  5
6206D
330
2
100
AcDbEntity
  8
中心线
100
AcDbCircle
 10
3945.420709824131
 20
3629.487895010195
 30
0.0
 40
46.0
100
AcDbArc
 50
180.0
 51
270.0
  0
LINE
  5
6206E
330
2
100
AcDbEntity
  8
中心线
100
AcDbLine
 10
3945.420709824131
 20
3583.487895010195
 30
0.0
 11
3980.918156658823
 21
3583.487895010195
 31
0.0
  0
ARC
  5
6206F
330
2
100
AcDbEntity
  8
0
100
AcDbCircle
 10
3945.420709824131
 20
3629.487895010195
 30
0.0
 40
56.0
100
AcDbArc
 50
180.0
 51
270.0
  0
LINE
  5
62070
330
2
100
AcDbEntity
  8
0
100
AcDbLine
 10
3945.420709824131
 20
3573.487895010195
 30
0.0
 11
3958.520709824133
 21
3573.487895010195
 31
0.0
  0
LINE
  5
62071
330
2
100
AcDbEntity
  8
0
100
AcDbLine
 10
3889.420709824132
 20
3674.398440367782
 30
0.0
 11
3889.420709824131
 21
3629.487895010195
 31
0.0
  0
ARC
  5
62072
330
2
100
AcDbEntity
  8
0
100
AcDbCircle
 10
3945.420709824131
 20
3629.487895010195
 30
0.0
 40
36.0
100
AcDbArc
 50
180.0
 51
270.0
  0
LINE
  5
62073
330
2
100
AcDbEntity
  8
0
100
AcDbLine
 10
3909.420709824131
 20
3674.398440367784
 30
0.0
 11
3909.420709824131
 21
3629.487895010195
 31
0.0
  0
LINE
  5
62074
330
2
100
AcDbEntity
  8
0
100
AcDbLine
 10
3945.420709824131
 20
3593.487895010195
 30
0.0
 11
3958.520709824133
 21
3593.487895010195
 31
0.0
  0
LINE
  5
62078
330
2
100
AcDbEntity
  8
0
100
AcDbLine
 10
3889.420709824132
 20
3674.398440367782
 30
0.0
 11
3909.420709824131
 21
3674.398440367782
 31
0.0
  0
ARC
  5
6207A
330
2
100
AcDbEntity
  8
0
100
AcDbCircle
 10
3899.420709824133
 20
3663.487895010194
 30
0.0
 40
14.8
100
AcDbArc
 50
312.5066423027007
 51
227.4933576972869
  0
ARC
  5
6207B
330
2
100
AcDbEntity
  8
0
100
AcDbCircle
 10
3899.420709824133
 20
3663.487895010194
 30
0.0
 40
15.9
100
AcDbArc
 50
308.9712841764898
 51
231.0287158234987
  0
LINE
  5
6207C
330
2
100
AcDbEntity
  8
0
100
AcDbLine
 10
3909.420709824131
 20
3647.587895010194
 30
0.0
 11
3958.520709824133
 21
3647.587895010194
 31
0.0
  0
DIMENSION
  5
6207D
330
2
100
AcDbEntity
  8
标注
100
AcDbDimension
280
     0
  2
*D14
 10
3945.420709824127
 20
3629.487895010195
 30
0.0
 11
3853.057889385033
 21
3596.037035035303
 31
0.0
 70
   164
 71
     5
 42
45.99999999999545
 73
     0
 74
     0
 75
     0
  3
线性标注
100
AcDbRadialDimension
 15
3902.169852309801
 25
3613.823817499052
 35
0.0
 40
0.0
1001
ACAD
1000
DSTYLE
1002
{
1070
   288
1070
     1
1002
}
1001
ACAD_DSTYLE_DIMRADIAL_EXTENSION
1070
   387
1070
     1
1070
   388
1040
3.141592653589793
1070
   390
1040
4.712388980384689
  0
DIMENSION
  5
62087
330
2
100
AcDbEntity
  8
标注
100
AcDbDimension
280
     0
  2
*D15
 10
4010.924109780113
 20
3583.487895010195
 30
0.0
 11
3995.299109780113
 21
3623.487895010195
 31
0.0
 70
    32
 71
     5
 42
80.0
 73
     0
 74
     0
 75
     0
  3
线性标注
100
AcDbAlignedDimension
 13
3971.520709824133
 23
3663.487895010194
 33
0.0
 14
3971.520709824133
 24
3583.487895010195
 34
0.0
 50
90.0
100
AcDbRotatedDimension
  0
LINE
  5
62094
330
2
100
AcDbEntity
  8
0
100
AcDbLine
 10
4648.220504363499
 20
3696.80304040421
 30
0.0
 11
4648.220504363499
 21
3713.849624579394
 31
0.0
  0
LWPOLYLINE
  5
62095
330
2
100
AcDbEntity
  8
0
100
AcDbPolyline
 90
        2
 70
     0
 10
4648.220504363499
 20
3713.849624579394
 40
2.0
 41
0.0
 10
4612.137100678839
 20
3713.849624579394
 40
0.0
 41
0.0
  0
LINE
  5
62096
330
2
100
AcDbEntity
  8
0
100
AcDbLine
 10
4648.220504363499
 20
3537.778075716214
 30
0.0
 11
4648.220504363499
 21
3525.704631761961
 31
0.0
  0
LWPOLYLINE
  5
62097
330
2
100
AcDbEntity
  8
0
100
AcDbPolyline
 90
        3
 70
     0
 10
4648.220504363499
 20
3525.704631761961
 40
0.0
 41
0.0
 10
4646.220504363499
 20
3525.704631761961
 40
2.0
 41
0.0
 10
4626.721355079411
 20
3525.704631761961
 40
0.0
 41
0.0
  0
MTEXT
  5
62098
330
2
100
AcDbEntity
  8
0
100
AcDbMText
 10
4629.636590311303
 20
3520.070773565924
 30
0.0
 40
25.0
 41
78.15922592658899
 46
0.0
 71
     1
 72
     5
  1
A
  7
黑体
 73
     1
 44
1.0
  0
MTEXT
  5
62099
330
2
100
AcDbEntity
  8
0
100
AcDbMText
 10
4629.636590311303
 20
3748.882460640874
 30
0.0
 40
25.0
 41
78.15922592658899
 46
0.0
 71
     1
 72
     5
  1
A
  7
黑体
 73
     1
 44
1.0
  0
MTEXT
  5
6209A
330
2
100
AcDbEntity
  8
0
100
AcDbMText
 10
3877.956935603696
 20
3511.851399048617
 30
0.0
 40
25.0
 41
173.5631402998115
 46
0.0
 71
     1
 72
     5
  1
A-A
  7
黑体
 73
     1
 44
1.0
  0
DIMENSION
  5
620E2
330
2
100
AcDbEntity
  8
标注
100
AcDbDimension
280
     0
  2
*D16
 10
4657.481056199588
 20
3587.261776260464
 30
0.0
 11
4598.693088740135
 21
3563.304369394919
 31
0.0
 70
    35
 71
     5
 42
20.00000000000273
 73
     0
 74
     0
 75
     0
  3
线性标注
100
AcDbDiametricDimension
 15
4638.95995252741
 25
3579.714013759926
 35
0.0
 40
0.0
1001
ACAD
1000
DSTYLE
1002
{
1070
   288
1070
     1
1002
}
1001
ACAD_DSTYLE_DIMRADIAL_EXTENSION
1070
   387
1070
     1
1070
   388
1040
3.141592653589793
1070
   390
1040
0.0
  0
LINE
  5
62B55
330
2
100
AcDbEntity
  8
0
  6
Continuous
 62
     7
100
AcDbLine
 10
4999.244856697791
 20
3260.884829122745
 30
0.0
 11
4999.624247315251
 21
3260.764713256047
 31
0.0
  0
LINE
  5
62B56
330
2
100
AcDbEntity
  8
0
  6
Continuous
 62
     7
100
AcDbLine
 10
5001.787809370556
 20
3260.250789516125
 30
0.0
 11
4999.595554755726
 21
3260.778448280398
 31
0.0
  0
LINE
  5
62B57
330
2
100
AcDbEntity
  8
0
  6
Continuous
 62
     7
100
AcDbLine
 10
4999.294081904837
 20
3261.040308852944
 30
0.0
 11
4997.101827290006
 21
3261.567967617125
 31
0.0
  0
LINE
  5
62B58
330
2
100
AcDbEntity
  8
0
  6
Continuous
 62
     7
100
AcDbLine
 10
5392.931451707059
 20
3166.857898942739
 30
0.0
 11
5390.739197066896
 21
3167.385557707012
 31
0.0
  0
LINE
  5
62B59
330
2
100
AcDbEntity
  8
0
  6
Continuous
 62
     7
100
AcDbLine
 10
5390.43772424134
 20
3167.647418279466
 30
0.0
 11
5388.245469626882
 21
3168.175077043832
 31
0.0
  0
LINE
  5
62B5A
330
2
100
AcDbEntity
  8
0
  6
Continuous
 62
     7
100
AcDbLine
 10
5390.609773643785
 20
3175.595219635576
 30
0.0
 11
5391.80205248008
 21
3175.308247323413
 31
0.0
  0
LINE
  5
62B5B
330
2
100
AcDbEntity
  8
0
  6
Continuous
 62
     7
100
AcDbLine
 10
4992.76785440939
 20
3271.106269257221
 30
0.0
 11
4999.481736045801
 21
3268.980640307241
 31
0.0
  0
LINE
  5
62B5C
330
2
100
AcDbEntity
  8
0
  6
Continuous
 62
     7
100
AcDbLine
 10
5390.388499034294
 20
3167.491938549452
 30
0.0
 11
5390.76788962605
 21
3167.371822682568
 31
0.0
  0
LINE
  5
62B5D
330
2
100
AcDbEntity
  8
0
  6
Continuous
 62
     7
100
AcDbLine
 10
5390.625378382676
 20
3175.587749708243
 30
0.0
 11
5381.993244857439
 21
3178.320701244645
 31
0.0
  0
LINE
  5
62B5E
330
2
100
AcDbEntity
  8
0
  6
Continuous
 62
     7
100
AcDbLine
 10
5381.993244857439
 20
3178.320701244645
 30
0.0
 11
5383.169918954843
 21
3178.041198859815
 31
0.0
  0
LINE
  5
62B5F
330
2
100
AcDbEntity
  8
0
  6
Continuous
 62
     7
100
AcDbLine
 10
5005.276136536622
 20
3294.630097802713
 30
0.0
 11
5007.468391151079
 21
3294.102439038441
 31
0.0
  0
LINE
  5
62B60
330
2
100
AcDbEntity
  8
0
  6
Continuous
 62
     7
100
AcDbLine
 10
5396.419778847793
 20
3201.237207229328
 30
0.0
 11
5398.612033462249
 21
3200.709548439351
 31
0.0
  0
LINE
  5
62B61
330
2
100
AcDbEntity
  8
0
  6
Continuous
 62
     7
100
AcDbLine
 10
5396.232124706827
 20
3193.296875774939
 30
0.0
 11
5390.840917478972
 21
3195.003743260619
 31
0.0
  0
LINE
  5
62B62
330
2
100
AcDbEntity
  8
0
  6
Continuous
 62
     7
100
AcDbLine
 10
5460.625532926344
 20
3196.743037360706
 30
0.0
 11
5391.401926392787
 21
3207.907108632554
 31
0.0
  0
LINE
  5
62B63
330
2
100
AcDbEntity
  8
0
  6
Continuous
 62
     7
100
AcDbLine
 10
5373.501602875165
 20
3210.793992136404
 30
0.0
 11
5008.735023130202
 21
3269.621902140868
 31
0.0
  0
LINE
  5
62B64
330
2
100
AcDbEntity
  8
0
  6
Continuous
 62
     7
100
AcDbLine
 10
5463.583088097447
 20
3215.081565579851
 30
0.0
 11
5011.692578326636
 21
3287.960430360105
 31
0.0
  0
LINE
  5
62B65
330
2
100
AcDbEntity
  8
0
  6
Continuous
 62
     7
100
AcDbLine
 10
5373.046442379528
 20
3208.304513367717
 30
0.0
 11
5373.614825707399
 21
3211.496038296618
 31
0.0
  0
LINE
  5
62B66
330
2
100
AcDbEntity
  8
0
  6
Continuous
 62
     7
100
AcDbLine
 10
5391.334181867637
 20
3205.047623101048
 30
0.0
 11
5391.829859269508
 21
3207.830897442889
 31
0.0
  0
LINE
  5
62B67
330
2
100
AcDbEntity
  8
0
  6
Continuous
 62
     7
100
AcDbLine
 10
5877.143236708366
 20
3468.778178695389
 30
0.0
 11
5476.332840690115
 21
3217.785731269777
 31
0.0
  0
LINE
  5
62B68
330
2
100
AcDbEntity
  8
0
  6
Continuous
 62
     7
100
AcDbLine
 10
5887.001947778188
 20
3453.034781161029
 30
0.0
 11
5486.19155173386
 21
3202.042333709714
 31
0.0
  0
LINE
  5
62B69
330
2
100
AcDbEntity
  8
0
  6
Continuous
 62
     7
100
AcDbLine
 10
5915.755287594446
 20
3451.161835691318
 30
0.0
 11
5913.563032979616
 21
3451.689494455498
 31
0.0
  0
LINE
  5
62B6A
330
2
100
AcDbEntity
  8
0
  6
Continuous
 62
     7
100
AcDbLine
 10
5913.261560128727
 20
3451.95135500234
 30
0.0
 11
5911.069305513898
 21
3452.479013766613
 31
0.0
  0
LINE
  5
62B6B
330
2
100
AcDbEntity
  8
0
  6
Continuous
 62
     7
100
AcDbLine
 10
5919.243614734807
 20
3485.541143952295
 30
0.0
 11
5921.43586937497
 21
3485.01348518793
 31
0.0
  0
LINE
  5
62B6C
330
2
100
AcDbEntity
  8
0
  6
Continuous
 62
     7
100
AcDbLine
 10
5913.212334921681
 20
3451.795875272326
 30
0.0
 11
5913.591725539141
 21
3451.675759431147
 31
0.0
  0
LINE
  5
62B6D
330
2
100
AcDbEntity
  8
0
  6
Continuous
 62
     7
100
AcDbLine
 10
5913.44921426969
 20
3459.891686456729
 30
0.0
 11
5907.424330631741
 21
3461.799177209366
 31
0.0
  0
LINE
  5
62B6E
330
2
100
AcDbEntity
  8
0
  6
Continuous
 62
     7
100
AcDbLine
 10
5919.055960593842
 20
3477.600812523425
 30
0.0
 11
5912.342078957432
 21
3479.726441473499
 31
0.0
  0
SPLINE
  5
62B6F
330
2
100
AcDbEntity
  8
0
  6
Continuous
 62
     7
100
AcDbSpline
210
0.0
220
0.0
230
1.0
 70
  1064
 71
     3
 72
    17
 73
    13
 74
    11
 42
0.000000001
 43
0.0000000001
 44
0.0000000001
 12
0.9526394026901837
 22
-0.3041022335368326
 32
0.0
 13
-0.9872434221165724
 23
0.1592181694642898
 33
0.0
 40
0.0
 40
0.0
 40
0.0
 40
0.0
 40
2.794919213622416
 40
7.861732960998628
 40
13.00942269102316
 40
18.25277222791006
 40
23.57019073050157
 40
28.91309272053696
 40
34.22383049231612
 40
39.45621306770052
 40
44.59273164018369
 40
49.65253376169735
 40
49.65253376169735
 40
49.65253376169735
 40
49.65253376169735
 10
5401.106718978756
 20
3199.923030265872
 30
0.0
 10
5401.994235702168
 20
3199.639716540733
 30
0.0
 10
5404.422303164833
 20
3198.614692006606
 30
0.0
 10
5407.913910651047
 20
3195.902273410478
 30
0.0
 10
5410.806545126559
 20
3191.534060174704
 30
0.0
 10
5412.237944956911
 20
3186.411074809272
 30
0.0
 10
5412.081784172668
 20
3181.033318960001
 30
0.0
 10
5410.361162043291
 20
3175.913382236534
 30
0.0
 10
5407.239627529242
 20
3171.538443526286
 30
0.0
 10
5403.006404960889
 20
3168.331708706512
 30
0.0
 10
5398.068798439699
 20
3166.614366153557
 30
0.0
 10
5394.596537160951
 20
3166.589361465526
 30
0.0
 10
5392.931451707059
 20
3166.857898942739
 30
0.0
 11
5401.106718978756
 21
3199.923030265872
 31
0.0
 11
5403.680439280072
 21
3198.833288451828
 31
0.0
 11
5407.687969036498
 21
3195.732916409321
 31
0.0
 11
5410.543810626962
 21
3191.450057741705
 31
0.0
 11
5411.968414435634
 21
3186.403948512379
 31
0.0
 11
5411.822330278628
 21
3181.088537055984
 31
0.0
 11
5410.119857894354
 21
3176.024132899925
 31
0.0
 11
5407.02764714519
 21
3171.706475159512
 31
0.0
 11
5402.84838517914
 21
3168.558206296419
 31
0.0
 11
5397.99116723659
 21
3166.887500785556
 31
0.0
 11
5392.931451707059
 21
3166.857898942739
 31
0.0
  0
SPLINE
  5
62B70
330
2
100
AcDbEntity
  8
0
  6
Continuous
 62
     7
100
AcDbSpline
210
0.0
220
0.0
230
1.0
 70
  1064
 71
     3
 72
    11
 73
     7
 74
     5
 42
0.000000001
 43
0.0000000001
 44
0.0000000001
 12
-0.9526394026711868
 22
0.3041022335963432
 32
0.0
 13
-0.1543972730524213
 23
0.9880088471638176
 33
0.0
 40
0.0
 40
0.0
 40
0.0
 40
0.0
 40
2.794919223301105
 40
7.861732970383101
 40
13.00942270074331
 40
17.69657430011715
 40
17.69657430011715
 40
17.69657430011715
 40
17.69657430011715
 10
5388.244511575722
 20
3168.17207588049
 30
0.0
 10
5387.356994849255
 20
3168.455389606667
 30
0.0
 10
5384.928931362065
 20
3169.480359845483
 30
0.0
 10
5381.43729354071
 20
3172.193194343775
 30
0.0
 10
5378.648861062826
 20
3176.402580276939
 30
0.0
 10
5377.701863621492
 20
3179.590894047898
 30
0.0
 10
5377.460635813051
 20
3181.134543130625
 30
0.0
 11
5388.244511575722
 21
3168.17207588049
 31
0.0
 11
5385.67079127478
 21
3169.261817720238
 31
0.0
 11
5381.663261518725
 21
3172.362189762745
 31
0.0
 11
5378.807419927516
 21
3176.645048430268
 31
0.0
 11
5377.460635813051
 21
3181.134543130625
 31
0.0
  0
SPLINE
  5
62B71
330
2
100
AcDbEntity
  8
0
  6
Continuous
 62
     7
100
AcDbSpline
210
0.0
220
0.0
230
1.0
 70
  1064
 71
     3
 72
     9
 73
     5
 74
     3
 42
0.000000001
 43
0.0000000001
 44
0.0000000001
 12
0.9787560221299886
 22
0.2050284105783424
 32
0.0
 13
0.9872434223144065
 23
-0.159218168237606
 33
0.0
 40
0.0
 40
0.0
 40
0.0
 40
0.0
 40
0.5798345574916425
 40
5.639636679156041
 40
5.639636679156041
 40
5.639636679156041
 40
5.639636679156041
 10
5390.790437650778
 20
3201.099278480545
 30
0.0
 10
5390.979609839106
 20
3201.138905999786
 30
0.0
 10
5392.825530224719
 20
3201.490267662395
 30
0.0
 10
5394.754693393517
 20
3201.50574470448
 30
0.0
 10
5396.419778847793
 20
3201.237207229328
 30
0.0
 11
5390.790437650778
 21
3201.099278480545
 31
0.0
 11
5391.36006331826
 21
3201.207605360899
 31
0.0
 11
5396.419778847793
 21
3201.237207229328
 31
0.0
  0
SPLINE
  5
62B72
330
2
100
AcDbEntity
  8
0
  6
Continuous
 62
     7
100
AcDbSpline
210
0.0
220
0.0
230
1.0
 70
  1064
 71
     3
 72
    13
 73
     9
 74
     7
 42
0.000000001
 43
0.0000000001
 44
0.0000000001
 12
-0.9533599423370246
 22
0.3018357506113966
 32
0.0
 13
-0.8475361533692026
 23
-0.530737664700872
 33
0.0
 40
0.0
 40
0.0
 40
0.0
 40
0.0
 40
4.302663289136349
 40
9.051331485944958
 40
14.95997560516291
 40
22.29435166183154
 40
29.97242686651327
 40
37.70198390117653
 40
37.70198390117653
 40
37.70198390117653
 40
37.70198390117653
 10
5912.342078957432
 20
3479.726441473499
 30
0.0
 10
5910.974750015689
 20
3480.159340674668
 30
0.0
 10
5907.936179122741
 20
3480.579486335789
 30
0.0
 10
5902.952023034945
 20
3480.04900696783
 30
0.0
 10
5897.140568523486
 20
3478.503335049076
 30
0.0
 10
5890.622319041415
 20
3475.996228760774
 30
0.0
 10
5883.786464238501
 20
3472.704277108259
 30
0.0
 10
5879.326929720502
 20
3470.145634378638
 30
0.0
 10
5877.143236708366
 20
3468.778178695389
 30
0.0
 11
5912.342078957432
 21
3479.726441473499
 31
0.0
 11
5908.091096416586
 21
3480.391316512213
 31
0.0
 11
5903.359981673681
 21
3479.983391356267
 31
0.0
 11
5897.63126100088
 21
3478.536382448007
 31
0.0
 11
5890.768749760561
 21
3475.948137556747
 31
0.0
 11
5883.84458574588
 21
3472.630187655598
 31
0.0
 11
5877.143236708366
 21
3468.778178695389
 31
0.0
  0
SPLINE
  5
62B73
330
2
100
AcDbEntity
  8
0
  6
Continuous
 62
     7
100
AcDbSpline
210
0.0
220
0.0
230
1.0
 70
  1064
 71
     3
 72
     9
 73
     5
 74
     3
 42
0.000000001
 43
0.0000000001
 44
0.0000000001
 12
0.9526394019051666
 22
-0.3041022359959995
 32
0.0
 13
0.8136684081250983
 23
-0.5813292712561174
 33
0.0
 40
0.0
 40
0.0
 40
0.0
 40
0.0
 40
2.79491922330212
 40
4.739918760547464
 40
4.739918760547464
 40
4.739918760547464
 40
4.739918760547464
 10
5009.963076642254
 20
3293.315920864869
 30
0.0
 10
5010.850593368006
 20
3293.032607136458
 30
0.0
 10
5012.316147832637
 20
3292.413276729746
 30
0.0
 10
5013.660500876575
 20
3291.575233840838
 30
0.0
 10
5014.188029102333
 20
3291.198338786312
 30
0.0
 11
5009.963076642254
 21
3293.315920864869
 31
0.0
 11
5012.536796943196
 21
3292.226179025121
 31
0.0
 11
5014.188029102333
 21
3291.198338786312
 31
0.0
  0
SPLINE
  5
62B74
330
2
100
AcDbEntity
  8
0
  6
Continuous
 62
     7
100
AcDbSpline
210
0.0
220
0.0
230
1.0
 70
  1064
 71
     3
 72
     9
 73
     5
 74
     3
 42
0.000000001
 43
0.0000000001
 44
0.0000000001
 12
0.8136684083769781
 22
-0.5813292709035692
 32
0.0
 13
0.551588244798573
 23
-0.8341165435357517
 33
0.0
 40
0.0
 40
0.0
 40
0.0
 40
0.0
 40
3.138076870243177
 40
5.770117170229614
 40
5.770117170229614
 40
5.770117170229614
 40
5.770117170229614
 10
5014.188029102333
 20
3291.198338786312
 30
0.0
 10
5015.039147106459
 20
3290.590253473305
 30
0.0
 10
5016.494638829691
 20
3289.309154669139
 30
0.0
 10
5017.686556170804
 20
3287.788020345403
 30
0.0
 10
5018.170490333908
 20
3287.056210892912
 30
0.0
 11
5014.188029102333
 21
3291.198338786312
 31
0.0
 11
5016.544326699623
 21
3289.125806982801
 31
0.0
 11
5018.170490333908
 21
3287.056210892912
 31
0.0
  0
SPLINE
  5
62B75
330
2
100
AcDbEntity
  8
0
  6
Continuous
 62
     7
100
AcDbSpline
210
0.0
220
0.0
230
1.0
 70
  1064
 71
     3
 72
    11
 73
     7
 74
     5
 42
0.000000001
 43
0.0000000001
 44
0.0000000001
 12
-0.5322141787520085
 22
-0.846609749492247
 32
0.0
 13
-0.9872434221420411
 23
0.1592181693063698
 33
0.0
 40
0.0
 40
0.0
 40
0.0
 40
0.0
 40
3.729230694742176
 40
8.961613275360077
 40
14.09813182350646
 40
19.15793397050167
 40
19.15793397050167
 40
19.15793397050167
 40
19.15793397050167
 10
5018.188612502165
 20
3268.031249951464
 30
0.0
 10
5017.52702935164
 20
3266.978848930039
 30
0.0
 10
5015.670117487456
 20
3264.609045723676
 30
0.0
 10
5011.862428802546
 20
3261.724252287346
 30
0.0
 10
5006.925249221648
 20
3260.007353546584
 30
0.0
 10
5003.452894832876
 20
3259.982252037826
 30
0.0
 10
5001.787809370556
 20
3260.250789516125
 30
0.0
 11
5018.188612502165
 21
3268.031249951464
 31
0.0
 11
5015.88400483402
 21
3265.099365732991
 31
0.0
 11
5011.704742842265
 21
3261.951096895322
 31
0.0
 11
5006.847524925419
 21
3260.280391384553
 31
0.0
 11
5001.787809370556
 21
3260.250789516125
 31
0.0
  0
SPLINE
  5
62B76
330
2
100
AcDbEntity
  8
0
  6
Continuous
 62
     7
100
AcDbSpline
210
0.0
220
0.0
230
1.0
 70
  1064
 71
     3
 72
    12
 73
     8
 74
     6
 42
0.000000001
 43
0.0000000001
 44
0.0000000001
 12
-0.9526394027627832
 22
0.3041022333094046
 32
0.0
 13
-0.0661080533953729
 23
0.9978124699943746
 33
0.0
 40
0.0
 40
0.0
 40
0.0
 40
0.0
 40
2.794919213658586
 40
7.861732960626776
 40
13.00942270519554
 40
18.25277224217216
 40
19.24764323500411
 40
19.24764323500411
 40
19.24764323500411
 40
19.24764323500411
 10
4997.100869264924
 20
3261.564966479581
 30
0.0
 10
4996.213352541434
 20
3261.848280204513
 30
0.0
 10
4993.785295549834
 20
3262.873206407098
 30
0.0
 10
4990.293607910602
 20
3265.586377694159
 30
0.0
 10
4987.401303679486
 20
3269.951489572659
 30
0.0
 10
4986.362875714457
 20
3273.673321619184
 30
0.0
 10
4986.167295459138
 20
3275.743589102723
 30
0.0
 10
4986.145372464233
 20
3276.074487330284
 30
0.0
 11
4997.100869264924
 21
3261.564966479581
 31
0.0
 11
4994.527148963609
 21
3262.654708293717
 31
0.0
 11
4990.519619207555
 21
3265.755080336038
 31
0.0
 11
4987.663777591013
 21
3270.037939003747
 31
0.0
 11
4986.239173782342
 21
3275.084048233167
 31
0.0
 11
4986.145372464233
 21
3276.074487330284
 31
0.0
  0
SPLINE
  5
62B77
330
2
100
AcDbEntity
  8
0
  6
Continuous
 62
     7
100
AcDbSpline
210
0.0
220
0.0
230
1.0
 70
  1064
 71
     3
 72
    11
 73
     7
 74
     5
 42
0.000000001
 43
0.0000000001
 44
0.0000000001
 12
0.6667770278099276
 22
0.7452572677840581
 32
0.0
 13
0.9872434220821187
 23
-0.1592181696779226
 33
0.0
 40
0.0
 40
0.0
 40
0.0
 40
0.0
 40
0.7400794529174841
 40
5.97246204883329
 40
11.10898059733143
 40
16.16878274417735
 40
16.16878274417735
 40
16.16878274417735
 40
16.16878274417735
 10
4990.674893786856
 20
3289.240555010628
 30
0.0
 10
4990.839383112842
 20
3289.424404874303
 30
0.0
 10
4992.19757952073
 20
3290.879638856364
 30
0.0
 10
4995.202999347058
 20
3293.15823236325
 30
0.0
 10
5000.138283270484
 20
3294.873088302208
 30
0.0
 10
5003.611051074451
 20
3294.898635281632
 30
0.0
 10
5005.276136536622
 20
3294.630097802713
 30
0.0
 11
4990.674893786856
 21
3289.240555010628
 31
0.0
 11
4991.179941072785
 21
3289.781521585942
 31
0.0
 11
4995.359203064539
 21
3292.929790449035
 31
0.0
 11
5000.216420981758
 21
3294.600495959804
 31
0.0
 11
5005.276136536622
 21
3294.630097802713
 31
0.0
  0
SPLINE
  5
62B78
330
2
100
AcDbEntity
  8
0
  6
Continuous
 62
     7
100
AcDbSpline
210
0.0
220
0.0
230
1.0
 70
  1064
 71
     3
 72
     8
 73
     4
 74
     2
 42
0.000000001
 43
0.0000000001
 44
0.0000000001
 12
-0.0643168680113919
 22
-0.9979295268149977
 32
0.0
 13
-0.9632629531483313
 23
-0.2685600176719455
 33
0.0
 40
0.0
 40
0.0
 40
0.0
 40
0.0
 40
0.6501614385517505
 40
0.6501614385517505
 40
0.6501614385517505
 40
0.6501614385517505
 10
5906.945140438252
 20
3461.871353372917
 30
0.0
 10
5906.931201655775
 20
3461.655081607341
 30
0.0
 10
5906.569039636639
 20
3461.645567920661
 30
0.0
 10
5906.360280827531
 20
3461.587365464851
 30
0.0
 11
5906.945140438252
 21
3461.871353372917
 31
0.0
 11
5906.360280827531
 21
3461.587365464851
 31
0.0
  0
SPLINE
  5
62B79
330
2
100
AcDbEntity
  8
0
  6
Continuous
 62
     7
100
AcDbSpline
210
0.0
220
0.0
230
1.0
 70
  1064
 71
     3
 72
    12
 73
     8
 74
     6
 42
0.000000001
 43
0.0000000001
 44
0.0000000001
 12
-0.9632629519251823
 22
-0.2685600220590996
 32
0.0
 13
-0.8475361537988666
 23
-0.5307376640147412
 33
0.0
 40
0.0
 40
0.0
 40
0.0
 40
0.0
 40
2.303839271123318
 40
5.745141706192717
 40
10.3592150250644
 40
15.78581901690813
 40
21.26375645378887
 40
21.26375645378887
 40
21.26375645378887
 40
21.26375645378887
 10
5906.360280827531
 20
3461.587365464851
 30
0.0
 10
5905.62054648851
 20
3461.381125756361
 30
0.0
 10
5903.715452377634
 20
3461.105105780407
 30
0.0
 10
5900.475436093039
 20
3459.862544294749
 30
0.0
 10
5896.321898704158
 20
3458.158714323944
 30
0.0
 10
5891.697029062424
 20
3455.825495957775
 30
0.0
 10
5888.54953112019
 20
3454.003897067319
 30
0.0
 10
5887.001947778188
 20
3453.034781161029
 30
0.0
 11
5906.360280827531
 21
3461.587365464851
 31
0.0
 11
5904.110036338591
 21
3461.093325864043
 31
0.0
 11
5900.8491285977
 21
3459.993760879603
 31
0.0
 11
5896.593554120237
 21
3458.210573155698
 31
0.0
 11
5891.737657809355
 21
3455.788115333099
 31
0.0
 11
5887.001947778188
 21
3453.034781161029
 31
0.0
  0
SPLINE
  5
62B7A
330
2
100
AcDbEntity
  8
0
  6
Continuous
 62
     7
100
AcDbSpline
210
0.0
220
0.0
230
1.0
 70
  1064
 71
     3
 72
    17
 73
    13
 74
    11
 42
0.000000001
 43
0.0000000001
 44
0.0000000001
 12
0.9526394026901837
 22
-0.3041022335368326
 32
0.0
 13
-0.9872434221165724
 23
0.1592181694642898
 33
0.0
 40
0.0
 40
0.0
 40
0.0
 40
0.0
 40
2.794919213658586
 40
7.861732976298316
 40
13.00942272086708
 40
18.25277222621202
 40
23.57019072871033
 40
28.91309274302211
 40
34.22383049419658
 40
39.45621306952489
 40
44.59273164200806
 40
49.65253376314973
 40
49.65253376314973
 40
49.65253376314973
 40
49.65253376314973
 10
5923.930554866143
 20
3484.226967014357
 30
0.0
 10
5924.818071589566
 20
3483.943653289215
 30
0.0
 10
5927.246139060688
 20
3482.918628756883
 30
0.0
 10
5930.737746524879
 20
3480.206210122516
 30
0.0
 10
5933.630381047032
 20
3475.837996919664
 30
0.0
 10
5935.061780837755
 20
3470.71501154317
 30
0.0
 10
5934.905620056922
 20
3465.337255703234
 30
0.0
 10
5933.184997944372
 20
3460.217318968219
 30
0.0
 10
5930.063463406345
 20
3455.842380273549
 30
0.0
 10
5925.830240849018
 20
3452.635645454321
 30
0.0
 10
5920.892634326518
 20
3450.918302902382
 30
0.0
 10
5917.420373048215
 20
3450.893298214126
 30
0.0
 10
5915.755287594446
 20
3451.161835691318
 30
0.0
 11
5923.930554866143
 21
3484.226967014357
 31
0.0
 11
5926.504275167459
 21
3483.137225200221
 31
0.0
 11
5930.511804923512
 21
3480.036853132289
 31
0.0
 11
5933.367646540054
 21
3475.75399446458
 31
0.0
 11
5934.792250323021
 21
3470.707885260772
 31
0.0
 11
5934.646166166015
 21
3465.39247380447
 31
0.0
 11
5932.943693781742
 21
3460.3280696228
 31
0.0
 11
5929.851483032205
 21
3456.010411907997
 31
0.0
 11
5925.672221066156
 21
3452.862143044998
 31
0.0
 11
5920.815003123604
 21
3451.191437534135
 31
0.0
 11
5915.755287594446
 21
3451.161835691318
 31
0.0
  0
SPLINE
  5
62B7B
330
2
100
AcDbEntity
  8
0
  6
Continuous
 62
     7
100
AcDbSpline
210
0.0
220
0.0
230
1.0
 70
  1064
 71
     3
 72
    10
 73
     6
 74
     4
 42
0.000000001
 43
0.0000000001
 44
0.0000000001
 12
-0.9526394028148763
 22
0.3041022331462172
 32
0.0
 13
-0.4538768972282059
 23
0.8910643984373388
 33
0.0
 40
0.0
 40
0.0
 40
0.0
 40
0.0
 40
2.79491921331622
 40
7.861732976249887
 40
12.34266554175821
 40
12.34266554175821
 40
12.34266554175821
 40
12.34266554175821
 10
5911.06834746311
 20
3452.47601262907
 30
0.0
 10
5910.18083073968
 20
3452.759326353814
 30
0.0
 10
5907.752765774552
 20
3453.784493368871
 30
0.0
 10
5904.440091508464
 20
3456.356860750374
 30
0.0
 10
5902.602818276906
 20
3459.011310597894
 30
0.0
 10
5901.924887687066
 20
3460.342243758202
 30
0.0
 11
5911.06834746311
 21
3452.47601262907
 31
0.0
 11
5908.494627162166
 21
3453.565754443206
 31
0.0
 11
5904.48709740574
 21
3456.666126511138
 31
0.0
 11
5901.924887687066
 21
3460.342243758202
 31
0.0
  0
SPLINE
  5
62B7C
330
2
100
AcDbEntity
  8
0
  6
Continuous
 62
     7
100
AcDbSpline
210
0.0
220
0.0
230
1.0
 70
  1064
 71
     3
 72
    11
 73
     7
 74
     5
 42
0.000000001
 43
0.0000000001
 44
0.0000000001
 12
0.6674837110750138
 22
0.7446243989082869
 32
0.0
 13
0.9872434221669749
 23
-0.159218169151766
 33
0.0
 40
0.0
 40
0.0
 40
0.0
 40
0.0
 40
0.7234710433429811
 40
5.95585361908132
 40
11.09237219150384
 40
16.15217431264661
 40
16.15217431264661
 40
16.15217431264661
 40
16.15217431264661
 10
5904.653454407775
 20
3480.163976173741
 30
0.0
 10
5904.81442278673
 20
3480.343547570666
 30
0.0
 10
5906.16953095483
 20
3481.794074498929
 30
0.0
 10
5909.170485876715
 20
3484.069285636556
 30
0.0
 10
5914.105759158985
 20
3485.784132461524
 30
0.0
 10
5917.578529280952
 20
3485.809681428962
 30
0.0
 10
5919.243614734807
 20
3485.541143952295
 30
0.0
 11
5904.653454407775
 21
3480.163976173741
 31
0.0
 11
5905.147419296675
 21
3480.69256773543
 31
0.0
 11
5909.326681263097
 21
3483.840836598616
 31
0.0
 11
5914.183899205649
 21
3485.511542109292
 31
0.0
 11
5919.243614734807
 21
3485.541143952295
 31
0.0
  0
SPLINE
  5
62B7D
330
2
100
AcDbEntity
  8
0
  6
Continuous
 62
     7
100
AcDbSpline
210
0.0
220
0.0
230
1.0
 70
  1064
 71
     3
 72
    10
 73
     6
 74
     4
 42
0.000000001
 43
0.0000000001
 44
0.0000000001
 12
-0.8475361529628974
 22
-0.5307376653497019
 32
0.0
 13
-0.9872434222037684
 23
0.1592181689236245
 33
0.0
 40
0.0
 40
0.0
 40
0.0
 40
0.0
 40
4.462092686880405
 40
8.884677230300743
 40
13.28777997935096
 40
13.28777997935096
 40
13.28777997935096
 40
13.28777997935096
 10
5476.332840690115
 20
3217.785731269777
 30
0.0
 10
5475.072245733446
 20
3216.996331051375
 30
0.0
 10
5472.37592771408
 20
3215.698523636056
 30
0.0
 10
5468.009392711262
 20
3214.750176615675
 30
0.0
 10
5465.032066172875
 20
3214.847880927422
 30
0.0
 10
5463.583088097447
 20
3215.081565579851
 30
0.0
 11
5476.332840690115
 21
3217.785731269777
 31
0.0
 11
5472.307614981108
 21
3215.860158851542
 31
0.0
 11
5467.98363245102
 21
3214.931488230064
 31
0.0
 11
5463.583088097447
 21
3215.081565579851
 31
0.0
  0
SPLINE
  5
62B7E
330
2
100
AcDbEntity
  8
0
  6
Continuous
 62
     7
100
AcDbSpline
210
0.0
220
0.0
230
1.0
 70
  1064
 71
     3
 72
    10
 73
     6
 74
     4
 42
0.000000001
 43
0.0000000001
 44
0.0000000001
 12
-0.8475361532774073
 22
-0.5307376648474604
 32
0.0
 13
-0.9872434221258926
 23
0.1592181694064992
 33
0.0
 40
0.0
 40
0.0
 40
0.0
 40
0.0
 40
8.978582214168731
 40
17.84040242550062
 40
26.61845852696021
 40
26.61845852696021
 40
26.61845852696021
 40
26.61845852696021
 10
5486.19155173386
 20
3202.042333709714
 30
0.0
 10
5483.654994056632
 20
3200.453909790384
 30
0.0
 10
5478.223279566986
 20
3197.874487538671
 30
0.0
 10
5469.45954914679
 20
3196.053792361062
 30
0.0
 10
5463.514225641416
 20
3196.277162019565
 30
0.0
 10
5460.625532926344
 20
3196.743037360706
 30
0.0
 11
5486.19155173386
 21
3202.042333709714
 31
0.0
 11
5478.07578602294
 21
3198.201853856616
 31
0.0
 11
5469.397229111665
 21
3196.408949119676
 31
0.0
 11
5460.625532926344
 21
3196.743037360706
 31
0.0
  0
SPLINE
  5
62B7F
330
2
100
AcDbEntity
  8
0
  6
Continuous
 62
     7
100
AcDbSpline
210
0.0
220
0.0
230
1.0
 70
  1064
 71
     3
 72
    11
 73
     7
 74
     5
 42
0.000000001
 43
0.0000000001
 44
0.0000000001
 12
0.8406997208193969
 22
0.5415015968713188
 32
0.0
 13
0.1753326909719517
 23
0.984509241945719
 33
0.0
 40
0.0
 40
0.0
 40
0.0
 40
0.0
 40
1.286735267668747
 40
3.79757418999522
 40
7.30127009350104
 40
11.32622126563218
 40
11.32622126563218
 40
11.32622126563218
 40
11.32622126563218
 10
5390.881532405416
 20
3193.764171055131
 30
0.0
 10
5391.242118398847
 20
3193.996427455862
 30
0.0
 10
5390.48617651502
 20
3195.639400465856
 30
0.0
 10
5390.754498241725
 20
3197.796261330217
 30
0.0
 10
5390.719283932217
 20
3201.269179229717
 30
0.0
 10
5391.09894669429
 20
3203.726755891934
 30
0.0
 10
5391.334181867637
 20
3205.047623101048
 30
0.0
 11
5390.881532405416
 21
3193.764171055131
 31
0.0
 11
5390.83265494118
 21
3195.049977666777
 31
0.0
 11
5390.67581356252
 21
3197.555913195838
 31
0.0
 11
5390.809059057855
 21
3201.05707452063
 31
0.0
 11
5391.334181867637
 21
3205.047623101048
 31
0.0
  0
SPLINE
  5
62B80
330
2
100
AcDbEntity
  8
0
  6
Continuous
 62
     7
100
AcDbSpline
210
0.0
220
0.0
230
1.0
 70
  1064
 71
     3
 72
    13
 73
     9
 74
     7
 42
0.000000001
 43
0.0000000001
 44
0.0000000001
 12
-0.9533599421704447
 22
0.3018357511375458
 32
0.0
 13
0.1753326900713344
 23
0.9845092421061112
 33
0.0
 40
0.0
 40
0.0
 40
0.0
 40
0.0
 40
4.253459805523081
 40
8.881284652371064
 40
13.98040606694334
 40
20.1114984214924
 40
27.00032469726334
 40
33.89708297201347
 40
33.89708297201347
 40
33.89708297201347
 40
33.89708297201347
 10
5381.993244857439
 20
3178.320701244645
 30
0.0
 10
5380.641552126033
 20
3178.748649989757
 30
0.0
 10
5377.966261774064
 20
3180.19518565541
 30
0.0
 10
5374.895184868062
 20
3183.827162795647
 30
0.0
 10
5372.921434775135
 20
3188.803743051344
 30
0.0
 10
5372.036013227043
 20
3194.813502331709
 30
0.0
 10
5372.079628938672
 20
3201.47000400968
 30
0.0
 10
5372.6433666525
 20
3206.041205947029
 30
0.0
 10
5373.046442379528
 20
3208.304513367717
 30
0.0
 11
5381.993244857439
 21
3178.320701244645
 31
0.0
 11
5378.245170976692
 21
3180.331636972525
 31
0.0
 11
5375.208339768374
 21
3183.823687806245
 31
0.0
 11
5373.224905074486
 21
3188.521243129563
 31
0.0
 11
5372.220449401909
 21
3194.569495956772
 31
0.0
 11
5372.212845249198
 21
3201.458318035662
 31
0.0
 11
5373.046442379528
 21
3208.304513367717
 31
0.0
  0
SPLINE
  5
62B81
330
2
100
AcDbEntity
  8
0
  6
Continuous
 62
     7
100
AcDbSpline
210
0.0
220
0.0
230
1.0
 70
  1064
 71
     3
 72
    20
 73
    16
 74
    14
 42
0.000000001
 43
0.0000000001
 44
0.0000000001
 12
-0.9872434220496767
 22
0.1592181698790804
 32
0.0
 13
-0.1754450593030521
 23
-0.9844892234890885
 33
0.0
 40
0.0
 40
0.0
 40
0.0
 40
0.0
 40
4.312270674589848
 40
7.781815644628041
 40
10.52232512812185
 40
12.66254135256933
 40
14.33543546845664
 40
15.68086287685185
 40
18.09961965656973
 40
19.55506943104518
 40
21.28883554714537
 40
23.53217142646837
 40
25.70795758634502
 40
28.61448041900865
 40
30.49604431018217
 40
30.49604431018217
 40
30.49604431018217
 40
30.49604431018217
 10
5011.692578326636
 20
3287.960430360105
 30
0.0
 10
5010.273491374107
 20
3288.189294308382
 30
0.0
 10
5007.710635739243
 20
3288.590072416492
 30
0.0
 10
5004.239394230509
 20
3289.093130414226
 30
0.0
 10
5001.479775790318
 20
3289.457361858392
 30
0.0
 10
4999.309897444105
 20
3289.710039701055
 30
0.0
 10
4997.597919673422
 20
3289.875248396267
 30
0.0
 10
4995.79052109199
 20
3289.999945406093
 30
0.0
 10
4994.043164205294
 20
3290.011321067967
 30
0.0
 10
4992.191876856242
 20
3289.711165765953
 30
0.0
 10
4990.464328402893
 20
3289.138151345915
 30
0.0
 10
4988.675864453188
 20
3288.092950119569
 30
0.0
 10
4986.897995438039
 20
3286.389772754711
 30
0.0
 10
4985.694495824503
 20
3284.356464979076
 30
0.0
 10
4985.256006309815
 20
3282.810269290336
 30
0.0
 10
4985.145969280325
 20
3282.192809498948
 30
0.0
 11
5011.692578326636
 21
3287.960430360105
 31
0.0
 11
5007.431769468361
 21
3288.624648881503
 31
0.0
 11
5003.99774780991
 21
3289.119863530327
 31
0.0
 11
5001.280445097112
 21
3289.475754238464
 31
0.0
 11
4999.154236081713
 21
3289.72021427656
 31
0.0
 11
4997.488734094896
 21
3289.877306144204
 31
0.0
 11
4996.146190412813
 21
3289.965348026048
 31
0.0
 11
4993.727702192687
 21
3289.929305155095
 31
0.0
 11
4992.291802546852
 21
3289.691552651194
 31
0.0
 11
4990.647026767679
 21
3289.143230135165
 31
0.0
 11
4988.71086945171
 21
3288.010158771448
 31
0.0
 11
4987.140421561623
 21
3286.504257434033
 31
0.0
 11
4985.660700061642
 21
3284.00259813283
 31
0.0
 11
4985.145969280325
 21
3282.192809498948
 31
0.0
  0
SPLINE
  5
62B82
330
2
100
AcDbEntity
  8
0
  6
Continuous
 62
     7
100
AcDbSpline
210
0.0
220
0.0
230
1.0
 70
  1064
 71
     3
 72
    14
 73
    10
 74
     8
 42
0.000000001
 43
0.0000000001
 44
0.0000000001
 12
-0.1754450595630418
 22
-0.9844892234427561
 32
0.0
 13
0.9533599422534662
 23
-0.3018357508753193
 33
0.0
 40
0.0
 40
0.0
 40
0.0
 40
0.0
 40
1.049490152198738
 40
4.144979743893138
 40
7.283433711376637
 40
9.86851786460644
 40
11.92315948968941
 40
13.42325026093575
 40
14.78412497215465
 40
14.78412497215465
 40
14.78412497215465
 40
14.78412497215465
 10
4985.145969280325
 20
3282.192809498948
 30
0.0
 10
4985.084593326238
 20
3281.848405583964
 30
0.0
 10
4984.918173914617
 20
3280.47463470065
 30
0.0
 10
4985.170489128958
 20
3278.00978296339
 30
0.0
 10
4986.44110122502
 20
3275.296909730331
 30
0.0
 10
4988.216750657112
 20
3273.363392471142
 30
0.0
 10
4989.933310223097
 20
3272.222395703425
 30
0.0
 10
4991.432224039021
 20
3271.551568695855
 30
0.0
 10
4992.335386597356
 20
3271.243189470658
 30
0.0
 10
4992.76785440939
 20
3271.106269257221
 30
0.0
 11
4985.145969280325
 21
3282.192809498948
 31
0.0
 11
4985.020194224365
 21
3281.150883294813
 31
0.0
 11
4985.337209102237
 21
3278.071669534858
 31
0.0
 11
4986.665749027678
 21
3275.228278078776
 31
0.0
 11
4988.41172029125
 21
3273.321908642896
 31
0.0
 11
4990.118457389348
 21
3272.177967785377
 31
0.0
 11
4991.483134393864
 21
3271.555128323458
 31
0.0
 11
4992.76785440939
 21
3271.106269257221
 31
0.0
  0
SPLINE
  5
62B83
330
2
100
AcDbEntity
  8
0
  6
Continuous
 62
     7
100
AcDbSpline
210
0.0
220
0.0
230
1.0
 70
  1064
 71
     3
 72
    13
 73
     9
 74
     7
 42
0.000000001
 43
0.0000000001
 44
0.0000000001
 12
-0.9872434222055009
 22
0.1592181689128823
 32
0.0
 13
-0.9926121987088784
 23
0.1213302228396785
 33
0.0
 40
0.0
 40
0.0
 40
0.0
 40
0.0
 40
3.823810546662066
 40
6.890455932878184
 40
9.284914573838262
 40
11.09594559281272
 40
12.40225428488977
 40
13.61706773156025
 40
13.61706773156025
 40
13.61706773156025
 40
13.61706773156025
 10
5008.735023130202
 20
3269.621902140868
 30
0.0
 10
5007.476679193551
 20
3269.824842178703
 30
0.0
 10
5005.207565403978
 20
3270.181069686791
 30
0.0
 10
5002.144955120621
 20
3270.626988815207
 30
0.0
 10
4999.742962858475
 20
3270.955635719326
 30
0.0
 10
4997.917983652258
 20
3271.16447548866
 30
0.0
 10
4996.484333314704
 20
3271.346630780253
 30
0.0
 10
4995.641025379134
 20
3271.346863990391
 30
0.0
 10
4995.239079163694
 20
3271.395995185789
 30
0.0
 11
5008.735023130202
 21
3269.621902140868
 31
0.0
 11
5004.957085275748
 21
3270.212421119943
 31
0.0
 11
5001.92245583991
 21
3270.654391833846
 31
0.0
 11
4999.549161075154
 21
3270.9720459584
 31
0.0
 11
4997.751048567244
 21
3271.187973632835
 31
0.0
 11
4996.451641872996
 21
3271.322080463156
 31
0.0
 11
4995.239079163694
 21
3271.395995185789
 31
0.0
  0
SPLINE
  5
62B85
330
2
100
AcDbEntity
  8
0
  6
Continuous
 62
     7
100
AcDbSpline
210
0.0
220
0.0
230
1.0
 70
  1064
 71
     3
 72
     8
 73
     4
 74
     2
 42
0.000000001
 43
0.0000000001
 44
0.0000000001
 12
-0.9569864843396228
 22
-0.2901325021284057
 32
0.0
 13
-0.9997119039141219
 23
-0.0240022743172758
 33
0.0
 40
0.0
 40
0.0
 40
0.0
 40
0.0
 40
2.302844267739329
 40
2.302844267739329
 40
2.302844267739329
 40
2.302844267739329
 10
4997.744098731228
 20
3271.091236319844
 30
0.0
 10
4997.009501784639
 20
3270.86852633004
 30
0.0
 10
4996.2382210572
 20
3270.741789382005
 30
0.0
 10
4995.470827448094
 20
3270.723364882063
 30
0.0
 11
4997.744098731228
 21
3271.091236319844
 31
0.0
 11
4995.470827448094
 21
3270.723364882063
 31
0.0
  0
SPLINE
  5
62B86
330
2
100
AcDbEntity
  8
0
  6
Continuous
 62
     7
100
AcDbSpline
210
0.0
220
0.0
230
1.0
 70
  1064
 71
     3
 72
     8
 73
     4
 74
     2
 42
0.000000001
 43
0.0000000001
 44
0.0000000001
 12
-0.9997119039768158
 22
-0.0240022717060325
 32
0.0
 13
-0.9535080870251494
 23
0.3013674301872056
 33
0.0
 40
0.0
 40
0.0
 40
0.0
 40
0.0
 40
2.729943992241753
 40
2.729943992241753
 40
2.729943992241753
 40
2.729943992241753
 10
4995.470827448094
 20
3270.723364882063
 30
0.0
 10
4994.561108279349
 20
3270.701523262915
 30
0.0
 10
4993.635557393499
 20
3270.832120432124
 30
0.0
 10
4992.76788283559
 20
3271.106359167289
 30
0.0
 11
4995.470827448094
 21
3270.723364882063
 31
0.0
 11
4992.76788283559
 21
3271.106359167289
 31
0.0
  0
SPLINE
  5
62B87
330
2
100
AcDbEntity
  8
0
  6
Continuous
 62
     7
100
AcDbSpline
210
0.0
220
0.0
230
1.0
 70
  1064
 71
     3
 72
    10
 73
     6
 74
     4
 42
0.000000001
 43
0.0000000001
 44
0.0000000001
 12
-0.4794247749010046
 22
0.8775829791029
 32
0.0
 13
-0.9533497001144811
 23
0.3018680991619173
 33
0.0
 40
0.0
 40
0.0
 40
0.0
 40
0.0
 40
2.788441585189769
 40
5.5373038092213
 40
6.461345263234223
 40
6.461345263234223
 40
6.461345263234223
 40
6.461345263234223
 10
5923.922416012087
 20
3473.549191387542
 30
0.0
 10
5923.476800018985
 20
3474.36488767867
 30
0.0
 10
5922.329381058792
 20
3475.857059077517
 30
0.0
 10
5920.499466403927
 20
3477.0719584265
 30
0.0
 10
5919.352637546383
 20
3477.506437197354
 30
0.0
 10
5919.058992665359
 20
3477.599416743111
 30
0.0
 11
5923.922416012087
 21
3473.549191387542
 31
0.0
 11
5922.214470731938
 21
3475.753353222352
 31
0.0
 11
5919.922934765093
 21
3477.271610920955
 31
0.0
 11
5919.058992665359
 21
3477.599416743111
 31
0.0
  0
SPLINE
  5
62B88
330
2
100
AcDbEntity
  8
0
  6
Continuous
 62
     7
100
AcDbSpline
210
0.0
220
0.0
230
1.0
 70
  1064
 71
     3
 72
    10
 73
     6
 74
     4
 42
0.000000001
 43
0.0000000001
 44
0.0000000001
 12
-0.4794247739488249
 22
0.877582979623077
 32
0.0
 13
-0.9535521707932822
 23
0.3012279163281835
 33
0.0
 40
0.0
 40
0.0
 40
0.0
 40
0.0
 40
3.092273068517035
 40
6.139019576569944
 40
6.455888610992123
 40
6.455888610992123
 40
6.455888610992123
 40
6.455888610992123
 10
5917.208534376048
 20
3475.674820337523
 30
0.0
 10
5916.714363603761
 20
3476.579395741949
 30
0.0
 10
5915.40890696358
 20
3478.219376841114
 30
0.0
 10
5913.505068723884
 20
3479.336279125285
 30
0.0
 10
5912.442750977627
 20
3479.694482307256
 30
0.0
 10
5912.342033925749
 20
3479.726298906919
 30
0.0
 11
5917.208534376048
 21
3475.674820337523
 31
0.0
 11
5915.27111228081
 21
3478.08491335547
 31
0.0
 11
5912.642277358197
 21
3479.625007909056
 31
0.0
 11
5912.342033925749
 21
3479.726298906919
 31
0.0
  0
SPLINE
  5
62B89
330
2
100
AcDbEntity
  8
0
  6
Continuous
 62
     7
100
AcDbSpline
210
0.0
220
0.0
230
1.0
 70
  1064
 71
     3
 72
    15
 73
    11
 74
     9
 42
0.000000001
 43
0.0000000001
 44
0.0000000001
 12
0.9533496997627972
 22
-0.3018681002725936
 32
0.0
 13
-0.4794247734136181
 23
0.8775829799154614
 33
0.0
 40
0.0
 40
0.0
 40
0.0
 40
0.0
 40
1.82197732882737
 40
4.581194125294138
 40
7.386134227008961
 40
10.24277115691414
 40
13.13751422716629
 40
16.04293422948825
 40
18.92780919413192
 40
21.76824787016275
 40
21.76824787016275
 40
21.76824787016275
 40
21.76824787016275
 10
5913.446182198175
 20
3459.893082211524
 30
0.0
 10
5914.025176044646
 20
3459.709749933194
 30
0.0
 10
5915.535692529608
 20
3459.407596081712
 30
0.0
 10
5918.036194877679
 20
3459.610929848992
 30
0.0
 10
5920.658974896791
 20
3460.736329037988
 30
0.0
 10
5922.843463889732
 20
3462.639017081126
 30
0.0
 10
5924.383376138456
 20
3465.129664972141
 30
0.0
 10
5925.134792473425
 20
3467.969632027906
 30
0.0
 10
5925.027316461373
 20
3470.88574161127
 30
0.0
 10
5924.376341568303
 20
3472.718284508349
 30
0.0
 10
5923.922416012087
 20
3473.549191387542
 30
0.0
 11
5913.446182198175
 21
3459.893082211524
 31
0.0
 11
5915.233055210212
 21
3459.537152126231
 31
0.0
 11
5917.983669258379
 21
3459.754866820094
 31
0.0
 11
5920.564832928129
 21
3460.852720673833
 31
0.0
 11
5922.723884002217
 21
3462.723248141896
 31
0.0
 11
5924.249479449638
 21
3465.18334894747
 31
0.0
 11
5924.992283410304
 21
3467.992211291179
 31
0.0
 11
5924.879585018851
 21
3470.874884119336
 31
0.0
 11
5923.922416012087
 21
3473.549191387542
 31
0.0
  0
SPLINE
  5
62B8A
330
2
100
AcDbEntity
  8
0
  6
Continuous
 62
     7
100
AcDbSpline
210
0.0
220
0.0
230
1.0
 70
  1064
 71
     3
 72
    14
 73
    10
 74
     8
 42
0.000000001
 43
0.0000000001
 44
0.0000000001
 12
0.9792883859889842
 22
-0.2024703856545205
 32
0.0
 13
-0.479424773668569
 23
0.8775829797761812
 33
0.0
 40
0.0
 40
0.0
 40
0.0
 40
0.0
 40
1.894431894608176
 40
4.974791473085454
 40
8.117670390473445
 40
11.31748111049093
 40
14.54284222834537
 40
17.7511705015144
 40
20.90732504895018
 40
20.90732504895018
 40
20.90732504895018
 40
20.90732504895018
 10
5907.551558883958
 20
3461.804877336681
 30
0.0
 10
5908.169957268103
 20
3461.677021884582
 30
0.0
 10
5909.836622329212
 20
3461.525083890158
 30
0.0
 10
5912.544916124627
 20
3462.099792958039
 30
0.0
 10
5915.253195382666
 20
3463.81064509192
 30
0.0
 10
5917.268698154589
 20
3466.358713403987
 30
0.0
 10
5918.359862372491
 20
3469.440748063726
 30
0.0
 10
5918.403453074284
 20
3472.693178508068
 30
0.0
 10
5917.712913935904
 20
3474.751557833399
 30
0.0
 10
5917.208534376048
 20
3475.674820337523
 30
0.0
 11
5907.551558883958
 21
3461.804877336681
 31
0.0
 11
5909.438305671983
 21
3461.634411031552
 31
0.0
 11
5912.453586846687
 21
3462.264247970921
 31
0.0
 11
5915.117290359461
 21
3463.932292180587
 31
0.0
 11
5917.108134239637
 21
3466.437352916118
 31
0.0
 11
5918.185993319102
 21
3469.477282873433
 31
0.0
 11
5918.22086193534
 21
3472.685421662204
 31
0.0
 11
5917.208534376048
 21
3475.674820337523
 31
0.0
  0
SPLINE
  5
62B8B
330
2
100
AcDbEntity
  8
0
  6
Continuous
 62
     7
100
AcDbSpline
210
0.0
220
0.0
230
1.0
 70
  1064
 71
     3
 72
    17
 73
    13
 74
    11
 42
0.000000001
 43
0.0000000001
 44
0.0000000001
 12
0.9872434220073106
 22
-0.1592181701417747
 32
0.0
 13
-0.9526394025896628
 23
0.3041022338517266
 33
0.0
 40
0.0
 40
0.0
 40
0.0
 40
0.0
 40
2.751822219797217
 40
5.545367386741492
 40
8.39104914298748
 40
11.27934511058473
 40
14.18513391865182
 40
17.07706327580354
 40
19.92870951619323
 40
22.72833025058285
 40
25.48396581015079
 40
27.00400960085877
 40
27.00400960085877
 40
27.00400960085877
 40
27.00400960085877
 10
5391.80205248008
 20
3175.308247323413
 30
0.0
 10
5392.70762527509
 20
3175.162200623949
 30
0.0
 10
5394.596048074024
 20
3175.175799694802
 30
0.0
 10
5397.281413019294
 20
3176.109793004518
 30
0.0
 10
5399.583691963864
 20
3177.853806658633
 30
0.0
 10
5401.281368635545
 20
3180.233159286518
 30
0.0
 10
5402.217145570649
 20
3183.017686279465
 30
0.0
 10
5402.302075115302
 20
3185.942430682533
 30
0.0
 10
5401.523594554697
 20
3188.728615727994
 30
0.0
 10
5399.950407328293
 20
3191.104310610852
 30
0.0
 10
5398.05146293682
 20
3192.579485692629
 30
0.0
 10
5396.730934993972
 20
3193.136955140705
 30
0.0
 10
5396.248250457742
 20
3193.291038044807
 30
0.0
 11
5391.80205248008
 21
3175.308247323413
 31
0.0
 11
5394.553827605867
 21
3175.324346592728
 31
0.0
 11
5397.195472431281
 21
3176.232975898948
 31
0.0
 11
5399.468404390015
 21
3177.945192289711
 31
0.0
 11
5401.1501330399
 21
3180.293392099053
 31
0.0
 11
5402.076039068498
 21
3183.047717174873
 31
0.0
 11
5402.155488349968
 21
3185.938554980498
 31
0.0
 11
5401.380703845345
 21
3188.68293018293
 31
0.0
 11
5399.827526818686
 21
3191.012204185766
 31
0.0
 11
5397.647993092709
 21
3192.698371459343
 31
0.0
 11
5396.248250457742
 21
3193.291038044807
 31
0.0
  0
SPLINE
  5
62B8C
330
2
100
AcDbEntity
  8
0
  6
Continuous
 62
     7
100
AcDbSpline
210
0.0
220
0.0
230
1.0
 70
  1064
 71
     3
 72
     8
 73
     4
 74
     2
 42
0.000000001
 43
0.0000000001
 44
0.0000000001
 12
0.9526394017325577
 22
-0.3041022365367187
 32
0.0
 13
0.8810921578382307
 23
-0.4729446155692763
 33
0.0
 40
0.0
 40
0.0
 40
0.0
 40
0.0
 40
2.794919213658764
 40
2.794919213658764
 40
2.794919213658764
 40
2.794919213658764
 10
5007.469349176535
 20
3294.105440175985
 30
0.0
 10
5008.356865899066
 20
3293.822126448047
 30
0.0
 10
5009.222209010868
 20
3293.456312359531
 30
0.0
 10
5010.043069477849
 20
3293.015698361847
 30
0.0
 11
5007.469349176535
 21
3294.105440175985
 31
0.0
 11
5010.043069477849
 21
3293.015698361847
 31
0.0
  0
SPLINE
  5
62B8D
330
2
100
AcDbEntity
  8
0
  6
Continuous
 62
     7
100
AcDbSpline
210
0.0
220
0.0
230
1.0
 70
  1064
 71
     3
 72
     8
 73
     4
 74
     2
 42
0.000000001
 43
0.0000000001
 44
0.0000000001
 12
0.8810921587515371
 22
-0.472944613867793
 32
0.0
 13
0.7112273745966111
 23
-0.7029620342695699
 33
0.0
 40
0.0
 40
0.0
 40
0.0
 40
0.0
 40
4.410431419617073
 40
4.410431419617073
 40
4.410431419617073
 40
4.410431419617073
 10
5010.043069477849
 20
3293.015698361847
 30
0.0
 10
5011.338401658028
 20
3292.320401766934
 30
0.0
 10
5012.542669965647
 20
3291.425527796647
 30
0.0
 10
5013.588276485451
 20
3290.392072515734
 30
0.0
 11
5010.043069477849
 21
3293.015698361847
 31
0.0
 11
5013.588276485451
 21
3290.392072515734
 31
0.0
  0
SPLINE
  5
62B8E
330
2
100
AcDbEntity
  8
0
  6
Continuous
 62
     7
100
AcDbSpline
210
0.0
220
0.0
230
1.0
 70
  1064
 71
     3
 72
     9
 73
     5
 74
     3
 42
0.000000001
 43
0.0000000001
 44
0.0000000001
 12
0.7112273822193873
 22
-0.7029620265571659
 32
0.0
 13
0.6659519507691556
 23
-0.7459946375589817
 33
0.0
 40
0.0
 40
0.0
 40
0.0
 40
0.0
 40
0.6641003383029686
 40
0.979252727382204
 40
0.979252727382204
 40
0.979252727382204
 40
0.979252727382204
 10
5013.588276485451
 20
3290.392072515734
 30
0.0
 10
5013.745718600499
 20
3290.23646007585
 30
0.0
 10
5013.97304923011
 20
3290.002037985267
 30
0.0
 10
5014.192862752353
 20
3289.76070712018
 30
0.0
 10
5014.262821535119
 20
3289.682339789424
 30
0.0
 11
5013.588276485451
 21
3290.392072515734
 31
0.0
 11
5014.050599233904
 21
3289.915326319527
 31
0.0
 11
5014.262821535119
 21
3289.682339789424
 31
0.0
  0
SPLINE
  5
62B8F
330
2
100
AcDbEntity
  8
0
  6
Continuous
 62
     7
100
AcDbSpline
210
0.0
220
0.0
230
1.0
 70
  1064
 71
     3
 72
     8
 73
     4
 74
     2
 42
0.000000001
 43
0.0000000001
 44
0.0000000001
 12
0.6659519624486171
 22
-0.7459946271326866
 32
0.0
 13
0.5243815712987436
 23
-0.8514833924876402
 33
0.0
 40
0.0
 40
0.0
 40
0.0
 40
0.0
 40
2.844166584721068
 40
2.844166584721068
 40
2.844166584721068
 40
2.844166584721068
 10
5014.262821535119
 20
3289.682339789424
 30
0.0
 10
5014.89418097466
 20
3288.975095459134
 30
0.0
 10
5015.463703672363
 20
3288.207928427606
 30
0.0
 10
5015.960846519941
 20
3287.400674890154
 30
0.0
 11
5014.262821535119
 21
3289.682339789424
 31
0.0
 11
5015.960846519941
 21
3287.400674890154
 31
0.0
  0
SPLINE
  5
62B90
330
2
100
AcDbEntity
  8
0
  6
Continuous
 62
     7
100
AcDbSpline
210
0.0
220
0.0
230
1.0
 70
  1064
 71
     3
 72
    10
 73
     6
 74
     4
 42
0.000000001
 43
0.0000000001
 44
0.0000000001
 12
-0.5524099075482777
 22
-0.8335726087405364
 32
0.0
 13
-0.9857029018270718
 23
-0.1684926981494754
 33
0.0
 40
0.0
 40
0.0
 40
0.0
 40
0.0
 40
3.300470090157645
 40
8.532852686073452
 40
13.66937123421897
 40
13.66937123421897
 40
13.66937123421897
 40
13.66937123421897
 10
5015.461207422339
 20
3268.458778360658
 30
0.0
 10
5014.853469963217
 20
3267.54171787295
 30
0.0
 10
5013.060453471608
 20
3265.31154056766
 30
0.0
 10
5009.372919871373
 20
3262.514230254473
 30
0.0
 10
5006.041491205766
 20
3261.358399318852
 30
0.0
 10
5004.3537974597
 20
3261.069910695761
 30
0.0
 11
5015.461207422339
 21
3268.458778360658
 31
0.0
 11
5013.390277368301
 21
3265.888885069624
 31
0.0
 11
5009.211015376546
 21
3262.740616206531
 31
0.0
 11
5004.3537974597
 21
3261.069910695761
 31
0.0
  0
SPLINE
  5
62B91
330
2
100
AcDbEntity
  8
0
  6
Continuous
 62
     7
100
AcDbSpline
210
0.0
220
0.0
230
1.0
 70
  1064
 71
     3
 72
     8
 73
     4
 74
     2
 42
0.000000001
 43
0.0000000001
 44
0.0000000001
 12
-0.9857029021609589
 22
-0.1684926961961948
 32
0.0
 13
-0.9904727566591351
 23
0.1377088171325772
 33
0.0
 40
0.0
 40
0.0
 40
0.0
 40
0.0
 40
4.738792548385249
 40
4.738792548385249
 40
4.738792548385249
 40
4.738792548385249
 10
5004.3537974597
 20
3261.069910695761
 30
0.0
 10
5002.796783603805
 20
3260.803760051364
 30
0.0
 10
5001.18019314497
 20
3260.774510922742
 30
0.0
 10
4999.615644838758
 20
3260.992035428234
 30
0.0
 11
5004.3537974597
 21
3261.069910695761
 31
0.0
 11
4999.615644838758
 21
3260.992035428234
 31
0.0
  0
SPLINE
  5
62B92
330
2
100
AcDbEntity
  8
0
  6
Continuous
 62
     7
100
AcDbSpline
210
0.0
220
0.0
230
1.0
 70
  1064
 71
     3
 72
     8
 73
     4
 74
     2
 42
0.000000001
 43
0.0000000001
 44
0.0000000001
 12
-0.9904727602512499
 22
0.1377087912962346
 32
0.0
 13
-0.9872434267790865
 23
0.159218140554042
 33
0.0
 40
0.0
 40
0.0
 40
0.0
 40
0.0
 40
0.3251661790612331
 40
0.3251661790612331
 40
0.3251661790612331
 40
0.3251661790612331
 10
4999.615644838758
 20
3260.992035428234
 30
0.0
 10
4999.508288757787
 20
3261.00696150873
 30
0.0
 10
4999.401087962467
 20
3261.023051401477
 30
0.0
 10
4999.294081904837
 20
3261.040308852944
 30
0.0
 11
4999.615644838758
 21
3260.992035428234
 31
0.0
 11
4999.294081904837
 21
3261.040308852944
 31
0.0
  0
SPLINE
  5
62B93
330
2
100
AcDbEntity
  8
0
  6
Continuous
 62
     7
100
AcDbSpline
210
0.0
220
0.0
230
1.0
 70
  1064
 71
     3
 72
    11
 73
     7
 74
     5
 42
0.000000001
 43
0.0000000001
 44
0.0000000001
 12
-0.479424773937899
 22
0.8775829796290459
 32
0.0
 13
0.9419833753572556
 23
0.3356595307012032
 33
0.0
 40
0.0
 40
0.0
 40
0.0
 40
0.0
 40
2.943434080439354
 40
5.287883396315464
 40
6.809288100385814
 40
7.290363908960146
 40
7.290363908960146
 40
7.290363908960146
 40
7.290363908960146
 10
5879.099301805445
 20
3461.847829898804
 30
0.0
 10
5878.628916732573
 20
3462.708865782356
 30
0.0
 10
5877.76484308734
 20
3464.330839222108
 30
0.0
 10
5877.220590655876
 20
3466.32072106971
 30
0.0
 10
5876.47035851387
 20
3468.019724958088
 30
0.0
 10
5877.095974441914
 20
3468.433072048937
 30
0.0
 10
5877.247029579901
 20
3468.486897942316
 30
0.0
 11
5879.099301805445
 21
3461.847829898804
 31
0.0
 11
5877.803738317364
 21
3464.490805387575
 31
0.0
 11
5877.02306163507
 21
3466.701458348226
 31
0.0
 11
5876.851432870426
 21
3468.213151386086
 31
0.0
 11
5877.247029579901
 21
3468.486897942316
 31
0.0
  0
SPLINE
  5
62B94
330
2
100
AcDbEntity
  8
0
  6
Continuous
 62
     7
100
AcDbSpline
210
0.0
220
0.0
230
1.0
 70
  1064
 71
     3
 72
    12
 73
     8
 74
     6
 42
0.000000001
 43
0.0000000001
 44
0.0000000001
 12
-0.9419833753501606
 22
-0.3356595307211136
 32
0.0
 13
-0.4794247739895496
 23
0.8775829796008292
 33
0.0
 40
0.0
 40
0.0
 40
0.0
 40
0.0
 40
1.095539693421081
 40
3.03140157618533
 40
5.70083292521708
 40
8.819700239553176
 40
12.03446515477648
 40
12.03446515477648
 40
12.03446515477648
 40
12.03446515477648
 10
5886.898154881322
 20
3453.326061914102
 30
0.0
 10
5886.554161488575
 20
3453.203485800975
 30
0.0
 10
5885.435967059425
 20
3453.170482678974
 30
0.0
 10
5884.155001907596
 20
3454.788810809397
 30
0.0
 10
5882.425357875015
 20
3456.607433052038
 30
0.0
 10
5880.707556836546
 20
3459.108315086578
 30
0.0
 10
5879.613047786415
 20
3460.907422241132
 30
0.0
 10
5879.099301805445
 20
3461.847829898804
 30
0.0
 11
5886.898154881322
 21
3453.326061914102
 31
0.0
 11
5885.803018567436
 21
3453.29633526158
 31
0.0
 11
5884.32046116563
 21
3454.54115845364
 31
0.0
 11
5882.566777596347
 21
3456.553733338215
 31
0.0
 11
5880.753487972268
 21
3459.091313694309
 31
0.0
 11
5879.099301805445
 21
3461.847829898804
 31
0.0
  0
SPLINE
  5
62B95
330
2
100
AcDbEntity
  8
0
  6
Continuous
 62
     7
100
AcDbSpline
210
0.0
220
0.0
230
1.0
 70
  1064
 71
     3
 72
     8
 73
     4
 74
     2
 42
0.000000001
 43
0.0000000001
 44
0.0000000001
 12
0.9526394017325577
 22
-0.3041022365367187
 32
0.0
 13
0.8810921578382307
 23
-0.4729446155692763
 33
0.0
 40
0.0
 40
0.0
 40
0.0
 40
0.0
 40
2.794919213622416
 40
2.794919213622416
 40
2.794919213622416
 40
2.794919213622416
 10
5921.436827400424
 20
3485.016486325473
 30
0.0
 10
5922.324344122944
 20
3484.733172597539
 30
0.0
 10
5923.189687234768
 20
3484.367358509107
 30
0.0
 10
5924.010547701739
 20
3483.92674451143
 30
0.0
 11
5921.436827400424
 21
3485.016486325473
 31
0.0
 11
5924.010547701739
 21
3483.92674451143
 31
0.0
  0
SPLINE
  5
62B96
330
2
100
AcDbEntity
  8
0
  6
Continuous
 62
     7
100
AcDbSpline
210
0.0
220
0.0
230
1.0
 70
  1064
 71
     3
 72
    15
 73
    11
 74
     9
 42
0.000000001
 43
0.0000000001
 44
0.0000000001
 12
0.8810921583413456
 22
-0.4729446146319769
 32
0.0
 13
-0.9857029018425439
 23
-0.1684926980589608
 33
0.0
 40
0.0
 40
0.0
 40
0.0
 40
0.0
 40
5.066813747024953
 40
10.21450349159371
 40
15.45785302140735
 40
20.77527149848989
 40
26.11817351271344
 40
31.42891128456839
 40
36.66129386025136
 40
41.7978124244033
 40
41.7978124244033
 40
41.7978124244033
 40
41.7978124244033
 10
5924.010547701739
 20
3483.92674451143
 30
0.0
 10
5925.498657655166
 20
3483.127970419764
 30
0.0
 10
5928.245851988123
 20
3480.994526029414
 30
0.0
 10
5931.13614363855
 20
3476.627846476973
 30
0.0
 10
5932.568214442235
 20
3471.504443937133
 30
0.0
 10
5932.411768340174
 20
3466.126784818499
 30
0.0
 10
5930.691605105663
 20
3461.006887218332
 30
0.0
 10
5927.568537602947
 20
3456.631696945758
 30
0.0
 10
5923.340870189046
 20
3453.425908851095
 30
0.0
 10
5920.008969409237
 20
3452.269445494604
 30
0.0
 10
5918.321275657886
 20
3451.980956870769
 30
0.0
 11
5924.010547701739
 21
3483.92674451143
 31
0.0
 11
5928.018077457794
 21
3480.826372469016
 31
0.0
 11
5930.873919074335
 21
3476.543513801307
 31
0.0
 11
5932.298522857301
 21
3471.497404572073
 31
0.0
 11
5932.152438700296
 21
3466.181993141197
 31
0.0
 11
5930.449966316023
 21
3461.11758895962
 31
0.0
 11
5927.357755566859
 21
3456.799931219113
 31
0.0
 11
5923.178493600436
 21
3453.65166235602
 31
0.0
 11
5918.321275657886
 21
3451.980956870769
 31
0.0
  0
SPLINE
  5
62B97
330
2
100
AcDbEntity
  8
0
  6
Continuous
 62
     7
100
AcDbSpline
210
0.0
220
0.0
230
1.0
 70
  1064
 71
     3
 72
     8
 73
     4
 74
     2
 42
0.000000001
 43
0.0000000001
 44
0.0000000001
 12
-0.9857029021609589
 22
-0.1684926961961948
 32
0.0
 13
-0.9904727566591351
 23
0.1377088171325772
 33
0.0
 40
0.0
 40
0.0
 40
0.0
 40
0.0
 40
4.7387925231015
 40
4.7387925231015
 40
4.7387925231015
 40
4.7387925231015
 10
5918.321275657886
 20
3451.980956870769
 30
0.0
 10
5916.7642618103
 20
3451.714806227791
 30
0.0
 10
5915.147671360514
 20
3451.685557073484
 30
0.0
 10
5913.583123062649
 20
3451.903081577815
 30
0.0
 11
5918.321275657886
 21
3451.980956870769
 31
0.0
 11
5913.583123062649
 21
3451.903081577815
 31
0.0
  0
SPLINE
  5
62B98
330
2
100
AcDbEntity
  8
0
  6
Continuous
 62
     7
100
AcDbSpline
210
0.0
220
0.0
230
1.0
 70
  1064
 71
     3
 72
     8
 73
     4
 74
     2
 42
0.000000001
 43
0.0000000001
 44
0.0000000001
 12
-0.9904727602512499
 22
0.1377087912962346
 32
0.0
 13
-0.9872434267790865
 23
0.159218140554042
 33
0.0
 40
0.0
 40
0.0
 40
0.0
 40
0.0
 40
0.3251661790344531
 40
0.3251661790344531
 40
0.3251661790344531
 40
0.3251661790344531
 10
5913.583123062649
 20
3451.903081577815
 30
0.0
 10
5913.475766981687
 20
3451.91800765831
 30
0.0
 10
5913.368566186348
 20
3451.934097550874
 30
0.0
 10
5913.261560128727
 20
3451.95135500234
 30
0.0
 11
5913.583123062649
 21
3451.903081577815
 31
0.0
 11
5913.261560128727
 21
3451.95135500234
 31
0.0
  0
SPLINE
  5
62B99
330
2
100
AcDbEntity
  8
0
  6
Continuous
 62
     7
100
AcDbSpline
210
0.0
220
0.0
230
1.0
 70
  1064
 71
     3
 72
    11
 73
     7
 74
     5
 42
0.000000001
 43
0.0000000001
 44
0.0000000001
 12
-0.479424773937899
 22
0.8775829796290459
 32
0.0
 13
0.9419833753572556
 23
0.3356595307012032
 33
0.0
 40
0.0
 40
0.0
 40
0.0
 40
0.0
 40
2.943434092038899
 40
5.287883383852435
 40
6.809288090915082
 40
7.290363920319722
 40
7.290363920319722
 40
7.290363920319722
 40
7.290363920319722
 10
5478.288905761488
 20
3210.855382447489
 30
0.0
 10
5477.818520686764
 20
3211.716418334434
 30
0.0
 10
5476.954447080063
 20
3213.338391795963
 30
0.0
 10
5476.410194651958
 20
3215.328273618708
 30
0.0
 10
5475.659962454187
 20
3217.02727753073
 30
0.0
 10
5476.285578416749
 20
3217.440624595383
 30
0.0
 10
5476.436633561277
 20
3217.494450491094
 30
0.0
 11
5478.288905761488
 21
3210.855382447489
 31
0.0
 11
5476.993342299111
 21
3213.498357961778
 31
0.0
 11
5476.212665616818
 21
3215.70901089691
 31
0.0
 11
5476.04103682647
 21
3217.220703934863
 31
0.0
 11
5476.436633561277
 21
3217.494450491094
 31
0.0
  0
SPLINE
  5
62B9A
330
2
100
AcDbEntity
  8
0
  6
Continuous
 62
     7
100
AcDbSpline
210
0.0
220
0.0
230
1.0
 70
  1064
 71
     3
 72
     8
 73
     4
 74
     2
 42
0.000000001
 43
0.0000000001
 44
0.0000000001
 12
0.9526394017325577
 22
-0.3041022365367187
 32
0.0
 13
0.8810921578382307
 23
-0.4729446155692763
 33
0.0
 40
0.0
 40
0.0
 40
0.0
 40
0.0
 40
2.794919214038315
 40
2.794919214038315
 40
2.794919214038315
 40
2.794919214038315
 10
5398.612991513036
 20
3200.712549602691
 30
0.0
 10
5399.500508235687
 20
3200.429235874715
 30
0.0
 10
5400.365851347631
 20
3200.063421786205
 30
0.0
 10
5401.186711814725
 20
3199.622807788462
 30
0.0
 11
5398.612991513036
 21
3200.712549602691
 31
0.0
 11
5401.186711814725
 21
3199.622807788462
 31
0.0
  0
SPLINE
  5
62B9B
330
2
100
AcDbEntity
  8
0
  6
Continuous
 62
     7
100
AcDbSpline
210
0.0
220
0.0
230
1.0
 70
  1064
 71
     3
 72
    15
 73
    11
 74
     9
 42
0.000000001
 43
0.0000000001
 44
0.0000000001
 12
0.8810921583413456
 22
-0.4729446146319769
 32
0.0
 13
-0.9857029018425439
 23
-0.1684926980589608
 33
0.0
 40
0.0
 40
0.0
 40
0.0
 40
0.0
 40
5.066813762696495
 40
10.21450349264346
 40
15.45785300497215
 40
20.77527150747046
 40
26.11817352175179
 40
31.42891127292625
 40
36.66129384831138
 40
41.79781242079369
 40
41.79781242079369
 40
41.79781242079369
 40
41.79781242079369
 10
5401.186711814725
 20
3199.622807788462
 30
0.0
 10
5402.674821772754
 20
3198.824033694325
 30
0.0
 10
5405.422016098293
 20
3196.690589286222
 30
0.0
 10
5408.312307708533
 20
3192.323909723739
 30
0.0
 10
5409.744378569538
 20
3187.200507203623
 30
0.0
 10
5409.587932449952
 20
3181.822848078061
 30
0.0
 10
5407.867769227011
 20
3176.702950473797
 30
0.0
 10
5404.744701706722
 20
3172.32776021851
 30
0.0
 10
5400.517034297125
 20
3169.121972136654
 30
0.0
 10
5397.18513352496
 20
3167.965508746585
 30
0.0
 10
5395.497439770871
 20
3167.677020122282
 30
0.0
 11
5401.186711814725
 21
3199.622807788462
 31
0.0
 11
5405.194241570779
 21
3196.522435720437
 31
0.0
 11
5408.050083161243
 21
3192.239577052914
 31
0.0
 11
5409.474686969915
 21
3187.193467849106
 31
0.0
 11
5409.32860281291
 21
3181.878056392804
 31
0.0
 11
5407.626130429008
 21
3176.81365221104
 31
0.0
 11
5404.533919679471
 21
3172.495994496238
 31
0.0
 11
5400.354657713421
 21
3169.347725633145
 31
0.0
 11
5395.497439770871
 21
3167.677020122282
 31
0.0
  0
SPLINE
  5
62B9C
330
2
100
AcDbEntity
  8
0
  6
Continuous
 62
     7
100
AcDbSpline
210
0.0
220
0.0
230
1.0
 70
  1064
 71
     3
 72
     8
 73
     4
 74
     2
 42
0.000000001
 43
0.0000000001
 44
0.0000000001
 12
-0.9857029021609589
 22
-0.1684926961961948
 32
0.0
 13
-0.9904727566591351
 23
0.1377088171325772
 33
0.0
 40
0.0
 40
0.0
 40
0.0
 40
0.0
 40
4.738792548754117
 40
4.738792548754117
 40
4.738792548754117
 40
4.738792548754117
 10
5395.497439770871
 20
3167.677020122282
 30
0.0
 10
5393.940425914856
 20
3167.410869477864
 30
0.0
 10
5392.323835455891
 20
3167.381620349432
 30
0.0
 10
5390.759287149557
 20
3167.599144854941
 30
0.0
 11
5395.497439770871
 21
3167.677020122282
 31
0.0
 11
5390.759287149557
 21
3167.599144854941
 31
0.0
  0
SPLINE
  5
62B9D
330
2
100
AcDbEntity
  8
0
  6
Continuous
 62
     7
100
AcDbSpline
210
0.0
220
0.0
230
1.0
 70
  1064
 71
     3
 72
     8
 73
     4
 74
     2
 42
0.000000001
 43
0.0000000001
 44
0.0000000001
 12
-0.9904727602512499
 22
0.1377087912962346
 32
0.0
 13
-0.9872434267790865
 23
0.159218140554042
 33
0.0
 40
0.0
 40
0.0
 40
0.0
 40
0.0
 40
0.3251661536151476
 40
0.3251661536151476
 40
0.3251661536151476
 40
0.3251661536151476
 10
5390.759287149557
 20
3167.599144854941
 30
0.0
 10
5390.651931076987
 20
3167.614070934269
 30
0.0
 10
5390.544730290595
 20
3167.630160829349
 30
0.0
 10
5390.43772424134
 20
3167.647418279466
 30
0.0
 11
5390.759287149557
 21
3167.599144854941
 31
0.0
 11
5390.43772424134
 21
3167.647418279466
 31
0.0
  0
SPLINE
  5
62B9E
330
2
100
AcDbEntity
  8
0
  6
Continuous
 62
     7
100
AcDbSpline
210
0.0
220
0.0
230
1.0
 70
  1064
 71
     3
 72
    12
 73
     8
 74
     6
 42
0.000000001
 43
0.0000000001
 44
0.0000000001
 12
-0.9419833753501606
 22
-0.3356595307211136
 32
0.0
 13
-0.4794247739895496
 23
0.8775829796008292
 33
0.0
 40
0.0
 40
0.0
 40
0.0
 40
0.0
 40
1.095539692726136
 40
3.031401559081372
 40
5.700832908042241
 40
8.819700222378866
 40
12.03446515063745
 40
12.03446515063745
 40
12.03446515063745
 40
12.03446515063745
 10
5486.087758862698
 20
3202.333614462786
 30
0.0
 10
5485.743765470169
 20
3202.211038349736
 30
0.0
 10
5484.625571048194
 20
3202.178035277039
 30
0.0
 10
5483.344605878722
 20
3203.796363343859
 30
0.0
 10
5481.614961856949
 20
3205.61498560621
 30
0.0
 10
5479.897160823143
 20
3208.115867641885
 30
0.0
 10
5478.802651744541
 20
3209.914974786003
 30
0.0
 10
5478.288905761488
 20
3210.855382447489
 30
0.0
 11
5486.087758862698
 21
3202.333614462786
 31
0.0
 11
5484.992622548812
 21
3202.303887835876
 31
0.0
 11
5483.510065147005
 21
3203.548711002417
 31
0.0
 11
5481.756381577724
 21
3205.561285886898
 31
0.0
 11
5479.943091953643
 21
3208.098866242994
 31
0.0
 11
5478.288905761488
 21
3210.855382447489
 31
0.0
  0
SPLINE
  5
62B9F
330
2
100
AcDbEntity
  8
0
  6
Continuous
 62
     7
100
AcDbSpline
210
0.0
220
0.0
230
1.0
 70
  1064
 71
     3
 72
    12
 73
     8
 74
     6
 42
0.000000001
 43
0.0000000001
 44
0.0000000001
 12
0.1753326890151996
 22
0.9845092422941997
 32
0.0
 13
0.9475795646803019
 23
-0.319519903292877
 33
0.0
 40
0.0
 40
0.0
 40
0.0
 40
0.0
 40
3.154255306493817
 40
5.92680053149875
 40
8.055483937867837
 40
9.455047536902215
 40
9.832071905960807
 40
9.832071905960807
 40
9.832071905960807
 40
9.832071905960807
 10
5459.131020073691
 20
3206.853651428115
 30
0.0
 10
5459.315368095267
 20
3207.888782595381
 30
0.0
 10
5459.766816776559
 20
3209.808906575062
 30
0.0
 10
5460.720168740583
 20
3212.362738892498
 30
0.0
 10
5461.770740077843
 20
3214.110475659705
 30
0.0
 10
5462.829714409846
 20
3215.134704783574
 30
0.0
 10
5463.445202233593
 20
3215.06597017429
 30
0.0
 10
5463.564289096095
 20
3215.025814577643
 30
0.0
 11
5459.131020073691
 21
3206.853651428115
 31
0.0
 11
5459.866695273765
 21
3209.920915443249
 31
0.0
 11
5460.872259879209
 21
3212.504681463804
 31
0.0
 11
5462.026427990668
 21
3214.293309154254
 31
0.0
 11
5463.189989883923
 21
3215.071063606706
 31
0.0
 11
5463.564289096095
 21
3215.025814577643
 31
0.0
  0
SPLINE
  5
62BA0
330
2
100
AcDbEntity
  8
0
  6
Continuous
 62
     7
100
AcDbSpline
210
0.0
220
0.0
230
1.0
 70
  1064
 71
     3
 72
    12
 73
     8
 74
     6
 42
0.000000001
 43
0.0000000001
 44
0.0000000001
 12
-0.806938999529115
 22
-0.5906347865127409
 32
0.0
 13
0.3101622697613116
 23
-0.9506836310868676
 33
0.0
 40
0.0
 40
0.0
 40
0.0
 40
0.0
 40
3.997557067971346
 40
7.272742338545215
 40
9.664059557982842
 40
11.10845948167771
 40
11.15909566053876
 40
11.15909566053876
 40
11.15909566053876
 40
11.15909566053876
 10
5381.315988229313
 20
3219.403309058383
 30
0.0
 10
5380.240726662317
 20
3218.616276969912
 30
0.0
 10
5378.394435365851
 20
3217.080633990555
 30
0.0
 10
5375.910358682566
 20
3214.890260073798
 30
0.0
 10
5374.59639315382
 20
3213.122605361578
 30
0.0
 10
5373.500991707853
 20
3211.985827818448
 30
0.0
 10
5373.630938644499
 20
3211.501060949017
 30
0.0
 10
5373.636173788555
 20
3211.485014620222
 30
0.0
 11
5381.315988229313
 21
3219.403309058383
 31
0.0
 11
5378.204067199402
 21
3216.894044222761
 31
0.0
 11
5375.819958667555
 21
3214.648411780674
 31
0.0
 11
5374.276695437827
 21
3212.821738124065
 31
0.0
 11
5373.622768621618
 21
3211.533844161578
 31
0.0
 11
5373.636173788555
 21
3211.485014620222
 31
0.0
  0
SPLINE
  5
62BA2
330
2
100
AcDbEntity
  8
0
  6
Continuous
 62
     7
100
AcDbSpline
210
0.0
220
0.0
230
1.0
 70
  1064
 71
     3
 72
    15
 73
    11
 74
     9
 42
0.000000001
 43
0.0000000001
 44
0.0000000001
 12
0.987243421991266
 22
-0.1592181702412606
 32
0.0
 13
-0.6588336342506452
 23
0.7522886695810906
 33
0.0
 40
0.0
 40
0.0
 40
0.0
 40
0.0
 40
3.056541289921523
 40
6.166927624335794
 40
9.340830918318467
 40
12.55846215950101
 40
15.78060317335
 40
18.96607012271594
 40
22.08987021672692
 40
22.4533105488404
 40
22.4533105488404
 40
22.4533105488404
 40
22.4533105488404
 10
5383.169918954843
 20
3178.041198859815
 30
0.0
 10
5384.175769049016
 20
3177.878979889332
 30
0.0
 10
5386.285572353665
 20
3177.933653029324
 30
0.0
 10
5389.224818828678
 20
3179.138003824069
 30
0.0
 10
5391.622418630298
 20
3181.300809929926
 30
0.0
 10
5393.198252778544
 20
3184.157698707534
 30
0.0
 10
5393.773440391968
 20
3187.373552496423
 30
0.0
 10
5393.280490400217
 20
3190.57078662175
 30
0.0
 10
5392.194545564915
 20
3192.572892777085
 30
0.0
 10
5391.447308979511
 20
3193.463207403326
 30
0.0
 10
5391.367493407898
 20
3193.554344751299
 30
0.0
 11
5383.169918954843
 21
3178.041198859815
 31
0.0
 11
5386.225567432591
 21
3178.115070623238
 31
0.0
 11
5389.108863515876
 21
3179.281735461749
 31
0.0
 11
5391.472039154269
 21
3181.400476366546
 31
0.0
 11
5393.030060499632
 21
3184.215741947558
 31
0.0
 11
5393.595007135816
 21
3187.387969557833
 31
0.0
 11
5393.098738231608
 21
3190.534541797623
 31
0.0
 11
5391.601111073517
 21
3193.275935589601
 31
0.0
 11
5391.367493407898
 21
3193.554344751299
 31
0.0
  0
SPLINE
  5
62BA3
330
2
100
AcDbEntity
  8
0
  6
Continuous
 62
     7
100
AcDbSpline
210
0.0
220
0.0
230
1.0
 70
  1064
 71
     3
 72
     8
 73
     4
 74
     2
 42
0.000000001
 43
0.0000000001
 44
0.0000000001
 12
-0.6588336285475305
 22
0.7522886745757207
 32
0.0
 13
-0.6880569822990896
 23
0.7256566606250305
 33
0.0
 40
0.0
 40
0.0
 40
0.0
 40
0.0
 40
0.339894402875796
 40
0.339894402875796
 40
0.339894402875796
 40
0.339894402875796
 10
5391.367493407898
 20
3193.554344751299
 30
0.0
 10
5391.292848786974
 20
3193.639577654577
 30
0.0
 10
5391.216505177863
 20
3193.723352095477
 30
0.0
 10
5391.138549605482
 20
3193.805567641262
 30
0.0
 11
5391.367493407898
 21
3193.554344751299
 31
0.0
 11
5391.138549605482
 21
3193.805567641262
 31
0.0
  0
SPLINE
  5
62BA4
330
2
100
AcDbEntity
  8
0
  6
Continuous
 62
     7
100
AcDbSpline
210
0.0
220
0.0
230
1.0
 70
  1064
 71
     3
 72
    11
 73
     7
 74
     5
 42
0.000000001
 43
0.0000000001
 44
0.0000000001
 12
-0.9475795648143527
 22
0.3195199028953311
 32
0.0
 13
0.1753326901520471
 23
0.9845092420917371
 33
0.0
 40
0.0
 40
0.0
 40
0.0
 40
0.0
 40
2.205050867335278
 40
4.534201129310109
 40
7.445020219025446
 40
10.64809486036202
 40
10.64809486036202
 40
10.64809486036202
 40
10.64809486036202
 10
5460.644331927323
 20
3196.798788362913
 30
0.0
 10
5459.947844880236
 20
3197.03364090925
 30
0.0
 10
5458.996751717942
 20
3198.513250397926
 30
0.0
 10
5458.727262716544
 20
3200.941958574287
 30
0.0
 10
5458.688308739193
 20
3203.777354483857
 30
0.0
 10
5458.943818842483
 20
3205.802499232279
 30
0.0
 10
5459.131020073691
 20
3206.853651428115
 30
0.0
 11
5460.644331927323
 21
3196.798788362913
 31
0.0
 11
5459.208902582251
 21
3198.472643769704
 31
0.0
 11
5458.7810158887
 21
3200.762153306775
 31
0.0
 11
5458.753967578061
 21
3203.672846722775
 31
0.0
 11
5459.131020073691
 21
3206.853651428115
 31
0.0
  0
SPLINE
  5
62BA6
330
2
100
AcDbEntity
  8
0
  6
Continuous
 62
     7
100
AcDbSpline
210
0.0
220
0.0
230
1.0
 70
  1064
 71
     3
 72
    12
 73
     8
 74
     6
 42
0.000000001
 43
0.0000000001
 44
0.0000000001
 12
-0.9265763231941853
 22
0.3761067897498589
 32
0.0
 13
-0.5659894848647152
 23
0.8244124592839281
 33
0.0
 40
0.0
 40
0.0
 40
0.0
 40
0.0
 40
2.988801182110078
 40
5.71421210926112
 40
8.980659471566703
 40
12.3450466413078
 40
15.39167427040558
 40
15.39167427040558
 40
15.39167427040558
 40
15.39167427040558
 10
5391.401926392787
 20
3207.907108632554
 30
0.0
 10
5390.478808922761
 20
3208.281811438489
 30
0.0
 10
5389.025623828597
 20
3209.616836812482
 30
0.0
 10
5387.009597223362
 20
3211.798304649805
 30
0.0
 10
5385.032999679054
 20
3214.222513862237
 30
0.0
 10
5383.091907550919
 20
3216.797519690581
 30
0.0
 10
5381.890774630102
 20
3218.566083132974
 30
0.0
 10
5381.315988229313
 20
3219.403309058383
 30
0.0
 11
5391.401926392787
 21
3207.907108632554
 31
0.0
 11
5389.005266277217
 21
3209.692872557774
 31
0.0
 11
5387.147447313466
 21
3211.686957164746
 31
0.0
 11
5385.070877311104
 21
3214.208372520455
 31
0.0
 11
5383.051519796723
 21
3216.899338194154
 31
0.0
 11
5381.315988229313
 21
3219.403309058383
 31
0.0
  0
SPLINE
  5
62BA7
330
2
100
AcDbEntity
  8
0
  6
Continuous
 62
     7
100
AcDbSpline
210
0.0
220
0.0
230
1.0
 70
  1064
 71
     3
 72
    12
 73
     8
 74
     6
 42
0.000000001
 43
0.0000000001
 44
0.0000000001
 12
0.1753326890151996
 22
0.9845092422941997
 32
0.0
 13
0.9475795655458851
 23
-0.3195199007258728
 33
0.0
 40
0.0
 40
0.0
 40
0.0
 40
0.0
 40
3.154255312402315
 40
5.926800537493794
 40
8.055483922342908
 40
9.455047535661641
 40
9.832071904720233
 40
9.832071904720233
 40
9.832071904720233
 40
9.832071904720233
 10
5007.24051027792
 20
3279.732516208183
 30
0.0
 10
5007.424858299842
 20
3280.767647377388
 30
0.0
 10
5007.876307018961
 20
3282.687771347506
 30
0.0
 10
5008.829658955717
 20
3285.241603675626
 30
0.0
 10
5009.880230326391
 20
3286.989340409721
 30
0.0
 10
5010.939204633531
 20
3288.013569566267
 30
0.0
 10
5011.554692463047
 20
3287.944834954223
 30
0.0
 10
5011.673779325657
 20
3287.904679357898
 30
0.0
 11
5007.24051027792
 21
3279.732516208183
 31
0.0
 11
5007.976185503327
 21
3282.799780223318
 31
0.0
 11
5008.981750108772
 21
3285.383546243966
 31
0.0
 11
5010.135918220231
 21
3287.172173908804
 31
0.0
 11
5011.299480113485
 21
3287.949928386961
 31
0.0
 11
5011.673779325657
 21
3287.904679357898
 31
0.0
  0
SPLINE
  5
62BA8
330
2
100
AcDbEntity
  8
0
  6
Continuous
 62
     7
100
AcDbSpline
210
0.0
220
0.0
230
1.0
 70
  1064
 71
     3
 72
     8
 73
     4
 74
     2
 42
0.000000001
 43
0.0000000001
 44
0.0000000001
 12
-0.8509224641524511
 22
-0.5252913096565757
 32
0.0
 13
-0.8823935846909375
 23
-0.4705120207776608
 33
0.0
 40
0.0
 40
0.0
 40
0.0
 40
0.0
 40
0.569641153516375
 40
0.569641153516375
 40
0.569641153516375
 40
0.569641153516375
 10
5006.545733346515
 20
3269.909680931256
 30
0.0
 10
5006.384159861838
 20
3269.809938415401
 30
0.0
 10
5006.219379353628
 20
3269.715207475754
 30
0.0
 10
5006.051830120482
 20
3269.625866472334
 30
0.0
 11
5006.545733346515
 21
3269.909680931256
 31
0.0
 11
5006.051830120482
 21
3269.625866472334
 31
0.0
  0
SPLINE
  5
62BA9
330
2
100
AcDbEntity
  8
0
  6
Continuous
 62
     7
100
AcDbSpline
210
0.0
220
0.0
230
1.0
 70
  1064
 71
     3
 72
    10
 73
     6
 74
     4
 42
0.000000001
 43
0.0000000001
 44
0.0000000001
 12
-0.8823935885555151
 22
-0.4705120135300699
 32
0.0
 13
-0.9533658565401919
 23
0.3018170697349409
 33
0.0
 40
0.0
 40
0.0
 40
0.0
 40
0.0
 40
2.793545191220417
 40
5.545367411241231
 40
6.753412287526871
 40
6.753412287526871
 40
6.753412287526871
 40
6.753412287526871
 10
5006.051830120482
 20
3269.625866472334
 30
0.0
 10
5005.230161331791
 20
3269.187734281398
 30
0.0
 10
5003.449961695692
 20
3268.567951770761
 30
0.0
 10
5001.155343598299
 20
3268.551935891153
 30
0.0
 10
4999.867041288939
 20
3268.859081065804
 30
0.0
 10
4999.483138376199
 20
3268.980617254026
 30
0.0
 11
5006.051830120482
 21
3269.625866472334
 31
0.0
 11
5003.410185269363
 21
3268.717237166207
 31
0.0
 11
5000.658410143205
 21
3268.70113792241
 31
0.0
 11
4999.483138376199
 21
3268.980617254026
 31
0.0
  0
SPLINE
  5
62BAA
330
2
100
AcDbEntity
  8
0
  6
Continuous
 62
     7
100
AcDbSpline
210
0.0
220
0.0
230
1.0
 70
  1064
 71
     3
 72
    11
 73
     7
 74
     5
 42
0.000000001
 43
0.0000000001
 44
0.0000000001
 12
-0.9475795648143527
 22
0.3195199028953311
 32
0.0
 13
0.1753326901520471
 23
0.9845092420917371
 33
0.0
 40
0.0
 40
0.0
 40
0.0
 40
0.0
 40
2.20505086733434
 40
4.534201124587528
 40
7.445020214209645
 40
10.64809485256422
 40
10.64809485256422
 40
10.64809485256422
 40
10.64809485256422
 10
5008.753822131179
 20
3269.677653143075
 30
0.0
 10
5008.057335084092
 20
3269.912505689411
 30
0.0
 10
5007.106241914154
 20
3271.392115174814
 30
0.0
 10
5006.836752955718
 20
3273.820823358463
 30
0.0
 10
5006.797798975266
 20
3276.656219260941
 30
0.0
 10
5007.053309046887
 20
3278.681364013327
 30
0.0
 10
5007.24051027792
 20
3279.732516208183
 30
0.0
 11
5008.753822131179
 21
3269.677653143075
 31
0.0
 11
5007.31839278611
 21
3271.351508549866
 31
0.0
 11
5006.890506118261
 21
3273.641018086936
 31
0.0
 11
5006.863457807623
 21
3276.551711502843
 31
0.0
 11
5007.24051027792
 21
3279.732516208183
 31
0.0
  0
DIMENSION
  5
62BCA
330
2
100
AcDbEntity
  8
标注
100
AcDbDimension
280
     0
  2
*D17
 10
5287.995853876498
 20
3155.785839706709
 30
0.0
 11
5066.14888818351
 21
3190.428656720285
 31
0.0
 70
   161
  1
740
 71
     5
 42
393.4911762050115
 73
     0
 74
     0
 75
     0
  3
线性标注
100
AcDbAlignedDimension
 13
4973.214743028343
 23
3262.834998683903
 33
0.0
 14
5361.994310800844
 24
3202.124592377969
 34
0.0
  0
DIMENSION
  5
62BD7
330
2
100
AcDbEntity
  8
标注
100
AcDbDimension
280
     0
  2
*D18
 10
5374.495096521432
 20
3140.899734024911
 30
0.0
 11
5333.895506579422
 21
3163.741421827474
 31
0.0
 70
    33
  1
100
 71
     5
 42
87.77081018491662
 73
     0
 74
     0
 75
     0
  3
线性标注
100
AcDbAlignedDimension
 13
5361.994310800844
 23
3202.124592377969
 33
0.0
 14
5448.493553445778
 24
3187.238486696173
 34
0.0
  0
DIMENSION
  5
62BE4
330
2
100
AcDbEntity
  8
标注
100
AcDbDimension
280
     0
  2
*D19
 10
5627.197049700544
 20
3177.743088905738
 30
0.0
 11
5888.853913258101
 21
3334.104167108401
 31
0.0
 70
   161
  1
700
 71
     5
 42
519.2790359782366
 73
     0
 74
     0
 75
     0
  3
线性标注
100
AcDbAlignedDimension
 13
5944.605743162937
 23
3464.815378527946
 33
0.0
 14
5498.852569873172
 24
3198.441908173654
 34
0.0
  0
DIMENSION
  5
62C54
330
2
100
AcDbEntity
  8
标注
100
AcDbDimension
280
     0
  2
*D20
 10
5982.446768538697
 20
3507.125382612996
 30
0.0
 11
5913.921285914042
 21
3508.499962522789
 31
0.0
 70
   161
  1
88
 71
     5
 42
39.7261363701964
 73
     0
 74
     0
 75
     0
  3
线性标注
100
AcDbAlignedDimension
 13
5892.80064545457
 23
3478.160366175111
 33
0.0
 14
5932.518791745779
 24
3477.363644082029
 34
0.0
  0
VIEWPORT
  5
99
330
C
100
AcDbEntity
 67
     1
  8
0
100
AcDbViewport
 10
143.6764787904317
 20
100.2046656547372
 30
0.0
 40
390.1005202556985
 41
202.9375384062431
 68
     1
 69
     1
 12
116.7325519153533
 22
100.551332739372
 13
0.0
 23
0.0
 14
10.0
 24
10.0
 15
10.0
 25
10.0
 16
0.0
 26
0.0
 36
1.0
 17
0.0
 27
0.0
 37
0.0
 42
50.0
 43
0.0
 44
0.0
 45
831.2321573119717
 50
0.0
 51
0.0
 72
   100
 90
    38944
  1

281
     0
 71
     1
 74
     0
110
0.0
120
0.0
130
0.0
111
1.0
121
0.0
131
0.0
112
0.0
122
1.0
132
0.0
 79
     0
146
0.0
170
     2
 61
     5
348
984D
292
     1
282
     1
141
0.0
142
0.0
 63
   250
421
  3355443
  0
MTEXT
  5
2C09
102
{ACAD_XDICTIONARY
360
62E16
102
}
330
C
100
AcDbEntity
 67
     1
  8
ASHADE
 62
     5
100
AcDbMText
 10
231.8996211309493
 20
125.8491204523215
 30
0.0
 40
2.5
 41
66.6875
 46
0.0
 71
     1
 72
     5
  3
\pt24;技术要求:\P\ptz;1.注："☆"号为特注受控处.\P2.所注尺寸为电镀后尺寸.{\fSimSun|b0|i0|c134|p0;\P}3.未注公差为%%p0.1.\P4.未注缧纹倒角为{\fArial|b0|i0|c0|p32;C0.5}.\P5.无毛刺.\P6.壁厚为2.5{\fArial|b0|i0|c134|p32;mm.\P\fSimSun|b0|i0|c134|p0;7\fArial|b0|i0|c134|p32;.}未注铸造圆角{\fArial|b0|i0|c134|
  1
p32;R1\fSimSun|b0|i0|c134|p0;～\fArial|b0|i0|c134|p32;R3.}\P8.表面抛光电镀铬.
 73
     1
 44
1.0
  0
ENDSEC
  0
SECTION
  2
OBJECTS
  0
DICTIONARY
  5
7
330
0
100
AcDbDictionary
281
     1
  3
ACAD_CIP_PREVIOUS_PRODUCT_INFO
350
6062E2F
  3
ACAD_COLOR
350
29
  3
ACAD_DETAILVIEWSTYLE
350
6062E28
  3
ACAD_GROUP
350
25
  3
ACAD_IMAGE_DICT
350
2BE1
  3
ACAD_IMAGE_VARS
350
2BE2
  3
ACAD_LAYOUT
350
B
  3
ACAD_MATERIAL
350
28
  3
ACAD_MLEADERSTYLE
350
987B
  3
ACAD_MLINESTYLE
350
26
  3
ACAD_PLOTSETTINGS
350
27
  3
ACAD_PLOTSTYLENAME
350
6
  3
ACAD_SCALELIST
350
9859
  3
ACAD_SECTIONVIEWSTYLE
350
6062E25
  3
ACAD_TABLESTYLE
350
46A6
  3
ACAD_VISUALSTYLE
350
9847
  3
AcadDim
350
61415
  3
ACDB_RECOMPOSE_DATA
350
6062E43
  3
ACDBHEADERROUNDTRIPXREC
350
62E0E
  3
ACDBVARIABLEDICTIONARY
350
4557
  3
ASE_INDEX_DICTIONARY
350
62BAB
  0
DICTIONARY
  5
62463
330
1A
100
AcDbDictionary
280
     1
281
     1
  0
DICTIONARY
  5
3FD7
330
10
100
AcDbDictionary
280
     1
281
     1
  3
ACAD_LAYERFILTERS
360
158C4
  3
ACAD_LAYERSTATES
360
3FD8
  3
ACLYDICTIONARY
360
158C3
  0
DICTIONARY
  5
9891
330
4
100
AcDbDictionary
280
     1
281
     1
  3
ADSK_XREC_LAYER_RECONCILED
360
9892
  0
DICTIONARY
  5
9893
330
400
100
AcDbDictionary
280
     1
281
     1
  3
ADSK_XREC_LAYER_RECONCILED
360
9894
  0
DICTIONARY
  5
9897
330
403
100
AcDbDictionary
280
     1
281
     1
  3
ADSK_XREC_LAYER_RECONCILED
360
9898
  0
DICTIONARY
  5
989B
330
405
100
AcDbDictionary
280
     1
281
     1
  3
ADSK_XREC_LAYER_RECONCILED
360
989C
  0
DICTIONARY
  5
989F
330
92F
100
AcDbDictionary
280
     1
281
     1
  3
ADSK_XREC_LAYER_RECONCILED
360
98A0
  0
DICTIONARY
  5
98A9
330
4563
100
AcDbDictionary
280
     1
281
     1
  3
ADSK_XREC_LAYER_RECONCILED
360
98AA
  0
DICTIONARY
  5
98C5
330
2
100
AcDbDictionary
280
     1
281
     1
  3
ACAD_SORTENTS
360
98C6
  0
DICTIONARY
  5
62E16
330
2C09
100
AcDbDictionary
280
     1
281
     1
  0
XRECORD
  5
6062E2F
102
{ACAD_REACTORS
330
7
102
}
330
7
100
AcDbXrecord
280
     1
300
ACD
300
2017
300
ACD_F_S
  0
DICTIONARY
  5
29
102
{ACAD_REACTORS
330
7
102
}
330
7
100
AcDbDictionary
281
     1
  0
DICTIONARY
  5
6062E28
102
{ACAD_REACTORS
330
7
102
}
330
7
100
AcDbDictionary
281
     1
  3
Metric50
350
6062E29
  0
DICTIONARY
  5
25
102
{ACAD_REACTORS
330
7
102
}
330
7
100
AcDbDictionary
281
     1
  0
DICTIONARY
  5
2BE1
102
{ACAD_REACTORS
330
7
102
}
330
7
100
AcDbDictionary
281
     1
  3
irunin
350
2BE3
  0
ACAD_PROXY_OBJECT
  5
2BE2
102
{ACAD_REACTORS
330
7
102
}
330
7
100
AcDbProxyObject
 90
      499
 91
      508
 95
       27
 70
     0
162
                 0
161
                40
310
409014050100
 94
        0
1001
ACAD
1000
AcRTDxfName
1000
RASTERVARIABLES
1000
AcRTDxfName
1000
RASTERVARIABLES
1000
AcRTDxfName
1000
RASTERVARIABLES
1000
AcRTDxfName
1000
RASTERVARIABLES
1000
AcRTDxfName
1000
RASTERVARIABLES
1000
AcRTDxfName
1000
RASTERVARIABLES
1000
AcRTDxfName
1000
RASTERVARIABLES
1000
AcRTDxfName
1000
RASTERVARIABLES
1000
AcRTDxfName
1000
RASTERVARIABLES
  0
DICTIONARY
  5
B
102
{ACAD_REACTORS
330
7
102
}
330
7
100
AcDbDictionary
281
     1
  3
Model
350
A
  3
布局1
350
F
1001
AcadStringInfo
1000
MIFCodePage
1070
     5
  0
DICTIONARY
  5
28
102
{ACAD_REACTORS
330
7
102
}
330
7
100
AcDbDictionary
281
     1
  3
ByBlock
350
9837
  3
ByLayer
350
982F
  3
Global
350
983F
  0
DICTIONARY
  5
987B
102
{ACAD_REACTORS
330
7
102
}
330
7
100
AcDbDictionary
281
     1
  3
Standard
350
987C
  0
DICTIONARY
  5
26
102
{ACAD_REACTORS
330
7
102
}
330
7
100
AcDbDictionary
281
     1
  3
Standard
350
2A
  0
DICTIONARY
  5
27
102
{ACAD_REACTORS
330
7
102
}
330
7
100
AcDbDictionary
281
     1
  3
设置1
350
30A40
1001
AcadStringInfo
1000
MIFCodePage
1070
     5
  0
ACDBDICTIONARYWDFLT
  5
6
102
{ACAD_REACTORS
330
7
102
}
330
7
100
AcDbDictionary
281
     1
  3
Normal
350
5
100
AcDbDictionaryWithDefault
340
5
  0
DICTIONARY
  5
9859
102
{ACAD_REACTORS
330
7
102
}
330
7
100
AcDbDictionary
281
     1
  3
A0
350
985A
  3
A1
350
985B
  3
A2
350
985C
  3
A3
350
985D
  3
A4
350
985E
  3
A5
350
985F
  3
A6
350
9860
  3
A7
350
9861
  3
A8
350
9862
  3
A9
350
9863
  3
B0
350
9864
  3
B1
350
9865
  3
B2
350
9866
  3
B3
350
9867
  3
B4
350
9868
  3
B5
350
9869
  3
B6
350
986A
  3
B7
350
986B
  3
B8
350
986C
  3
B9
350
986D
  3
C0
350
986E
  3
C1
350
986F
  3
C2
350
9870
  3
C3
350
9871
  3
C4
350
9872
  3
C5
350
9873
  3
C6
350
9874
  3
C7
350
9875
  3
C8
350
9876
  3
C9
350
9877
  3
D0
350
9878
  3
D1
350
9879
  3
D2
350
987A
  0
DICTIONARY
  5
6062E25
102
{ACAD_REACTORS
330
7
102
}
330
7
100
AcDbDictionary
281
     1
  3
Metric50
350
6062E27
  0
DICTIONARY
  5
46A6
102
{ACAD_REACTORS
330
7
102
}
330
7
100
AcDbDictionary
281
     1
  3
Standard
350
9858
  0
DICTIONARY
  5
9847
102
{ACAD_REACTORS
330
7
102
}
330
7
100
AcDbDictionary
281
     1
  3
2dWireframe
350
984D
  3
3D Hidden
350
984F
  3
3dWireframe
350
984E
  3
Basic
350
984C
  3
Brighten
350
9853
  3
ColorChange
350
9857
  3
Conceptual
350
9850
  3
Dim
350
9852
  3
EdgeColorOff
350
6062E24
  3
Facepattern
350
9856
  3
Flat
350
9848
  3
FlatWithEdges
350
9849
  3
Gouraud
350
984A
  3
GouraudWithEdges
350
984B
  3
Hidden
350
6062E1C
  3
JitterOff
350
6062E22
  3
Linepattern
350
9855
  3
OverhangOff
350
6062E23
  3
Realistic
350
9851
  3
Shaded
350
6062E21
  3
Shaded with edges
350
6062E20
  3
Shades of Gray
350
6062E1D
  3
Sketchy
350
6062E1E
  3
Thicken
350
9854
  3
Wireframe
350
6062E1B
  3
X-Ray
350
6062E1F
  0
XRECORD
  5
61415
102
{ACAD_REACTORS
330
7
102
}
330
7
100
AcDbXrecord
280
     1
 90
   990106
  3

 60
     0
 61
     0
 62
     1
 63
     3
 64
     0
 65
     0
 66
     0
 67
     3
 68
     1
 69
     0
 70
     0
 71
     0
 72
     0
 40
13.70396488517739
170
     1
340
47027
  0
XRECORD
  5
6062E43
102
{ACAD_REACTORS
330
7
102
}
330
7
100
AcDbXrecord
280
     1
 90
        1
330
9858
330
6062E27
330
6062E29
  0
DICTIONARY
  5
62E0E
102
{ACAD_REACTORS
330
7
102
}
330
7
100
AcDbDictionary
281
     1
  0
DICTIONARY
  5
4557
102
{ACAD_REACTORS
330
7
102
}
330
7
100
AcDbDictionary
281
     1
  3
CANNOSCALE
350
B806
  3
CMLEADERSTYLE
350
B804
  3
CTABLESTYLE
350
B803
  3
CVIEWDETAILSTYLE
350
6062E3A
  3
CVIEWSECTIONSTYLE
350
6062E3B
  3
DGNFRAME
350
62496
  3
DIMASSOC
350
4558
  3
HIDETEXT
350
62495
  3
INDEXCTL
350
62494
  3
LAYEREVAL
350
6062E3C
  3
LAYERNOTIFY
350
6062E3D
  3
LIGHTINGUNITS
350
B807
  3
MSLTSCALE
350
B805
  3
PROJECTNAME
350
62887
  3
SORTENTS
350
62493
  0
DICTIONARY
  5
62BAB
102
{ACAD_REACTORS
330
7
102
}
330
7
100
AcDbDictionary
281
     1
  3
ASEBlockHierarchyIndexRecord
350
62BAC
1001
DCO15
1040
1674720619.828
  0
DICTIONARY
  5
158C4
102
{ACAD_REACTORS
330
3FD7
102
}
330
3FD7
100
AcDbDictionary
281
     1
  0
DICTIONARY
  5
3FD8
102
{ACAD_REACTORS
330
3FD7
102
}
330
3FD7
100
AcDbDictionary
281
     1
  0
DICTIONARY
  5
158C3
102
{ACAD_REACTORS
330
3FD7
102
}
330
3FD7
100
AcDbDictionary
281
     1
1001
ACAD
1000
<All
  0
XRECORD
  5
9892
102
{ACAD_REACTORS
330
9891
102
}
330
9891
100
AcDbXrecord
280
     1
290
     1
  0
XRECORD
  5
9894
102
{ACAD_REACTORS
330
9893
102
}
330
9893
100
AcDbXrecord
280
     1
290
     1
  0
XRECORD
  5
9898
102
{ACAD_REACTORS
330
9897
102
}
330
9897
100
AcDbXrecord
280
     1
290
     1
  0
XRECORD
  5
989C
102
{ACAD_REACTORS
330
989B
102
}
330
989B
100
AcDbXrecord
280
     1
290
     1
  0
XRECORD
  5
98A0
102
{ACAD_REACTORS
330
989F
102
}
330
989F
100
AcDbXrecord
280
     1
290
     1
  0
XRECORD
  5
98AA
102
{ACAD_REACTORS
330
98A9
102
}
330
98A9
100
AcDbXrecord
280
     1
290
     1
  0
SORTENTSTABLE
  5
98C6
102
{ACAD_REACTORS
330
98C5
102
}
330
98C5
100
AcDbSortentsTable
330
2
331
61EDE
  5
61F23
331
61BE3
  5
61BEE
331
61BEF
  5
61BEF
331
61C9D
  5
61E85
331
6206E
  5
62079
331
6207A
  5
61CC3
331
61BF8
  5
61C01
331
61BF6
  5
61BFE
331
61BC1
  5
61BE3
331
61C07
  5
61D0C
331
61ED3
  5
61BF5
331
8151
  5
8822
331
61BC8
  5
61BBE
331
61EDC
  5
61F0D
331
61BBA
  5
61BBD
331
61BE1
  5
61BEC
331
61D2D
  5
61ECF
331
6206C
  5
62073
331
62078
  5
6207C
331
61E9E
  5
61EDD
331
61BFE
  5
61C08
331
61BF4
  5
61BFC
331
61C0A
  5
61D2D
331
61BC7
  5
61BDF
331
61EDB
  5
61F0E
331
61ED1
  5
61F0F
331
61EEA
  5
62069
331
47027
  5
4724F
331
61D16
  5
61ECD
331
6206B
  5
62072
331
61BE7
  5
61BF8
331
62072
  5
6206D
331
61BF3
  5
61BFB
331
61CB7
  5
61E9D
331
61BFC
  5
61C06
331
61CE9
  5
61EB8
331
61ED9
  5
61F11
331
61C87
  5
61E74
331
62069
  5
62070
331
61BBE
  5
61BC8
331
61BEA
  5
61BF7
331
8ED7
  5
9333
331
61E9B
  5
61EDB
331
61BE5
  5
61BF6
331
62070
  5
6207B
331
61BFB
  5
61C05
331
6207C
  5
61D20
331
80BB
  5
87FB
331
61EDF
  5
62068
331
61BDC
  5
61BE9
331
61BE8
  5
61BF4
331
61BBC
  5
61BBB
331
6206F
  5
6206E
331
6207B
  5
61CE9
331
61BF9
  5
61C03
331
61BF7
  5
61BFF
331
61BC2
  5
61BE6
331
61ECC
  5
61F00
331
61EDD
  5
61F12
331
61BBB
  5
61BDC
331
8D7A
  5
9332
331
61BE2
  5
61BED
331
6206D
  5
6206C
331
81BF
  5
88BA
331
61CC3
  5
61EA2
331
47C4
  5
47C4
331
61E9F
  5
61EDC
331
62074
  5
6207A
331
61BFF
  5
61C09
331
61BF5
  5
61BFD
331
61CDC
  5
61EA4
331
61C0B
  5
61E73
331
61BC0
  5
61BE2
331
61BB9
  5
61BB9
331
8184
  5
88B5
331
61D20
  5
61ECE
331
61BE0
  5
61BEB
331
62073
  5
62076
331
61BEC
  5
61BF9
331
61BFD
  5
61C07
331
61EC9
  5
61EEA
331
61C09
  5
61C87
331
61EA4
  5
61EDF
331
8127
  5
87FF
331
61BC6
  5
61BBA
331
61C04
  5
61C9D
331
81C7
  5
88BB
331
61BDF
  5
61BEA
331
47A0
  5
47A0
331
6206A
  5
62071
331
61BBF
  5
61BE1
331
61F00
  5
6206A
331
61BEB
  5
61BF3
331
47AF
  5
47AF
331
62071
  5
62078
331
61BF2
  5
61BFA
331
61EA3
  5
61EDE
331
61C03
  5
61C0B
331
61D0C
  5
61ECC
331
61ED8
  5
61F10
331
81A8
  5
88B6
331
61BBD
  5
61BE0
331
62068
  5
6206F
331
61CAB
  5
61E9B
331
61BE4
  5
61BF2
331
807B
  5
87F7
331
61BF0
  5
61BF0
331
61BFA
  5
61C04
331
7FDE
  5
86EB
331
61C01
  5
61C0A
331
61ECD
  5
61BBC
  0
ACDBDETAILVIEWSTYLE
  5
6062E29
102
{ACAD_XDICTIONARY
360
6062E41
102
}
102
{ACAD_REACTORS
330
6062E28
102
}
330
6062E28
100
AcDbModelDocViewStyle
 70
     0
  3
Metric50
290
     0
100
AcDbDetailViewStyle
 70
     0
 71
     0
 90
        3
 71
     1
340
12
 62
   256
 40
5.0
340
0
 62
   256
 40
5.0
300

 40
0.0
280
     1
 71
     2
340
8
 90
       25
 62
   256
 71
     3
340
12
 62
   256
 40
5.0
 90
        0
 40
15.0
 90
        1
300
%<\AcVar ViewDetailId>% (%<\AcVar ViewScale \f "%sn">%)
 71
     4
340
8
 90
       25
 62
   256
340
8
 90
       25
 62
   256
280
     0
  0
IMAGEDEF
  5
2BE3
102
{ACAD_REACTORS
330
2BE1
102
}
330
2BE1
100
AcDbRasterImageDef
 90
        0
  1
C:\boot\irunin.bmp
 10
111.0
 20
63.0
 11
0.009009009009009
 21
0.009009009009009
280
     1
281
     0
  0
LAYOUT
  5
A
102
{ACAD_REACTORS
330
B
102
}
330
B
100
AcDbPlotSettings
  1
设置1
  2
\\192.168.1.102\HP LaserJet 1020
  4
A4
  6

 40
4.773083209991455
 41
4.942401409149169
 42
4.815414428710936
 43
4.7730712890625
 44
210.0156707763672
 45
297.0106506347656
 46
0.0
 47
8.162242915879204
 48
4678.397198801646
 49
199.7202550513075
140
4813.122570352224
141
299.3717161006835
142
1.0
143
0.4971953627312283
 70
  3764
 72
     1
 73
     1
 74
     4
  7
acad.ctb
 75
     0
147
2.01128183196788
 76
     1
 77
     2
 78
   300
148
-4678.397198801646
149
-199.7202550513075
100
AcDbLayout
  1
Model
 70
     1
 71
     0
 10
0.0
 20
0.0
 11
12.0
 21
9.0
 12
0.0
 22
0.0
 32
0.0
 14
0.2380952380952381
 24
-0.6113291389338498
 34
0.0
 15
2371.078652631803
 25
1364.802114083393
 35
0.0
146
0.0
 13
0.0
 23
0.0
 33
0.0
 16
1.0
 26
0.0
 36
0.0
 17
0.0
 27
1.0
 37
0.0
 76
     0
330
2
331
62E0C
1001
ACAD_PSEXT
1000
\\192.168.1.102\HP LaserJet 1020
1000
HP LaserJet 1020
1000
\\192.168.1.102
1000

1070
     0
1001
AcadStringInfo
1000
MIFCodePage
1070
     5
  0
LAYOUT
  5
F
102
{ACAD_REACTORS
330
B
102
}
330
B
100
AcDbPlotSettings
  1

  2
在 SKF 上自动 HP LaserJet 1020
  4
A4
  6

 40
4.773083209991455
 41
4.942401409149169
 42
4.815414428710936
 43
4.7730712890625
 44
210.0156707763672
 45
297.0106506347656
 46
0.0
 47
0.0
 48
0.0
 49
0.0
140
0.0
141
0.0
142
1.0
143
1.0
 70
   688
 72
     1
 73
     1
 74
     5
  7
acad.ctb
 75
    16
147
1.0
 76
     1
 77
     2
 78
   300
148
0.0
149
0.0
100
AcDbLayout
  1
布局1
 70
     0
 71
     1
 10
-4.7730712890625
 20
-4.773083209991455
 11
292.2375793457031
 21
205.2425875663757
 12
0.0
 22
0.0
 32
0.0
 14
0.0451739414299368
 24
0.0000025706221436
 34
0.0
 15
287.29517394143
 25
200.4000025706222
 35
0.0
146
0.0
 13
0.0
 23
0.0
 33
0.0
 16
1.0
 26
0.0
 36
0.0
 17
0.0
 27
1.0
 37
0.0
 76
     0
330
C
331
99
1001
AcadStringInfo
1000
MIFCodePage
1070
     5
  0
MATERIAL
  5
9837
102
{ACAD_XDICTIONARY
360
9838
102
}
102
{ACAD_REACTORS
330
28
102
}
330
28
100
AcDbMaterial
  1
ByBlock
 72
     0
 43
0.0008202099737533
 43
0.0
 43
0.0
 43
0.0
 43
0.0
 43
0.0008202099737533
 43
0.0
 43
0.0
 43
0.0
 43
0.0
 43
1.0
 43
0.0
 43
0.0
 43
0.0
 43
0.0
 43
1.0
 77
     0
 47
0.0008202099737533
 47
0.0
 47
0.0
 47
0.0
 47
0.0
 47
0.0008202099737533
 47
0.0
 47
0.0
 47
0.0
 47
0.0
 47
1.0
 47
0.0
 47
0.0
 47
0.0
 47
0.0
 47
1.0
171
     0
 49
0.0008202099737533
 49
0.0
 49
0.0
 49
0.0
 49
0.0
 49
0.0008202099737533
 49
0.0
 49
0.0
 49
0.0
 49
0.0
 49
1.0
 49
0.0
 49
0.0
 49
0.0
 49
0.0
 49
1.0
175
     0
142
0.0008202099737533
142
0.0
142
0.0
142
0.0
142
0.0
142
0.0008202099737533
142
0.0
142
0.0
142
0.0
142
0.0
142
1.0
142
0.0
142
0.0
142
0.0
142
0.0
142
1.0
179
     0
144
0.0008202099737533
144
0.0
144
0.0
144
0.0
144
0.0
144
0.0008202099737533
144
0.0
144
0.0
144
0.0
144
0.0
144
1.0
144
0.0
144
0.0
144
0.0
144
0.0
144
1.0
147
0.0008202099737533
147
0.0
147
0.0
147
0.0
147
0.0
147
0.0008202099737533
147
0.0
147
0.0
147
0.0
147
0.0
147
1.0
147
0.0
147
0.0
147
0.0
147
0.0
147
1.0
  0
MATERIAL
  5
982F
102
{ACAD_XDICTIONARY
360
9830
102
}
102
{ACAD_REACTORS
330
28
102
}
330
28
100
AcDbMaterial
  1
ByLayer
 72
     0
 43
0.0008202099737533
 43
0.0
 43
0.0
 43
0.0
 43
0.0
 43
0.0008202099737533
 43
0.0
 43
0.0
 43
0.0
 43
0.0
 43
1.0
 43
0.0
 43
0.0
 43
0.0
 43
0.0
 43
1.0
 77
     0
 47
0.0008202099737533
 47
0.0
 47
0.0
 47
0.0
 47
0.0
 47
0.0008202099737533
 47
0.0
 47
0.0
 47
0.0
 47
0.0
 47
1.0
 47
0.0
 47
0.0
 47
0.0
 47
0.0
 47
1.0
171
     0
 49
0.0008202099737533
 49
0.0
 49
0.0
 49
0.0
 49
0.0
 49
0.0008202099737533
 49
0.0
 49
0.0
 49
0.0
 49
0.0
 49
1.0
 49
0.0
 49
0.0
 49
0.0
 49
0.0
 49
1.0
175
     0
142
0.0008202099737533
142
0.0
142
0.0
142
0.0
142
0.0
142
0.0008202099737533
142
0.0
142
0.0
142
0.0
142
0.0
142
1.0
142
0.0
142
0.0
142
0.0
142
0.0
142
1.0
179
     0
144
0.0008202099737533
144
0.0
144
0.0
144
0.0
144
0.0
144
0.0008202099737533
144
0.0
144
0.0
144
0.0
144
0.0
144
1.0
144
0.0
144
0.0
144
0.0
144
0.0
144
1.0
147
0.0008202099737533
147
0.0
147
0.0
147
0.0
147
0.0
147
0.0008202099737533
147
0.0
147
0.0
147
0.0
147
0.0
147
1.0
147
0.0
147
0.0
147
0.0
147
0.0
147
1.0
  0
MATERIAL
  5
983F
102
{ACAD_XDICTIONARY
360
9840
102
}
102
{ACAD_REACTORS
330
28
102
}
330
28
100
AcDbMaterial
  1
Global
 72
     0
 43
0.0008202099737533
 43
0.0
 43
0.0
 43
0.0
 43
0.0
 43
0.0008202099737533
 43
0.0
 43
0.0
 43
0.0
 43
0.0
 43
1.0
 43
0.0
 43
0.0
 43
0.0
 43
0.0
 43
1.0
 77
     0
 47
0.0008202099737533
 47
0.0
 47
0.0
 47
0.0
 47
0.0
 47
0.0008202099737533
 47
0.0
 47
0.0
 47
0.0
 47
0.0
 47
1.0
 47
0.0
 47
0.0
 47
0.0
 47
0.0
 47
1.0
171
     0
 49
0.0008202099737533
 49
0.0
 49
0.0
 49
0.0
 49
0.0
 49
0.0008202099737533
 49
0.0
 49
0.0
 49
0.0
 49
0.0
 49
1.0
 49
0.0
 49
0.0
 49
0.0
 49
0.0
 49
1.0
175
     0
142
0.0008202099737533
142
0.0
142
0.0
142
0.0
142
0.0
142
0.0008202099737533
142
0.0
142
0.0
142
0.0
142
0.0
142
1.0
142
0.0
142
0.0
142
0.0
142
0.0
142
1.0
179
     0
144
0.0008202099737533
144
0.0
144
0.0
144
0.0
144
0.0
144
0.0008202099737533
144
0.0
144
0.0
144
0.0
144
0.0
144
1.0
144
0.0
144
0.0
144
0.0
144
0.0
144
1.0
147
0.0008202099737533
147
0.0
147
0.0
147
0.0
147
0.0
147
0.0008202099737533
147
0.0
147
0.0
147
0.0
147
0.0
147
1.0
147
0.0
147
0.0
147
0.0
147
0.0
147
1.0
  0
MLEADERSTYLE
  5
987C
102
{ACAD_REACTORS
330
987B
102
}
330
987B
100
AcDbMLeaderStyle
179
     2
170
     2
171
     1
172
     0
 90
        2
 40
0.0
 41
0.0
173
     1
 91
-1056964608
340
16
 92
       -2
290
     1
 42
2.0
291
     1
 43
0.36
  3
Standard
 44
4.0
300

342
12
174
     1
178
     6
175
     1
176
     0
 93
-1056964608
 45
4.0
292
     0
297
     0
 46
4.0
 94
-1056964608
 47
1.0
 49
1.0
140
1.0
293
     1
141
0.0
294
     1
177
     0
142
1.0
295
     0
296
     0
143
0.125
271
     0
272
     9
273
     9
298
     0
1001
ACAD
1000
AcRTDxfName
1000
MLEADERSTYLE
1000
AcRTDxfName
1000
MLEADERSTYLE
1000
AcRTDxfName
1000
MLEADERSTYLE
1000
AcRTDxfName
1000
MLEADERSTYLE
1000
AcRTDxfName
1000
MLEADERSTYLE
1000
AcRTDxfName
1000
MLEADERSTYLE
  0
MLINESTYLE
  5
2A
102
{ACAD_REACTORS
330
26
102
}
330
26
100
AcDbMlineStyle
  2
STANDARD
 70
     0
  3

 62
   256
 51
90.0
 52
90.0
 71
     2
 49
0.5
 62
   256
  6
BYLAYER
 49
-0.5
 62
   256
  6
BYLAYER
  0
PLOTSETTINGS
  5
30A40
102
{ACAD_REACTORS
330
27
102
}
330
27
100
AcDbPlotSettings
  1
设置1
  2
\\192.168.1.102\HP LaserJet 1020
  4
A4
  6

 40
4.773083209991455
 41
4.942401409149169
 42
4.815414428710936
 43
4.7730712890625
 44
210.0156707763672
 45
297.0106506347656
 46
0.0
 47
8.162242915879204
 48
4678.397198801646
 49
199.7202550513075
140
4813.122570352224
141
299.3717161006835
142
1.0
143
0.4971953627312283
 70
  3764
 72
     1
 73
     1
 74
     4
  7
acad.ctb
 75
     0
147
2.01128183196788
 76
     1
 77
     2
 78
   300
148
-4678.397198801646
149
-199.7202550513075
1001
ACAD_PSEXT
1000
\\192.168.1.102\HP LaserJet 1020
1000
HP LaserJet 1020
1000
\\192.168.1.102
1000

1070
     0
1001
AcadStringInfo
1000
MIFCodePage
1070
     5
  0
ACDBPLACEHOLDER
  5
5
102
{ACAD_REACTORS
330
6
102
}
330
6
  0
SCALE
  5
985A
102
{ACAD_REACTORS
330
9859
102
}
330
9859
100
AcDbScale
 70
     0
300
1:1
140
1.0
141
1.0
290
     1
1001
ACAD
1000
AcRTDxfName
1000
SCALE
1000
AcRTDxfName
1000
SCALE
1000
AcRTDxfName
1000
SCALE
1000
AcRTDxfName
1000
SCALE
1000
AcRTDxfName
1000
SCALE
1000
AcRTDxfName
1000
SCALE
  0
SCALE
  5
985B
102
{ACAD_REACTORS
330
9859
102
}
330
9859
100
AcDbScale
 70
     0
300
1:2
140
1.0
141
2.0
290
     0
1001
ACAD
1000
AcRTDxfName
1000
SCALE
1000
AcRTDxfName
1000
SCALE
1000
AcRTDxfName
1000
SCALE
1000
AcRTDxfName
1000
SCALE
1000
AcRTDxfName
1000
SCALE
1000
AcRTDxfName
1000
SCALE
  0
SCALE
  5
985C
102
{ACAD_REACTORS
330
9859
102
}
330
9859
100
AcDbScale
 70
     0
300
1:4
140
1.0
141
4.0
290
     0
1001
ACAD
1000
AcRTDxfName
1000
SCALE
1000
AcRTDxfName
1000
SCALE
1000
AcRTDxfName
1000
SCALE
1000
AcRTDxfName
1000
SCALE
1000
AcRTDxfName
1000
SCALE
1000
AcRTDxfName
1000
SCALE
  0
SCALE
  5
985D
102
{ACAD_REACTORS
330
9859
102
}
330
9859
100
AcDbScale
 70
     0
300
1:5
140
1.0
141
5.0
290
     0
1001
ACAD
1000
AcRTDxfName
1000
SCALE
1000
AcRTDxfName
1000
SCALE
1000
AcRTDxfName
1000
SCALE
1000
AcRTDxfName
1000
SCALE
1000
AcRTDxfName
1000
SCALE
1000
AcRTDxfName
1000
SCALE
  0
SCALE
  5
985E
102
{ACAD_REACTORS
330
9859
102
}
330
9859
100
AcDbScale
 70
     0
300
1:8
140
1.0
141
8.0
290
     0
1001
ACAD
1000
AcRTDxfName
1000
SCALE
1000
AcRTDxfName
1000
SCALE
1000
AcRTDxfName
1000
SCALE
1000
AcRTDxfName
1000
SCALE
1000
AcRTDxfName
1000
SCALE
1000
AcRTDxfName
1000
SCALE
  0
SCALE
  5
985F
102
{ACAD_REACTORS
330
9859
102
}
330
9859
100
AcDbScale
 70
     0
300
1:10
140
1.0
141
10.0
290
     0
1001
ACAD
1000
AcRTDxfName
1000
SCALE
1000
AcRTDxfName
1000
SCALE
1000
AcRTDxfName
1000
SCALE
1000
AcRTDxfName
1000
SCALE
1000
AcRTDxfName
1000
SCALE
1000
AcRTDxfName
1000
SCALE
  0
SCALE
  5
9860
102
{ACAD_REACTORS
330
9859
102
}
330
9859
100
AcDbScale
 70
     0
300
1:16
140
1.0
141
16.0
290
     0
1001
ACAD
1000
AcRTDxfName
1000
SCALE
1000
AcRTDxfName
1000
SCALE
1000
AcRTDxfName
1000
SCALE
1000
AcRTDxfName
1000
SCALE
1000
AcRTDxfName
1000
SCALE
1000
AcRTDxfName
1000
SCALE
  0
SCALE
  5
9861
102
{ACAD_REACTORS
330
9859
102
}
330
9859
100
AcDbScale
 70
     0
300
1:20
140
1.0
141
20.0
290
     0
1001
ACAD
1000
AcRTDxfName
1000
SCALE
1000
AcRTDxfName
1000
SCALE
1000
AcRTDxfName
1000
SCALE
1000
AcRTDxfName
1000
SCALE
1000
AcRTDxfName
1000
SCALE
1000
AcRTDxfName
1000
SCALE
  0
SCALE
  5
9862
102
{ACAD_REACTORS
330
9859
102
}
330
9859
100
AcDbScale
 70
     0
300
1:30
140
1.0
141
30.0
290
     0
1001
ACAD
1000
AcRTDxfName
1000
SCALE
1000
AcRTDxfName
1000
SCALE
1000
AcRTDxfName
1000
SCALE
1000
AcRTDxfName
1000
SCALE
1000
AcRTDxfName
1000
SCALE
1000
AcRTDxfName
1000
SCALE
  0
SCALE
  5
9863
102
{ACAD_REACTORS
330
9859
102
}
330
9859
100
AcDbScale
 70
     0
300
1:40
140
1.0
141
40.0
290
     0
1001
ACAD
1000
AcRTDxfName
1000
SCALE
1000
AcRTDxfName
1000
SCALE
1000
AcRTDxfName
1000
SCALE
1000
AcRTDxfName
1000
SCALE
1000
AcRTDxfName
1000
SCALE
1000
AcRTDxfName
1000
SCALE
  0
SCALE
  5
9864
102
{ACAD_REACTORS
330
9859
102
}
330
9859
100
AcDbScale
 70
     0
300
1:50
140
1.0
141
50.0
290
     0
1001
ACAD
1000
AcRTDxfName
1000
SCALE
1000
AcRTDxfName
1000
SCALE
1000
AcRTDxfName
1000
SCALE
1000
AcRTDxfName
1000
SCALE
1000
AcRTDxfName
1000
SCALE
1000
AcRTDxfName
1000
SCALE
  0
SCALE
  5
9865
102
{ACAD_REACTORS
330
9859
102
}
330
9859
100
AcDbScale
 70
     0
300
1:100
140
1.0
141
100.0
290
     0
1001
ACAD
1000
AcRTDxfName
1000
SCALE
1000
AcRTDxfName
1000
SCALE
1000
AcRTDxfName
1000
SCALE
1000
AcRTDxfName
1000
SCALE
1000
AcRTDxfName
1000
SCALE
1000
AcRTDxfName
1000
SCALE
  0
SCALE
  5
9866
102
{ACAD_REACTORS
330
9859
102
}
330
9859
100
AcDbScale
 70
     0
300
2:1
140
2.0
141
1.0
290
     0
1001
ACAD
1000
AcRTDxfName
1000
SCALE
1000
AcRTDxfName
1000
SCALE
1000
AcRTDxfName
1000
SCALE
1000
AcRTDxfName
1000
SCALE
1000
AcRTDxfName
1000
SCALE
1000
AcRTDxfName
1000
SCALE
  0
SCALE
  5
9867
102
{ACAD_REACTORS
330
9859
102
}
330
9859
100
AcDbScale
 70
     0
300
4:1
140
4.0
141
1.0
290
     0
1001
ACAD
1000
AcRTDxfName
1000
SCALE
1000
AcRTDxfName
1000
SCALE
1000
AcRTDxfName
1000
SCALE
1000
AcRTDxfName
1000
SCALE
1000
AcRTDxfName
1000
SCALE
1000
AcRTDxfName
1000
SCALE
  0
SCALE
  5
9868
102
{ACAD_REACTORS
330
9859
102
}
330
9859
100
AcDbScale
 70
     0
300
8:1
140
8.0
141
1.0
290
     0
1001
ACAD
1000
AcRTDxfName
1000
SCALE
1000
AcRTDxfName
1000
SCALE
1000
AcRTDxfName
1000
SCALE
1000
AcRTDxfName
1000
SCALE
1000
AcRTDxfName
1000
SCALE
1000
AcRTDxfName
1000
SCALE
  0
SCALE
  5
9869
102
{ACAD_REACTORS
330
9859
102
}
330
9859
100
AcDbScale
 70
     0
300
10:1
140
10.0
141
1.0
290
     0
1001
ACAD
1000
AcRTDxfName
1000
SCALE
1000
AcRTDxfName
1000
SCALE
1000
AcRTDxfName
1000
SCALE
1000
AcRTDxfName
1000
SCALE
1000
AcRTDxfName
1000
SCALE
1000
AcRTDxfName
1000
SCALE
  0
SCALE
  5
986A
102
{ACAD_REACTORS
330
9859
102
}
330
9859
100
AcDbScale
 70
     0
300
100:1
140
100.0
141
1.0
290
     0
1001
ACAD
1000
AcRTDxfName
1000
SCALE
1000
AcRTDxfName
1000
SCALE
1000
AcRTDxfName
1000
SCALE
1000
AcRTDxfName
1000
SCALE
1000
AcRTDxfName
1000
SCALE
1000
AcRTDxfName
1000
SCALE
  0
SCALE
  5
986B
102
{ACAD_REACTORS
330
9859
102
}
330
9859
100
AcDbScale
 70
     0
300
1/128" = 1'-0"
140
0.0078125
141
12.0
290
     0
1001
ACAD
1000
AcRTDxfName
1000
SCALE
1000
AcRTDxfName
1000
SCALE
1000
AcRTDxfName
1000
SCALE
1000
AcRTDxfName
1000
SCALE
1000
AcRTDxfName
1000
SCALE
1000
AcRTDxfName
1000
SCALE
  0
SCALE
  5
986C
102
{ACAD_REACTORS
330
9859
102
}
330
9859
100
AcDbScale
 70
     0
300
1/64" = 1'-0"
140
0.015625
141
12.0
290
     0
1001
ACAD
1000
AcRTDxfName
1000
SCALE
1000
AcRTDxfName
1000
SCALE
1000
AcRTDxfName
1000
SCALE
1000
AcRTDxfName
1000
SCALE
1000
AcRTDxfName
1000
SCALE
1000
AcRTDxfName
1000
SCALE
  0
SCALE
  5
986D
102
{ACAD_REACTORS
330
9859
102
}
330
9859
100
AcDbScale
 70
     0
300
1/32" = 1'-0"
140
0.03125
141
12.0
290
     0
1001
ACAD
1000
AcRTDxfName
1000
SCALE
1000
AcRTDxfName
1000
SCALE
1000
AcRTDxfName
1000
SCALE
1000
AcRTDxfName
1000
SCALE
1000
AcRTDxfName
1000
SCALE
1000
AcRTDxfName
1000
SCALE
  0
SCALE
  5
986E
102
{ACAD_REACTORS
330
9859
102
}
330
9859
100
AcDbScale
 70
     0
300
1/16" = 1'-0"
140
0.0625
141
12.0
290
     0
1001
ACAD
1000
AcRTDxfName
1000
SCALE
1000
AcRTDxfName
1000
SCALE
1000
AcRTDxfName
1000
SCALE
1000
AcRTDxfName
1000
SCALE
1000
AcRTDxfName
1000
SCALE
1000
AcRTDxfName
1000
SCALE
  0
SCALE
  5
986F
102
{ACAD_REACTORS
330
9859
102
}
330
9859
100
AcDbScale
 70
     0
300
3/32" = 1'-0"
140
0.09375
141
12.0
290
     0
1001
ACAD
1000
AcRTDxfName
1000
SCALE
1000
AcRTDxfName
1000
SCALE
1000
AcRTDxfName
1000
SCALE
1000
AcRTDxfName
1000
SCALE
1000
AcRTDxfName
1000
SCALE
1000
AcRTDxfName
1000
SCALE
  0
SCALE
  5
9870
102
{ACAD_REACTORS
330
9859
102
}
330
9859
100
AcDbScale
 70
     0
300
1/8" = 1'-0"
140
0.125
141
12.0
290
     0
1001
ACAD
1000
AcRTDxfName
1000
SCALE
1000
AcRTDxfName
1000
SCALE
1000
AcRTDxfName
1000
SCALE
1000
AcRTDxfName
1000
SCALE
1000
AcRTDxfName
1000
SCALE
1000
AcRTDxfName
1000
SCALE
  0
SCALE
  5
9871
102
{ACAD_REACTORS
330
9859
102
}
330
9859
100
AcDbScale
 70
     0
300
3/16" = 1'-0"
140
0.1875
141
12.0
290
     0
1001
ACAD
1000
AcRTDxfName
1000
SCALE
1000
AcRTDxfName
1000
SCALE
1000
AcRTDxfName
1000
SCALE
1000
AcRTDxfName
1000
SCALE
1000
AcRTDxfName
1000
SCALE
1000
AcRTDxfName
1000
SCALE
  0
SCALE
  5
9872
102
{ACAD_REACTORS
330
9859
102
}
330
9859
100
AcDbScale
 70
     0
300
1/4" = 1'-0"
140
0.25
141
12.0
290
     0
1001
ACAD
1000
AcRTDxfName
1000
SCALE
1000
AcRTDxfName
1000
SCALE
1000
AcRTDxfName
1000
SCALE
1000
AcRTDxfName
1000
SCALE
1000
AcRTDxfName
1000
SCALE
1000
AcRTDxfName
1000
SCALE
  0
SCALE
  5
9873
102
{ACAD_REACTORS
330
9859
102
}
330
9859
100
AcDbScale
 70
     0
300
3/8" = 1'-0"
140
0.375
141
12.0
290
     0
1001
ACAD
1000
AcRTDxfName
1000
SCALE
1000
AcRTDxfName
1000
SCALE
1000
AcRTDxfName
1000
SCALE
1000
AcRTDxfName
1000
SCALE
1000
AcRTDxfName
1000
SCALE
1000
AcRTDxfName
1000
SCALE
  0
SCALE
  5
9874
102
{ACAD_REACTORS
330
9859
102
}
330
9859
100
AcDbScale
 70
     0
300
1/2" = 1'-0"
140
0.5
141
12.0
290
     0
1001
ACAD
1000
AcRTDxfName
1000
SCALE
1000
AcRTDxfName
1000
SCALE
1000
AcRTDxfName
1000
SCALE
1000
AcRTDxfName
1000
SCALE
1000
AcRTDxfName
1000
SCALE
1000
AcRTDxfName
1000
SCALE
  0
SCALE
  5
9875
102
{ACAD_REACTORS
330
9859
102
}
330
9859
100
AcDbScale
 70
     0
300
3/4" = 1'-0"
140
0.75
141
12.0
290
     0
1001
ACAD
1000
AcRTDxfName
1000
SCALE
1000
AcRTDxfName
1000
SCALE
1000
AcRTDxfName
1000
SCALE
1000
AcRTDxfName
1000
SCALE
1000
AcRTDxfName
1000
SCALE
1000
AcRTDxfName
1000
SCALE
  0
SCALE
  5
9876
102
{ACAD_REACTORS
330
9859
102
}
330
9859
100
AcDbScale
 70
     0
300
1" = 1'-0"
140
1.0
141
12.0
290
     0
1001
ACAD
1000
AcRTDxfName
1000
SCALE
1000
AcRTDxfName
1000
SCALE
1000
AcRTDxfName
1000
SCALE
1000
AcRTDxfName
1000
SCALE
1000
AcRTDxfName
1000
SCALE
1000
AcRTDxfName
1000
SCALE
  0
SCALE
  5
9877
102
{ACAD_REACTORS
330
9859
102
}
330
9859
100
AcDbScale
 70
     0
300
1-1/2" = 1'-0"
140
1.5
141
12.0
290
     0
1001
ACAD
1000
AcRTDxfName
1000
SCALE
1000
AcRTDxfName
1000
SCALE
1000
AcRTDxfName
1000
SCALE
1000
AcRTDxfName
1000
SCALE
1000
AcRTDxfName
1000
SCALE
1000
AcRTDxfName
1000
SCALE
  0
SCALE
  5
9878
102
{ACAD_REACTORS
330
9859
102
}
330
9859
100
AcDbScale
 70
     0
300
3" = 1'-0"
140
3.0
141
12.0
290
     0
1001
ACAD
1000
AcRTDxfName
1000
SCALE
1000
AcRTDxfName
1000
SCALE
1000
AcRTDxfName
1000
SCALE
1000
AcRTDxfName
1000
SCALE
1000
AcRTDxfName
1000
SCALE
1000
AcRTDxfName
1000
SCALE
  0
SCALE
  5
9879
102
{ACAD_REACTORS
330
9859
102
}
330
9859
100
AcDbScale
 70
     0
300
6" = 1'-0"
140
6.0
141
12.0
290
     0
1001
ACAD
1000
AcRTDxfName
1000
SCALE
1000
AcRTDxfName
1000
SCALE
1000
AcRTDxfName
1000
SCALE
1000
AcRTDxfName
1000
SCALE
1000
AcRTDxfName
1000
SCALE
1000
AcRTDxfName
1000
SCALE
  0
SCALE
  5
987A
102
{ACAD_REACTORS
330
9859
102
}
330
9859
100
AcDbScale
 70
     0
300
1'-0" = 1'-0"
140
12.0
141
12.0
290
     0
1001
ACAD
1000
AcRTDxfName
1000
SCALE
1000
AcRTDxfName
1000
SCALE
1000
AcRTDxfName
1000
SCALE
1000
AcRTDxfName
1000
SCALE
1000
AcRTDxfName
1000
SCALE
1000
AcRTDxfName
1000
SCALE
  0
ACDBSECTIONVIEWSTYLE
  5
6062E27
102
{ACAD_XDICTIONARY
360
6062E3F
102
}
102
{ACAD_REACTORS
330
6062E25
102
}
330
6062E25
100
AcDbModelDocViewStyle
 70
     0
  3
Metric50
290
     0
100
AcDbSectionViewStyle
 70
     0
 71
     0
 90
      102
 71
     1
340
12
 62
   256
 40
5.0
340
0
340
0
 62
   256
 40
5.0
300
I, O, Q, S, X, Z
 40
10.0
 90
        0
 40
2.5
 90
        0
 71
     2
340
8
 90
       25
 62
   256
340
8
 90
       50
 62
   256
 40
5.0
 40
2.5
 40
5.0
 71
     3
340
12
 62
   256
 40
5.0
 90
        0
 40
15.0
 90
        1
300
%<\AcVar ViewSectionStartId>%-%<\AcVar ViewSectionEndId>% (%<\AcVar ViewScale \f "%sn">%)
 71
     4
 62
   256
 62
   257
300
ANSI31
 40
1.0
 90
        0
290
     0
290
     0
 90
        6
 40
0.0
 40
1.570796326794896
 40
0.2617993877991494
 40
1.308996938995747
 40
-0.2617993877991494
 40
1.832595714594046
  0
TABLESTYLE
  5
9858
102
{ACAD_XDICTIONARY
360
B800
102
}
102
{ACAD_REACTORS
330
46A6
102
}
330
46A6
100
AcDbTableStyle
280
     0
  3
Standard
 70
     0
 71
     0
 40
1.5
 41
1.5
280
     0
281
     0
  7
Standard
140
4.5
170
     2
 62
     0
 63
     7
283
     0
 90
      512
 91
        0
  1

274
    -2
284
     1
 64
     0
275
    -2
285
     1
 65
     0
276
    -2
286
     1
 66
     0
277
    -2
287
     1
 67
     0
278
    -2
288
     1
 68
     0
279
    -2
289
     1
 69
     0
  7
Standard
140
6.0
170
     5
 62
     0
 63
     7
283
     0
 90
      512
 91
        0
  1

274
    -2
284
     1
 64
     0
275
    -2
285
     1
 65
     0
276
    -2
286
     1
 66
     0
277
    -2
287
     1
 67
     0
278
    -2
288
     1
 68
     0
279
    -2
289
     1
 69
     0
  7
Standard
140
4.5
170
     5
 62
     0
 63
     7
283
     0
 90
      512
 91
        0
  1

274
    -2
284
     1
 64
     0
275
    -2
285
     1
 65
     0
276
    -2
286
     1
 66
     0
277
    -2
287
     1
 67
     0
278
    -2
288
     1
 68
     0
279
    -2
289
     1
 69
     0
  0
VISUALSTYLE
  5
984D
102
{ACAD_REACTORS
330
9847
102
}
330
9847
100
AcDbVisualStyle
  2
2dWireframe
 70
     4
177
     3
291
     0
 70
    58
 90
        0
176
     1
 90
        2
176
     1
 90
        0
176
     1
 90
        0
176
     1
 40
0.6
176
     1
 40
30.0
176
     1
 62
     7
176
     1
 90
        1
176
     1
 90
        4
176
     1
 62
     7
176
     1
 62
   257
176
     1
 90
        1
176
     1
 90
        1
176
     1
 40
1.0
176
     1
 90
        0
176
     1
 62
   257
176
     1
 40
1.0
176
     1
 90
        1
176
     1
 90
        6
176
     1
 90
        2
176
     1
 62
     7
176
     1
 90
        5
176
     1
 90
        0
176
     1
 90
        0
176
     1
290
     0
176
     1
 90
        1
176
     1
 40
0.0
176
     1
 90
        0
176
     1
290
     1
176
     1
290
     1
176
     1
290
     0
176
     1
290
     0
176
     1
290
     0
176
     1
290
     0
176
     1
290
     0
176
     1
290
     0
176
     1
290
     0
176
     1
 90
       50
176
     1
 40
0.0
176
     1
 40
1.0
176
     1
 90
        0
176
     1
 62
    18
420
        0
176
     1
 90
       50
176
     1
 90
        3
176
     1
 62
     5
420
      255
176
     1
290
     0
176
     1
 90
       50
176
     1
 90
       50
176
     1
 90
       50
176
     1
290
     0
176
     1
 90
       50
176
     1
 62
   256
176
     0
 40
1.0
176
     0
 90
        2
176
     1
  1
strokes_ogs.tif
176
     1
290
     0
176
     1
 40
1.0
176
     1
 40
1.0
176
     1
1001
ACAD
1000
AcRTDxfName
1000
VISUALSTYLE
1000
AcRTDxfName
1000
VISUALSTYLE
1000
AcRTDxfName
1000
VISUALSTYLE
1000
AcRTDxfName
1000
VISUALSTYLE
1000
AcRTDxfName
1000
VISUALSTYLE
1000
AcRTDxfName
1000
VISUALSTYLE
  0
VISUALSTYLE
  5
984F
102
{ACAD_REACTORS
330
9847
102
}
330
9847
100
AcDbVisualStyle
  2
3D Hidden
 70
     6
177
     3
291
     0
 70
    58
 90
        1
176
     1
 90
        2
176
     1
 90
        2
176
     1
 90
        0
176
     1
 40
0.6
176
     1
 40
30.0
176
     1
 62
     7
176
     1
 90
        2
176
     1
 90
        2
176
     1
 62
     7
176
     1
 62
   257
176
     1
 90
        2
176
     1
 90
        1
176
     1
 40
40.0
176
     1
 90
        0
176
     1
 62
   257
176
     1
 40
1.0
176
     1
 90
        1
176
     1
 90
        6
176
     1
 90
        2
176
     1
 62
     7
176
     1
 90
        3
176
     1
 90
        0
176
     1
 90
        0
176
     1
290
     0
176
     1
 90
        1
176
     1
 40
0.0
176
     1
 90
        0
176
     1
290
     0
176
     1
290
     1
176
     1
290
     1
176
     1
290
     0
176
     1
290
     0
176
     1
290
     0
176
     1
290
     0
176
     1
290
     0
176
     1
290
     0
176
     1
 90
       50
176
     1
 40
0.0
176
     1
 40
1.0
176
     1
 90
        0
176
     1
 62
    18
420
        0
176
     1
 90
       50
176
     1
 90
        3
176
     1
 62
     5
420
      255
176
     1
290
     0
176
     1
 90
       50
176
     1
 90
       50
176
     1
 90
       50
176
     1
290
     0
176
     1
 90
       50
176
     1
 62
   256
176
     0
 40
1.0
176
     0
 90
        2
176
     1
  1
strokes_ogs.tif
176
     1
290
     0
176
     1
 40
1.0
176
     1
 40
1.0
176
     1
1001
ACAD
1000
AcRTDxfName
1000
VISUALSTYLE
1000
AcRTDxfName
1000
VISUALSTYLE
1000
AcRTDxfName
1000
VISUALSTYLE
1000
AcRTDxfName
1000
VISUALSTYLE
1000
AcRTDxfName
1000
VISUALSTYLE
1000
AcRTDxfName
1000
VISUALSTYLE
  0
VISUALSTYLE
  5
984E
102
{ACAD_REACTORS
330
9847
102
}
330
9847
100
AcDbVisualStyle
  2
3dWireframe
 70
     5
177
     3
291
     0
 70
    58
 90
        0
176
     1
 90
        2
176
     1
 90
        0
176
     1
 90
        0
176
     1
 40
0.6
176
     1
 40
30.0
176
     1
 62
     7
176
     1
 90
        1
176
     1
 90
        4
176
     1
 62
     7
176
     1
 62
   257
176
     1
 90
        1
176
     1
 90
        1
176
     1
 40
1.0
176
     1
 90
        0
176
     1
 62
   257
176
     1
 40
1.0
176
     1
 90
        1
176
     1
 90
        6
176
     1
 90
        2
176
     1
 62
     7
176
     1
 90
        5
176
     1
 90
        0
176
     1
 90
        0
176
     1
290
     0
176
     1
 90
        1
176
     1
 40
0.0
176
     1
 90
        0
176
     1
290
     0
176
     1
290
     1
176
     1
290
     1
176
     1
290
     0
176
     1
290
     0
176
     1
290
     0
176
     1
290
     0
176
     1
290
     0
176
     1
290
     0
176
     1
 90
       50
176
     1
 40
0.0
176
     1
 40
1.0
176
     1
 90
        0
176
     1
 62
    18
420
        0
176
     1
 90
       50
176
     1
 90
        3
176
     1
 62
     5
420
      255
176
     1
290
     0
176
     1
 90
       50
176
     1
 90
       50
176
     1
 90
       50
176
     1
290
     0
176
     1
 90
       50
176
     1
 62
   256
176
     0
 40
1.0
176
     0
 90
        2
176
     1
  1
strokes_ogs.tif
176
     1
290
     0
176
     1
 40
1.0
176
     1
 40
1.0
176
     1
1001
ACAD
1000
AcRTDxfName
1000
VISUALSTYLE
1000
AcRTDxfName
1000
VISUALSTYLE
1000
AcRTDxfName
1000
VISUALSTYLE
1000
AcRTDxfName
1000
VISUALSTYLE
1000
AcRTDxfName
1000
VISUALSTYLE
1000
AcRTDxfName
1000
VISUALSTYLE
  0
VISUALSTYLE
  5
984C
102
{ACAD_REACTORS
330
9847
102
}
330
9847
100
AcDbVisualStyle
  2
Basic
 70
     7
177
     3
291
     1
 70
    58
 90
        1
176
     1
 90
        0
176
     1
 90
        1
176
     1
 90
        0
176
     1
 40
0.6
176
     1
 40
30.0
176
     1
 62
     7
176
     1
 90
        0
176
     1
 90
        4
176
     1
 62
     7
176
     1
 62
   257
176
     1
 90
        1
176
     1
 90
        1
176
     1
 40
1.0
176
     1
 90
        8
176
     1
 62
     7
176
     1
 40
1.0
176
     1
 90
        1
176
     1
 90
        6
176
     1
 90
        2
176
     1
 62
     7
176
     1
 90
        5
176
     1
 90
        0
176
     1
 90
        0
176
     1
290
     0
176
     1
 90
        1
176
     1
 40
0.0
176
     1
 90
        0
176
     1
290
     0
176
     1
290
     1
176
     1
290
     1
176
     1
290
     0
176
     1
290
     0
176
     1
290
     0
176
     1
290
     0
176
     1
290
     0
176
     1
290
     0
176
     1
 90
       50
176
     1
 40
0.0
176
     1
 40
1.0
176
     1
 90
        0
176
     1
 62
    18
420
        0
176
     1
 90
       50
176
     1
 90
        3
176
     1
 62
     5
420
      255
176
     1
290
     0
176
     1
 90
       50
176
     1
 90
       50
176
     1
 90
       50
176
     1
290
     0
176
     1
 90
       50
176
     1
 62
   256
176
     0
 40
1.0
176
     0
 90
        2
176
     1
  1
strokes_ogs.tif
176
     1
290
     0
176
     1
 40
1.0
176
     1
 40
1.0
176
     1
1001
ACAD
1000
AcRTDxfName
1000
VISUALSTYLE
1000
AcRTDxfName
1000
VISUALSTYLE
1000
AcRTDxfName
1000
VISUALSTYLE
1000
AcRTDxfName
1000
VISUALSTYLE
1000
AcRTDxfName
1000
VISUALSTYLE
1000
AcRTDxfName
1000
VISUALSTYLE
  0
VISUALSTYLE
  5
9853
102
{ACAD_REACTORS
330
9847
102
}
330
9847
100
AcDbVisualStyle
  2
Brighten
 70
    12
177
     3
291
     1
 70
    58
 90
        2
176
     1
 90
        2
176
     1
 90
        0
176
     1
 90
        0
176
     1
 40
0.6
176
     1
 40
30.0
176
     1
 62
     7
176
     1
 90
        1
176
     1
 90
        4
176
     1
 62
     7
176
     1
 62
   257
176
     1
 90
        1
176
     1
 90
        1
176
     1
 40
1.0
176
     1
 90
        8
176
     1
 62
     7
176
     1
 40
1.0
176
     1
 90
        1
176
     1
 90
        6
176
     1
 90
        2
176
     1
 62
     7
176
     1
 90
        5
176
     1
 90
        0
176
     1
 90
        0
176
     1
290
     0
176
     1
 90
        1
176
     1
 40
50.0
176
     1
 90
        0
176
     1
290
     0
176
     1
290
     1
176
     1
290
     1
176
     1
290
     0
176
     1
290
     0
176
     1
290
     0
176
     1
290
     0
176
     1
290
     0
176
     1
290
     0
176
     1
 90
       50
176
     1
 40
0.0
176
     1
 40
1.0
176
     1
 90
        0
176
     1
 62
    18
420
        0
176
     1
 90
       50
176
     1
 90
        3
176
     1
 62
     5
420
      255
176
     1
290
     0
176
     1
 90
       50
176
     1
 90
       50
176
     1
 90
       50
176
     1
290
     0
176
     1
 90
       50
176
     1
 62
   256
176
     0
 40
1.0
176
     0
 90
        2
176
     1
  1
strokes_ogs.tif
176
     1
290
     0
176
     1
 40
1.0
176
     1
 40
1.0
176
     1
1001
ACAD
1000
AcRTDxfName
1000
VISUALSTYLE
1000
AcRTDxfName
1000
VISUALSTYLE
1000
AcRTDxfName
1000
VISUALSTYLE
1000
AcRTDxfName
1000
VISUALSTYLE
1000
AcRTDxfName
1000
VISUALSTYLE
1000
AcRTDxfName
1000
VISUALSTYLE
  0
VISUALSTYLE
  5
9857
102
{ACAD_REACTORS
330
9847
102
}
330
9847
100
AcDbVisualStyle
  2
ColorChange
 70
    16
177
     3
291
     1
 70
    58
 90
        2
176
     1
 90
        2
176
     1
 90
        3
176
     1
 90
        0
176
     1
 40
0.6
176
     1
 40
30.0
176
     1
 62
     8
176
     1
 90
        1
176
     1
 90
        4
176
     1
 62
     7
176
     1
 62
   257
176
     1
 90
        1
176
     1
 90
        1
176
     1
 40
1.0
176
     1
 90
        8
176
     1
 62
     8
176
     1
 40
1.0
176
     1
 90
        1
176
     1
 90
        6
176
     1
 90
        2
176
     1
 62
     7
176
     1
 90
        5
176
     1
 90
        0
176
     1
 90
        0
176
     1
290
     0
176
     1
 90
        1
176
     1
 40
0.0
176
     1
 90
        0
176
     1
290
     0
176
     1
290
     1
176
     1
290
     1
176
     1
290
     0
176
     1
290
     0
176
     1
290
     0
176
     1
290
     0
176
     1
290
     0
176
     1
290
     0
176
     1
 90
       50
176
     1
 40
0.0
176
     1
 40
1.0
176
     1
 90
        0
176
     1
 62
    18
420
        0
176
     1
 90
       50
176
     1
 90
        3
176
     1
 62
     5
420
      255
176
     1
290
     0
176
     1
 90
       50
176
     1
 90
       50
176
     1
 90
       50
176
     1
290
     0
176
     1
 90
       50
176
     1
 62
   256
176
     0
 40
1.0
176
     0
 90
        2
176
     1
  1
strokes_ogs.tif
176
     1
290
     0
176
     1
 40
1.0
176
     1
 40
1.0
176
     1
1001
ACAD
1000
AcRTDxfName
1000
VISUALSTYLE
1000
AcRTDxfName
1000
VISUALSTYLE
1000
AcRTDxfName
1000
VISUALSTYLE
1000
AcRTDxfName
1000
VISUALSTYLE
1000
AcRTDxfName
1000
VISUALSTYLE
1000
AcRTDxfName
1000
VISUALSTYLE
  0
VISUALSTYLE
  5
9850
102
{ACAD_REACTORS
330
9847
102
}
330
9847
100
AcDbVisualStyle
  2
Conceptual
 70
     9
177
     3
291
     0
 70
    58
 90
        3
176
     1
 90
        2
176
     1
 90
        0
176
     1
 90
        0
176
     1
 40
0.6
176
     1
 40
30.0
176
     1
 62
     7
176
     1
 90
        2
176
     1
 90
        2
176
     1
 62
     7
176
     1
 62
   257
176
     1
 90
        1
176
     1
 90
        1
176
     1
 40
40.0
176
     1
 90
        8
176
     1
 62
     7
176
     1
 40
1.0
176
     1
 90
        1
176
     1
 90
        6
176
     1
 90
        2
176
     1
 62
     7
176
     1
 90
        3
176
     1
 90
        0
176
     1
 90
        0
176
     1
290
     0
176
     1
 90
        1
176
     1
 40
0.0
176
     1
 90
        0
176
     1
290
     0
176
     1
290
     1
176
     1
290
     1
176
     1
290
     0
176
     1
290
     0
176
     1
290
     0
176
     1
290
     0
176
     1
290
     0
176
     1
290
     0
176
     1
 90
       50
176
     1
 40
0.0
176
     1
 40
1.0
176
     1
 90
        0
176
     1
 62
    18
420
        0
176
     1
 90
       50
176
     1
 90
        3
176
     1
 62
     5
420
      255
176
     1
290
     0
176
     1
 90
       50
176
     1
 90
       50
176
     1
 90
       50
176
     1
290
     0
176
     1
 90
       50
176
     1
 62
   256
176
     0
 40
1.0
176
     0
 90
        2
176
     1
  1
strokes_ogs.tif
176
     1
290
     0
176
     1
 40
1.0
176
     1
 40
1.0
176
     1
1001
ACAD
1000
AcRTDxfName
1000
VISUALSTYLE
1000
AcRTDxfName
1000
VISUALSTYLE
1000
AcRTDxfName
1000
VISUALSTYLE
1000
AcRTDxfName
1000
VISUALSTYLE
1000
AcRTDxfName
1000
VISUALSTYLE
1000
AcRTDxfName
1000
VISUALSTYLE
  0
VISUALSTYLE
  5
9852
102
{ACAD_REACTORS
330
9847
102
}
330
9847
100
AcDbVisualStyle
  2
Dim
 70
    11
177
     3
291
     1
 70
    58
 90
        2
176
     1
 90
        2
176
     1
 90
        0
176
     1
 90
        0
176
     1
 40
0.6
176
     1
 40
30.0
176
     1
 62
     7
176
     1
 90
        1
176
     1
 90
        4
176
     1
 62
     7
176
     1
 62
   257
176
     1
 90
        1
176
     1
 90
        1
176
     1
 40
1.0
176
     1
 90
        8
176
     1
 62
     7
176
     1
 40
1.0
176
     1
 90
        1
176
     1
 90
        6
176
     1
 90
        2
176
     1
 62
     7
176
     1
 90
        5
176
     1
 90
        0
176
     1
 90
        0
176
     1
290
     0
176
     1
 90
        1
176
     1
 40
-50.0
176
     1
 90
        0
176
     1
290
     0
176
     1
290
     1
176
     1
290
     1
176
     1
290
     0
176
     1
290
     0
176
     1
290
     0
176
     1
290
     0
176
     1
290
     0
176
     1
290
     0
176
     1
 90
       50
176
     1
 40
0.0
176
     1
 40
1.0
176
     1
 90
        0
176
     1
 62
    18
420
        0
176
     1
 90
       50
176
     1
 90
        3
176
     1
 62
     5
420
      255
176
     1
290
     0
176
     1
 90
       50
176
     1
 90
       50
176
     1
 90
       50
176
     1
290
     0
176
     1
 90
       50
176
     1
 62
   256
176
     0
 40
1.0
176
     0
 90
        2
176
     1
  1
strokes_ogs.tif
176
     1
290
     0
176
     1
 40
1.0
176
     1
 40
1.0
176
     1
1001
ACAD
1000
AcRTDxfName
1000
VISUALSTYLE
1000
AcRTDxfName
1000
VISUALSTYLE
1000
AcRTDxfName
1000
VISUALSTYLE
1000
AcRTDxfName
1000
VISUALSTYLE
1000
AcRTDxfName
1000
VISUALSTYLE
1000
AcRTDxfName
1000
VISUALSTYLE
  0
VISUALSTYLE
  5
6062E24
102
{ACAD_REACTORS
330
9847
102
}
330
9847
100
AcDbVisualStyle
  2
EdgeColorOff
 70
    22
177
     3
291
     1
 70
    58
 90
        2
176
     0
 90
        2
176
     0
 90
        0
176
     0
 90
        0
176
     0
 40
0.6
176
     0
 40
30.0
176
     0
 62
     7
420
 16777215
176
     0
 90
        1
176
     0
 90
        4
176
     0
 62
     7
176
     0
 62
   257
176
     0
 90
        1
176
     0
 90
        1
176
     0
 40
1.0
176
     0
 90
        8
176
     2
 62
     7
176
     0
 40
1.0
176
     0
 90
        1
176
     0
 90
        6
176
     0
 90
        2
176
     0
 62
     7
176
     0
 90
        5
176
     0
 90
        0
176
     0
 90
        0
176
     0
290
     0
176
     0
 90
        1
176
     0
 40
0.0
176
     0
 90
        0
176
     0
290
     0
176
     0
290
     1
176
     0
290
     1
176
     0
290
     0
176
     0
290
     0
176
     0
290
     0
176
     0
290
     0
176
     0
290
     0
176
     0
290
     0
176
     0
 90
       50
176
     0
 40
0.0
176
     0
 40
1.0
176
     0
 90
        0
176
     0
 62
    18
420
        0
176
     0
 90
       50
176
     0
 90
        3
176
     0
 62
     5
420
      255
176
     0
290
     0
176
     0
 90
       50
176
     0
 90
       50
176
     0
 90
       50
176
     0
290
     0
176
     0
 90
       50
176
     0
 62
   256
176
     0
 40
1.0
176
     0
 90
        2
176
     0
  1
strokes_ogs.tif
176
     0
290
     0
176
     0
 40
1.0
176
     0
 40
1.0
176
     0
  0
VISUALSTYLE
  5
9856
102
{ACAD_REACTORS
330
9847
102
}
330
9847
100
AcDbVisualStyle
  2
Facepattern
 70
    15
177
     3
291
     1
 70
    58
 90
        2
176
     1
 90
        2
176
     1
 90
        0
176
     1
 90
        0
176
     1
 40
0.6
176
     1
 40
30.0
176
     1
 62
     7
176
     1
 90
        1
176
     1
 90
        4
176
     1
 62
     7
176
     1
 62
   257
176
     1
 90
        1
176
     1
 90
        1
176
     1
 40
1.0
176
     1
 90
        8
176
     1
 62
     7
176
     1
 40
1.0
176
     1
 90
        1
176
     1
 90
        6
176
     1
 90
        2
176
     1
 62
     7
176
     1
 90
        5
176
     1
 90
        0
176
     1
 90
        0
176
     1
290
     0
176
     1
 90
        1
176
     1
 40
0.0
176
     1
 90
        0
176
     1
290
     0
176
     1
290
     1
176
     1
290
     1
176
     1
290
     0
176
     1
290
     0
176
     1
290
     0
176
     1
290
     0
176
     1
290
     0
176
     1
290
     0
176
     1
 90
       50
176
     1
 40
0.0
176
     1
 40
1.0
176
     1
 90
        0
176
     1
 62
    18
420
        0
176
     1
 90
       50
176
     1
 90
        3
176
     1
 62
     5
420
      255
176
     1
290
     0
176
     1
 90
       50
176
     1
 90
       50
176
     1
 90
       50
176
     1
290
     0
176
     1
 90
       50
176
     1
 62
   256
176
     0
 40
1.0
176
     0
 90
        2
176
     1
  1
strokes_ogs.tif
176
     1
290
     0
176
     1
 40
1.0
176
     1
 40
1.0
176
     1
1001
ACAD
1000
AcRTDxfName
1000
VISUALSTYLE
1000
AcRTDxfName
1000
VISUALSTYLE
1000
AcRTDxfName
1000
VISUALSTYLE
1000
AcRTDxfName
1000
VISUALSTYLE
1000
AcRTDxfName
1000
VISUALSTYLE
1000
AcRTDxfName
1000
VISUALSTYLE
  0
VISUALSTYLE
  5
9848
102
{ACAD_REACTORS
330
9847
102
}
330
9847
100
AcDbVisualStyle
  2
Flat
 70
     0
177
     3
291
     1
 70
    58
 90
        2
176
     1
 90
        1
176
     1
 90
        1
176
     1
 90
        2
176
     1
 40
0.6
176
     1
 40
30.0
176
     1
 62
     7
176
     1
 90
        0
176
     1
 90
        4
176
     1
 62
     7
176
     1
 62
   257
176
     1
 90
        1
176
     1
 90
        1
176
     1
 40
1.0
176
     1
 90
        8
176
     1
 62
     7
176
     1
 40
1.0
176
     1
 90
        1
176
     1
 90
        6
176
     1
 90
        2
176
     1
 62
     7
176
     1
 90
        5
176
     1
 90
        0
176
     1
 90
        0
176
     1
290
     0
176
     1
 90
       13
176
     1
 40
0.0
176
     1
 90
        0
176
     1
290
     0
176
     1
290
     1
176
     1
290
     1
176
     1
290
     0
176
     1
290
     0
176
     1
290
     0
176
     1
290
     0
176
     1
290
     0
176
     1
290
     0
176
     1
 90
       50
176
     1
 40
0.0
176
     1
 40
1.0
176
     1
 90
        0
176
     1
 62
    18
420
        0
176
     1
 90
       50
176
     1
 90
        3
176
     1
 62
     5
420
      255
176
     1
290
     0
176
     1
 90
       50
176
     1
 90
       50
176
     1
 90
       50
176
     1
290
     0
176
     1
 90
       50
176
     1
 62
   256
176
     0
 40
1.0
176
     0
 90
        2
176
     1
  1
strokes_ogs.tif
176
     1
290
     0
176
     1
 40
1.0
176
     1
 40
1.0
176
     1
1001
ACAD
1000
AcRTDxfName
1000
VISUALSTYLE
1000
AcRTDxfName
1000
VISUALSTYLE
1000
AcRTDxfName
1000
VISUALSTYLE
1000
AcRTDxfName
1000
VISUALSTYLE
1000
AcRTDxfName
1000
VISUALSTYLE
1000
AcRTDxfName
1000
VISUALSTYLE
  0
VISUALSTYLE
  5
9849
102
{ACAD_REACTORS
330
9847
102
}
330
9847
100
AcDbVisualStyle
  2
FlatWithEdges
 70
     1
177
     3
291
     1
 70
    58
 90
        2
176
     1
 90
        1
176
     1
 90
        1
176
     1
 90
        2
176
     1
 40
0.6
176
     1
 40
30.0
176
     1
 62
     7
176
     1
 90
        1
176
     1
 90
        4
176
     1
 62
     7
176
     1
 62
   257
176
     1
 90
        1
176
     1
 90
        1
176
     1
 40
1.0
176
     1
 90
        0
176
     1
 62
   257
176
     1
 40
1.0
176
     1
 90
        1
176
     1
 90
        6
176
     1
 90
        2
176
     1
 62
     7
176
     1
 90
        5
176
     1
 90
        0
176
     1
 90
        0
176
     1
290
     0
176
     1
 90
       13
176
     1
 40
0.0
176
     1
 90
        0
176
     1
290
     0
176
     1
290
     1
176
     1
290
     1
176
     1
290
     0
176
     1
290
     0
176
     1
290
     0
176
     1
290
     0
176
     1
290
     0
176
     1
290
     0
176
     1
 90
       50
176
     1
 40
0.0
176
     1
 40
1.0
176
     1
 90
        0
176
     1
 62
    18
420
        0
176
     1
 90
       50
176
     1
 90
        3
176
     1
 62
     5
420
      255
176
     1
290
     0
176
     1
 90
       50
176
     1
 90
       50
176
     1
 90
       50
176
     1
290
     0
176
     1
 90
       50
176
     1
 62
   256
176
     0
 40
1.0
176
     0
 90
        2
176
     1
  1
strokes_ogs.tif
176
     1
290
     0
176
     1
 40
1.0
176
     1
 40
1.0
176
     1
1001
ACAD
1000
AcRTDxfName
1000
VISUALSTYLE
1000
AcRTDxfName
1000
VISUALSTYLE
1000
AcRTDxfName
1000
VISUALSTYLE
1000
AcRTDxfName
1000
VISUALSTYLE
1000
AcRTDxfName
1000
VISUALSTYLE
1000
AcRTDxfName
1000
VISUALSTYLE
  0
VISUALSTYLE
  5
984A
102
{ACAD_REACTORS
330
9847
102
}
330
9847
100
AcDbVisualStyle
  2
Gouraud
 70
     2
177
     3
291
     1
 70
    58
 90
        2
176
     1
 90
        2
176
     1
 90
        1
176
     1
 90
        2
176
     1
 40
0.6
176
     1
 40
30.0
176
     1
 62
     7
176
     1
 90
        0
176
     1
 90
        4
176
     1
 62
     7
176
     1
 62
   257
176
     1
 90
        1
176
     1
 90
        1
176
     1
 40
1.0
176
     1
 90
        0
176
     1
 62
     7
176
     1
 40
1.0
176
     1
 90
        1
176
     1
 90
        6
176
     1
 90
        2
176
     1
 62
     7
176
     1
 90
        5
176
     1
 90
        0
176
     1
 90
        0
176
     1
290
     0
176
     1
 90
       13
176
     1
 40
0.0
176
     1
 90
        0
176
     1
290
     0
176
     1
290
     1
176
     1
290
     1
176
     1
290
     0
176
     1
290
     0
176
     1
290
     0
176
     1
290
     0
176
     1
290
     0
176
     1
290
     0
176
     1
 90
       50
176
     1
 40
0.0
176
     1
 40
1.0
176
     1
 90
        0
176
     1
 62
    18
420
        0
176
     1
 90
       50
176
     1
 90
        3
176
     1
 62
     5
420
      255
176
     1
290
     0
176
     1
 90
       50
176
     1
 90
       50
176
     1
 90
       50
176
     1
290
     0
176
     1
 90
       50
176
     1
 62
   256
176
     0
 40
1.0
176
     0
 90
        2
176
     1
  1
strokes_ogs.tif
176
     1
290
     0
176
     1
 40
1.0
176
     1
 40
1.0
176
     1
1001
ACAD
1000
AcRTDxfName
1000
VISUALSTYLE
1000
AcRTDxfName
1000
VISUALSTYLE
1000
AcRTDxfName
1000
VISUALSTYLE
1000
AcRTDxfName
1000
VISUALSTYLE
1000
AcRTDxfName
1000
VISUALSTYLE
1000
AcRTDxfName
1000
VISUALSTYLE
  0
VISUALSTYLE
  5
984B
102
{ACAD_REACTORS
330
9847
102
}
330
9847
100
AcDbVisualStyle
  2
GouraudWithEdges
 70
     3
177
     3
291
     1
 70
    58
 90
        2
176
     1
 90
        2
176
     1
 90
        1
176
     1
 90
        2
176
     1
 40
0.6
176
     1
 40
30.0
176
     1
 62
     7
176
     1
 90
        1
176
     1
 90
        4
176
     1
 62
     7
176
     1
 62
   257
176
     1
 90
        1
176
     1
 90
        1
176
     1
 40
1.0
176
     1
 90
        0
176
     1
 62
   257
176
     1
 40
1.0
176
     1
 90
        1
176
     1
 90
        6
176
     1
 90
        2
176
     1
 62
     7
176
     1
 90
        5
176
     1
 90
        0
176
     1
 90
        0
176
     1
290
     0
176
     1
 90
       13
176
     1
 40
0.0
176
     1
 90
        0
176
     1
290
     0
176
     1
290
     1
176
     1
290
     1
176
     1
290
     0
176
     1
290
     0
176
     1
290
     0
176
     1
290
     0
176
     1
290
     0
176
     1
290
     0
176
     1
 90
       50
176
     1
 40
0.0
176
     1
 40
1.0
176
     1
 90
        0
176
     1
 62
    18
420
        0
176
     1
 90
       50
176
     1
 90
        3
176
     1
 62
     5
420
      255
176
     1
290
     0
176
     1
 90
       50
176
     1
 90
       50
176
     1
 90
       50
176
     1
290
     0
176
     1
 90
       50
176
     1
 62
   256
176
     0
 40
1.0
176
     0
 90
        2
176
     1
  1
strokes_ogs.tif
176
     1
290
     0
176
     1
 40
1.0
176
     1
 40
1.0
176
     1
1001
ACAD
1000
AcRTDxfName
1000
VISUALSTYLE
1000
AcRTDxfName
1000
VISUALSTYLE
1000
AcRTDxfName
1000
VISUALSTYLE
1000
AcRTDxfName
1000
VISUALSTYLE
1000
AcRTDxfName
1000
VISUALSTYLE
1000
AcRTDxfName
1000
VISUALSTYLE
  0
VISUALSTYLE
  5
6062E1C
102
{ACAD_REACTORS
330
9847
102
}
330
9847
100
AcDbVisualStyle
  2
Hidden
 70
     6
177
     3
291
     0
 70
    58
 90
        1
176
     1
 90
        2
176
     1
 90
        2
176
     1
 90
        0
176
     1
 40
0.6
176
     1
 40
30.0
176
     1
 62
     7
420
 16777215
176
     1
 90
        2
176
     1
 90
        2
176
     1
 62
     7
176
     1
 62
   257
176
     1
 90
        2
176
     1
 90
        1
176
     1
 40
40.0
176
     1
 90
        0
176
     1
 62
   257
176
     1
 40
1.0
176
     1
 90
        1
176
     1
 90
        6
176
     1
 90
        2
176
     1
 62
     7
176
     1
 90
        3
176
     1
 90
        0
176
     1
 90
        0
176
     1
290
     0
176
     1
 90
        1
176
     1
 40
0.0
176
     1
 90
        0
176
     1
290
     0
176
     1
290
     1
176
     1
290
     1
176
     1
290
     0
176
     1
290
     0
176
     1
290
     0
176
     1
290
     0
176
     1
290
     0
176
     1
290
     0
176
     1
 90
       50
176
     1
 40
0.0
176
     1
 40
1.0
176
     1
 90
        0
176
     1
 62
    18
420
        0
176
     1
 90
       50
176
     1
 90
        3
176
     1
 62
     5
420
      255
176
     1
290
     0
176
     1
 90
       50
176
     1
 90
       50
176
     1
 90
       50
176
     1
290
     0
176
     1
 90
       50
176
     1
 62
   256
176
     0
 40
1.0
176
     0
 90
        2
176
     1
  1
strokes_ogs.tif
176
     1
290
     0
176
     1
 40
1.0
176
     1
 40
1.0
176
     1
  0
VISUALSTYLE
  5
6062E22
102
{ACAD_REACTORS
330
9847
102
}
330
9847
100
AcDbVisualStyle
  2
JitterOff
 70
    20
177
     3
291
     1
 70
    58
 90
        2
176
     0
 90
        2
176
     0
 90
        0
176
     0
 90
        0
176
     0
 40
0.6
176
     0
 40
30.0
176
     0
 62
     7
420
 16777215
176
     0
 90
        1
176
     0
 90
        4
176
     0
 62
     7
176
     0
 62
   257
176
     0
 90
        1
176
     0
 90
        1
176
     0
 40
1.0
176
     0
 90
       10
176
     2
 62
     7
176
     0
 40
1.0
176
     0
 90
        1
176
     0
 90
        6
176
     0
 90
        2
176
     0
 62
     7
176
     0
 90
        5
176
     0
 90
        0
176
     0
 90
        0
176
     0
290
     0
176
     0
 90
        1
176
     0
 40
0.0
176
     0
 90
        0
176
     0
290
     0
176
     0
290
     1
176
     0
290
     1
176
     0
290
     0
176
     0
290
     0
176
     0
290
     0
176
     0
290
     0
176
     0
290
     0
176
     0
290
     0
176
     0
 90
       50
176
     0
 40
0.0
176
     0
 40
1.0
176
     0
 90
        0
176
     0
 62
    18
420
        0
176
     0
 90
       50
176
     0
 90
        3
176
     0
 62
     5
420
      255
176
     0
290
     0
176
     0
 90
       50
176
     0
 90
       50
176
     0
 90
       50
176
     0
290
     0
176
     0
 90
       50
176
     0
 62
   256
176
     0
 40
1.0
176
     0
 90
        2
176
     0
  1
strokes_ogs.tif
176
     0
290
     0
176
     0
 40
1.0
176
     0
 40
1.0
176
     0
  0
VISUALSTYLE
  5
9855
102
{ACAD_REACTORS
330
9847
102
}
330
9847
100
AcDbVisualStyle
  2
Linepattern
 70
    14
177
     3
291
     1
 70
    58
 90
        2
176
     1
 90
        2
176
     1
 90
        0
176
     1
 90
        0
176
     1
 40
0.6
176
     1
 40
30.0
176
     1
 62
     7
176
     1
 90
        1
176
     1
 90
        4
176
     1
 62
     7
176
     1
 62
   257
176
     1
 90
        7
176
     1
 90
        7
176
     1
 40
1.0
176
     1
 90
        8
176
     1
 62
     7
176
     1
 40
1.0
176
     1
 90
        1
176
     1
 90
        6
176
     1
 90
        2
176
     1
 62
     7
176
     1
 90
        5
176
     1
 90
        0
176
     1
 90
        0
176
     1
290
     0
176
     1
 90
        1
176
     1
 40
0.0
176
     1
 90
        0
176
     1
290
     0
176
     1
290
     1
176
     1
290
     1
176
     1
290
     0
176
     1
290
     0
176
     1
290
     0
176
     1
290
     0
176
     1
290
     0
176
     1
290
     0
176
     1
 90
       50
176
     1
 40
0.0
176
     1
 40
1.0
176
     1
 90
        0
176
     1
 62
    18
420
        0
176
     1
 90
       50
176
     1
 90
        3
176
     1
 62
     5
420
      255
176
     1
290
     0
176
     1
 90
       50
176
     1
 90
       50
176
     1
 90
       50
176
     1
290
     0
176
     1
 90
       50
176
     1
 62
   256
176
     0
 40
1.0
176
     0
 90
        2
176
     1
  1
strokes_ogs.tif
176
     1
290
     0
176
     1
 40
1.0
176
     1
 40
1.0
176
     1
1001
ACAD
1000
AcRTDxfName
1000
VISUALSTYLE
1000
AcRTDxfName
1000
VISUALSTYLE
1000
AcRTDxfName
1000
VISUALSTYLE
1000
AcRTDxfName
1000
VISUALSTYLE
1000
AcRTDxfName
1000
VISUALSTYLE
1000
AcRTDxfName
1000
VISUALSTYLE
  0
VISUALSTYLE
  5
6062E23
102
{ACAD_REACTORS
330
9847
102
}
330
9847
100
AcDbVisualStyle
  2
OverhangOff
 70
    21
177
     3
291
     1
 70
    58
 90
        2
176
     0
 90
        2
176
     0
 90
        0
176
     0
 90
        0
176
     0
 40
0.6
176
     0
 40
30.0
176
     0
 62
     7
420
 16777215
176
     0
 90
        1
176
     0
 90
        4
176
     0
 62
     7
176
     0
 62
   257
176
     0
 90
        1
176
     0
 90
        1
176
     0
 40
1.0
176
     0
 90
        9
176
     2
 62
     7
176
     0
 40
1.0
176
     0
 90
        1
176
     0
 90
        6
176
     0
 90
        2
176
     0
 62
     7
176
     0
 90
        5
176
     0
 90
        0
176
     0
 90
        0
176
     0
290
     0
176
     0
 90
        1
176
     0
 40
0.0
176
     0
 90
        0
176
     0
290
     0
176
     0
290
     1
176
     0
290
     1
176
     0
290
     0
176
     0
290
     0
176
     0
290
     0
176
     0
290
     0
176
     0
290
     0
176
     0
290
     0
176
     0
 90
       50
176
     0
 40
0.0
176
     0
 40
1.0
176
     0
 90
        0
176
     0
 62
    18
420
        0
176
     0
 90
       50
176
     0
 90
        3
176
     0
 62
     5
420
      255
176
     0
290
     0
176
     0
 90
       50
176
     0
 90
       50
176
     0
 90
       50
176
     0
290
     0
176
     0
 90
       50
176
     0
 62
   256
176
     0
 40
1.0
176
     0
 90
        2
176
     0
  1
strokes_ogs.tif
176
     0
290
     0
176
     0
 40
1.0
176
     0
 40
1.0
176
     0
  0
VISUALSTYLE
  5
9851
102
{ACAD_REACTORS
330
9847
102
}
330
9847
100
AcDbVisualStyle
  2
Realistic
 70
     8
177
     3
291
     0
 70
    58
 90
        2
176
     1
 90
        2
176
     1
 90
        0
176
     1
 90
        0
176
     1
 40
0.6
176
     1
 40
30.0
176
     1
 62
     7
176
     1
 90
        1
176
     1
 90
        0
176
     1
 62
     7
176
     1
 62
   257
176
     1
 90
        1
176
     1
 90
        1
176
     1
 40
1.0
176
     1
 90
        8
176
     1
 62
     8
176
     1
 40
1.0
176
     1
 90
        1
176
     1
 90
        6
176
     1
 90
        2
176
     1
 62
     7
176
     1
 90
        5
176
     1
 90
        0
176
     1
 90
        0
176
     1
290
     0
176
     1
 90
       13
176
     1
 40
0.0
176
     1
 90
        0
176
     1
290
     0
176
     1
290
     1
176
     1
290
     1
176
     1
290
     0
176
     1
290
     0
176
     1
290
     0
176
     1
290
     0
176
     1
290
     0
176
     1
290
     0
176
     1
 90
       50
176
     1
 40
0.0
176
     1
 40
1.0
176
     1
 90
        0
176
     1
 62
    18
420
        0
176
     1
 90
       50
176
     1
 90
        3
176
     1
 62
     5
420
      255
176
     1
290
     0
176
     1
 90
       50
176
     1
 90
       50
176
     1
 90
       50
176
     1
290
     0
176
     1
 90
       50
176
     1
 62
   256
176
     0
 40
1.0
176
     0
 90
        2
176
     1
  1
strokes_ogs.tif
176
     1
290
     0
176
     1
 40
1.0
176
     1
 40
1.0
176
     1
1001
ACAD
1000
AcRTDxfName
1000
VISUALSTYLE
1000
AcRTDxfName
1000
VISUALSTYLE
1000
AcRTDxfName
1000
VISUALSTYLE
1000
AcRTDxfName
1000
VISUALSTYLE
1000
AcRTDxfName
1000
VISUALSTYLE
1000
AcRTDxfName
1000
VISUALSTYLE
  0
VISUALSTYLE
  5
6062E21
102
{ACAD_REACTORS
330
9847
102
}
330
9847
100
AcDbVisualStyle
  2
Shaded
 70
    27
177
     3
291
     0
 70
    58
 90
        2
176
     1
 90
        2
176
     1
 90
        1
176
     1
 90
        2
176
     1
 40
0.6
176
     1
 40
30.0
176
     1
 62
     7
420
 16777215
176
     1
 90
        0
176
     1
 90
        4
176
     1
 62
     7
176
     1
 62
   257
176
     1
 90
        1
176
     1
 90
        1
176
     1
 40
1.0
176
     1
 90
        8
176
     1
 62
   257
176
     1
 40
1.0
176
     1
 90
        1
176
     1
 90
        6
176
     1
 90
        2
176
     1
 62
     8
420
  7895160
176
     1
 90
        3
176
     1
 90
        0
176
     1
 90
        0
176
     1
290
     0
176
     1
 90
        5
176
     1
 40
0.0
176
     1
 90
        0
176
     1
290
     0
176
     1
290
     1
176
     1
290
     1
176
     1
290
     0
176
     1
290
     0
176
     1
290
     0
176
     1
290
     0
176
     1
290
     0
176
     1
290
     0
176
     1
 90
       50
176
     1
 40
0.0
176
     1
 40
1.0
176
     1
 90
        0
176
     1
 62
    18
420
        0
176
     1
 90
       50
176
     1
 90
        3
176
     1
 62
     5
420
      255
176
     1
290
     0
176
     1
 90
       50
176
     1
 90
       50
176
     1
 90
       50
176
     1
290
     0
176
     1
 90
       50
176
     1
 62
   256
176
     0
 40
1.0
176
     0
 90
        2
176
     1
  1
strokes_ogs.tif
176
     1
290
     0
176
     1
 40
1.0
176
     1
 40
1.0
176
     1
  0
VISUALSTYLE
  5
6062E20
102
{ACAD_REACTORS
330
9847
102
}
330
9847
100
AcDbVisualStyle
  2
Shaded with edges
 70
    26
177
     3
291
     0
 70
    58
 90
        2
176
     1
 90
        2
176
     1
 90
        1
176
     1
 90
        2
176
     1
 40
0.6
176
     1
 40
30.0
176
     1
 62
     7
420
 16777215
176
     1
 90
        1
176
     1
 90
        2
176
     1
 62
     7
176
     1
 62
   257
176
     1
 90
        2
176
     1
 90
        1
176
     1
 40
1.0
176
     1
 90
        8
176
     1
 62
   257
176
     1
 40
1.0
176
     1
 90
        1
176
     1
 90
        6
176
     1
 90
        2
176
     1
 62
     7
176
     1
 90
        3
176
     1
 90
        0
176
     1
 90
        0
176
     1
290
     0
176
     1
 90
        5
176
     1
 40
0.0
176
     1
 90
        0
176
     1
290
     0
176
     1
290
     1
176
     1
290
     1
176
     1
290
     0
176
     1
290
     0
176
     1
290
     0
176
     1
290
     0
176
     1
290
     0
176
     1
290
     0
176
     1
 90
       50
176
     1
 40
0.0
176
     1
 40
1.0
176
     1
 90
        0
176
     1
 62
    18
420
        0
176
     1
 90
       50
176
     1
 90
        3
176
     1
 62
     5
420
      255
176
     1
290
     0
176
     1
 90
       50
176
     1
 90
       50
176
     1
 90
       50
176
     1
290
     0
176
     1
 90
       50
176
     1
 62
   256
176
     0
 40
1.0
176
     0
 90
        2
176
     1
  1
strokes_ogs.tif
176
     1
290
     0
176
     1
 40
1.0
176
     1
 40
1.0
176
     1
  0
VISUALSTYLE
  5
6062E1D
102
{ACAD_REACTORS
330
9847
102
}
330
9847
100
AcDbVisualStyle
  2
Shades of Gray
 70
    23
177
     3
291
     0
 70
    58
 90
        2
176
     1
 90
        2
176
     1
 90
        3
176
     1
 90
        0
176
     1
 40
0.6
176
     1
 40
30.0
176
     1
 62
     7
420
 16777215
176
     1
 90
        2
176
     1
 90
        2
176
     1
 62
     7
176
     1
 62
     7
176
     1
 90
        1
176
     1
 90
        1
176
     1
 40
40.0
176
     1
 90
        8
176
     1
 62
     7
176
     1
 40
1.0
176
     1
 90
        1
176
     1
 90
        6
176
     1
 90
        2
176
     1
 62
     7
176
     1
 90
        3
176
     1
 90
        0
176
     1
 90
        0
176
     1
290
     0
176
     1
 90
        1
176
     1
 40
0.0
176
     1
 90
        0
176
     1
290
     0
176
     1
290
     1
176
     1
290
     1
176
     1
290
     0
176
     1
290
     0
176
     1
290
     0
176
     1
290
     0
176
     1
290
     0
176
     1
290
     0
176
     1
 90
       50
176
     1
 40
0.0
176
     1
 40
1.0
176
     1
 90
        0
176
     1
 62
    18
420
        0
176
     1
 90
       50
176
     1
 90
        3
176
     1
 62
     5
420
      255
176
     1
290
     0
176
     1
 90
       50
176
     1
 90
       50
176
     1
 90
       50
176
     1
290
     0
176
     1
 90
       50
176
     1
 62
   256
176
     0
 40
1.0
176
     0
 90
        2
176
     1
  1
strokes_ogs.tif
176
     1
290
     0
176
     1
 40
1.0
176
     1
 40
1.0
176
     1
  0
VISUALSTYLE
  5
6062E1E
102
{ACAD_REACTORS
330
9847
102
}
330
9847
100
AcDbVisualStyle
  2
Sketchy
 70
    24
177
     3
291
     0
 70
    58
 90
        1
176
     1
 90
        2
176
     1
 90
        2
176
     1
 90
        0
176
     1
 40
0.6
176
     1
 40
30.0
176
     1
 62
     7
420
 16777215
176
     1
 90
        2
176
     1
 90
        2
176
     1
 62
     7
176
     1
 62
     7
176
     1
 90
        1
176
     1
 90
        1
176
     1
 40
40.0
176
     1
 90
       11
176
     1
 62
     7
176
     1
 40
1.0
176
     1
 90
        1
176
     1
 90
        6
176
     1
 90
        2
176
     1
 62
     7
176
     1
 90
        6
176
     1
 90
        0
176
     1
 90
        0
176
     1
290
     0
176
     1
 90
        1
176
     1
 40
0.0
176
     1
 90
        0
176
     1
290
     0
176
     1
290
     1
176
     1
290
     1
176
     1
290
     0
176
     1
290
     0
176
     1
290
     0
176
     1
290
     0
176
     1
290
     0
176
     1
290
     0
176
     1
 90
       50
176
     1
 40
0.0
176
     1
 40
1.0
176
     1
 90
        0
176
     1
 62
    18
420
        0
176
     1
 90
       50
176
     1
 90
        3
176
     1
 62
     5
420
      255
176
     1
290
     0
176
     1
 90
       50
176
     1
 90
       50
176
     1
 90
       50
176
     1
290
     0
176
     1
 90
       50
176
     1
 62
   256
176
     0
 40
1.0
176
     0
 90
        2
176
     1
  1
strokes_ogs.tif
176
     1
290
     0
176
     1
 40
1.0
176
     1
 40
1.0
176
     1
  0
VISUALSTYLE
  5
9854
102
{ACAD_REACTORS
330
9847
102
}
330
9847
100
AcDbVisualStyle
  2
Thicken
 70
    13
177
     3
291
     1
 70
    58
 90
        2
176
     1
 90
        2
176
     1
 90
        0
176
     1
 90
        0
176
     1
 40
0.6
176
     1
 40
30.0
176
     1
 62
     7
176
     1
 90
        1
176
     1
 90
        4
176
     1
 62
     7
176
     1
 62
   257
176
     1
 90
        1
176
     1
 90
        1
176
     1
 40
1.0
176
     1
 90
       12
176
     1
 62
     7
176
     1
 40
1.0
176
     1
 90
        1
176
     1
 90
        6
176
     1
 90
        2
176
     1
 62
     7
176
     1
 90
        5
176
     1
 90
        0
176
     1
 90
        0
176
     1
290
     0
176
     1
 90
        1
176
     1
 40
0.0
176
     1
 90
        0
176
     1
290
     0
176
     1
290
     1
176
     1
290
     1
176
     1
290
     0
176
     1
290
     0
176
     1
290
     0
176
     1
290
     0
176
     1
290
     0
176
     1
290
     0
176
     1
 90
       50
176
     1
 40
0.0
176
     1
 40
1.0
176
     1
 90
        0
176
     1
 62
    18
420
        0
176
     1
 90
       50
176
     1
 90
        3
176
     1
 62
     5
420
      255
176
     1
290
     0
176
     1
 90
       50
176
     1
 90
       50
176
     1
 90
       50
176
     1
290
     0
176
     1
 90
       50
176
     1
 62
   256
176
     0
 40
1.0
176
     0
 90
        2
176
     1
  1
strokes_ogs.tif
176
     1
290
     0
176
     1
 40
1.0
176
     1
 40
1.0
176
     1
1001
ACAD
1000
AcRTDxfName
1000
VISUALSTYLE
1000
AcRTDxfName
1000
VISUALSTYLE
1000
AcRTDxfName
1000
VISUALSTYLE
1000
AcRTDxfName
1000
VISUALSTYLE
1000
AcRTDxfName
1000
VISUALSTYLE
1000
AcRTDxfName
1000
VISUALSTYLE
  0
VISUALSTYLE
  5
6062E1B
102
{ACAD_REACTORS
330
9847
102
}
330
9847
100
AcDbVisualStyle
  2
Wireframe
 70
     5
177
     3
291
     0
 70
    58
 90
        0
176
     1
 90
        2
176
     1
 90
        0
176
     1
 90
        0
176
     1
 40
0.6
176
     1
 40
30.0
176
     1
 62
     7
420
 16777215
176
     1
 90
        1
176
     1
 90
        4
176
     1
 62
     7
176
     1
 62
   257
176
     1
 90
        1
176
     1
 90
        1
176
     1
 40
1.0
176
     1
 90
        0
176
     1
 62
   257
176
     1
 40
1.0
176
     1
 90
        1
176
     1
 90
        6
176
     1
 90
        2
176
     1
 62
     7
176
     1
 90
        3
176
     1
 90
        0
176
     1
 90
        0
176
     1
290
     0
176
     1
 90
        1
176
     1
 40
0.0
176
     1
 90
        0
176
     1
290
     0
176
     1
290
     1
176
     1
290
     1
176
     1
290
     0
176
     1
290
     0
176
     1
290
     0
176
     1
290
     0
176
     1
290
     0
176
     1
290
     0
176
     1
 90
       50
176
     1
 40
0.0
176
     1
 40
1.0
176
     1
 90
        0
176
     1
 62
    18
420
        0
176
     1
 90
       50
176
     1
 90
        3
176
     1
 62
     5
420
      255
176
     1
290
     0
176
     1
 90
       50
176
     1
 90
       50
176
     1
 90
       50
176
     1
290
     0
176
     1
 90
       50
176
     1
 62
   256
176
     0
 40
1.0
176
     0
 90
        2
176
     1
  1
strokes_ogs.tif
176
     1
290
     0
176
     1
 40
1.0
176
     1
 40
1.0
176
     1
  0
VISUALSTYLE
  5
6062E1F
102
{ACAD_REACTORS
330
9847
102
}
330
9847
100
AcDbVisualStyle
  2
X-Ray
 70
    25
177
     3
291
     0
 70
    58
 90
        2
176
     1
 90
        2
176
     1
 90
        1
176
     1
 90
        1
176
     1
 40
0.5
176
     1
 40
30.0
176
     1
 62
     7
420
 16777215
176
     1
 90
        1
176
     1
 90
        0
176
     1
 62
     7
176
     1
 62
   257
176
     1
 90
        1
176
     1
 90
        1
176
     1
 40
1.0
176
     1
 90
        8
176
     1
 62
     7
176
     1
 40
1.0
176
     1
 90
        1
176
     1
 90
        6
176
     1
 90
        2
176
     1
 62
     7
176
     1
 90
        3
176
     1
 90
        0
176
     1
 90
        0
176
     1
290
     0
176
     1
 90
       13
176
     1
 40
0.0
176
     1
 90
        0
176
     1
290
     0
176
     1
290
     1
176
     1
290
     1
176
     1
290
     0
176
     1
290
     0
176
     1
290
     0
176
     1
290
     0
176
     1
290
     0
176
     1
290
     0
176
     1
 90
       50
176
     1
 40
0.0
176
     1
 40
1.0
176
     1
 90
        0
176
     1
 62
    18
420
        0
176
     1
 90
       50
176
     1
 90
        3
176
     1
 62
     5
420
      255
176
     1
290
     0
176
     1
 90
       50
176
     1
 90
       50
176
     1
 90
       50
176
     1
290
     0
176
     1
 90
       50
176
     1
 62
   256
176
     0
 40
1.0
176
     0
 90
        2
176
     1
  1
strokes_ogs.tif
176
     1
290
     0
176
     1
 40
1.0
176
     1
 40
1.0
176
     1
  0
DICTIONARYVAR
  5
B806
102
{ACAD_REACTORS
330
4557
102
}
330
4557
100
DictionaryVariables
280
     0
  1
1:1
  0
DICTIONARYVAR
  5
B804
102
{ACAD_REACTORS
330
4557
102
}
330
4557
100
DictionaryVariables
280
     0
  1
STANDARD
  0
DICTIONARYVAR
  5
B803
102
{ACAD_REACTORS
330
4557
102
}
330
4557
100
DictionaryVariables
280
     0
  1
STANDARD
  0
DICTIONARYVAR
  5
6062E3A
102
{ACAD_REACTORS
330
4557
102
}
330
4557
100
DictionaryVariables
280
     0
  1
Metric50
  0
DICTIONARYVAR
  5
6062E3B
102
{ACAD_REACTORS
330
4557
102
}
330
4557
100
DictionaryVariables
280
     0
  1
Metric50
  0
DICTIONARYVAR
  5
62496
102
{ACAD_REACTORS
330
4557
102
}
330
4557
100
DictionaryVariables
280
     0
  1
2
  0
DICTIONARYVAR
  5
4558
102
{ACAD_REACTORS
330
4557
102
}
330
4557
100
DictionaryVariables
280
     0
  1
1
  0
DICTIONARYVAR
  5
62495
102
{ACAD_REACTORS
330
4557
102
}
330
4557
100
DictionaryVariables
280
     0
  1
1
  0
DICTIONARYVAR
  5
62494
102
{ACAD_REACTORS
330
4557
102
}
330
4557
100
DictionaryVariables
280
     0
  1
0
  0
DICTIONARYVAR
  5
6062E3C
102
{ACAD_REACTORS
330
4557
102
}
330
4557
100
DictionaryVariables
280
     0
  1
1
  0
DICTIONARYVAR
  5
6062E3D
102
{ACAD_REACTORS
330
4557
102
}
330
4557
100
DictionaryVariables
280
     0
  1
15
  0
DICTIONARYVAR
  5
B807
102
{ACAD_REACTORS
330
4557
102
}
330
4557
100
DictionaryVariables
280
     0
  1
0
  0
DICTIONARYVAR
  5
B805
102
{ACAD_REACTORS
330
4557
102
}
330
4557
100
DictionaryVariables
280
     0
  1
0
  0
DICTIONARYVAR
  5
62887
102
{ACAD_REACTORS
330
4557
102
}
330
4557
100
DictionaryVariables
280
     0
  1

  0
DICTIONARYVAR
  5
62493
102
{ACAD_REACTORS
330
4557
102
}
330
4557
100
DictionaryVariables
280
     0
  1
127
  0
XRECORD
  5
62BAC
102
{ACAD_REACTORS
330
62BAB
102
}
330
62BAB
100
AcDbXrecord
280
     1
330
629E7
330
629E8
330
629F1
330
629F2
330
629FB
330
629FC
330
62A03
330
62A04
330
62A0B
330
62A0C
330
62A12
330
62A13
330
62A1C
330
62A1D
330
62A25
330
62A2B
330
62AC1
330
62AC2
330
62A39
330
62A3F
330
62A40
330
62A49
330
62A4A
330
62A52
330
62A58
330
62A59
330
62A62
330
62A63
330
0
330
0
330
0
330
0
330
0
330
0
330
0
330
0
330
62C8B
330
62C8C
330
62C94
330
62C95
330
62C9D
330
62C9E
330
62CA7
330
62CA8
  0
DICTIONARY
  5
6062E41
330
6062E29
100
AcDbDictionary
280
     1
281
     1
  3
ACAD_XREC_ROUNDTRIP
360
6062E42
  0
DICTIONARY
  5
9838
330
9837
100
AcDbDictionary
280
     1
281
     1
  3
BUMPTILE
360
983A
  3
DIFFUSETILE
360
9839
  3
OPACITYTILE
360
983D
  3
REFLECTIONTILE
360
983C
  3
REFRACTIONTILE
360
983E
  3
SPECULARTILE
360
983B
  0
DICTIONARY
  5
9830
330
982F
100
AcDbDictionary
280
     1
281
     1
  3
BUMPTILE
360
9832
  3
DIFFUSETILE
360
9831
  3
OPACITYTILE
360
9835
  3
REFLECTIONTILE
360
9834
  3
REFRACTIONTILE
360
9836
  3
SPECULARTILE
360
9833
  0
DICTIONARY
  5
9840
330
983F
100
AcDbDictionary
280
     1
281
     1
  3
BUMPTILE
360
9842
  3
DIFFUSETILE
360
9841
  3
OPACITYTILE
360
9845
  3
REFLECTIONTILE
360
9844
  3
REFRACTIONTILE
360
9846
  3
SPECULARTILE
360
9843
  0
DICTIONARY
  5
6062E3F
330
6062E27
100
AcDbDictionary
280
     1
281
     1
  3
ACAD_XREC_ROUNDTRIP
360
6062E40
  0
DICTIONARY
  5
B800
330
9858
100
AcDbDictionary
280
     1
281
     1
  3
ACAD_ROUNDTRIP_2008_TABLESTYLE_CELLSTYLEMAP
360
6062E3E
  0
XRECORD
  5
6062E42
102
{ACAD_REACTORS
330
6062E41
102
}
330
6062E41
100
AcDbXrecord
280
     1
102
DISPLAYNAME
  1
Metric50
102
FLAGS
 90
        0
  0
XRECORD
  5
983A
102
{ACAD_REACTORS
330
9838
102
}
330
9838
100
AcDbXrecord
280
     1
270
     1
271
     1
  0
XRECORD
  5
9839
102
{ACAD_REACTORS
330
9838
102
}
330
9838
100
AcDbXrecord
280
     1
270
     1
271
     1
  0
XRECORD
  5
983D
102
{ACAD_REACTORS
330
9838
102
}
330
9838
100
AcDbXrecord
280
     1
270
     1
271
     1
  0
XRECORD
  5
983C
102
{ACAD_REACTORS
330
9838
102
}
330
9838
100
AcDbXrecord
280
     1
270
     1
271
     1
  0
XRECORD
  5
983E
102
{ACAD_REACTORS
330
9838
102
}
330
9838
100
AcDbXrecord
280
     1
270
     1
271
     1
  0
XRECORD
  5
983B
102
{ACAD_REACTORS
330
9838
102
}
330
9838
100
AcDbXrecord
280
     1
270
     1
271
     1
  0
XRECORD
  5
9832
102
{ACAD_REACTORS
330
9830
102
}
330
9830
100
AcDbXrecord
280
     1
270
     1
271
     1
  0
XRECORD
  5
9831
102
{ACAD_REACTORS
330
9830
102
}
330
9830
100
AcDbXrecord
280
     1
270
     1
271
     1
  0
XRECORD
  5
9835
102
{ACAD_REACTORS
330
9830
102
}
330
9830
100
AcDbXrecord
280
     1
270
     1
271
     1
  0
XRECORD
  5
9834
102
{ACAD_REACTORS
330
9830
102
}
330
9830
100
AcDbXrecord
280
     1
270
     1
271
     1
  0
XRECORD
  5
9836
102
{ACAD_REACTORS
330
9830
102
}
330
9830
100
AcDbXrecord
280
     1
270
     1
271
     1
  0
XRECORD
  5
9833
102
{ACAD_REACTORS
330
9830
102
}
330
9830
100
AcDbXrecord
280
     1
270
     1
271
     1
  0
XRECORD
  5
9842
102
{ACAD_REACTORS
330
9840
102
}
330
9840
100
AcDbXrecord
280
     1
270
     1
271
     1
  0
XRECORD
  5
9841
102
{ACAD_REACTORS
330
9840
102
}
330
9840
100
AcDbXrecord
280
     1
270
     1
271
     1
  0
XRECORD
  5
9845
102
{ACAD_REACTORS
330
9840
102
}
330
9840
100
AcDbXrecord
280
     1
270
     1
271
     1
  0
XRECORD
  5
9844
102
{ACAD_REACTORS
330
9840
102
}
330
9840
100
AcDbXrecord
280
     1
270
     1
271
     1
  0
XRECORD
  5
9846
102
{ACAD_REACTORS
330
9840
102
}
330
9840
100
AcDbXrecord
280
     1
270
     1
271
     1
  0
XRECORD
  5
9843
102
{ACAD_REACTORS
330
9840
102
}
330
9840
100
AcDbXrecord
280
     1
270
     1
271
     1
  0
XRECORD
  5
6062E40
102
{ACAD_REACTORS
330
6062E3F
102
}
330
6062E3F
100
AcDbXrecord
280
     1
102
DISPLAYNAME
  1
Metric50
102
FLAGS
 90
        0
  0
CELLSTYLEMAP
  5
6062E3E
102
{ACAD_REACTORS
330
B800
102
}
330
B800
100
AcDbCellStyleMap
 90
        3
300
CELLSTYLE
  1
TABLEFORMAT_BEGIN
 90
        5
170
     1
 91
        0
 92
    32768
 62
   257
 93
        1
300
CONTENTFORMAT
  1
CONTENTFORMAT_BEGIN
 90
        0
 91
        0
 92
      512
 93
        0
300

 40
0.0
140
1.0
 94
        5
 62
     0
340
12
144
6.0
309
CONTENTFORMAT_END
171
     1
301
MARGIN
  1
CELLMARGIN_BEGIN
 40
1.5
 40
1.5
 40
1.5
 40
1.5
 40
0.18
 40
0.18
309
CELLMARGIN_END
 94
        6
 95
        1
302
GRIDFORMAT
  1
GRIDFORMAT_BEGIN
 90
        0
 91
        1
 62
     0
 92
       -2
340
0
 93
        0
 40
1.125
309
GRIDFORMAT_END
 95
        2
302
GRIDFORMAT
  1
GRIDFORMAT_BEGIN
 90
        0
 91
        1
 62
     0
 92
       -2
340
0
 93
        0
 40
1.125
309
GRIDFORMAT_END
 95
        4
302
GRIDFORMAT
  1
GRIDFORMAT_BEGIN
 90
        0
 91
        1
 62
     0
 92
       -2
340
0
 93
        0
 40
1.125
309
GRIDFORMAT_END
 95
        8
302
GRIDFORMAT
  1
GRIDFORMAT_BEGIN
 90
        0
 91
        1
 62
     0
 92
       -2
340
0
 93
        0
 40
1.125
309
GRIDFORMAT_END
 95
       16
302
GRIDFORMAT
  1
GRIDFORMAT_BEGIN
 90
        0
 91
        1
 62
     0
 92
       -2
340
0
 93
        0
 40
1.125
309
GRIDFORMAT_END
 95
       32
302
GRIDFORMAT
  1
GRIDFORMAT_BEGIN
 90
        0
 91
        1
 62
     0
 92
       -2
340
0
 93
        0
 40
1.125
309
GRIDFORMAT_END
309
TABLEFORMAT_END
  1
CELLSTYLE_BEGIN
 90
        1
 91
        1
300
_TITLE
309
CELLSTYLE_END
300
CELLSTYLE
  1
TABLEFORMAT_BEGIN
 90
        5
170
     1
 91
        0
 92
        0
 62
   257
 93
        1
300
CONTENTFORMAT
  1
CONTENTFORMAT_BEGIN
 90
        0
 91
        0
 92
      512
 93
        0
300

 40
0.0
140
1.0
 94
        5
 62
     0
340
12
144
4.5
309
CONTENTFORMAT_END
171
     1
301
MARGIN
  1
CELLMARGIN_BEGIN
 40
1.5
 40
1.5
 40
1.5
 40
1.5
 40
0.18
 40
0.18
309
CELLMARGIN_END
 94
        6
 95
        1
302
GRIDFORMAT
  1
GRIDFORMAT_BEGIN
 90
        0
 91
        1
 62
     0
 92
       -2
340
0
 93
        0
 40
1.125
309
GRIDFORMAT_END
 95
        2
302
GRIDFORMAT
  1
GRIDFORMAT_BEGIN
 90
        0
 91
        1
 62
     0
 92
       -2
340
0
 93
        0
 40
1.125
309
GRIDFORMAT_END
 95
        4
302
GRIDFORMAT
  1
GRIDFORMAT_BEGIN
 90
        0
 91
        1
 62
     0
 92
       -2
340
0
 93
        0
 40
1.125
309
GRIDFORMAT_END
 95
        8
302
GRIDFORMAT
  1
GRIDFORMAT_BEGIN
 90
        0
 91
        1
 62
     0
 92
       -2
340
0
 93
        0
 40
1.125
309
GRIDFORMAT_END
 95
       16
302
GRIDFORMAT
  1
GRIDFORMAT_BEGIN
 90
        0
 91
        1
 62
     0
 92
       -2
340
0
 93
        0
 40
1.125
309
GRIDFORMAT_END
 95
       32
302
GRIDFORMAT
  1
GRIDFORMAT_BEGIN
 90
        0
 91
        1
 62
     0
 92
       -2
340
0
 93
        0
 40
1.125
309
GRIDFORMAT_END
309
TABLEFORMAT_END
  1
CELLSTYLE_BEGIN
 90
        2
 91
        1
300
_HEADER
309
CELLSTYLE_END
300
CELLSTYLE
  1
TABLEFORMAT_BEGIN
 90
        5
170
     1
 91
        0
 92
        0
 62
   257
 93
        1
300
CONTENTFORMAT
  1
CONTENTFORMAT_BEGIN
 90
        0
 91
        0
 92
      512
 93
        0
300

 40
0.0
140
1.0
 94
        2
 62
     0
340
12
144
4.5
309
CONTENTFORMAT_END
171
     1
301
MARGIN
  1
CELLMARGIN_BEGIN
 40
1.5
 40
1.5
 40
1.5
 40
1.5
 40
0.18
 40
0.18
309
CELLMARGIN_END
 94
        6
 95
        1
302
GRIDFORMAT
  1
GRIDFORMAT_BEGIN
 90
        0
 91
        1
 62
     0
 92
       -2
340
0
 93
        0
 40
1.125
309
GRIDFORMAT_END
 95
        2
302
GRIDFORMAT
  1
GRIDFORMAT_BEGIN
 90
        0
 91
        1
 62
     0
 92
       -2
340
0
 93
        0
 40
1.125
309
GRIDFORMAT_END
 95
        4
302
GRIDFORMAT
  1
GRIDFORMAT_BEGIN
 90
        0
 91
        1
 62
     0
 92
       -2
340
0
 93
        0
 40
1.125
309
GRIDFORMAT_END
 95
        8
302
GRIDFORMAT
  1
GRIDFORMAT_BEGIN
 90
        0
 91
        1
 62
     0
 92
       -2
340
0
 93
        0
 40
1.125
309
GRIDFORMAT_END
 95
       16
302
GRIDFORMAT
  1
GRIDFORMAT_BEGIN
 90
        0
 91
        1
 62
     0
 92
       -2
340
0
 93
        0
 40
1.125
309
GRIDFORMAT_END
 95
       32
302
GRIDFORMAT
  1
GRIDFORMAT_BEGIN
 90
        0
 91
        1
 62
     0
 92
       -2
340
0
 93
        0
 40
1.125
309
GRIDFORMAT_END
309
TABLEFORMAT_END
  1
CELLSTYLE_BEGIN
 90
        3
 91
        2
300
_DATA
309
CELLSTYLE_END
  0
ENDSEC
  0
EOF
