  0
SECTION
  2
HEADER
  9
$ACADVER
  1
AC1027
  9
$ACADMAINTVER
 70
   125
  9
$DWGCODEPAGE
  3
ANSI_1252
  9
$LASTSAVEDBY
  1
fleminab
  9
$REQUIREDVERSIONS
160
                 0
  9
$INSBASE
 10
0.0
 20
0.0
 30
0.0
  9
$EXTMIN
 10
2308.115274562087
 20
65.63032003813862
 30
-0.0015258207003583
  9
$EXTMAX
 10
2654.397463334373
 20
259.5252782710113
 30
0.0000000349246037
  9
$LIMMIN
 10
0.0
 20
0.0
  9
$LIMMAX
 10
420.0
 20
297.0
  9
$ORTHOMODE
 70
     0
  9
$REGENMODE
 70
     1
  9
$FILLMODE
 70
     1
  9
$QTEXTMODE
 70
     0
  9
$MIRRTEXT
 70
     0
  9
$LTSCALE
 40
0.3
  9
$ATTMODE
 70
     1
  9
$TEXTSIZE
 40
2.5
  9
$TRACEWID
 40
1.0
  9
$TEXTSTYLE
  7
Standard
  9
$CLAYER
  8
0
  9
$CELTYPE
  6
ByLayer
  9
$CECOLOR
 62
   256
  9
$CELTSCALE
 40
1.0
  9
$DISPSILH
 70
     0
  9
$DIMSCALE
 40
2.5
  9
$DIMASZ
 40
2.5
  9
$DIMEXO
 40
0.625
  9
$DIMDLI
 40
3.75
  9
$DIMRND
 40
0.0
  9
$DIMDLE
 40
0.0
  9
$DIMEXE
 40
1.25
  9
$DIMTP
 40
0.0
  9
$DIMTM
 40
0.0
  9
$DIMTXT
 40
2.5
  9
$DIMCEN
 40
2.5
  9
$DIMTSZ
 40
0.0
  9
$DIMTOL
 70
     0
  9
$DIMLIM
 70
     0
  9
$DIMTIH
 70
     0
  9
$DIMTOH
 70
     0
  9
$DIMSE1
 70
     0
  9
$DIMSE2
 70
     0
  9
$DIMTAD
 70
     1
  9
$DIMZIN
 70
     8
  9
$DIMBLK
  1

  9
$DIMASO
 70
     1
  9
$DIMSHO
 70
     1
  9
$DIMPOST
  1

  9
$DIMAPOST
  1

  9
$DIMALT
 70
     0
  9
$DIMALTD
 70
     3
  9
$DIMALTF
 40
0.03937007874016
  9
$DIMLFAC
 40
1.0
  9
$DIMTOFL
 70
     1
  9
$DIMTVP
 40
0.0
  9
$DIMTIX
 70
     0
  9
$DIMSOXD
 70
     0
  9
$DIMSAH
 70
     0
  9
$DIMBLK1
  1

  9
$DIMBLK2
  1

  9
$DIMSTYLE
  2
ISO-25
  9
$DIMCLRD
 70
     0
  9
$DIMCLRE
 70
     0
  9
$DIMCLRT
 70
     0
  9
$DIMTFAC
 40
1.0
  9
$DIMGAP
 40
0.625
  9
$DIMJUST
 70
     0
  9
$DIMSD1
 70
     0
  9
$DIMSD2
 70
     0
  9
$DIMTOLJ
 70
     0
  9
$DIMTZIN
 70
     8
  9
$DIMALTZ
 70
     0
  9
$DIMALTTZ
 70
     0
  9
$DIMUPT
 70
     0
  9
$DIMDEC
 70
     2
  9
$DIMTDEC
 70
     2
  9
$DIMALTU
 70
     2
  9
$DIMALTTD
 70
     3
  9
$DIMTXSTY
  7
Standard
  9
$DIMAUNIT
 70
     0
  9
$DIMADEC
 70
     0
  9
$DIMALTRND
 40
0.0
  9
$DIMAZIN
 70
     0
  9
$DIMDSEP
 70
    46
  9
$DIMATFIT
 70
     3
  9
$DIMFRAC
 70
     0
  9
$DIMLDRBLK
  1

  9
$DIMLUNIT
 70
     2
  9
$DIMLWD
 70
    -2
  9
$DIMLWE
 70
    -2
  9
$DIMTMOVE
 70
     0
  9
$DIMFXL
 40
1.0
  9
$DIMFXLON
 70
     0
  9
$DIMJOGANG
 40
0.7853981633974483
  9
$DIMTFILL
 70
     0
  9
$DIMTFILLCLR
 70
     0
  9
$DIMARCSYM
 70
     0
  9
$DIMLTYPE
  6

  9
$DIMLTEX1
  6

  9
$DIMLTEX2
  6

  9
$DIMTXTDIRECTION
 70
     0
  9
$LUNITS
 70
     2
  9
$LUPREC
 70
     4
  9
$SKETCHINC
 40
1.0
  9
$FILLETRAD
 40
0.0
  9
$AUNITS
 70
     0
  9
$AUPREC
 70
     0
  9
$MENU
  1
.
  9
$ELEVATION
 40
0.0
  9
$PELEVATION
 40
0.0
  9
$THICKNESS
 40
0.0
  9
$LIMCHECK
 70
     0
  9
$CHAMFERA
 40
0.5
  9
$CHAMFERB
 40
0.5
  9
$CHAMFERC
 40
0.0
  9
$CHAMFERD
 40
0.0
  9
$SKPOLY
 70
     0
  9
$TDCREATE
 40
2454820.718125001
  9
$TDUCREATE
 40
2454820.259800706
  9
$TDUPDATE
 40
2458015.597314815
  9
$TDUUPDATE
 40
2458015.180648148
  9
$TDINDWG
 40
0.2035082523
  9
$TDUSRTIMER
 40
0.2035082523
  9
$USRTIMER
 70
     1
  9
$ANGBASE
 50
0.0
  9
$ANGDIR
 70
     0
  9
$PDMODE
 70
     0
  9
$PDSIZE
 40
0.0
  9
$PLINEWID
 40
0.0
  9
$SPLFRAME
 70
     0
  9
$SPLINETYPE
 70
     6
  9
$SPLINESEGS
 70
     8
  9
$HANDSEED
  5
2E36
  9
$SURFTAB1
 70
     6
  9
$SURFTAB2
 70
     6
  9
$SURFTYPE
 70
     6
  9
$SURFU
 70
     6
  9
$SURFV
 70
     6
  9
$UCSBASE
  2

  9
$UCSNAME
  2

  9
$UCSORG
 10
0.0
 20
0.0
 30
0.0
  9
$UCSXDIR
 10
1.0
 20
0.0
 30
0.0
  9
$UCSYDIR
 10
0.0
 20
1.0
 30
0.0
  9
$UCSORTHOREF
  2

  9
$UCSORTHOVIEW
 70
     0
  9
$UCSORGTOP
 10
0.0
 20
0.0
 30
0.0
  9
$UCSORGBOTTOM
 10
0.0
 20
0.0
 30
0.0
  9
$UCSORGLEFT
 10
0.0
 20
0.0
 30
0.0
  9
$UCSORGRIGHT
 10
0.0
 20
0.0
 30
0.0
  9
$UCSORGFRONT
 10
0.0
 20
0.0
 30
0.0
  9
$UCSORGBACK
 10
0.0
 20
0.0
 30
0.0
  9
$PUCSBASE
  2

  9
$PUCSNAME
  2

  9
$PUCSORG
 10
0.0
 20
0.0
 30
0.0
  9
$PUCSXDIR
 10
1.0
 20
0.0
 30
0.0
  9
$PUCSYDIR
 10
0.0
 20
1.0
 30
0.0
  9
$PUCSORTHOREF
  2

  9
$PUCSORTHOVIEW
 70
     0
  9
$PUCSORGTOP
 10
0.0
 20
0.0
 30
0.0
  9
$PUCSORGBOTTOM
 10
0.0
 20
0.0
 30
0.0
  9
$PUCSORGLEFT
 10
0.0
 20
0.0
 30
0.0
  9
$PUCSORGRIGHT
 10
0.0
 20
0.0
 30
0.0
  9
$PUCSORGFRONT
 10
0.0
 20
0.0
 30
0.0
  9
$PUCSORGBACK
 10
0.0
 20
0.0
 30
0.0
  9
$USERI1
 70
     0
  9
$USERI2
 70
     0
  9
$USERI3
 70
     0
  9
$USERI4
 70
     0
  9
$USERI5
 70
     0
  9
$USERR1
 40
0.0
  9
$USERR2
 40
0.0
  9
$USERR3
 40
0.0
  9
$USERR4
 40
0.0
  9
$USERR5
 40
0.0
  9
$WORLDVIEW
 70
     1
  9
$SHADEDGE
 70
     3
  9
$SHADEDIF
 70
    70
  9
$TILEMODE
 70
     1
  9
$MAXACTVP
 70
    64
  9
$PINSBASE
 10
0.0
 20
0.0
 30
0.0
  9
$PLIMCHECK
 70
     0
  9
$PEXTMIN
 10
0.0
 20
0.0
 30
0.0
  9
$PEXTMAX
 10
0.0
 20
0.0
 30
0.0
  9
$PLIMMIN
 10
0.0
 20
0.0
  9
$PLIMMAX
 10
12.0
 20
9.0
  9
$UNITMODE
 70
     0
  9
$VISRETAIN
 70
     1
  9
$PLINEGEN
 70
     0
  9
$PSLTSCALE
 70
     1
  9
$TREEDEPTH
 70
  3020
  9
$CMLSTYLE
  2
Standard
  9
$CMLJUST
 70
     0
  9
$CMLSCALE
 40
20.0
  9
$PROXYGRAPHICS
 70
     1
  9
$MEASUREMENT
 70
     1
  9
$CELWEIGHT
370
    -1
  9
$ENDCAPS
280
     0
  9
$JOINSTYLE
280
     0
  9
$LWDISPLAY
290
     1
  9
$INSUNITS
 70
     4
  9
$HYPERLINKBASE
  1

  9
$STYLESHEET
  1

  9
$XEDIT
290
     1
  9
$CEPSNTYPE
380
     0
  9
$PSTYLEMODE
290
     1
  9
$FINGERPRINTGUID
  2
{468A9624-4C38-4882-BEBC-C4A470AC1383}
  9
$VERSIONGUID
  2
{3E8C1D99-52AB-C64C-B2A6-319574386044}
  9
$EXTNAMES
290
     1
  9
$PSVPSCALE
 40
0.0
  9
$OLESTARTUP
290
     0
  9
$SORTENTS
280
   127
  9
$INDEXCTL
280
     0
  9
$HIDETEXT
280
     1
  9
$XCLIPFRAME
280
     0
  9
$HALOGAP
280
     0
  9
$OBSCOLOR
 70
   257
  9
$OBSLTYPE
280
     0
  9
$INTERSECTIONDISPLAY
280
     0
  9
$INTERSECTIONCOLOR
 70
   257
  9
$DIMASSOC
280
     2
  9
$PROJECTNAME
  1

  9
$CAMERADISPLAY
290
     0
  9
$LENSLENGTH
 40
50.0
  9
$CAMERAHEIGHT
 40
0.0
  9
$STEPSPERSEC
 40
2.0
  9
$STEPSIZE
 40
6.0
  9
$3DDWFPREC
 40
2.0
  9
$PSOLWIDTH
 40
0.25
  9
$PSOLHEIGHT
 40
4.0
  9
$LOFTANG1
 40
1.570796326794896
  9
$LOFTANG2
 40
1.570796326794896
  9
$LOFTMAG1
 40
0.0
  9
$LOFTMAG2
 40
0.0
  9
$LOFTPARAM
 70
     7
  9
$LOFTNORMALS
280
     1
  9
$LATITUDE
 40
37.795
  9
$LONGITUDE
 40
-122.394
  9
$NORTHDIRECTION
 40
0.0
  9
$TIMEZONE
 70
 -8000
  9
$LIGHTGLYPHDISPLAY
280
     1
  9
$TILEMODELIGHTSYNCH
280
     1
  9
$CMATERIAL
347
2DB2
  9
$SOLIDHIST
280
     0
  9
$SHOWHIST
280
     1
  9
$DWFFRAME
280
     2
  9
$DGNFRAME
280
     0
  9
$REALWORLDSCALE
290
     1
  9
$INTERFERECOLOR
 62
     1
  9
$INTERFEREOBJVS
345
2DD4
  9
$INTERFEREVPVS
346
2DD1
  9
$CSHADOW
280
     0
  9
$SHADOWPLANELOCATION
 40
0.0
  0
ENDSEC
  0
SECTION
  2
CLASSES
  0
CLASS
  1
ACDBDICTIONARYWDFLT
  2
AcDbDictionaryWithDefault
  3
ObjectDBX Classes
 90
        0
 91
        1
280
     0
281
     0
  0
CLASS
  1
DICTIONARYVAR
  2
AcDbDictionaryVar
  3
ObjectDBX Classes
 90
        0
 91
       20
280
     0
281
     0
  0
CLASS
  1
TABLESTYLE
  2
AcDbTableStyle
  3
ObjectDBX Classes
 90
     4095
 91
        1
280
     0
281
     0
  0
CLASS
  1
DIMASSOC
  2
AcDbDimAssoc
  3
"AcDbDimAssoc|Product Desc:     AcDim ARX App For Dimension|Company:          Autodesk, Inc.|WEB Address:      www.autodesk.com"
 90
        0
 91
        5
280
     0
281
     0
  0
CLASS
  1
SORTENTSTABLE
  2
AcDbSortentsTable
  3
ObjectDBX Classes
 90
        0
 91
        1
280
     0
281
     0
  0
CLASS
  1
MATERIAL
  2
AcDbMaterial
  3
ObjectDBX Classes
 90
     1153
 91
        3
280
     0
281
     0
  0
CLASS
  1
VISUALSTYLE
  2
AcDbVisualStyle
  3
ObjectDBX Classes
 90
     4095
 91
       24
280
     0
281
     0
  0
CLASS
  1
SCALE
  2
AcDbScale
  3
ObjectDBX Classes
 90
     1153
 91
       17
280
     0
281
     0
  0
CLASS
  1
MLEADERSTYLE
  2
AcDbMLeaderStyle
  3
ACDB_MLEADERSTYLE_CLASS
 90
     4095
 91
        1
280
     0
281
     0
  0
CLASS
  1
ACDBSECTIONVIEWSTYLE
  2
AcDbSectionViewStyle
  3
ObjectDBX Classes
 90
     1025
 91
        1
280
     0
281
     0
  0
CLASS
  1
ACDBDETAILVIEWSTYLE
  2
AcDbDetailViewStyle
  3
ObjectDBX Classes
 90
     1025
 91
        1
280
     0
281
     0
  0
CLASS
  1
CELLSTYLEMAP
  2
AcDbCellStyleMap
  3
ObjectDBX Classes
 90
     1152
 91
        1
280
     0
281
     0
  0
ENDSEC
  0
SECTION
  2
TABLES
  0
TABLE
  2
VPORT
  5
8
330
0
100
AcDbSymbolTable
 70
     1
1001
ACAD
1000
DbSaveVer
1071
        5
  0
VPORT
  5
2DB0
330
8
100
AcDbSymbolTableRecord
100
AcDbViewportTableRecord
  2
*Active
 70
     0
 10
0.0
 20
0.0
 11
1.0
 21
1.0
 12
2481.25636894823
 22
162.5777991545749
 13
0.0
 23
0.0
 14
10.0
 24
10.0
 15
10.0
 25
10.0
 16
0.0
 26
0.0
 36
1.0
 17
0.0
 27
0.0
 37
0.0
 40
195.2832276235615
 41
2.292712066905615
 42
50.0
 43
0.0
 44
0.0
 50
0.0
 51
0.0
 71
     0
 72
 20000
 73
     1
 74
     3
 75
     0
 76
     0
 77
     0
 78
     0
281
     0
 65
     1
110
0.0
120
0.0
130
0.0
111
1.0
121
0.0
131
0.0
112
0.0
122
1.0
132
0.0
 79
     0
146
0.0
348
2DD0
 60
     3
 61
     5
292
     1
282
     1
141
0.0
142
0.0
 63
   250
421
  3355443
1001
ACAD_NAV_VCDISPLAY
1070
     3
  0
ENDTAB
  0
TABLE
  2
LTYPE
  5
5
330
0
100
AcDbSymbolTable
 70
     9
  0
LTYPE
  5
14
330
5
100
AcDbSymbolTableRecord
100
AcDbLinetypeTableRecord
  2
ByBlock
 70
     0
  3

 72
    65
 73
     0
 40
0.0
  0
LTYPE
  5
15
330
5
100
AcDbSymbolTableRecord
100
AcDbLinetypeTableRecord
  2
ByLayer
 70
     0
  3

 72
    65
 73
     0
 40
0.0
  0
LTYPE
  5
16
330
5
100
AcDbSymbolTableRecord
100
AcDbLinetypeTableRecord
  2
Continuous
 70
     0
  3
Solid line
 72
    65
 73
     0
 40
0.0
  0
LTYPE
  5
F1
330
5
100
AcDbSymbolTableRecord
100
AcDbLinetypeTableRecord
  2
HIDDEN
 70
     0
  3
- - - - - - - - - - - - - - - - - - - -
 72
    65
 73
     2
 40
0.2
 49
0.1
 74
     0
 49
-0.1
 74
     0
  0
LTYPE
  5
515
330
5
100
AcDbSymbolTableRecord
100
AcDbLinetypeTableRecord
  2
CENTER
 70
     0
  3
Center ____ _ ____ _ ____ _ ____ _ ____ _ ____
 72
    65
 73
     4
 40
50.8
 49
31.75
 74
     0
 49
-6.349999999999999
 74
     0
 49
6.349999999999999
 74
     0
 49
-6.349999999999999
 74
     0
  0
LTYPE
  5
675
330
5
100
AcDbSymbolTableRecord
100
AcDbLinetypeTableRecord
  2
DASHED
 70
     0
  3
Dashed __ __ __ __ __ __ __ __ __ __ __ __ __ _
 72
    65
 73
     2
 40
19.05
 49
12.7
 74
     0
 49
-6.349999999999999
 74
     0
  0
LTYPE
  5
71B
330
5
100
AcDbSymbolTableRecord
100
AcDbLinetypeTableRecord
  2
DIVIDE
 70
     0
  3
Divide ____ . . ____ . . ____ . . ____ . . ____
 72
    65
 73
     6
 40
31.75
 49
12.7
 74
     0
 49
-6.349999999999999
 74
     0
 49
0.0
 74
     0
 49
-6.349999999999999
 74
     0
 49
0.0
 74
     0
 49
-6.349999999999999
 74
     0
  0
LTYPE
  5
71E
330
5
100
AcDbSymbolTableRecord
100
AcDbLinetypeTableRecord
  2
DIVIDEX2
 70
     0
  3
Divide (2x) ________  .  .  ________  .  .  _
 72
    65
 73
     6
 40
63.49999999999999
 49
25.4
 74
     0
 49
-12.7
 74
     0
 49
0.0
 74
     0
 49
-12.7
 74
     0
 49
0.0
 74
     0
 49
-12.7
 74
     0
  0
LTYPE
  5
2222
330
5
100
AcDbSymbolTableRecord
100
AcDbLinetypeTableRecord
  2
DASHED2
 70
     0
  3
Dashed (.5x) _ _ _ _ _ _ _ _ _ _ _ _ _ _ _ _ _
 72
    65
 73
     2
 40
9.524999999999998
 49
6.349999999999999
 74
     0
 49
-3.174999999999999
 74
     0
  0
LTYPE
  5
25FA
330
5
100
AcDbSymbolTableRecord
100
AcDbLinetypeTableRecord
  2
CENTER2
 70
     0
  3
Center (.5x) ___ _ ___ _ ___ _ ___ _ ___ _ ___
 72
    65
 73
     4
 40
28.575
 49
19.05
 74
     0
 49
-3.174999999999999
 74
     0
 49
3.174999999999999
 74
     0
 49
-3.174999999999999
 74
     0
  0
LTYPE
  5
2ABF
330
5
100
AcDbSymbolTableRecord
100
AcDbLinetypeTableRecord
  2
ACAD_ISO12W100
 70
     0
  3
ISO dash double-dot __ . . __ . . __ . . __ . .
 72
    65
 73
     6
 40
21.0
 49
12.0
 74
     0
 49
-3.0
 74
     0
 49
0.0
 74
     0
 49
-3.0
 74
     0
 49
0.0
 74
     0
 49
-3.0
 74
     0
  0
ENDTAB
  0
TABLE
  2
LAYER
  5
2
102
{ACAD_XDICTIONARY
360
EC4
102
}
330
0
100
AcDbSymbolTable
 70
    11
  0
LAYER
  5
10
102
{ACAD_XDICTIONARY
360
2E05
102
}
330
2
100
AcDbSymbolTableRecord
100
AcDbLayerTableRecord
  2
0
 70
     0
 62
     7
  6
Continuous
370
    -3
390
F
347
2DC2
348
0
  0
LAYER
  5
F2
102
{ACAD_XDICTIONARY
360
2E07
102
}
330
2
100
AcDbSymbolTableRecord
100
AcDbLayerTableRecord
  2
1014813_DXF_HIDDEN_LINE
 70
     0
 62
     7
  6
Continuous
370
    -3
390
F
347
2DC2
348
0
  0
LAYER
  5
F3
102
{ACAD_XDICTIONARY
360
2E09
102
}
330
2
100
AcDbSymbolTableRecord
100
AcDbLayerTableRecord
  2
1014813_DXF_CONTINUOUS_LINE
 70
     0
 62
     7
  6
Continuous
370
    -3
390
F
347
2DC2
348
0
  0
LAYER
  5
1FC
330
2
100
AcDbSymbolTableRecord
100
AcDbLayerTableRecord
  2
Defpoints
 70
     0
 62
     7
  6
Continuous
290
     0
370
    -3
390
F
347
2DC2
348
0
  0
LAYER
  5
271
102
{ACAD_XDICTIONARY
360
2E0B
102
}
330
2
100
AcDbSymbolTableRecord
100
AcDbLayerTableRecord
  2
1014806_DXF_CONTINUOUS_LINE
 70
     0
 62
     7
  6
Continuous
370
    -3
390
F
347
2DC2
348
0
  0
LAYER
  5
272
102
{ACAD_XDICTIONARY
360
2E0D
102
}
330
2
100
AcDbSymbolTableRecord
100
AcDbLayerTableRecord
  2
图层1
 70
     0
 62
     7
  6
Continuous
370
    -3
390
F
347
2DC2
348
0
1001
AcAecLayerStandard
1000

1000

1001
AcadStringInfo
1000
MIFCodePage
1070
     5
  0
LAYER
  5
273
102
{ACAD_XDICTIONARY
360
2E0F
102
}
330
2
100
AcDbSymbolTableRecord
100
AcDbLayerTableRecord
  2
图层4
 70
     0
 62
     7
  6
Continuous
370
    15
390
F
347
2DC2
348
0
1001
AcadStringInfo
1000
MIFCodePage
1070
     5
  0
LAYER
  5
2223
102
{ACAD_XDICTIONARY
360
2E11
102
}
330
2
100
AcDbSymbolTableRecord
100
AcDbLayerTableRecord
  2
图层2
 70
     0
 62
     3
  6
DASHED2
370
    15
390
F
347
2DC2
348
0
1001
AcadStringInfo
1000
MIFCodePage
1070
     5
  0
LAYER
  5
2224
102
{ACAD_XDICTIONARY
360
2E13
102
}
330
2
100
AcDbSymbolTableRecord
100
AcDbLayerTableRecord
  2
图层3
 70
     0
 62
     5
  6
Continuous
370
    15
390
F
347
2DC2
348
0
1001
AcadStringInfo
1000
MIFCodePage
1070
     5
  0
LAYER
  5
2225
102
{ACAD_XDICTIONARY
360
2E15
102
}
330
2
100
AcDbSymbolTableRecord
100
AcDbLayerTableRecord
  2
图层7
 70
     0
 62
     7
  6
Continuous
370
    15
390
F
347
2DC2
348
0
1001
AcadStringInfo
1000
MIFCodePage
1070
     5
  0
LAYER
  5
2AC0
102
{ACAD_XDICTIONARY
360
2E17
102
}
330
2
100
AcDbSymbolTableRecord
100
AcDbLayerTableRecord
  2
xixian
 70
     0
 62
     7
  6
Continuous
370
    -3
390
F
347
2DC2
348
0
1001
AcAecLayerStandard
1000

1000

  0
ENDTAB
  0
TABLE
  2
STYLE
  5
3
330
0
100
AcDbSymbolTable
 70
     6
  0
STYLE
  5
11
330
3
100
AcDbSymbolTableRecord
100
AcDbTextStyleTableRecord
  2
Standard
 70
     0
 40
0.0
 41
1.0
 50
0.0
 71
     0
 42
2.5
  3
ARIAL.TTF
  4

1001
ACAD
1000
Arial
1071
       34
  0
STYLE
  5
274
330
3
100
AcDbSymbolTableRecord
100
AcDbTextStyleTableRecord
  2
样式 1
 70
     0
 40
2.5
 41
1.0
 50
0.0
 71
     0
 42
2.5
  3
SimSun.ttf
  4

1001
ACAD
1000
SimSun
1071
    34306
1001
AcadStringInfo
1000
MIFCodePage
1070
     5
  0
STYLE
  5
514
330
3
100
AcDbSymbolTableRecord
100
AcDbTextStyleTableRecord
  2

 70
     1
 40
0.0
 41
1.0
 50
0.0
 71
     0
 42
2.5
  3
ltypeshp.shx
  4

  0
STYLE
  5
763
330
3
100
AcDbSymbolTableRecord
100
AcDbTextStyleTableRecord
  2
GN3
 70
     0
 40
0.156
 41
1.0
 50
0.0
 71
     0
 42
0.2
  3
ROMANK
  4

  0
STYLE
  5
764
330
3
100
AcDbSymbolTableRecord
100
AcDbTextStyleTableRecord
  2
GN4
 70
     0
 40
0.188
 41
1.0
 50
0.0
 71
     0
 42
0.2
  3
ROMAND
  4

  0
STYLE
  5
2226
330
3
100
AcDbSymbolTableRecord
100
AcDbTextStyleTableRecord
  2
样式 2
 70
     0
 40
3.2
 41
1.0
 50
0.0
 71
     0
 42
3.2
  3
SimSun.ttf
  4

1001
ACAD
1000
SimSun
1071
    34306
1001
AcadStringInfo
1000
MIFCodePage
1070
     5
  0
ENDTAB
  0
TABLE
  2
VIEW
  5
6
330
0
100
AcDbSymbolTable
 70
     0
  0
ENDTAB
  0
TABLE
  2
UCS
  5
7
330
0
100
AcDbSymbolTable
 70
     0
  0
ENDTAB
  0
TABLE
  2
APPID
  5
9
330
0
100
AcDbSymbolTable
 70
     9
  0
APPID
  5
12
330
9
100
AcDbSymbolTableRecord
100
AcDbRegAppTableRecord
  2
ACAD
 70
     0
  0
APPID
  5
9E
330
9
100
AcDbSymbolTableRecord
100
AcDbRegAppTableRecord
  2
ACAD_PSEXT
 70
     0
  0
APPID
  5
F5
330
9
100
AcDbSymbolTableRecord
100
AcDbRegAppTableRecord
  2
DCO15
 70
     0
  0
APPID
  5
275
330
9
100
AcDbSymbolTableRecord
100
AcDbRegAppTableRecord
  2
AcAecLayerStandard
 70
     0
  0
APPID
  5
580
330
9
100
AcDbSymbolTableRecord
100
AcDbRegAppTableRecord
  2
ACAD_DSTYLE_DIMTEXT_FILL
 70
     0
  0
APPID
  5
765
330
9
100
AcDbSymbolTableRecord
100
AcDbRegAppTableRecord
  2
PSP
 70
     0
  0
APPID
  5
2455
330
9
100
AcDbSymbolTableRecord
100
AcDbRegAppTableRecord
  2
ACAD_EXEMPT_FROM_CAD_STANDARDS
 70
     0
  0
APPID
  5
2DF8
330
9
100
AcDbSymbolTableRecord
100
AcDbRegAppTableRecord
  2
AcadStringInfo
 70
     0
  0
APPID
  5
2E19
330
9
100
AcDbSymbolTableRecord
100
AcDbRegAppTableRecord
  2
ACAD_NAV_VCDISPLAY
 70
     0
  0
ENDTAB
  0
TABLE
  2
DIMSTYLE
  5
A
330
0
100
AcDbSymbolTable
 70
     1
100
AcDbDimStyleTable
 71
     1
340
27
  0
DIMSTYLE
105
27
102
{ACAD_REACTORS
330
2C86
330
2C89
330
2C8C
330
2D49
330
2D5F
102
}
330
A
100
AcDbSymbolTableRecord
100
AcDbDimStyleTableRecord
  2
ISO-25
 70
     0
 40
2.5
 41
2.5
 42
0.625
 43
3.75
 44
1.25
 73
     0
 74
     0
 77
     1
 78
     8
140
2.5
141
2.5
143
0.03937007874016
147
0.625
171
     3
172
     1
271
     2
272
     2
274
     3
283
     0
284
     8
340
11
  0
ENDTAB
  0
TABLE
  2
BLOCK_RECORD
  5
1
330
0
100
AcDbSymbolTable
 70
    19
  0
BLOCK_RECORD
  5
1F
102
{ACAD_XDICTIONARY
360
22F
102
}
330
1
100
AcDbSymbolTableRecord
100
AcDbBlockTableRecord
  2
*Model_Space
340
22
 70
     0
280
     1
281
     0
  0
BLOCK_RECORD
  5
D2
330
1
100
AcDbSymbolTableRecord
100
AcDbBlockTableRecord
  2
*Paper_Space
340
D3
 70
     0
280
     1
281
     0
  0
BLOCK_RECORD
  5
D6
330
1
100
AcDbSymbolTableRecord
100
AcDbBlockTableRecord
  2
*Paper_Space0
340
D7
 70
     0
280
     1
281
     0
  0
BLOCK_RECORD
  5
2C99
330
1
100
AcDbSymbolTableRecord
100
AcDbBlockTableRecord
  2
*D14
340
0
 70
     0
280
     1
281
     0
  0
BLOCK_RECORD
  5
2CA5
330
1
100
AcDbSymbolTableRecord
100
AcDbBlockTableRecord
  2
*D15
340
0
 70
     0
280
     1
281
     0
  0
BLOCK_RECORD
  5
2CB1
330
1
100
AcDbSymbolTableRecord
100
AcDbBlockTableRecord
  2
*D16
340
0
 70
     0
280
     1
281
     0
  0
BLOCK_RECORD
  5
2D4A
330
1
100
AcDbSymbolTableRecord
100
AcDbBlockTableRecord
  2
*D17
340
0
 70
     0
280
     1
281
     0
  0
BLOCK_RECORD
  5
2D60
330
1
100
AcDbSymbolTableRecord
100
AcDbBlockTableRecord
  2
*D18
340
0
 70
     0
280
     1
281
     0
  0
ENDTAB
  0
ENDSEC
  0
SECTION
  2
BLOCKS
  0
BLOCK
  5
20
330
1F
100
AcDbEntity
  8
0
100
AcDbBlockBegin
  2
*Model_Space
 70
     0
 10
0.0
 20
0.0
 30
0.0
  3
*Model_Space
  1

  0
ENDBLK
  5
21
330
1F
100
AcDbEntity
  8
0
100
AcDbBlockEnd
  0
BLOCK
  5
D4
330
D2
100
AcDbEntity
 67
     1
  8
0
100
AcDbBlockBegin
  2
*Paper_Space
 70
     0
 10
0.0
 20
0.0
 30
0.0
  3
*Paper_Space
  1

  0
ENDBLK
  5
D5
330
D2
100
AcDbEntity
 67
     1
  8
0
100
AcDbBlockEnd
  0
BLOCK
  5
D8
330
D6
100
AcDbEntity
 67
     1
  8
0
100
AcDbBlockBegin
  2
*Paper_Space0
 70
     0
 10
0.0
 20
0.0
 30
0.0
  3
*Paper_Space0
  1

  0
ENDBLK
  5
D9
330
D6
100
AcDbEntity
 67
     1
  8
0
100
AcDbBlockEnd
  0
BLOCK
  5
2CA3
330
2C99
100
AcDbEntity
  8
0
100
AcDbBlockBegin
  2
*D14
 70
     1
 10
0.0
 20
0.0
 30
0.0
  3
*D14
  1

  0
LINE
  5
2CD2
330
2C99
100
AcDbEntity
  8
xixian
 62
     0
440
 16777216
370
    -2
100
AcDbLine
 10
2308.174398632736
 20
117.2490383928461
 30
0.0
 11
2308.174398632736
 21
65.65766249365902
 31
0.0
  0
LINE
  5
2CD3
330
2C99
100
AcDbEntity
  8
xixian
 62
     0
440
 16777216
370
    -2
100
AcDbLine
 10
2490.174398632736
 20
117.2490383928461
 30
0.0
 11
2490.174398632736
 21
65.65766249365902
 31
0.0
  0
LINE
  5
2CD4
330
2C99
100
AcDbEntity
  8
xixian
 62
     0
440
 16777216
370
    -2
100
AcDbLine
 10
2314.424398632736
 20
68.78266249365902
 30
0.0
 11
2483.924398632736
 21
68.78266249365902
 31
0.0
  0
SOLID
  5
2CD5
330
2C99
100
AcDbEntity
  8
xixian
 62
     0
440
 16777216
100
AcDbTrace
 10
2314.424398632736
 20
69.82432916032569
 30
0.0
 11
2314.424398632736
 21
67.74099582699235
 31
0.0
 12
2308.174398632736
 22
68.78266249365902
 32
0.0
 13
2308.174398632736
 23
68.78266249365902
 33
0.0
  0
SOLID
  5
2CD6
330
2C99
100
AcDbEntity
  8
xixian
 62
     0
440
 16777216
100
AcDbTrace
 10
2483.924398632736
 20
69.82432916032569
 30
0.0
 11
2483.924398632736
 21
67.74099582699235
 31
0.0
 12
2490.174398632736
 22
68.78266249365902
 32
0.0
 13
2490.174398632736
 23
68.78266249365902
 33
0.0
  0
MTEXT
  5
2CD7
330
2C99
100
AcDbEntity
  8
xixian
 62
     0
440
 16777216
100
AcDbMText
 10
2399.174398632736
 20
73.53624366691959
 30
0.0
 40
6.25
 41
0.0
 46
0.0
 71
     5
 72
     1
  1
182
 73
     1
 44
1.0
  0
POINT
  5
2CD8
330
2C99
100
AcDbEntity
  8
Defpoints
 62
     0
440
 16777216
100
AcDbPoint
 10
2308.174398632736
 20
118.8115383928461
 30
0.0
  0
POINT
  5
2CD9
330
2C99
100
AcDbEntity
  8
Defpoints
 62
     0
440
 16777216
100
AcDbPoint
 10
2490.174398632736
 20
118.8115383928461
 30
0.0
  0
POINT
  5
2CDA
330
2C99
100
AcDbEntity
  8
Defpoints
 62
     0
440
 16777216
100
AcDbPoint
 10
2490.174398632736
 20
68.78266249365902
 30
0.0
  0
ENDBLK
  5
2CA4
330
2C99
100
AcDbEntity
  8
0
100
AcDbBlockEnd
  0
BLOCK
  5
2CAF
330
2CA5
100
AcDbEntity
  8
0
100
AcDbBlockBegin
  2
*D15
 70
     1
 10
0.0
 20
0.0
 30
0.0
  3
*D15
  1

  0
LINE
  5
2D13
330
2CA5
100
AcDbEntity
  8
xixian
 62
     0
440
 16777216
370
    -2
100
AcDbLine
 10
2574.699272698448
 20
222.8115383928462
 30
0.0
 11
2545.51570428128
 21
222.8115383928462
 31
0.0
  0
LINE
  5
2D14
330
2CA5
100
AcDbEntity
  8
xixian
 62
     0
440
 16777216
370
    -2
100
AcDbLine
 10
2641.699272698447
 20
86.81153839284604
 30
0.0
 11
2545.51570428128
 21
86.81153839284606
 31
0.0
  0
LINE
  5
2D15
330
2CA5
100
AcDbEntity
  8
xixian
 62
     0
440
 16777216
370
    -2
100
AcDbLine
 10
2548.64070428128
 20
216.5615383928462
 30
0.0
 11
2548.64070428128
 21
93.06153839284606
 31
0.0
  0
SOLID
  5
2D16
330
2CA5
100
AcDbEntity
  8
xixian
 62
     0
440
 16777216
100
AcDbTrace
 10
2547.599037614614
 20
216.5615383928462
 30
0.0
 11
2549.682370947947
 21
216.5615383928462
 31
0.0
 12
2548.64070428128
 22
222.8115383928462
 32
0.0
 13
2548.64070428128
 23
222.8115383928462
 33
0.0
  0
SOLID
  5
2D17
330
2CA5
100
AcDbEntity
  8
xixian
 62
     0
440
 16777216
100
AcDbTrace
 10
2547.599037614614
 20
93.06153839284606
 30
0.0
 11
2549.682370947947
 21
93.06153839284606
 31
0.0
 12
2548.64070428128
 22
86.81153839284606
 32
0.0
 13
2548.64070428128
 23
86.81153839284606
 33
0.0
  0
MTEXT
  5
2D18
330
2CA5
100
AcDbEntity
  8
xixian
 62
     0
440
 16777216
100
AcDbMText
 10
2543.884991457269
 20
154.8115383928465
 30
0.0
 40
6.25
 41
0.0
 46
0.0
 71
     5
 72
     1
  1
136
 11
0.0000000000000001
 21
1.0
 31
0.0
 73
     1
 44
1.0
  0
POINT
  5
2D19
330
2CA5
100
AcDbEntity
  8
Defpoints
 62
     0
440
 16777216
100
AcDbPoint
 10
2576.261772698448
 20
222.8115383928462
 30
0.0
  0
POINT
  5
2D1A
330
2CA5
100
AcDbEntity
  8
Defpoints
 62
     0
440
 16777216
100
AcDbPoint
 10
2643.261772698447
 20
86.81153839284604
 30
0.0
  0
POINT
  5
2D1B
330
2CA5
100
AcDbEntity
  8
Defpoints
 62
     0
440
 16777216
100
AcDbPoint
 10
2548.64070428128
 20
86.81153839284606
 30
0.0
  0
ENDBLK
  5
2CB0
330
2CA5
100
AcDbEntity
  8
0
100
AcDbBlockEnd
  0
BLOCK
  5
2CBB
330
2CB1
100
AcDbEntity
  8
0
100
AcDbBlockBegin
  2
*D16
 70
     1
 10
0.0
 20
0.0
 30
0.0
  3
*D16
  1

  0
LINE
  5
2D77
330
2CB1
100
AcDbEntity
  8
xixian
 62
     0
440
 16777216
370
    -2
100
AcDbLine
 10
2571.261772698447
 20
224.3740383928462
 30
0.0
 11
2571.261772698447
 21
243.5514293557653
 31
0.0
  0
LINE
  5
2D78
330
2CB1
100
AcDbEntity
  8
xixian
 62
     0
440
 16777216
370
    -2
100
AcDbLine
 10
2654.261652871945
 20
204.3226947593007
 30
0.0
 11
2654.261652871945
 21
243.5514293557653
 31
0.0
  0
LINE
  5
2D79
330
2CB1
100
AcDbEntity
  8
xixian
 62
     0
440
 16777216
370
    -2
100
AcDbLine
 10
2577.511772698447
 20
240.4264293557653
 30
0.0
 11
2648.011652871945
 21
240.4264293557653
 31
0.0
  0
SOLID
  5
2D7A
330
2CB1
100
AcDbEntity
  8
xixian
 62
     0
440
 16777216
100
AcDbTrace
 10
2577.511772698447
 20
241.468096022432
 30
0.0
 11
2577.511772698447
 21
239.3847626890987
 31
0.0
 12
2571.261772698447
 22
240.4264293557653
 32
0.0
 13
2571.261772698447
 23
240.4264293557653
 33
0.0
  0
SOLID
  5
2D7B
330
2CB1
100
AcDbEntity
  8
xixian
 62
     0
440
 16777216
100
AcDbTrace
 10
2648.011652871945
 20
241.468096022432
 30
0.0
 11
2648.011652871945
 21
239.3847626890987
 31
0.0
 12
2654.261652871945
 22
240.4264293557653
 32
0.0
 13
2654.261652871945
 23
240.4264293557653
 33
0.0
  0
MTEXT
  5
2D7C
330
2CB1
100
AcDbEntity
  8
xixian
 62
     0
440
 16777216
100
AcDbMText
 10
2604.748523939576
 20
245.1821421797762
 30
0.0
 40
6.25
 41
0.0
 46
0.0
 71
     5
 72
     1
  1
83
 73
     1
 44
1.0
  0
POINT
  5
2D7D
330
2CB1
100
AcDbEntity
  8
Defpoints
 62
     0
440
 16777216
100
AcDbPoint
 10
2571.261772698447
 20
222.8115383928462
 30
0.0
  0
POINT
  5
2D7E
330
2CB1
100
AcDbEntity
  8
Defpoints
 62
     0
440
 16777216
100
AcDbPoint
 10
2654.261652871945
 20
202.7601947593007
 30
0.0
  0
POINT
  5
2D7F
330
2CB1
100
AcDbEntity
  8
Defpoints
 62
     0
440
 16777216
100
AcDbPoint
 10
2654.261652871945
 20
240.4264293557653
 30
0.0
  0
ENDBLK
  5
2CBC
330
2CB1
100
AcDbEntity
  8
0
100
AcDbBlockEnd
  0
BLOCK
  5
2D53
330
2D4A
100
AcDbEntity
  8
0
100
AcDbBlockBegin
  2
*D17
 70
     1
 10
0.0
 20
0.0
 30
0.0
  3
*D17
  1

  0
LINE
  5
2D56
330
2D4A
100
AcDbEntity
  8
图层4
 62
     0
440
 16777216
370
    -2
100
AcDbLine
 10
2428.939321339138
 20
244.6630371260421
 30
0.0
 11
2414.388207309983
 21
224.2031845551242
 31
0.0
  0
LINE
  5
2D57
330
2D4A
100
AcDbEntity
  8
图层4
 62
     0
440
 16777216
370
    -2
100
AcDbLine
 10
2383.960589955488
 20
181.4198922305679
 30
0.0
 11
2380.338254556144
 21
176.3266431443112
 31
0.0
  0
MTEXT
  5
2D58
330
2D4A
100
AcDbEntity
  8
图层4
 62
     0
440
 16777216
100
AcDbMText
 10
2419.458700139026
 20
239.8360926290341
 30
0.0
 40
6.25
 41
0.0
 46
0.0
 71
     5
 72
     1
  1
∅40
 11
0.5795736638951441
 21
0.8149198538010708
 31
0.0
 73
     1
 44
1.0
  0
LINE
  5
2D59
330
2D4A
100
AcDbEntity
  8
图层4
 62
     0
440
 16777216
370
    -2
100
AcDbLine
 10
2387.582925354833
 20
186.5131413168246
 30
0.0
 11
2410.765871910639
 21
219.1099354688674
 31
0.0
  0
SOLID
  5
2D5A
330
2D4A
100
AcDbEntity
  8
图层4
 62
     0
440
 16777216
100
AcDbTrace
 10
2383.111715107779
 20
182.0236147971254
 30
0.0
 11
2384.809464803197
 21
180.8161696640104
 31
0.0
 12
2387.582925354833
 22
186.5131413168246
 32
0.0
 13
2387.582925354833
 23
186.5131413168246
 33
0.0
  0
SOLID
  5
2D5B
330
2D4A
100
AcDbEntity
  8
图层4
 62
     0
440
 16777216
100
AcDbTrace
 10
2413.539332462274
 20
224.8069071216816
 30
0.0
 11
2415.237082157693
 21
223.5994619885667
 31
0.0
 12
2410.765871910639
 22
219.1099354688674
 32
0.0
 13
2410.765871910639
 23
219.1099354688674
 33
0.0
  0
POINT
  5
2D5C
330
2D4A
100
AcDbEntity
  8
Defpoints
 62
     0
440
 16777216
100
AcDbPoint
 10
2410.765871910639
 20
219.1099354688674
 30
0.0
  0
POINT
  5
2D5D
330
2D4A
100
AcDbEntity
  8
Defpoints
 62
     0
440
 16777216
100
AcDbPoint
 10
2387.582925354833
 20
186.5131413168246
 30
0.0
  0
ENDBLK
  5
2D54
330
2D4A
100
AcDbEntity
  8
0
100
AcDbBlockEnd
  0
BLOCK
  5
2D6A
330
2D60
100
AcDbEntity
  8
0
100
AcDbBlockBegin
  2
*D18
 70
     1
 10
0.0
 20
0.0
 30
0.0
  3
*D18
  1

  0
LINE
  5
2D6D
330
2D60
100
AcDbEntity
  8
图层4
 62
     0
440
 16777216
370
    -2
100
AcDbLine
 10
2379.174398632736
 20
215.3740383928462
 30
0.0
 11
2379.174398632736
 21
253.1659286203401
 31
0.0
  0
LINE
  5
2D6E
330
2D60
100
AcDbEntity
  8
图层4
 62
     0
440
 16777216
370
    -2
100
AcDbLine
 10
2490.174398632736
 20
178.3740383928462
 30
0.0
 11
2490.174398632736
 21
253.1659286203401
 31
0.0
  0
LINE
  5
2D6F
330
2D60
100
AcDbEntity
  8
图层4
 62
     0
440
 16777216
370
    -2
100
AcDbLine
 10
2385.424398632736
 20
250.0409286203401
 30
0.0
 11
2483.924398632736
 21
250.0409286203401
 31
0.0
  0
SOLID
  5
2D70
330
2D60
100
AcDbEntity
  8
图层4
 62
     0
440
 16777216
100
AcDbTrace
 10
2385.424398632736
 20
251.0825952870067
 30
0.0
 11
2385.424398632736
 21
248.9992619536734
 31
0.0
 12
2379.174398632736
 22
250.0409286203401
 32
0.0
 13
2379.174398632736
 23
250.0409286203401
 33
0.0
  0
SOLID
  5
2D71
330
2D60
100
AcDbEntity
  8
图层4
 62
     0
440
 16777216
100
AcDbTrace
 10
2483.924398632736
 20
251.0825952870067
 30
0.0
 11
2483.924398632736
 21
248.9992619536734
 31
0.0
 12
2490.174398632736
 22
250.0409286203401
 32
0.0
 13
2490.174398632736
 23
250.0409286203401
 33
0.0
  0
MTEXT
  5
2D72
330
2D60
100
AcDbEntity
  8
图层4
 62
     0
440
 16777216
100
AcDbMText
 10
2434.674398632736
 20
254.7412185248421
 30
0.0
 40
6.25
 41
0.0
 46
0.0
 71
     5
 72
     1
  1
111
 73
     1
 44
1.0
  0
POINT
  5
2D73
330
2D60
100
AcDbEntity
  8
Defpoints
 62
     0
440
 16777216
100
AcDbPoint
 10
2379.174398632736
 20
213.8115383928462
 30
0.0
  0
POINT
  5
2D74
330
2D60
100
AcDbEntity
  8
Defpoints
 62
     0
440
 16777216
100
AcDbPoint
 10
2490.174398632736
 20
176.8115383928462
 30
0.0
  0
POINT
  5
2D75
330
2D60
100
AcDbEntity
  8
Defpoints
 62
     0
440
 16777216
100
AcDbPoint
 10
2490.174398632736
 20
250.0409286203401
 30
0.0
  0
ENDBLK
  5
2D6B
330
2D60
100
AcDbEntity
  8
0
100
AcDbBlockEnd
  0
ENDSEC
  0
SECTION
  2
ENTITIES
  0
MTEXT
  5
380
330
1F
100
AcDbEntity
  8
0
100
AcDbMText
 10
674.4589651782393
 20
394.9187085861921
 30
0.0
 40
2.5
 41
6.139376301850282
 46
0.0
 71
     9
 72
     1
  1

 73
     1
 44
1.0
  0
LINE
  5
2BB4
330
1F
100
AcDbEntity
  8
1014813_DXF_CONTINUOUS_LINE
  6
Continuous
 62
     0
370
    40
100
AcDbLine
 10
2385.674398632736
 20
208.8115383928462
 30
0.0
 11
2396.074398632735
 21
208.8115383928462
 31
0.0
  0
LINE
  5
2BB5
102
{ACAD_REACTORS
330
2C88
102
}
330
1F
100
AcDbEntity
  8
1014813_DXF_CONTINUOUS_LINE
  6
Continuous
 62
     0
370
    40
100
AcDbLine
 10
2490.174398632736
 20
176.8115383928461
 30
0.0
 11
2490.174398632736
 21
118.8115383928461
 31
0.0
  0
LINE
  5
2BB6
102
{ACAD_REACTORS
330
2C88
102
}
330
1F
100
AcDbEntity
  8
1014813_DXF_CONTINUOUS_LINE
  6
Continuous
 62
     0
370
    40
100
AcDbLine
 10
2308.174398632736
 20
118.8115383928461
 30
0.0
 11
2308.174398632736
 21
136.8115383928461
 31
0.0
  0
LINE
  5
2BB7
330
1F
100
AcDbEntity
  8
1014813_DXF_CONTINUOUS_LINE
  6
Continuous
 62
     0
370
    40
100
AcDbLine
 10
2385.674398632736
 20
196.8115383928461
 30
0.0
 11
2396.074398632735
 21
196.8115383928461
 31
0.0
  0
LINE
  5
2BB8
330
1F
100
AcDbEntity
  8
1014813_DXF_CONTINUOUS_LINE
  6
Continuous
 62
     0
370
    40
100
AcDbLine
 10
2478.174398632736
 20
176.8115383928461
 30
0.0
 11
2478.174398632736
 21
118.8115383928461
 31
0.0
  0
LINE
  5
2BB9
330
1F
100
AcDbEntity
  8
1014813_DXF_CONTINUOUS_LINE
  6
Continuous
 62
     0
370
    40
100
AcDbLine
 10
2458.174398632736
 20
98.81153839284616
 30
0.0
 11
2340.174398632736
 21
98.81153839284616
 31
0.0
  0
LINE
  5
2BBA
330
1F
100
AcDbEntity
  8
1014813_DXF_CONTINUOUS_LINE
  6
Continuous
 62
     0
370
    40
100
AcDbLine
 10
2320.174398632735
 20
118.8115383928461
 30
0.0
 11
2320.174398632735
 21
136.8115383928461
 31
0.0
  0
LINE
  5
2BBB
330
1F
100
AcDbEntity
  8
1014813_DXF_CONTINUOUS_LINE
  6
Continuous
 62
     0
370
    40
100
AcDbLine
 10
2385.174398632736
 20
197.3115383928461
 30
0.0
 11
2385.174398632736
 21
208.3115383928462
 31
0.0
  0
LINE
  5
2BBC
330
1F
100
AcDbEntity
  8
1014813_DXF_CONTINUOUS_LINE
  6
Continuous
 62
     0
370
    40
100
AcDbLine
 10
2309.174398632736
 20
137.8115383928461
 30
0.0
 11
2319.174398632736
 21
137.8115383928461
 31
0.0
  0
LINE
  5
2BBD
330
1F
100
AcDbEntity
  8
1014813_DXF_CONTINUOUS_LINE
  6
Continuous
 62
     0
370
    40
100
AcDbLine
 10
2401.774398632735
 20
197.3115383928461
 30
0.0
 11
2401.774398632735
 21
208.3115383928462
 31
0.0
  0
LINE
  5
2BBE
330
1F
100
AcDbEntity
  8
1014813_DXF_CONTINUOUS_LINE
  6
Continuous
 62
     0
370
    40
100
AcDbLine
 10
2396.574398632735
 20
197.3115383928461
 30
0.0
 11
2396.574398632735
 21
208.3115383928462
 31
0.0
  0
LINE
  5
2BBF
330
1F
100
AcDbEntity
  8
0
100
AcDbLine
 10
2401.774398632735
 20
198.8115383928461
 30
0.0
 11
2396.574398632735
 21
198.8115383928461
 31
0.0
  0
LINE
  5
2BC0
330
1F
100
AcDbEntity
  8
1014813_DXF_CONTINUOUS_LINE
  6
Continuous
 62
     0
370
    40
100
AcDbLine
 10
2396.574398632735
 20
206.8115383928462
 30
0.0
 11
2401.774398632735
 21
206.8115383928462
 31
0.0
  0
LINE
  5
2BC1
330
1F
100
AcDbEntity
  8
1014813_DXF_CONTINUOUS_LINE
  6
Continuous
 62
     0
370
    40
100
AcDbLine
 10
2402.274398632735
 20
208.8115383928462
 30
0.0
 11
2458.174398632736
 21
208.8115383928462
 31
0.0
  0
LINE
  5
2BC2
330
1F
100
AcDbEntity
  8
1014813_DXF_CONTINUOUS_LINE
  6
Continuous
 62
     0
370
    40
100
AcDbLine
 10
2402.274398632735
 20
196.8115383928461
 30
0.0
 11
2458.174398632736
 21
196.8115383928461
 31
0.0
  0
LINE
  5
2BC3
330
1F
100
AcDbEntity
  8
1014813_DXF_CONTINUOUS_LINE
  6
Continuous
 62
     0
370
    40
100
AcDbLine
 10
2396.574398632735
 20
197.3115383928461
 30
0.0
 11
2396.074398632735
 21
196.8115383928461
 31
0.0
  0
LINE
  5
2BC4
330
1F
100
AcDbEntity
  8
1014813_DXF_CONTINUOUS_LINE
  6
Continuous
 62
     0
370
    40
100
AcDbLine
 10
2401.774398632735
 20
197.3115383928461
 30
0.0
 11
2402.274398632735
 21
196.8115383928461
 31
0.0
  0
LINE
  5
2BC5
330
1F
100
AcDbEntity
  8
1014813_DXF_CONTINUOUS_LINE
  6
Continuous
 62
     0
370
    40
100
AcDbLine
 10
2396.574398632735
 20
208.3115383928462
 30
0.0
 11
2396.074398632735
 21
208.8115383928462
 31
0.0
  0
LINE
  5
2BC6
330
1F
100
AcDbEntity
  8
1014813_DXF_CONTINUOUS_LINE
  6
Continuous
 62
     0
370
    40
100
AcDbLine
 10
2401.774398632735
 20
208.3115383928462
 30
0.0
 11
2402.274398632735
 21
208.8115383928462
 31
0.0
  0
LINE
  5
2BC7
330
1F
100
AcDbEntity
  8
1014813_DXF_CONTINUOUS_LINE
  6
Continuous
 62
     0
370
    40
100
AcDbLine
 10
2396.074398632735
 20
196.8115383928461
 30
0.0
 11
2396.074398632735
 21
208.8115383928462
 31
0.0
  0
LINE
  5
2BC8
330
1F
100
AcDbEntity
  8
1014813_DXF_CONTINUOUS_LINE
  6
Continuous
 62
     0
370
    40
100
AcDbLine
 10
2402.274398632735
 20
196.8115383928461
 30
0.0
 11
2402.274398632735
 21
208.8115383928462
 31
0.0
  0
LINE
  5
2BC9
330
1F
100
AcDbEntity
  8
1014813_DXF_CONTINUOUS_LINE
  6
Continuous
 62
     0
370
    40
100
AcDbLine
 10
2385.674398632736
 20
196.8115383928461
 30
0.0
 11
2385.174398632736
 21
197.3115383928461
 31
0.0
  0
LINE
  5
2BCA
330
1F
100
AcDbEntity
  8
1014813_DXF_CONTINUOUS_LINE
  6
Continuous
 62
     0
370
    40
100
AcDbLine
 10
2385.174398632736
 20
208.3115383928462
 30
0.0
 11
2385.674398632736
 21
208.8115383928462
 31
0.0
  0
LINE
  5
2BCB
330
1F
100
AcDbEntity
  8
1014813_DXF_CONTINUOUS_LINE
  6
Continuous
 62
     0
370
    40
100
AcDbLine
 10
2385.674398632736
 20
196.8115383928461
 30
0.0
 11
2385.674398632736
 21
208.8115383928462
 31
0.0
  0
ARC
  5
2BCC
330
1F
100
AcDbEntity
  8
1014813_DXF_CONTINUOUS_LINE
  6
Continuous
 62
     0
370
    40
100
AcDbCircle
 10
2319.174398632736
 20
136.8115383928462
 30
0.0
 40
1.0
100
AcDbArc
 50
0.0
 51
90.0
  0
ARC
  5
2BCD
330
1F
100
AcDbEntity
  8
1014813_DXF_CONTINUOUS_LINE
  6
Continuous
 62
     0
370
    40
100
AcDbCircle
 10
2309.174398632736
 20
136.8115383928462
 30
0.0
 40
1.0
100
AcDbArc
 50
90.0
 51
180.0
  0
ARC
  5
2BCE
330
1F
100
AcDbEntity
  8
1014813_DXF_CONTINUOUS_LINE
  6
Continuous
 62
     0
370
    40
100
AcDbCircle
 10
2458.174398632736
 20
176.8115383928462
 30
0.0
 40
20.0
100
AcDbArc
 50
0.0
 51
90.0
  0
ARC
  5
2BCF
330
1F
100
AcDbEntity
  8
1014813_DXF_CONTINUOUS_LINE
  6
Continuous
 62
     0
370
    40
100
AcDbCircle
 10
2458.174398632736
 20
118.8115383928462
 30
0.0
 40
20.0
100
AcDbArc
 50
270.0
 51
0.0
  0
ARC
  5
2BD0
330
1F
100
AcDbEntity
  8
1014813_DXF_CONTINUOUS_LINE
  6
Continuous
 62
     0
370
    40
100
AcDbCircle
 10
2340.174398632736
 20
118.8115383928462
 30
0.0
 40
20.0
100
AcDbArc
 50
180.0
 51
270.0
  0
ARC
  5
2BD1
102
{ACAD_REACTORS
330
2D76
102
}
330
1F
100
AcDbEntity
  8
1014813_DXF_CONTINUOUS_LINE
  6
Continuous
 62
     0
370
    40
100
AcDbCircle
 10
2458.174398632736
 20
176.8115383928462
 30
0.0
 40
32.0
100
AcDbArc
 50
0.0
 51
90.0
  0
ARC
  5
2BD2
330
1F
100
AcDbEntity
  8
1014813_DXF_CONTINUOUS_LINE
  6
Continuous
 62
     0
370
    40
100
AcDbCircle
 10
2458.174398632736
 20
118.8115383928462
 30
0.0
 40
32.0
100
AcDbArc
 50
270.0
 51
0.0
  0
ARC
  5
2BD3
330
1F
100
AcDbEntity
  8
1014813_DXF_CONTINUOUS_LINE
  6
Continuous
 62
     0
370
    40
100
AcDbCircle
 10
2340.174398632736
 20
118.8115383928462
 30
0.0
 40
32.0
100
AcDbArc
 50
180.0
 51
270.0
  0
LINE
  5
2BD8
330
1F
100
AcDbEntity
  8
图层2
100
AcDbLine
 10
2573.261772698447
 20
218.9115383928461
 30
0.0
 11
2573.261772698447
 21
210.7115383928463
 31
0.0
  0
LINE
  5
2BD9
330
1F
100
AcDbEntity
  8
1014813_DXF_CONTINUOUS_LINE
  6
Continuous
 62
     0
370
    40
100
AcDbLine
 10
2575.261772698447
 20
186.411538392846
 30
0.0
 11
2575.261772698447
 21
195.7115383928462
 31
0.0
  0
LINE
  5
2BDA
330
1F
100
AcDbEntity
  8
1014813_DXF_CONTINUOUS_LINE
  6
Continuous
 62
     0
370
    40
100
AcDbLine
 10
2571.261772698447
 20
221.7115383928462
 30
0.0
 11
2571.261772698447
 21
183.911538392846
 31
0.0
  0
ARC
  5
2BDB
330
1F
100
AcDbEntity
  8
1014813_DXF_CONTINUOUS_LINE
  6
Continuous
 62
     0
370
    40
100
AcDbCircle
 10
2572.761772698447
 20
219.2115383928461
 30
0.0
 40
2.5
100
AcDbArc
 50
0.0
 51
90.0
  0
LINE
  5
2BDC
330
1F
100
AcDbEntity
  8
0
100
AcDbLine
 10
2572.761772698447
 20
221.711538392846
 30
0.0
 11
2571.261772698447
 21
221.7115383928462
 31
0.0
  0
LINE
  5
2BDE
330
1F
100
AcDbEntity
  8
图层2
100
AcDbLine
 10
2573.261772698447
 20
218.9115383928461
 30
0.0
 11
2575.261772698447
 21
218.9115383928461
 31
0.0
  0
LINE
  5
2BDF
330
1F
100
AcDbEntity
  8
图层2
100
AcDbLine
 10
2571.261772698447
 20
216.9115383928461
 30
0.0
 11
2573.261772698447
 21
216.9115383928461
 31
0.0
  0
LINE
  5
2BE0
330
1F
100
AcDbEntity
  8
1014813_DXF_CONTINUOUS_LINE
  6
Continuous
 62
     0
370
    40
100
AcDbLine
 10
2577.961772698448
 20
209.9115383928461
 30
0.0
 11
2577.961772698448
 21
202.8115383928462
 31
0.0
  0
LINE
  5
2BE1
330
1F
100
AcDbEntity
  8
1014813_DXF_CONTINUOUS_LINE
  6
Continuous
 62
     0
370
    40
100
AcDbLine
 10
2575.261772698447
 20
209.9115383928461
 30
0.0
 11
2577.961772698448
 21
209.9115383928461
 31
0.0
  0
LINE
  5
2BE2
330
1F
100
AcDbEntity
  8
图层2
100
AcDbLine
 10
2573.261772698447
 20
212.7115383928463
 30
0.0
 11
2571.261772698447
 21
212.7115383928463
 31
0.0
  0
LINE
  5
2BE3
330
1F
100
AcDbEntity
  8
图层2
100
AcDbLine
 10
2575.261772698447
 20
210.7115383928463
 30
0.0
 11
2573.261772698447
 21
210.7115383928463
 31
0.0
  0
LINE
  5
2BE4
330
1F
100
AcDbEntity
  8
1014813_DXF_CONTINUOUS_LINE
  6
Continuous
 62
     0
370
    40
100
AcDbLine
 10
2573.261772698447
 20
194.9115383928461
 30
0.0
 11
2573.261772698447
 21
186.7115383928462
 31
0.0
  0
LINE
  5
2BE6
330
1F
100
AcDbEntity
  8
1014813_DXF_CONTINUOUS_LINE
  6
Continuous
 62
     0
370
    40
100
AcDbLine
 10
2577.961772698448
 20
195.7115383928462
 30
0.0
 11
2575.261772698447
 21
195.7115383928462
 31
0.0
  0
LINE
  5
2BE7
330
1F
100
AcDbEntity
  8
1014813_DXF_CONTINUOUS_LINE
  6
Continuous
 62
     0
370
    40
100
AcDbLine
 10
2573.261772698447
 20
194.9115383928461
 30
0.0
 11
2575.261772698447
 21
194.9115383928461
 31
0.0
  0
LINE
  5
2BE8
330
1F
100
AcDbEntity
  8
1014813_DXF_CONTINUOUS_LINE
  6
Continuous
 62
     0
370
    40
100
AcDbLine
 10
2571.261772698447
 20
192.911538392846
 30
0.0
 11
2573.261772698447
 21
192.911538392846
 31
0.0
  0
ARC
  5
2BE9
330
1F
100
AcDbEntity
  8
1014813_DXF_CONTINUOUS_LINE
  6
Continuous
 62
     0
370
    40
100
AcDbCircle
 10
2572.761772698447
 20
186.4115383928461
 30
0.0
 40
2.5
100
AcDbArc
 50
270.0
 51
0.0
  0
LINE
  5
2BEA
330
1F
100
AcDbEntity
  8
1014813_DXF_CONTINUOUS_LINE
  6
Continuous
 62
     0
370
    40
100
AcDbLine
 10
2575.261772698447
 20
186.7115383928462
 30
0.0
 11
2573.261772698447
 21
186.7115383928462
 31
0.0
  0
LINE
  5
2BEB
330
1F
100
AcDbEntity
  8
1014813_DXF_CONTINUOUS_LINE
  6
Continuous
 62
     0
370
    40
100
AcDbLine
 10
2573.261772698447
 20
188.7115383928462
 30
0.0
 11
2571.261772698447
 21
188.7115383928462
 31
0.0
  0
LINE
  5
2BEC
330
1F
100
AcDbEntity
  8
1014813_DXF_CONTINUOUS_LINE
  6
Continuous
 62
     0
370
    40
100
AcDbLine
 10
2571.261772698447
 20
183.911538392846
 30
0.0
 11
2572.761772698447
 21
183.911538392846
 31
0.0
  0
ARC
  5
2BEE
330
1F
100
AcDbEntity
  8
图层2
100
AcDbCircle
 10
2581.261772698447
 20
202.8115383928462
 30
0.0
 40
2.0
100
AcDbArc
 50
0.0
 51
82.96069224918808
  0
LINE
  5
2BEF
330
1F
100
AcDbEntity
  8
1014813_DXF_CONTINUOUS_LINE
  6
Continuous
 62
     0
370
    40
100
AcDbLine
 10
2571.261772698447
 20
199.5615383928461
 30
0.0
 11
2581.506873199718
 21
200.8266137735527
 31
0.0
  0
LINE
  5
2BF0
330
1F
100
AcDbEntity
  8
图层2
100
AcDbLine
 10
2571.261772698447
 20
206.0615383928462
 30
0.0
 11
2581.506873199718
 21
204.7964630121396
 31
0.0
  0
ARC
  5
2BF1
330
1F
100
AcDbEntity
  8
1014813_DXF_CONTINUOUS_LINE
  6
Continuous
 62
     0
370
    40
100
AcDbCircle
 10
2581.261772698447
 20
202.8115383928462
 30
0.0
 40
2.0
100
AcDbArc
 50
277.0393077508119
 51
0.0
  0
LINE
  5
2BF2
330
1F
100
AcDbEntity
  8
1014813_DXF_CONTINUOUS_LINE
  6
Continuous
 62
     0
370
    40
100
AcDbLine
 10
2575.261772698447
 20
202.8115383928462
 30
0.0
 11
2575.261772698447
 21
219.211538392846
 31
0.0
  0
LINE
  5
2BF3
330
1F
100
AcDbEntity
  8
1014813_DXF_CONTINUOUS_LINE
  6
Continuous
 62
     0
370
    40
100
AcDbLine
 10
2577.961772698448
 20
197.8115383928461
 30
0.0
 11
2577.961772698448
 21
195.7115383928462
 31
0.0
  0
LINE
  5
2BF4
330
1F
100
AcDbEntity
  8
1014813_DXF_CONTINUOUS_LINE
  6
Continuous
 62
     0
370
    40
100
AcDbLine
 10
2592.261772698448
 20
207.8115383928462
 30
0.0
 11
2592.261772698448
 21
202.8115383928462
 31
0.0
  0
LINE
  5
2BF5
330
1F
100
AcDbEntity
  8
1014813_DXF_CONTINUOUS_LINE
  6
Continuous
 62
     0
370
    40
100
AcDbLine
 10
2593.261772698447
 20
206.8115383928462
 30
0.0
 11
2593.261772698447
 21
198.8115383928461
 31
0.0
  0
LINE
  5
2BF6
330
1F
100
AcDbEntity
  8
1014813_DXF_CONTINUOUS_LINE
  6
Continuous
 62
     0
370
    40
100
AcDbLine
 10
2577.961772698448
 20
207.8115383928462
 30
0.0
 11
2592.261772698448
 21
207.8115383928462
 31
0.0
  0
LINE
  5
2BF7
330
1F
100
AcDbEntity
  8
1014813_DXF_CONTINUOUS_LINE
  6
Continuous
 62
     0
370
    40
100
AcDbLine
 10
2592.261772698448
 20
207.8115383928462
 30
0.0
 11
2593.261772698447
 21
206.8115383928462
 31
0.0
  0
LINE
  5
2BF8
330
1F
100
AcDbEntity
  8
1014813_DXF_CONTINUOUS_LINE
  6
Continuous
 62
     0
370
    40
100
AcDbLine
 10
2577.961772698448
 20
197.8115383928461
 30
0.0
 11
2585.811772698447
 21
197.8115383928461
 31
0.0
  0
LINE
  5
2BF9
330
1F
100
AcDbEntity
  8
1014813_DXF_CONTINUOUS_LINE
  6
Continuous
 62
     0
370
    40
100
AcDbLine
 10
2590.311772698448
 20
197.8115383928461
 30
0.0
 11
2592.261772698448
 21
197.8115383928461
 31
0.0
  0
LINE
  5
2BFA
330
1F
100
AcDbEntity
  8
1014813_DXF_CONTINUOUS_LINE
  6
Continuous
 62
     0
370
    40
100
AcDbLine
 10
2593.261772698447
 20
198.8115383928461
 30
0.0
 11
2592.261772698448
 21
197.8115383928461
 31
0.0
  0
LINE
  5
2BFC
330
1F
100
AcDbEntity
  8
1014813_DXF_CONTINUOUS_LINE
  6
Continuous
 62
     0
370
    40
100
AcDbLine
 10
2588.061772698448
 20
200.0615383928462
 30
0.0
 11
2590.311772698448
 21
197.8115383928461
 31
0.0
  0
LINE
  5
2BFD
330
1F
100
AcDbEntity
  8
1014813_DXF_CONTINUOUS_LINE
  6
Continuous
 62
     0
370
    40
100
AcDbLine
 10
2588.061772698448
 20
200.0615383928462
 30
0.0
 11
2585.811772698447
 21
197.8115383928461
 31
0.0
  0
HATCH
  5
2BFE
330
1F
100
AcDbEntity
  8
图层1
100
AcDbHatch
 10
0.0
 20
0.0
 30
0.0
210
0.0
220
0.0
230
1.0
  2
LINE
 70
     0
 71
     0
 91
        2
 92
        7
 72
     1
 73
     1
 93
       16
 10
2590.311772698448
 20
197.8115383928461
 42
0.0
 10
2592.261772698448
 20
197.8115383928461
 42
0.0
 10
2593.261772698447
 20
198.8115383928461
 42
0.0
 10
2593.261772698447
 20
202.8115383928461
 42
0.0
 10
2583.261772698448
 20
202.8115383928461
 42
-0.3786699902072279
 10
2581.506873199718
 20
200.8266137735527
 42
0.0
 10
2571.261772698448
 20
199.5615383928462
 42
0.0
 10
2571.261772698448
 20
192.911538392846
 42
0.0
 10
2573.261772698448
 20
192.911538392846
 42
0.0
 10
2573.261772698447
 20
194.9115383928461
 42
0.0
 10
2575.261772698447
 20
194.9115383928461
 42
0.0
 10
2575.261772698447
 20
195.7115383928462
 42
0.0
 10
2577.961772698448
 20
195.7115383928462
 42
0.0
 10
2577.961772698447
 20
197.8115383928461
 42
0.0
 10
2585.811772698447
 20
197.8115383928461
 42
0.0
 10
2588.061772698448
 20
200.0615383928462
 42
0.0
 97
        0
 92
        7
 72
     1
 73
     1
 93
        7
 10
2571.261772698448
 20
183.9115383928461
 42
0.0
 10
2572.761772698447
 20
183.911538392846
 42
0.4142135623730951
 10
2575.261772698447
 20
186.411538392846
 42
0.0
 10
2575.261772698447
 20
186.7115383928462
 42
0.0
 10
2573.261772698447
 20
186.7115383928462
 42
0.0
 10
2573.261772698447
 20
188.7115383928462
 42
0.0
 10
2571.261772698447
 20
188.7115383928462
 42
0.0
 97
        0
 75
     0
 76
     1
 52
-60.0
 41
0.7
 77
     0
 78
     1
 53
300.0
 43
2384.10066950828
 44
354.3355279608404
 45
1.924741459910914
 46
1.111249999999999
 79
     0
 47
0.1186004525245611
 98
        2
 10
2591.020583573132
 20
200.0413337845641
 10
2572.637513016343
 20
185.3169193988819
  0
LINE
  5
2BFF
330
1F
100
AcDbEntity
  8
1014813_DXF_CONTINUOUS_LINE
  6
Continuous
 62
     0
370
    40
100
AcDbLine
 10
2340.174398632736
 20
86.81153839284617
 30
0.0
 11
2458.174398632736
 21
86.81153839284617
 31
0.0
  0
HATCH
  5
2C00
330
1F
100
AcDbEntity
  8
xixian
100
AcDbHatch
 10
0.0
 20
0.0
 30
0.0
210
0.0
220
0.0
230
1.0
  2
ANSI37
 70
     0
 71
     0
 91
        2
 92
        7
 72
     0
 73
     1
 93
        6
 10
2391.174398632736
 20
209.5615383928461
 10
2391.174398632736
 20
208.8115383928461
 10
2430.474398632736
 20
208.8115383928461
 10
2430.474398632736
 20
212.3115383928461
 10
2429.174398632736
 20
212.3115383928461
 10
2429.174398632736
 20
209.9115383928463
 97
        0
 92
        7
 72
     0
 73
     1
 93
        6
 10
2391.174398632736
 20
196.8115383928461
 10
2391.174398632736
 20
196.0615383928461
 10
2429.174398632736
 20
195.7115383928462
 10
2429.174398632736
 20
193.3115383928461
 10
2430.474398632736
 20
193.3115383928461
 10
2430.474398632736
 20
196.8115383928461
 97
        0
 75
     0
 76
     1
 52
0.0
 41
0.5
 77
     0
 78
     2
 53
45.0
 43
1684.906544996627
 44
-32.33602921934181
 45
-1.122532015133643
 46
1.122532015133644
 79
     0
 53
135.0
 43
1684.906544996627
 44
-32.33602921934181
 45
-1.122532015133644
 46
-1.122532015133643
 79
     0
 47
0.0546771518420876
 98
        2
 10
2410.450977547303
 20
209.3405528783448
 10
2419.207174368876
 20
196.3820667188294
  0
LINE
  5
2C01
330
1F
100
AcDbEntity
  8
1014813_DXF_CONTINUOUS_LINE
  6
Continuous
 62
     0
370
    40
100
AcDbLine
 10
2391.174398632736
 20
196.0615383928461
 30
0.0
 11
2391.174398632736
 21
196.8115383928461
 31
0.0
  0
LINE
  5
2C02
330
1F
100
AcDbEntity
  8
1014813_DXF_CONTINUOUS_LINE
  6
Continuous
 62
     0
370
    40
100
AcDbLine
 10
2391.174398632736
 20
208.8115383928462
 30
0.0
 11
2391.174398632736
 21
209.5615383928461
 31
0.0
  0
LINE
  5
2C03
330
1F
100
AcDbEntity
  8
0
100
AcDbLine
 10
2429.174398632736
 20
193.3115383928461
 30
0.0
 11
2429.174398632736
 21
195.7115383928461
 31
0.0
  0
LINE
  5
2C04
330
1F
100
AcDbEntity
  8
1014813_DXF_CONTINUOUS_LINE
  6
Continuous
 62
     0
370
    40
100
AcDbLine
 10
2429.174398632736
 20
209.9115383928463
 30
0.0
 11
2429.174398632736
 21
212.3115383928461
 31
0.0
  0
LINE
  5
2C05
330
1F
100
AcDbEntity
  8
1014813_DXF_CONTINUOUS_LINE
  6
Continuous
 62
     0
370
    40
100
AcDbLine
 10
2391.174398632736
 20
209.5615383928461
 30
0.0
 11
2429.174398632736
 21
209.9115383928463
 31
0.0
  0
LINE
  5
2C06
330
1F
100
AcDbEntity
  8
1014813_DXF_CONTINUOUS_LINE
  6
Continuous
 62
     0
370
    40
100
AcDbLine
 10
2391.174398632736
 20
196.0615383928461
 30
0.0
 11
2429.174398632736
 21
195.7115383928462
 31
0.0
  0
LINE
  5
2C07
330
1F
100
AcDbEntity
  8
1014813_DXF_CONTINUOUS_LINE
  6
Continuous
 62
     0
370
    40
100
AcDbLine
 10
2430.474398632736
 20
193.3115383928461
 30
0.0
 11
2430.474398632736
 21
196.8115383928461
 31
0.0
  0
LINE
  5
2C08
330
1F
100
AcDbEntity
  8
1014813_DXF_CONTINUOUS_LINE
  6
Continuous
 62
     0
370
    40
100
AcDbLine
 10
2430.474398632735
 20
208.8115383928461
 30
0.0
 11
2430.474398632736
 21
212.3115383928461
 31
0.0
  0
LINE
  5
2C09
330
1F
100
AcDbEntity
  8
1014813_DXF_CONTINUOUS_LINE
  6
Continuous
 62
     0
370
    40
100
AcDbLine
 10
2430.474398632736
 20
193.3115383928461
 30
0.0
 11
2429.174398632736
 21
193.3115383928461
 31
0.0
  0
LINE
  5
2C0A
330
1F
100
AcDbEntity
  8
1014813_DXF_CONTINUOUS_LINE
  6
Continuous
 62
     0
370
    40
100
AcDbLine
 10
2430.474398632736
 20
212.3115383928461
 30
0.0
 11
2429.174398632736
 21
212.3115383928461
 31
0.0
  0
LINE
  5
2C0B
330
1F
100
AcDbEntity
  8
1014813_DXF_CONTINUOUS_LINE
  6
Continuous
 62
     0
370
    40
100
AcDbLine
 10
2391.174398632736
 20
208.8115383928461
 30
0.0
 11
2430.474398632736
 21
208.8115383928461
 31
0.0
  0
LINE
  5
2C0C
330
1F
100
AcDbEntity
  8
1014813_DXF_CONTINUOUS_LINE
  6
Continuous
 62
     0
370
    40
100
AcDbLine
 10
2391.174398632736
 20
196.8115383928461
 30
0.0
 11
2430.474398632736
 21
196.8115383928461
 31
0.0
  0
HATCH
  5
2C19
330
1F
100
AcDbEntity
  8
xixian
100
AcDbHatch
 10
0.0
 20
0.0
 30
0.0
210
0.0
220
0.0
230
1.0
  2
ANSI31
 70
     0
 71
     0
 91
        2
 92
        7
 72
     0
 73
     1
 93
        6
 10
2429.174398632736
 20
209.9115383928461
 10
2429.174398632736
 20
213.8115383928462
 10
2379.174398632736
 20
213.8115383928462
 10
2379.174398632736
 20
202.8115383928462
 10
2382.174398632736
 20
202.8115383928462
 10
2382.174398632736
 20
209.9115383928462
 97
        0
 92
        7
 72
     0
 73
     1
 93
        6
 10
2429.174398632736
 20
191.8115383928462
 10
2429.174398632736
 20
195.7115383928463
 10
2382.174398632736
 20
195.7115383928463
 10
2382.174398632736
 20
202.8115383928462
 10
2379.174398632736
 20
202.8115383928462
 10
2379.174398632736
 20
191.8115383928462
 97
        0
 75
     0
 76
     1
 52
270.0
 41
0.5
 77
     0
 78
     1
 53
315.0
 43
1564.360063552565
 44
960.8916575247715
 45
1.122532015133644
 46
1.122532015133643
 79
     0
 47
0.1792380036192355
 98
        2
 10
2399.265442805806
 20
211.8381456840671
 10
2397.473060088481
 20
193.0012608260249
  0
LINE
  5
2C1A
330
1F
100
AcDbEntity
  8
1014813_DXF_CONTINUOUS_LINE
  6
Continuous
 62
     0
370
    40
100
AcDbLine
 10
2429.174398632736
 20
213.8115383928462
 30
0.0
 11
2429.174398632723
 21
209.9115383928461
 31
0.0
  0
LINE
  5
2C1B
330
1F
100
AcDbEntity
  8
1014813_DXF_CONTINUOUS_LINE
  6
Continuous
 62
     0
370
    40
100
AcDbLine
 10
2429.174398632736
 20
191.8115383928462
 30
0.0
 11
2379.174398632736
 21
191.8115383928462
 31
0.0
  0
LINE
  5
2C1D
330
1F
100
AcDbEntity
  8
1014813_DXF_CONTINUOUS_LINE
  6
Continuous
 62
     0
370
    40
100
AcDbLine
 10
2379.174398632736
 20
191.8115383928462
 30
0.0
 11
2379.174398632736
 21
213.8115383928462
 31
0.0
  0
LINE
  5
2C1E
102
{ACAD_REACTORS
330
2D76
102
}
330
1F
100
AcDbEntity
  8
1014813_DXF_CONTINUOUS_LINE
  6
Continuous
 62
     0
370
    40
100
AcDbLine
 10
2379.174398632736
 20
213.8115383928462
 30
0.0
 11
2429.174398632736
 21
213.8115383928462
 31
0.0
  0
LINE
  5
2C20
330
1F
100
AcDbEntity
  8
1014813_DXF_CONTINUOUS_LINE
  6
Continuous
 62
     0
370
    40
100
AcDbLine
 10
2382.174398632735
 20
195.7115383928463
 30
0.0
 11
2429.174398632736
 21
195.7115383928463
 31
0.0
  0
LINE
  5
2C21
330
1F
100
AcDbEntity
  8
1014813_DXF_CONTINUOUS_LINE
  6
Continuous
 62
     0
370
    40
100
AcDbLine
 10
2382.174398632735
 20
209.9115383928461
 30
0.0
 11
2429.174398632736
 21
209.9115383928461
 31
0.0
  0
LINE
  5
2C22
330
1F
100
AcDbEntity
  8
1014813_DXF_CONTINUOUS_LINE
  6
Continuous
 62
     0
370
    40
100
AcDbLine
 10
2382.174398632736
 20
195.7115383928463
 30
0.0
 11
2382.174398632736
 21
209.9115383928461
 31
0.0
  0
LINE
  5
2C25
330
1F
100
AcDbEntity
  8
1014813_DXF_CONTINUOUS_LINE
  6
Continuous
 62
     0
370
    40
100
AcDbLine
 10
2429.174398632736
 20
195.7115383928463
 30
0.0
 11
2429.174398632736
 21
191.8115383928462
 31
0.0
  0
ARC
  5
2C2A
330
1F
100
AcDbEntity
  8
1014813_DXF_CONTINUOUS_LINE
  6
Continuous
 62
     0
370
    40
100
AcDbCircle
 10
2399.174398632736
 20
202.8115383928461
 30
0.0
 40
20.0
100
AcDbArc
 50
213.3670129692244
 51
326.6329870307755
  0
ARC
  5
2C2B
102
{ACAD_REACTORS
330
2D5E
102
}
330
1F
100
AcDbEntity
  8
1014813_DXF_CONTINUOUS_LINE
  6
Continuous
 62
     0
370
    40
100
AcDbCircle
 10
2399.174398632736
 20
202.8115383928461
 30
0.0
 40
20.0
100
AcDbArc
 50
33.36701296922441
 51
146.6329870307756
  0
LINE
  5
2C2D
330
1F
100
AcDbEntity
  8
1014813_DXF_CONTINUOUS_LINE
  6
Continuous
 62
     0
370
    40
100
AcDbLine
 10
2578.261772698447
 20
193.811538392846
 30
0.0
 11
2586.261772698447
 21
193.811538392846
 31
0.0
  0
LINE
  5
2C2E
330
1F
100
AcDbEntity
  8
1014813_DXF_CONTINUOUS_LINE
  6
Continuous
 62
     0
370
    40
100
AcDbLine
 10
2590.261772698447
 20
193.811538392846
 30
0.0
 11
2636.937217378111
 21
193.811538392846
 31
0.0
  0
LINE
  5
2C2F
330
1F
100
AcDbEntity
  8
0
100
AcDbLine
 10
2578.261772698447
 20
193.811538392846
 30
0.0
 11
2578.261772698447
 21
196.7115383928461
 31
0.0
  0
LINE
  5
2C30
330
1F
100
AcDbEntity
  8
1014813_DXF_CONTINUOUS_LINE
  6
Continuous
 62
     0
370
    40
100
AcDbLine
 10
2578.261772698447
 20
211.811538392846
 30
0.0
 11
2636.937217378111
 21
211.811538392846
 31
0.0
  0
ARC
  5
2C31
330
1F
100
AcDbEntity
  8
0
100
AcDbCircle
 10
2643.261772698447
 20
202.8115383928461
 30
0.0
 40
11.0
100
AcDbArc
 50
125.0968012275825
 51
165.7913024652908
  0
ARC
  5
2C32
330
1F
100
AcDbEntity
  8
0
100
AcDbCircle
 10
2643.261772698447
 20
202.8115383928461
 30
0.0
 40
11.0
100
AcDbArc
 50
194.2086975347075
 51
234.9031987724174
  0
LINE
  5
2C34
330
1F
100
AcDbEntity
  8
0
100
AcDbLine
 10
2579.261772698448
 20
197.7115383928461
 30
0.0
 11
2585.761772698447
 21
197.7115383928461
 31
0.0
  0
LINE
  5
2C35
330
1F
100
AcDbEntity
  8
1014813_DXF_CONTINUOUS_LINE
  6
Continuous
 62
     0
370
    40
100
AcDbLine
 10
2590.761772698447
 20
197.7115383928461
 30
0.0
 11
2626.761772698448
 21
197.7115383928461
 31
0.0
  0
LINE
  5
2C36
330
1F
100
AcDbEntity
  8
1014813_DXF_CONTINUOUS_LINE
  6
Continuous
 62
     0
370
    40
100
AcDbLine
 10
2626.761772698448
 20
197.7115383928461
 30
0.0
 11
2626.761772698448
 21
207.9115383928462
 31
0.0
  0
LINE
  5
2C37
330
1F
100
AcDbEntity
  8
1014813_DXF_CONTINUOUS_LINE
  6
Continuous
 62
     0
370
    40
100
AcDbLine
 10
2626.761772698448
 20
207.9115383928462
 30
0.0
 11
2579.261772698448
 21
207.9115383928462
 31
0.0
  0
LINE
  5
2C38
330
1F
100
AcDbEntity
  8
1014813_DXF_CONTINUOUS_LINE
  6
Continuous
 62
     0
370
    40
100
AcDbLine
 10
2585.761772698447
 20
194.0290377065153
 30
0.0
 11
2585.761772698447
 21
197.7115383928461
 31
0.0
  0
LINE
  5
2C39
330
1F
100
AcDbEntity
  8
1014813_DXF_CONTINUOUS_LINE
  6
Continuous
 62
     0
370
    40
100
AcDbLine
 10
2590.761772698447
 20
194.0290377065153
 30
0.0
 11
2590.761772698447
 21
197.7115383928461
 31
0.0
  0
LINE
  5
2C3A
330
1F
100
AcDbEntity
  8
1014813_DXF_CONTINUOUS_LINE
  6
Continuous
 62
     0
370
    40
100
AcDbLine
 10
2586.261772698447
 20
193.811538392846
 30
0.0
 11
2586.261772698447
 21
198.0399136376754
 31
0.0
  0
LINE
  5
2C3B
330
1F
100
AcDbEntity
  8
1014813_DXF_CONTINUOUS_LINE
  6
Continuous
 62
     0
370
    40
100
AcDbLine
 10
2590.261772698447
 20
193.811538392846
 30
0.0
 11
2590.261772698447
 21
198.0399136376754
 31
0.0
  0
LINE
  5
2C3C
330
1F
100
AcDbEntity
  8
0
100
AcDbLine
 10
2626.761772698448
 20
207.9115383928462
 30
0.0
 11
2629.161772698448
 21
205.5115383928463
 31
0.0
  0
LINE
  5
2C3D
330
1F
100
AcDbEntity
  8
0
100
AcDbLine
 10
2629.161772698448
 20
205.5115383928463
 30
0.0
 11
2629.161772698448
 21
200.1115383928462
 31
0.0
  0
LINE
  5
2C3E
330
1F
100
AcDbEntity
  8
1014813_DXF_CONTINUOUS_LINE
  6
Continuous
 62
     0
370
    40
100
AcDbLine
 10
2626.761772698448
 20
197.7115383928461
 30
0.0
 11
2629.161772698448
 21
200.1115383928462
 31
0.0
  0
LINE
  5
2C3F
330
1F
100
AcDbEntity
  8
1014813_DXF_CONTINUOUS_LINE
  6
Continuous
 62
     0
370
    40
100
AcDbLine
 10
2629.161772698448
 20
200.1115383928462
 30
0.0
 11
2632.598283588405
 21
200.1115383928462
 31
0.0
  0
LINE
  5
2C40
330
1F
100
AcDbEntity
  8
1014813_DXF_CONTINUOUS_LINE
  6
Continuous
 62
     0
370
    40
100
AcDbLine
 10
2629.161772698448
 20
205.5115383928463
 30
0.0
 11
2632.598283588405
 21
205.5115383928463
 31
0.0
  0
LINE
  5
2C41
330
1F
100
AcDbEntity
  8
0
100
AcDbLine
 10
2579.261772698448
 20
197.7115383928461
 30
0.0
 11
2578.261772698447
 21
196.7115383928461
 31
0.0
  0
LINE
  5
2C42
330
1F
100
AcDbEntity
  8
0
100
AcDbLine
 10
2578.261772698447
 20
208.9115383928462
 30
0.0
 11
2578.261772698447
 21
211.811538392846
 31
0.0
  0
LINE
  5
2C43
330
1F
100
AcDbEntity
  8
0
100
AcDbLine
 10
2579.261772698448
 20
207.9115383928462
 30
0.0
 11
2578.261772698447
 21
208.9115383928462
 31
0.0
  0
LINE
  5
2C44
330
1F
100
AcDbEntity
  8
0
100
AcDbLine
 10
2578.261772698447
 20
196.7115383928461
 30
0.0
 11
2578.261772698447
 21
197.8115383928461
 31
0.0
  0
LINE
  5
2C45
330
1F
100
AcDbEntity
  8
0
100
AcDbLine
 10
2578.261772698447
 20
207.8115383928462
 30
0.0
 11
2578.261772698447
 21
208.9115383928462
 31
0.0
  0
LINE
  5
2C46
330
1F
100
AcDbEntity
  8
0
100
AcDbLine
 10
2579.261772698448
 20
197.7115383928461
 30
0.0
 11
2579.261772698448
 21
197.8115383928462
 31
0.0
  0
LINE
  5
2C47
330
1F
100
AcDbEntity
  8
0
100
AcDbLine
 10
2579.261772698448
 20
207.8115383928462
 30
0.0
 11
2579.261772698448
 21
207.9115383928462
 31
0.0
  0
HATCH
  5
2C48
330
1F
100
AcDbEntity
  8
图层1
100
AcDbHatch
 10
0.0
 20
0.0
 30
0.0
210
0.0
220
0.0
230
1.0
  2
LINE
 70
     0
 71
     0
 91
        3
 92
        7
 72
     1
 73
     1
 93
        6
 10
2590.261772698447
 20
197.7115383928461
 42
0.0
 10
2590.261772698447
 20
193.811538392846
 42
0.0
 10
2636.937217378111
 20
193.811538392846
 42
-0.1794532107407291
 10
2632.598283588405
 20
200.1115383928462
 42
0.0
 10
2629.161772698448
 20
200.1115383928462
 42
0.0
 10
2626.761772698448
 20
197.7115383928461
 42
0.0
 97
        0
 92
        7
 72
     0
 73
     1
 93
        5
 10
2579.261772698448
 20
197.7115383928461
 10
2578.261772698447
 20
196.7115383928461
 10
2578.261772698447
 20
193.811538392846
 10
2586.261772698447
 20
193.811538392846
 10
2586.261772698447
 20
197.7115383928461
 97
        0
 92
        7
 72
     1
 73
     1
 93
        7
 10
2578.261772698447
 20
211.811538392846
 42
0.0
 10
2578.261772698447
 20
208.9115383928462
 42
0.0
 10
2579.261772698448
 20
207.9115383928459
 42
0.0
 10
2626.761772698448
 20
207.9115383928462
 42
0.0
 10
2629.161772698448
 20
205.5115383928463
 42
0.0
 10
2632.598283588405
 20
205.5115383928463
 42
-0.1794532107407291
 10
2636.937217378111
 20
211.811538392846
 42
0.0
 97
        0
 75
     0
 76
     1
 52
135.0
 41
1.0
 77
     0
 78
     1
 53
135.0
 43
2828.411450095445
 44
120.1018699302381
 45
-2.245064030267288
 46
-2.245064030267287
 79
     0
 47
0.2297289442543434
 98
        3
 10
2597.405852063797
 20
196.0084782965394
 10
2584.081573437049
 20
195.7784811639034
 10
2586.149133411532
 20
210.0382418591765
  0
ARC
  5
2C49
330
1F
100
AcDbEntity
  8
1014813_DXF_CONTINUOUS_LINE
  6
Continuous
 62
     0
370
    40
100
AcDbCircle
 10
2588.261772698448
 20
185.0365740054544
 30
0.0
 40
8.999999999999829
100
AcDbArc
 50
77.16041159309874
 51
102.8395884069012
  0
HATCH
  5
2C4A
330
1F
100
AcDbEntity
  8
xixian
100
AcDbHatch
 10
0.0
 20
0.0
 30
0.0
210
0.0
220
0.0
230
1.0
  2
ANSI31
 70
     0
 71
     0
 91
        3
 92
        7
 72
     1
 73
     1
 93
        4
 10
2643.261772698447
 20
209.9115383928463
 42
0.0
 10
2643.261772698447
 20
213.8115383928464
 42
0.3472384100191274
 10
2632.561422236897
 20
205.3615383928468
 42
0.0
 10
2636.635499235935
 20
205.3615383928468
 42
-0.3102771699188209
 97
        0
 92
        7
 72
     1
 73
     1
 93
        4
 10
2643.261772698447
 20
213.8115383928463
 42
0.0
 10
2643.261772698447
 20
209.9115383928463
 42
-1.0
 10
2643.261772698447
 20
195.7115383928463
 42
0.0
 10
2643.261772698447
 20
191.8115383928465
 42
1.0
 97
        0
 92
        7
 72
     1
 73
     1
 93
        4
 10
2643.261772698447
 20
191.8115383928464
 42
0.0
 10
2643.261772698447
 20
195.7115383928463
 42
-0.3144063032157644
 10
2636.597877441167
 20
200.3615383928469
 42
0.0
 10
2632.538083967418
 20
200.3615383928468
 42
0.3498557438322851
 97
        0
 75
     0
 76
     1
 52
0.0
 41
0.5
 77
     0
 78
     1
 53
45.0
 43
1546.653625410837
 44
-17.48747180821374
 45
-1.122532015133643
 46
1.122532015133644
 79
     0
 47
0.0700985266504618
 98
        3
 10
2640.314443867366
 20
211.2115131800554
 10
2648.7338172544
 20
210.0198386249594
 10
2638.630568561733
 20
194.3177672519166
  0
ARC
  5
2C4B
102
{ACAD_REACTORS
330
2C8E
102
}
330
1F
100
AcDbEntity
  8
1014813_DXF_CONTINUOUS_LINE
  6
Continuous
 62
     0
370
    40
100
AcDbCircle
 10
2643.261772698447
 20
202.8115383928461
 30
0.0
 40
11.0
100
AcDbArc
 50
192.8692695243841
 51
166.5958606230838
  0
LINE
  5
2C4C
330
1F
100
AcDbEntity
  8
1014813_DXF_CONTINUOUS_LINE
  6
Continuous
 62
     0
370
    40
100
AcDbLine
 10
2638.261772698447
 20
137.8115383928461
 30
0.0
 11
2648.261772698447
 21
137.8115383928462
 31
0.0
  0
ARC
  5
2C4D
330
1F
100
AcDbEntity
  8
1014813_DXF_CONTINUOUS_LINE
  6
Continuous
 62
     0
370
    40
100
AcDbCircle
 10
2638.261772698447
 20
136.8115383928461
 30
0.0
 40
1.0
100
AcDbArc
 50
90.0
 51
180.0
  0
ARC
  5
2C4E
330
1F
100
AcDbEntity
  8
1014813_DXF_CONTINUOUS_LINE
  6
Continuous
 62
     0
370
    40
100
AcDbCircle
 10
2648.261772698447
 20
136.8115383928461
 30
0.0
 40
1.0
100
AcDbArc
 50
0.0
 51
90.0
  0
LINE
  5
2C53
330
1F
100
AcDbEntity
  8
1014813_DXF_CONTINUOUS_LINE
  6
Continuous
 62
     0
370
    40
100
AcDbLine
 10
2578.261772698447
 20
184.8115383928461
 30
0.0
 11
2578.261772698447
 21
197.8115383928461
 31
0.0
  0
LINE
  5
2C54
330
1F
100
AcDbEntity
  8
1014813_DXF_CONTINUOUS_LINE
  6
Continuous
 62
     0
370
    40
100
AcDbLine
 10
2578.261772698447
 20
207.8115383928462
 30
0.0
 11
2578.261772698447
 21
220.8115383928462
 31
0.0
  0
LINE
  5
2C55
330
1F
100
AcDbEntity
  8
1014813_DXF_CONTINUOUS_LINE
  6
Continuous
 62
     0
370
    40
100
AcDbLine
 10
2576.261772698448
 20
182.8115383928461
 30
0.0
 11
2571.261772698447
 21
182.8115383928461
 31
0.0
  0
LINE
  5
2C56
330
1F
100
AcDbEntity
  8
1014813_DXF_CONTINUOUS_LINE
  6
Continuous
 62
     0
370
    40
100
AcDbLine
 10
2576.261772698448
 20
183.8115383928461
 30
0.0
 11
2571.261772698447
 21
183.8115383928461
 31
0.0
  0
LINE
  5
2C57
330
1F
100
AcDbEntity
  8
1014813_DXF_CONTINUOUS_LINE
  6
Continuous
 62
     0
370
    40
100
AcDbLine
 10
2578.261772698447
 20
195.5115383928462
 30
0.0
 11
2577.261772698447
 21
195.5115383928462
 31
0.0
  0
LINE
  5
2C58
330
1F
100
AcDbEntity
  8
0
100
AcDbLine
 10
2578.261772698447
 20
210.3574635986547
 30
0.0
 11
2577.261772698447
 21
210.3574635986547
 31
0.0
  0
LINE
  5
2C59
330
1F
100
AcDbEntity
  8
1014813_DXF_CONTINUOUS_LINE
  6
Continuous
 62
     0
370
    40
100
AcDbLine
 10
2576.261772698448
 20
221.8115383928461
 30
0.0
 11
2571.261772698447
 21
221.8115383928461
 31
0.0
  0
LINE
  5
2C5A
330
1F
100
AcDbEntity
  8
1014813_DXF_CONTINUOUS_LINE
  6
Continuous
 62
     0
370
    40
100
AcDbLine
 10
2577.261772698447
 20
184.8115383928461
 30
0.0
 11
2577.261772698447
 21
195.7115383928462
 31
0.0
  0
LINE
  5
2C5B
330
1F
100
AcDbEntity
  8
1014813_DXF_CONTINUOUS_LINE
  6
Continuous
 62
     0
370
    40
100
AcDbLine
 10
2577.261772698447
 20
209.9115383928461
 30
0.0
 11
2577.261772698447
 21
220.8115383928462
 31
0.0
  0
LINE
  5
2C5C
330
1F
100
AcDbEntity
  8
1014813_DXF_CONTINUOUS_LINE
  6
Continuous
 62
     0
370
    40
100
AcDbLine
 10
2571.261772698447
 20
182.8115383928461
 30
0.0
 11
2571.261772698447
 21
183.8115383928461
 31
0.0
  0
LINE
  5
2C5D
330
1F
100
AcDbEntity
  8
1014813_DXF_CONTINUOUS_LINE
  6
Continuous
 62
     0
370
    40
100
AcDbLine
 10
2571.261772698447
 20
221.8115383928461
 30
0.0
 11
2571.261772698447
 21
222.8115383928462
 31
0.0
  0
ARC
  5
2C5E
330
1F
100
AcDbEntity
  8
1014813_DXF_CONTINUOUS_LINE
  6
Continuous
 62
     0
370
    40
100
AcDbCircle
 10
2576.261772698448
 20
184.8115383928462
 30
0.0
 40
1.0
100
AcDbArc
 50
270.0
 51
0.0
  0
ARC
  5
2C5F
330
1F
100
AcDbEntity
  8
1014813_DXF_CONTINUOUS_LINE
  6
Continuous
 62
     0
370
    40
100
AcDbCircle
 10
2576.261772698448
 20
220.8115383928462
 30
0.0
 40
1.0
100
AcDbArc
 50
0.0
 51
90.0
  0
ARC
  5
2C60
330
1F
100
AcDbEntity
  8
1014813_DXF_CONTINUOUS_LINE
  6
Continuous
 62
     0
370
    40
100
AcDbCircle
 10
2576.261772698448
 20
184.8115383928462
 30
0.0
 40
2.0
100
AcDbArc
 50
270.0
 51
0.0
  0
ARC
  5
2C61
330
1F
100
AcDbEntity
  8
1014813_DXF_CONTINUOUS_LINE
  6
Continuous
 62
     0
370
    40
100
AcDbCircle
 10
2576.261772698448
 20
220.8115383928462
 30
0.0
 40
2.0
100
AcDbArc
 50
0.0
 51
90.0
  0
LINE
  5
2C62
330
1F
100
AcDbEntity
  8
1014813_DXF_CONTINUOUS_LINE
  6
Continuous
 62
     0
370
    40
100
AcDbLine
 10
2571.261772698447
 20
183.8115383928461
 30
0.0
 11
2571.261772698447
 21
221.8115383928461
 31
0.0
  0
HATCH
  5
2C63
330
1F
100
AcDbEntity
  8
图层1
100
AcDbHatch
 10
0.0
 20
0.0
 30
0.0
210
0.0
220
0.0
230
1.0
  2
LINE
 70
     0
 71
     0
 91
        2
 92
        7
 72
     1
 73
     1
 93
        8
 10
2578.261772698447
 20
195.5115383928462
 42
0.0
 10
2577.261772698447
 20
195.5115383928462
 42
0.0
 10
2577.261772698447
 20
184.8115383928461
 42
-0.4142135623730951
 10
2576.261772698448
 20
183.8115383928461
 42
0.0
 10
2571.261772698447
 20
183.8115383928461
 42
0.0
 10
2571.261772698447
 20
182.8115383928461
 42
0.0
 10
2576.261772698448
 20
182.8115383928461
 42
0.4142135623730951
 10
2578.261772698447
 20
184.8115383928461
 42
0.0
 97
        0
 92
        7
 72
     1
 73
     1
 93
        8
 10
2578.261772698447
 20
220.8115383928462
 42
0.4142135623730951
 10
2576.261772698448
 20
222.8115383928462
 42
0.0
 10
2571.261772698447
 20
222.8115383928462
 42
0.0
 10
2571.261772698447
 20
221.8115383928461
 42
0.0
 10
2576.261772698448
 20
221.8115383928461
 42
-0.4142135623730951
 10
2577.261772698447
 20
220.8115383928462
 42
0.0
 10
2577.261772698447
 20
210.3574635986547
 42
0.0
 10
2578.261772698447
 20
210.3574635986547
 42
0.0
 97
        0
 75
     0
 76
     1
 52
135.0
 41
0.7
 77
     0
 78
     1
 53
135.0
 43
2768.18709945423
 44
95.15836702126376
 45
-1.571544821187101
 46
-1.571544821187101
 79
     0
 47
0.1554848170902332
 98
        2
 10
2577.900118044505
 20
187.405626668097
 10
2577.900118044505
 20
213.2476221102845
  0
LINE
  5
2C64
330
1F
100
AcDbEntity
  8
1014813_DXF_CONTINUOUS_LINE
  6
Continuous
 62
     0
370
    40
100
AcDbLine
 10
2626.861772698448
 20
207.8115383928462
 30
0.0
 11
2626.879275514339
 21
197.8115383928462
 31
0.0
  0
LINE
  5
2C65
330
1F
100
AcDbEntity
  8
1014813_DXF_CONTINUOUS_LINE
  6
Continuous
 62
     0
370
    40
100
AcDbLine
 10
2629.161772698448
 20
205.5115383928461
 30
0.0
 11
2629.161772698448
 21
200.1115383928462
 31
0.0
  0
LINE
  5
2C66
330
1F
100
AcDbEntity
  8
1014813_DXF_CONTINUOUS_LINE
  6
Continuous
 62
     0
370
    40
100
AcDbLine
 10
2629.161772698448
 20
205.5115383928461
 30
0.0
 11
2626.861772698448
 21
207.8115383928462
 31
0.0
  0
LINE
  5
2C67
330
1F
100
AcDbEntity
  8
1014813_DXF_CONTINUOUS_LINE
  6
Continuous
 62
     0
370
    40
100
AcDbLine
 10
2629.161772698448
 20
200.1115383928462
 30
0.0
 11
2626.879275514339
 21
197.8115383928462
 31
0.0
  0
HATCH
  5
2C68
330
1F
100
AcDbEntity
  8
xixian
100
AcDbHatch
 10
0.0
 20
0.0
 30
0.0
210
0.0
220
0.0
230
1.0
  2
ANSI37
 70
     0
 71
     0
 91
        5
 92
        7
 72
     1
 73
     1
 93
        5
 10
2636.932462609268
 20
205.3615383928468
 42
0.0
 10
2637.661772698448
 20
205.3615383928468
 42
0.0
 10
2637.777685051022
 20
205.2456260402726
 42
-0.2965275933122028
 10
2643.261772698447
 20
208.8115383928462
 42
0.0
 10
2643.261772698447
 20
209.6352226033725
 42
0.3059984117705248
 97
        0
 92
        7
 72
     1
 73
     1
 93
        4
 10
2643.261772698447
 20
209.6352226033725
 42
0.0
 10
2643.261772698447
 20
208.8115383928462
 42
-0.4142135623730896
 10
2649.261772698447
 20
202.8115383928461
 42
0.0
 10
2649.261772698447
 20
199.5615128229495
 42
0.5683279406234427
 97
        0
 92
        7
 72
     1
 73
     1
 93
        4
 10
2649.261772698447
 20
199.5615128229493
 42
0.0
 10
2649.261772698447
 20
202.8115383928461
 42
-0.4142135623730896
 10
2643.261772698447
 20
196.811538392846
 42
0.0
 10
2643.261772698447
 20
195.98785418232
 42
0.2752434922538717
 97
        0
 92
        7
 72
     1
 73
     1
 93
        6
 10
2643.261772698447
 20
195.9878541823199
 42
0.0
 10
2643.261772698447
 20
196.811538392846
 42
-0.2999742370968568
 10
2637.747308902446
 20
200.447074596846
 42
0.0
 10
2637.661772698448
 20
200.361538392847
 42
0.0
 10
2637.261772698447
 20
200.3615383928469
 42
0.0
 10
2637.261772698447
 20
199.561512822949
 42
0.2752434922538767
 97
        0
 92
        7
 72
     1
 73
     1
 93
        3
 10
2637.261772698447
 20
200.3615383928469
 42
0.0
 10
2636.893086318589
 20
200.3615383928469
 42
0.0323070099907939
 10
2637.261772698447
 20
199.5615128229488
 42
0.0
 97
        0
 75
     0
 76
     1
 52
0.0
 41
0.3
 77
     0
 78
     2
 53
45.0
 43
1546.653625410837
 44
-17.48747180821374
 45
-0.6735192090801864
 46
0.6735192090801866
 79
     0
 53
135.0
 43
1546.653625410837
 44
-17.48747180821374
 45
-0.6735192090801866
 46
-0.6735192090801864
 79
     0
 47
0.0502459083199814
 98
        5
 10
2642.114186057544
 20
209.1822390518994
 10
2644.326990063121
 20
209.1822390518994
 10
2647.042704783858
 20
197.5754340624207
 10
2640.102546338032
 20
197.1734660976819
 10
2637.135374689148
 20
200.1379754914667
  0
LINE
  5
2C69
330
1F
100
AcDbEntity
  8
1014813_DXF_CONTINUOUS_LINE
  6
Continuous
 62
     0
370
    40
100
AcDbLine
 10
2629.161772698448
 20
205.3615383928468
 30
0.0
 11
2637.661772698448
 21
205.3615383928468
 31
0.0
  0
LINE
  5
2C6B
330
1F
100
AcDbEntity
  8
0
100
AcDbLine
 10
2637.777685051022
 20
205.2456260402725
 30
0.0
 11
2637.661772698448
 21
205.3615383928468
 31
0.0
  0
LINE
  5
2C6C
330
1F
100
AcDbEntity
  8
1014813_DXF_CONTINUOUS_LINE
  6
Continuous
 62
     0
370
    40
100
AcDbLine
 10
2629.161772698448
 20
200.3615383928468
 30
0.0
 11
2637.661772698448
 21
200.3615383928469
 31
0.0
  0
LINE
  5
2C6D
330
1F
100
AcDbEntity
  8
图层2
100
AcDbLine
 10
2629.161772698448
 20
204.8615383928469
 30
0.0
 11
2637.661772698448
 21
204.8615383928469
 31
0.0
  0
LINE
  5
2C6E
330
1F
100
AcDbEntity
  8
图层2
100
AcDbLine
 10
2629.161772698448
 20
200.8615383928469
 30
0.0
 11
2637.661772698448
 21
200.8615383928468
 31
0.0
  0
LINE
  5
2C6F
330
1F
100
AcDbEntity
  8
1014813_DXF_CONTINUOUS_LINE
  6
Continuous
 62
     0
370
    40
100
AcDbLine
 10
2626.870524106394
 20
202.230909849533
 30
0.0
 11
2627.748772992884
 21
202.230909849533
 31
0.0
  0
LINE
  5
2C70
330
1F
100
AcDbEntity
  8
1014813_DXF_CONTINUOUS_LINE
  6
Continuous
 62
     0
370
    40
100
AcDbLine
 10
2627.748772992884
 20
202.230909849533
 30
0.0
 11
2627.748772992884
 21
202.8615383928469
 31
0.0
  0
LINE
  5
2C71
330
1F
100
AcDbEntity
  8
1014813_DXF_CONTINUOUS_LINE
  6
Continuous
 62
     0
370
    40
100
AcDbLine
 10
2626.870524106394
 20
203.5361832287174
 30
0.0
 11
2627.748772992884
 21
203.5361832287174
 31
0.0
  0
LINE
  5
2C72
330
1F
100
AcDbEntity
  8
1014813_DXF_CONTINUOUS_LINE
  6
Continuous
 62
     0
370
    40
100
AcDbLine
 10
2627.748772992884
 20
203.5361832287174
 30
0.0
 11
2627.748772992884
 21
202.8615383928467
 31
0.0
  0
SPLINE
  5
2C73
330
1F
100
AcDbEntity
  8
图层7
100
AcDbSpline
210
0.0
220
0.0
230
1.0
 70
  1064
 71
     3
 72
    11
 73
     7
 74
     5
 42
0.000000001
 43
0.0000000001
 44
0.0000000001
 40
0.0
 40
0.0
 40
0.0
 40
0.0
 40
1.891178409891718
 40
3.047731487490662
 40
4.612893787757782
 40
5.880697458612797
 40
5.880697458612797
 40
5.880697458612797
 40
5.880697458612797
 10
2626.870524106394
 20
200.646312076799
 30
0.0
 10
2627.462903812532
 20
200.9341959519248
 30
0.0
 10
2628.417554242922
 20
201.3981356555366
 30
0.0
 10
2628.922701465857
 20
203.0310107684776
 30
0.0
 10
2628.048961013344
 20
204.2416399418036
 30
0.0
 10
2627.234852456177
 20
204.7074591386213
 30
0.0
 10
2626.870524106394
 20
204.9159216806004
 30
0.0
 11
2626.870524106394
 21
200.646312076799
 31
0.0
 11
2628.408588540798
 21
201.7467272592014
 31
0.0
 11
2628.716502745738
 21
202.8615383928468
 31
0.0
 11
2627.924723664371
 21
204.211656503416
 31
0.0
 11
2626.870524106394
 21
204.9159216806004
 31
0.0
  0
LINE
  5
2C75
330
1F
100
AcDbEntity
  8
0
100
AcDbLine
 10
2637.661772698448
 20
200.3615383928469
 30
0.0
 11
2637.747308902446
 21
200.4470745968459
 31
0.0
  0
LINE
  5
2C77
330
1F
100
AcDbEntity
  8
0
100
AcDbLine
 10
2637.661772698448
 20
200.3615383928469
 30
0.0
 11
2637.661772698448
 21
200.6574724699918
 31
0.0
  0
LINE
  5
2C79
330
1F
100
AcDbEntity
  8
0
100
AcDbLine
 10
2637.661772698448
 20
204.9656043157007
 30
0.0
 11
2637.661772698448
 21
205.3615383928468
 31
0.0
  0
ARC
  5
2C7A
330
1F
100
AcDbEntity
  8
1014813_DXF_CONTINUOUS_LINE
  6
Continuous
 62
     0
370
    40
100
AcDbCircle
 10
2643.261772698447
 20
202.8115383928461
 30
0.0
 40
7.099999999999999
100
AcDbArc
 50
200.1860946781741
 51
158.9516935700712
  0
CIRCLE
  5
2C7C
330
1F
100
AcDbEntity
  8
1014813_DXF_CONTINUOUS_LINE
  6
Continuous
 62
     0
370
    40
100
AcDbCircle
 10
2643.261772698447
 20
202.8115383928461
 30
0.0
 40
6.000000000000113
  0
CIRCLE
  5
2C7D
330
1F
100
AcDbEntity
  8
1014813_DXF_CONTINUOUS_LINE
  6
Continuous
 62
     0
370
    40
100
AcDbCircle
 10
2643.261772698447
 20
202.8115383928461
 30
0.0
 40
5.500000000000113
  0
LINE
  5
2C7E
102
{ACAD_REACTORS
330
2C8B
330
2C8E
102
}
330
1F
100
AcDbEntity
  8
1014813_DXF_CONTINUOUS_LINE
  6
Continuous
 62
     0
370
    40
100
AcDbLine
 10
2576.261772698448
 20
222.8115383928462
 30
0.0
 11
2571.261772698447
 21
222.8115383928462
 31
0.0
  0
ARC
  5
2C7F
330
1F
100
AcDbEntity
  8
1014813_DXF_CONTINUOUS_LINE
  6
Continuous
 62
     0
370
    40
100
AcDbCircle
 10
2588.061772698448
 20
191.8059558058508
 30
0.0
 40
6.413230247638253
100
AcDbArc
 50
69.46146699747416
 51
110.5385330025534
  0
LINE
  5
2C81
330
1F
100
AcDbEntity
  8
1014813_DXF_CONTINUOUS_LINE
  6
Continuous
 62
     0
370
    40
100
AcDbLine
 10
2637.261772698447
 20
193.5919939355532
 30
0.0
 11
2637.261772698447
 21
92.81153839284604
 31
0.0
  0
LINE
  5
2C83
330
1F
100
AcDbEntity
  8
1014813_DXF_CONTINUOUS_LINE
  6
Continuous
 62
     0
370
    40
100
AcDbLine
 10
2649.261772698447
 20
193.5919939355532
 30
0.0
 11
2649.261772698447
 21
92.81153839284604
 31
0.0
  0
ARC
  5
2C84
102
{ACAD_REACTORS
330
2C8B
102
}
330
1F
100
AcDbEntity
  8
1014813_DXF_CONTINUOUS_LINE
  6
Continuous
 62
     0
370
    40
100
AcDbCircle
 10
2643.261772698447
 20
92.81153839284604
 30
0.0
 40
6.0
100
AcDbArc
 50
180.0
 51
0.0
  0
ARC
  5
2C85
330
1F
100
AcDbEntity
  8
1014813_DXF_CONTINUOUS_LINE
  6
Continuous
 62
     0
370
    40
100
AcDbCircle
 10
2643.261772698447
 20
202.8115383928461
 30
0.0
 40
6.823684210526295
100
AcDbArc
 50
201.0414705464191
 51
158.05611000168
  0
DIMENSION
  5
2C86
102
{ACAD_XDICTIONARY
360
2C87
102
}
102
{ACAD_REACTORS
330
2C88
102
}
330
1F
100
AcDbEntity
  8
xixian
100
AcDbDimension
280
     0
  2
*D14
 10
2490.174398632736
 20
68.78266249365902
 30
0.0
 11
2399.174398632736
 21
73.53624366691959
 31
0.0
 70
    32
 71
     5
 42
182.0
 73
     0
 74
     0
 75
     0
  3
ISO-25
100
AcDbAlignedDimension
 13
2308.174398632736
 23
118.8115383928461
 33
0.0
 14
2490.174398632736
 24
118.8115383928461
 34
0.0
100
AcDbRotatedDimension
  0
DIMENSION
  5
2C89
102
{ACAD_XDICTIONARY
360
2C8A
102
}
102
{ACAD_REACTORS
330
2C8B
102
}
330
1F
100
AcDbEntity
  8
xixian
100
AcDbDimension
280
     0
  2
*D15
 10
2548.64070428128
 20
86.81153839284606
 30
0.0
 11
2543.884991457269
 21
154.8115383928465
 31
0.0
 70
    32
 71
     5
 42
136.0000000000001
 73
     0
 74
     0
 75
     0
  3
ISO-25
100
AcDbAlignedDimension
 13
2576.261772698448
 23
222.8115383928462
 33
0.0
 14
2643.261772698447
 24
86.81153839284604
 34
0.0
 50
90.0
100
AcDbRotatedDimension
  0
DIMENSION
  5
2C8C
102
{ACAD_XDICTIONARY
360
2C8D
102
}
102
{ACAD_REACTORS
330
2C8E
102
}
330
1F
100
AcDbEntity
  8
xixian
100
AcDbDimension
280
     0
  2
*D16
 10
2654.261652871945
 20
240.4264293557653
 30
0.0
 11
2604.748523939576
 21
240.4264293557653
 31
0.0
 70
   160
 71
     5
 42
82.99988017349733
 73
     0
 74
     0
 75
     0
  3
ISO-25
100
AcDbAlignedDimension
 13
2571.261772698447
 23
222.8115383928462
 33
0.0
 14
2654.261652871945
 24
202.7601947593007
 34
0.0
100
AcDbRotatedDimension
  0
LINE
  5
2C92
330
1F
100
AcDbEntity
  8
1014813_DXF_CONTINUOUS_LINE
  6
Continuous
 62
     0
370
    40
100
AcDbLine
 10
2585.761772698447
 20
197.7115383928461
 30
0.0
 11
2588.261772698448
 21
199.3534146169926
 31
0.0
  0
LINE
  5
2C93
330
1F
100
AcDbEntity
  8
1014813_DXF_CONTINUOUS_LINE
  6
Continuous
 62
     0
370
    40
100
AcDbLine
 10
2588.261772698448
 20
199.3534146169926
 30
0.0
 11
2590.761772698447
 21
197.7115383928461
 31
0.0
  0
LINE
  5
2C94
330
1F
100
AcDbEntity
  8
1014813_DXF_CONTINUOUS_LINE
  6
Continuous
 62
     0
370
    40
100
AcDbLine
 10
2585.761772698447
 20
194.0290377065153
 30
0.0
 11
2590.761772698447
 21
194.0290377065153
 31
0.0
  0
LINE
  5
2C95
330
1F
100
AcDbEntity
  8
0
100
AcDbLine
 10
2586.261772698447
 20
194.0290377065153
 30
0.0
 11
2586.261772698448
 21
193.8115383928464
 31
0.0
  0
LINE
  5
2C96
330
1F
100
AcDbEntity
  8
0
100
AcDbLine
 10
2590.261772698449
 20
193.811538392846
 30
0.0
 11
2590.261772698449
 21
194.0290377065153
 31
0.0
  0
LINE
  5
2C97
330
1F
100
AcDbEntity
  8
图层3
100
AcDbLine
 10
2590.761772698447
 20
194.0290377065153
 30
0.0
 11
2590.761772698447
 21
193.811538392846
 31
0.0
  0
LINE
  5
2C98
330
1F
100
AcDbEntity
  8
图层3
100
AcDbLine
 10
2585.761772698447
 20
194.0290377065153
 30
0.0
 11
2585.761772698447
 21
193.811538392846
 31
0.0
  0
LINE
  5
2CF6
330
1F
100
AcDbEntity
  8
图层4
100
AcDbLine
 10
2593.261772698447
 20
202.8115383928462
 30
0.0
 11
2571.261772698447
 21
202.8115383928462
 31
0.0
  0
DIMENSION
  5
2D49
102
{ACAD_XDICTIONARY
360
2D55
102
}
102
{ACAD_REACTORS
330
2D5E
102
}
330
1F
100
AcDbEntity
  8
图层4
100
AcDbDimension
280
     0
  2
*D17
 10
2387.582925354833
 20
186.5131413168246
 30
0.0
 11
2419.458700139026
 21
239.8360926290341
 31
0.0
 70
    35
 71
     5
 42
40.0
 73
     0
 74
     0
 75
     0
  3
ISO-25
100
AcDbDiametricDimension
 15
2410.765871910639
 25
219.1099354688674
 35
0.0
 40
0.0
1001
ACAD
1000
DSTYLE
1002
{
1070
   288
1070
     1
1002
}
  0
DIMENSION
  5
2D5F
102
{ACAD_XDICTIONARY
360
2D6C
102
}
102
{ACAD_REACTORS
330
2D76
102
}
330
1F
100
AcDbEntity
  8
图层4
100
AcDbDimension
280
     0
  2
*D18
 10
2490.174398632736
 20
250.0409286203401
 30
0.0
 11
2434.674398632736
 21
254.7412185248421
 31
0.0
 70
    32
 71
     5
 42
111.0
 73
     0
 74
     0
 75
     0
  3
ISO-25
100
AcDbAlignedDimension
 13
2379.174398632736
 23
213.8115383928462
 33
0.0
 14
2490.174398632736
 24
176.8115383928462
 34
0.0
100
AcDbRotatedDimension
  0
ENDSEC
  0
SECTION
  2
OBJECTS
  0
DICTIONARY
  5
C
330
0
100
AcDbDictionary
281
     1
  3
ACAD_CIP_PREVIOUS_PRODUCT_INFO
350
2E04
  3
ACAD_COLOR
350
6B
  3
ACAD_DETAILVIEWSTYLE
350
2DFA
  3
ACAD_GROUP
350
D
  3
ACAD_LAYOUT
350
1A
  3
ACAD_MATERIAL
350
6A
  3
ACAD_MLEADERSTYLE
350
2DF5
  3
ACAD_MLINESTYLE
350
17
  3
ACAD_PLOTSETTINGS
350
19
  3
ACAD_PLOTSTYLENAME
350
E
  3
ACAD_SCALELIST
350
2DE3
  3
ACAD_SECTIONVIEWSTYLE
350
2DF7
  3
ACAD_TABLESTYLE
350
7E
  3
ACAD_VISUALSTYLE
350
2DCA
  3
AcadDim
350
C99
  3
ACDB_RECOMPOSE_DATA
350
2E35
  3
AcDbVariableDictionary
350
5E
  3
ASE_INDEX_DICTIONARY
350
445
  0
DICTIONARY
  5
EC4
330
2
100
AcDbDictionary
280
     1
281
     1
  3
ACAD_LAYERFILTERS
360
EC6
  3
ACLYDICTIONARY
360
EC5
  0
DICTIONARY
  5
2E05
330
10
100
AcDbDictionary
280
     1
281
     1
  3
ADSK_XREC_LAYER_RECONCILED
360
2E06
  0
DICTIONARY
  5
2E07
330
F2
100
AcDbDictionary
280
     1
281
     1
  3
ADSK_XREC_LAYER_RECONCILED
360
2E08
  0
DICTIONARY
  5
2E09
330
F3
100
AcDbDictionary
280
     1
281
     1
  3
ADSK_XREC_LAYER_RECONCILED
360
2E0A
  0
DICTIONARY
  5
2E0B
330
271
100
AcDbDictionary
280
     1
281
     1
  3
ADSK_XREC_LAYER_RECONCILED
360
2E0C
  0
DICTIONARY
  5
2E0D
330
272
100
AcDbDictionary
280
     1
281
     1
  3
ADSK_XREC_LAYER_RECONCILED
360
2E0E
  0
DICTIONARY
  5
2E0F
330
273
100
AcDbDictionary
280
     1
281
     1
  3
ADSK_XREC_LAYER_RECONCILED
360
2E10
  0
DICTIONARY
  5
2E11
330
2223
100
AcDbDictionary
280
     1
281
     1
  3
ADSK_XREC_LAYER_RECONCILED
360
2E12
  0
DICTIONARY
  5
2E13
330
2224
100
AcDbDictionary
280
     1
281
     1
  3
ADSK_XREC_LAYER_RECONCILED
360
2E14
  0
DICTIONARY
  5
2E15
330
2225
100
AcDbDictionary
280
     1
281
     1
  3
ADSK_XREC_LAYER_RECONCILED
360
2E16
  0
DICTIONARY
  5
2E17
330
2AC0
100
AcDbDictionary
280
     1
281
     1
  3
ADSK_XREC_LAYER_RECONCILED
360
2E18
  0
DICTIONARY
  5
22F
330
1F
100
AcDbDictionary
280
     1
281
     1
  3
ACAD_SORTENTS
360
230
  0
DICTIONARY
  5
2C87
330
2C86
100
AcDbDictionary
280
     1
281
     1
  3
ACAD_DIMASSOC
360
2C88
  0
DICTIONARY
  5
2C8A
330
2C89
100
AcDbDictionary
280
     1
281
     1
  3
ACAD_DIMASSOC
360
2C8B
  0
DICTIONARY
  5
2C8D
330
2C8C
100
AcDbDictionary
280
     1
281
     1
  3
ACAD_DIMASSOC
360
2C8E
  0
DICTIONARY
  5
2D55
330
2D49
100
AcDbDictionary
280
     1
281
     1
  3
ACAD_DIMASSOC
360
2D5E
  0
DICTIONARY
  5
2D6C
330
2D5F
100
AcDbDictionary
280
     1
281
     1
  3
ACAD_DIMASSOC
360
2D76
  0
XRECORD
  5
2E04
102
{ACAD_REACTORS
330
C
102
}
330
C
100
AcDbXrecord
280
     1
300
ACD
300
2017
300
ACD_F_S
  0
DICTIONARY
  5
6B
102
{ACAD_REACTORS
330
C
102
}
330
C
100
AcDbDictionary
281
     1
  0
DICTIONARY
  5
2DFA
102
{ACAD_REACTORS
330
C
102
}
330
C
100
AcDbDictionary
281
     1
  3
Metric50
350
2DFB
  0
DICTIONARY
  5
D
102
{ACAD_REACTORS
330
C
102
}
330
C
100
AcDbDictionary
281
     1
  0
DICTIONARY
  5
1A
102
{ACAD_REACTORS
330
C
102
}
330
C
100
AcDbDictionary
281
     1
  3
Model
350
22
  3
布局1
350
D3
  3
布局2
350
D7
1001
AcadStringInfo
1000
MIFCodePage
1070
     5
  0
DICTIONARY
  5
6A
102
{ACAD_REACTORS
330
C
102
}
330
C
100
AcDbDictionary
281
     1
  3
ByBlock
350
2DBA
  3
ByLayer
350
2DB2
  3
Global
350
2DC2
  0
DICTIONARY
  5
2DF5
102
{ACAD_REACTORS
330
C
102
}
330
C
100
AcDbDictionary
281
     1
  3
Standard
350
2DF6
  0
DICTIONARY
  5
17
102
{ACAD_REACTORS
330
C
102
}
330
C
100
AcDbDictionary
281
     1
  3
Standard
350
18
  0
DICTIONARY
  5
19
102
{ACAD_REACTORS
330
C
102
}
330
C
100
AcDbDictionary
281
     1
  0
ACDBDICTIONARYWDFLT
  5
E
102
{ACAD_REACTORS
330
C
102
}
330
C
100
AcDbDictionary
281
     1
  3
Normal
350
F
100
AcDbDictionaryWithDefault
340
F
  0
DICTIONARY
  5
2DE3
102
{ACAD_REACTORS
330
C
102
}
330
C
100
AcDbDictionary
281
     1
  3
A0
350
2DE4
  3
A1
350
2DE5
  3
A2
350
2DE6
  3
A3
350
2DE7
  3
A4
350
2DE8
  3
A5
350
2DE9
  3
A6
350
2DEA
  3
A7
350
2DEB
  3
A8
350
2DEC
  3
A9
350
2DED
  3
B0
350
2DEE
  3
B1
350
2DEF
  3
B2
350
2DF0
  3
B3
350
2DF1
  3
B4
350
2DF2
  3
B5
350
2DF3
  3
B6
350
2DF4
  0
DICTIONARY
  5
2DF7
102
{ACAD_REACTORS
330
C
102
}
330
C
100
AcDbDictionary
281
     1
  3
Metric50
350
2DF9
  0
DICTIONARY
  5
7E
102
{ACAD_REACTORS
330
C
102
}
330
C
100
AcDbDictionary
281
     1
  3
Standard
350
7F
  0
DICTIONARY
  5
2DCA
102
{ACAD_REACTORS
330
C
102
}
330
C
100
AcDbDictionary
281
     1
  3
2dWireframe
350
2DD0
  3
Basic
350
2DCF
  3
Brighten
350
2DD6
  3
ColorChange
350
2DDA
  3
Conceptual
350
2DD3
  3
Dim
350
2DD5
  3
EdgeColorOff
350
2DE2
  3
Facepattern
350
2DD9
  3
Flat
350
2DCB
  3
FlatWithEdges
350
2DCC
  3
Gouraud
350
2DCD
  3
GouraudWithEdges
350
2DCE
  3
Hidden
350
2DD2
  3
JitterOff
350
2DE0
  3
Linepattern
350
2DD8
  3
OverhangOff
350
2DE1
  3
Realistic
350
2DD4
  3
Shaded
350
2DDF
  3
Shaded with edges
350
2DDE
  3
Shades of Gray
350
2DDB
  3
Sketchy
350
2DDC
  3
Thicken
350
2DD7
  3
Wireframe
350
2DD1
  3
X-Ray
350
2DDD
  0
XRECORD
  5
C99
102
{ACAD_REACTORS
330
C
102
}
330
C
100
AcDbXrecord
280
     1
 90
   990106
  3

 60
     0
 61
     0
 62
     1
 63
     3
 64
     0
 65
     0
 66
     0
 67
     3
 68
     1
 69
     0
 70
     0
 71
     0
 72
     0
 40
0.0
170
     0
  0
XRECORD
  5
2E35
102
{ACAD_REACTORS
330
C
102
}
330
C
100
AcDbXrecord
280
     1
 90
        1
330
7F
330
2DF9
330
2DFB
  0
DICTIONARY
  5
5E
102
{ACAD_REACTORS
330
C
102
}
330
C
100
AcDbDictionary
281
     1
  3
CANNOSCALE
350
2E2B
  3
CMLEADERSTYLE
350
2E27
  3
CTABLESTYLE
350
84
  3
CVIEWDETAILSTYLE
350
2E28
  3
CVIEWSECTIONSTYLE
350
2E29
  3
DIMASSOC
350
5F
  3
HIDETEXT
350
63
  3
LAYEREVAL
350
2E2D
  3
LAYERNOTIFY
350
2E2E
  3
LIGHTINGUNITS
350
2E2C
  3
MSLTSCALE
350
2E2A
  3
PROJECTNAME
350
482
  0
DICTIONARY
  5
445
102
{ACAD_REACTORS
330
C
102
}
330
C
100
AcDbDictionary
281
     1
  3
ASEBlockHierarchyIndexRecord
350
446
1001
DCO15
1040
1643103082.297
  0
DICTIONARY
  5
EC6
102
{ACAD_REACTORS
330
EC4
102
}
330
EC4
100
AcDbDictionary
281
     1
  0
DICTIONARY
  5
EC5
102
{ACAD_REACTORS
330
EC4
102
}
330
EC4
100
AcDbDictionary
281
     1
1001
ACAD
1000
<All
  0
XRECORD
  5
2E06
102
{ACAD_REACTORS
330
2E05
102
}
330
2E05
100
AcDbXrecord
280
     1
290
     1
  0
XRECORD
  5
2E08
102
{ACAD_REACTORS
330
2E07
102
}
330
2E07
100
AcDbXrecord
280
     1
290
     1
  0
XRECORD
  5
2E0A
102
{ACAD_REACTORS
330
2E09
102
}
330
2E09
100
AcDbXrecord
280
     1
290
     1
  0
XRECORD
  5
2E0C
102
{ACAD_REACTORS
330
2E0B
102
}
330
2E0B
100
AcDbXrecord
280
     1
290
     1
  0
XRECORD
  5
2E0E
102
{ACAD_REACTORS
330
2E0D
102
}
330
2E0D
100
AcDbXrecord
280
     1
290
     1
  0
XRECORD
  5
2E10
102
{ACAD_REACTORS
330
2E0F
102
}
330
2E0F
100
AcDbXrecord
280
     1
290
     1
  0
XRECORD
  5
2E12
102
{ACAD_REACTORS
330
2E11
102
}
330
2E11
100
AcDbXrecord
280
     1
290
     1
  0
XRECORD
  5
2E14
102
{ACAD_REACTORS
330
2E13
102
}
330
2E13
100
AcDbXrecord
280
     1
290
     1
  0
XRECORD
  5
2E16
102
{ACAD_REACTORS
330
2E15
102
}
330
2E15
100
AcDbXrecord
280
     1
290
     1
  0
XRECORD
  5
2E18
102
{ACAD_REACTORS
330
2E17
102
}
330
2E17
100
AcDbXrecord
280
     1
290
     1
  0
SORTENTSTABLE
  5
230
102
{ACAD_REACTORS
330
22F
102
}
330
22F
100
AcDbSortentsTable
330
1F
331
380
  5
3AA
  0
DIMASSOC
  5
2C88
102
{ACAD_REACTORS
330
2C87
102
}
330
2C87
100
AcDbDimAssoc
330
2C86
 90
        3
 70
     0
 71
     0
  1
AcDbOsnapPointRef
 72
    13
331
2BB6
 73
     2
 91
        0
 40
0.0
 10
0.0
 20
0.0
 30
2.000000000000000E+50
 75
     0
  1
AcDbOsnapPointRef
 72
     1
331
2BB5
 73
     2
 91
        0
 40
1.0
 10
0.0
 20
0.0
 30
2.000000000000000E+50
 75
     0
  0
DIMASSOC
  5
2C8B
102
{ACAD_REACTORS
330
2C8A
102
}
330
2C8A
100
AcDbDimAssoc
330
2C89
 90
        3
 70
     0
 71
     0
  1
AcDbOsnapPointRef
 72
    13
331
2C7E
 73
     2
 91
        0
 40
0.0
 10
0.0
 20
0.0
 30
2.000000000000000E+50
 75
     0
  1
AcDbOsnapPointRef
 72
     2
331
2C84
 73
     2
 91
        0
 40
4.712388980384689
 10
0.0
 20
0.0
 30
0.0
 75
     0
  0
DIMASSOC
  5
2C8E
102
{ACAD_REACTORS
330
2C8D
102
}
330
2C8D
100
AcDbDimAssoc
330
2C8C
 90
        3
 70
     0
 71
     0
  1
AcDbOsnapPointRef
 72
     1
331
2C7E
 73
     2
 91
        0
 40
1.0
 10
0.0
 20
0.0
 30
2.000000000000000E+50
 75
     0
  1
AcDbOsnapPointRef
 72
     2
331
2C4B
 73
     2
 91
        0
 40
6.278517687181371
 10
0.0
 20
0.0
 30
0.0
 75
     0
  0
DIMASSOC
  5
2D5E
102
{ACAD_REACTORS
330
2D55
102
}
330
2D55
100
AcDbDimAssoc
330
2D49
 90
        2
 70
     0
 71
     0
  1
AcDbOsnapPointRef
 72
     3
331
2C2B
 73
     2
 91
        0
 40
0.0
 10
0.0
 20
0.0
 30
0.0
 75
     0
  0
DIMASSOC
  5
2D76
102
{ACAD_REACTORS
330
2D6C
102
}
330
2D6C
100
AcDbDimAssoc
330
2D5F
 90
        3
 70
     0
 71
     0
  1
AcDbOsnapPointRef
 72
    13
331
2C1E
 73
     2
 91
        0
 40
0.0
 10
0.0
 20
0.0
 30
2.000000000000000E+50
 75
     0
  1
AcDbOsnapPointRef
 72
    13
331
2BD1
 73
     2
 91
        0
 40
0.0
 10
0.0
 20
0.0
 30
2.000000000000000E+50
 75
     0
  0
ACDBDETAILVIEWSTYLE
  5
2DFB
102
{ACAD_XDICTIONARY
360
2E33
102
}
102
{ACAD_REACTORS
330
2DFA
102
}
330
2DFA
100
AcDbModelDocViewStyle
 70
     0
  3
Metric50
290
     0
100
AcDbDetailViewStyle
 70
     0
 71
     0
 90
        3
 71
     1
340
11
 62
   256
 40
5.0
340
0
 62
   256
 40
5.0
300

 40
0.0
280
     1
 71
     2
340
16
 90
       25
 62
   256
 71
     3
340
11
 62
   256
 40
5.0
 90
        0
 40
15.0
 90
        1
300
%<\AcVar ViewDetailId>% (%<\AcVar ViewScale \f "%sn">%)
 71
     4
340
16
 90
       25
 62
   256
340
16
 90
       25
 62
   256
280
     0
  0
LAYOUT
  5
22
102
{ACAD_REACTORS
330
1A
102
}
330
1A
100
AcDbPlotSettings
  1

  2
none_device
  4
ISO_A4_(210.00_x_297.00_MM)
  6

 40
7.5
 41
20.0
 42
7.5
 43
20.0
 44
210.0
 45
297.0
 46
11.54999923706054
 47
-13.65000009536743
 48
0.0
 49
0.0
140
0.0
141
0.0
142
1.0
143
8.704084754739808
 70
 11952
 72
     1
 73
     0
 74
     0
  7

 75
     0
147
0.1148885871608098
 76
     0
 77
     2
 78
   300
148
0.0
149
0.0
100
AcDbLayout
  1
Model
 70
     1
 71
     0
 10
0.0
 20
0.0
 11
12.0
 21
9.0
 12
0.0
 22
0.0
 32
0.0
 14
0.0
 24
0.0
 34
0.0
 15
0.0
 25
0.0
 35
0.0
146
0.0
 13
0.0
 23
0.0
 33
0.0
 16
1.0
 26
0.0
 36
0.0
 17
0.0
 27
1.0
 37
0.0
 76
     0
330
1F
331
2DB0
1001
ACAD_PSEXT
1000
None
1000
None
1000
Not applicable
1000
The layout will not be plotted unless a new plotter configuration name is selected.
1070
     0
  0
LAYOUT
  5
D3
102
{ACAD_REACTORS
330
1A
102
}
330
1A
100
AcDbPlotSettings
  1

  2
C:\Documents and Settings\basas\Application Data\Autodesk\AutoCAD 2005\R16.1\enu\plotters\Default Windows System Printer.pc3
  4

  6

 40
0.0
 41
0.0
 42
0.0
 43
0.0
 44
0.0
 45
0.0
 46
0.0
 47
0.0
 48
0.0
 49
0.0
140
0.0
141
0.0
142
1.0
143
1.0
 70
   688
 72
     0
 73
     0
 74
     5
  7

 75
    16
147
1.0
 76
     0
 77
     2
 78
   300
148
0.0
149
0.0
100
AcDbLayout
  1
布局1
 70
     1
 71
     1
 10
0.0
 20
0.0
 11
12.0
 21
9.0
 12
0.0
 22
0.0
 32
0.0
 14
0.0
 24
0.0
 34
0.0
 15
0.0
 25
0.0
 35
0.0
146
0.0
 13
0.0
 23
0.0
 33
0.0
 16
1.0
 26
0.0
 36
0.0
 17
0.0
 27
1.0
 37
0.0
 76
     0
330
D2
1001
AcadStringInfo
1000
MIFCodePage
1070
     5
  0
LAYOUT
  5
D7
102
{ACAD_REACTORS
330
1A
102
}
330
1A
100
AcDbPlotSettings
  1

  2
C:\Documents and Settings\basas\Application Data\Autodesk\AutoCAD 2005\R16.1\enu\plotters\Default Windows System Printer.pc3
  4

  6

 40
0.0
 41
0.0
 42
0.0
 43
0.0
 44
0.0
 45
0.0
 46
0.0
 47
0.0
 48
0.0
 49
0.0
140
0.0
141
0.0
142
1.0
143
1.0
 70
   688
 72
     0
 73
     0
 74
     5
  7

 75
    16
147
1.0
 76
     0
 77
     2
 78
   300
148
0.0
149
0.0
100
AcDbLayout
  1
布局2
 70
     1
 71
     2
 10
0.0
 20
0.0
 11
12.0
 21
9.0
 12
0.0
 22
0.0
 32
0.0
 14
0.0
 24
0.0
 34
0.0
 15
0.0
 25
0.0
 35
0.0
146
0.0
 13
0.0
 23
0.0
 33
0.0
 16
1.0
 26
0.0
 36
0.0
 17
0.0
 27
1.0
 37
0.0
 76
     0
330
D6
1001
AcadStringInfo
1000
MIFCodePage
1070
     5
  0
MATERIAL
  5
2DBA
102
{ACAD_XDICTIONARY
360
2DBB
102
}
102
{ACAD_REACTORS
330
6A
102
}
330
6A
100
AcDbMaterial
  1
ByBlock
 72
     0
 43
0.0008202099737533
 43
0.0
 43
0.0
 43
0.0
 43
0.0
 43
0.0008202099737533
 43
0.0
 43
0.0
 43
0.0
 43
0.0
 43
1.0
 43
0.0
 43
0.0
 43
0.0
 43
0.0
 43
1.0
 77
     0
 47
0.0008202099737533
 47
0.0
 47
0.0
 47
0.0
 47
0.0
 47
0.0008202099737533
 47
0.0
 47
0.0
 47
0.0
 47
0.0
 47
1.0
 47
0.0
 47
0.0
 47
0.0
 47
0.0
 47
1.0
171
     0
 49
0.0008202099737533
 49
0.0
 49
0.0
 49
0.0
 49
0.0
 49
0.0008202099737533
 49
0.0
 49
0.0
 49
0.0
 49
0.0
 49
1.0
 49
0.0
 49
0.0
 49
0.0
 49
0.0
 49
1.0
175
     0
142
0.0008202099737533
142
0.0
142
0.0
142
0.0
142
0.0
142
0.0008202099737533
142
0.0
142
0.0
142
0.0
142
0.0
142
1.0
142
0.0
142
0.0
142
0.0
142
0.0
142
1.0
179
     0
144
0.0008202099737533
144
0.0
144
0.0
144
0.0
144
0.0
144
0.0008202099737533
144
0.0
144
0.0
144
0.0
144
0.0
144
1.0
144
0.0
144
0.0
144
0.0
144
0.0
144
1.0
147
0.0008202099737533
147
0.0
147
0.0
147
0.0
147
0.0
147
0.0008202099737533
147
0.0
147
0.0
147
0.0
147
0.0
147
1.0
147
0.0
147
0.0
147
0.0
147
0.0
147
1.0
  0
MATERIAL
  5
2DB2
102
{ACAD_XDICTIONARY
360
2DB3
102
}
102
{ACAD_REACTORS
330
6A
102
}
330
6A
100
AcDbMaterial
  1
ByLayer
 72
     0
 43
0.0008202099737533
 43
0.0
 43
0.0
 43
0.0
 43
0.0
 43
0.0008202099737533
 43
0.0
 43
0.0
 43
0.0
 43
0.0
 43
1.0
 43
0.0
 43
0.0
 43
0.0
 43
0.0
 43
1.0
 77
     0
 47
0.0008202099737533
 47
0.0
 47
0.0
 47
0.0
 47
0.0
 47
0.0008202099737533
 47
0.0
 47
0.0
 47
0.0
 47
0.0
 47
1.0
 47
0.0
 47
0.0
 47
0.0
 47
0.0
 47
1.0
171
     0
 49
0.0008202099737533
 49
0.0
 49
0.0
 49
0.0
 49
0.0
 49
0.0008202099737533
 49
0.0
 49
0.0
 49
0.0
 49
0.0
 49
1.0
 49
0.0
 49
0.0
 49
0.0
 49
0.0
 49
1.0
175
     0
142
0.0008202099737533
142
0.0
142
0.0
142
0.0
142
0.0
142
0.0008202099737533
142
0.0
142
0.0
142
0.0
142
0.0
142
1.0
142
0.0
142
0.0
142
0.0
142
0.0
142
1.0
179
     0
144
0.0008202099737533
144
0.0
144
0.0
144
0.0
144
0.0
144
0.0008202099737533
144
0.0
144
0.0
144
0.0
144
0.0
144
1.0
144
0.0
144
0.0
144
0.0
144
0.0
144
1.0
147
0.0008202099737533
147
0.0
147
0.0
147
0.0
147
0.0
147
0.0008202099737533
147
0.0
147
0.0
147
0.0
147
0.0
147
1.0
147
0.0
147
0.0
147
0.0
147
0.0
147
1.0
  0
MATERIAL
  5
2DC2
102
{ACAD_XDICTIONARY
360
2DC3
102
}
102
{ACAD_REACTORS
330
6A
102
}
330
6A
100
AcDbMaterial
  1
Global
 72
     0
 43
0.0008202099737533
 43
0.0
 43
0.0
 43
0.0
 43
0.0
 43
0.0008202099737533
 43
0.0
 43
0.0
 43
0.0
 43
0.0
 43
1.0
 43
0.0
 43
0.0
 43
0.0
 43
0.0
 43
1.0
 77
     0
 47
0.0008202099737533
 47
0.0
 47
0.0
 47
0.0
 47
0.0
 47
0.0008202099737533
 47
0.0
 47
0.0
 47
0.0
 47
0.0
 47
1.0
 47
0.0
 47
0.0
 47
0.0
 47
0.0
 47
1.0
171
     0
 49
0.0008202099737533
 49
0.0
 49
0.0
 49
0.0
 49
0.0
 49
0.0008202099737533
 49
0.0
 49
0.0
 49
0.0
 49
0.0
 49
1.0
 49
0.0
 49
0.0
 49
0.0
 49
0.0
 49
1.0
175
     0
142
0.0008202099737533
142
0.0
142
0.0
142
0.0
142
0.0
142
0.0008202099737533
142
0.0
142
0.0
142
0.0
142
0.0
142
1.0
142
0.0
142
0.0
142
0.0
142
0.0
142
1.0
179
     0
144
0.0008202099737533
144
0.0
144
0.0
144
0.0
144
0.0
144
0.0008202099737533
144
0.0
144
0.0
144
0.0
144
0.0
144
1.0
144
0.0
144
0.0
144
0.0
144
0.0
144
1.0
147
0.0008202099737533
147
0.0
147
0.0
147
0.0
147
0.0
147
0.0008202099737533
147
0.0
147
0.0
147
0.0
147
0.0
147
1.0
147
0.0
147
0.0
147
0.0
147
0.0
147
1.0
  0
MLEADERSTYLE
  5
2DF6
102
{ACAD_REACTORS
330
2DF5
102
}
330
2DF5
100
AcDbMLeaderStyle
179
     2
170
     2
171
     1
172
     0
 90
        2
 40
0.0
 41
0.0
173
     1
 91
-1056964608
340
14
 92
       -2
290
     1
 42
2.0
291
     1
 43
0.36
  3
Standard
 44
4.0
300

342
11
174
     1
178
     6
175
     1
176
     0
 93
-1056964608
 45
4.0
292
     0
297
     0
 46
4.0
 94
-1056964608
 47
1.0
 49
1.0
140
1.0
293
     1
141
0.0
294
     1
177
     0
142
1.0
295
     1
296
     0
143
0.125
271
     0
272
     9
273
     9
298
     1
  0
MLINESTYLE
  5
18
102
{ACAD_REACTORS
330
17
102
}
330
17
100
AcDbMlineStyle
  2
STANDARD
 70
     0
  3

 62
   256
 51
90.0
 52
90.0
 71
     2
 49
0.5
 62
   256
  6
BYLAYER
 49
-0.5
 62
   256
  6
BYLAYER
  0
ACDBPLACEHOLDER
  5
F
102
{ACAD_REACTORS
330
E
102
}
330
E
  0
SCALE
  5
2DE4
102
{ACAD_REACTORS
330
2DE3
102
}
330
2DE3
100
AcDbScale
 70
     0
300
1:1
140
1.0
141
1.0
290
     1
  0
SCALE
  5
2DE5
102
{ACAD_REACTORS
330
2DE3
102
}
330
2DE3
100
AcDbScale
 70
     0
300
1:2
140
1.0
141
2.0
290
     0
  0
SCALE
  5
2DE6
102
{ACAD_REACTORS
330
2DE3
102
}
330
2DE3
100
AcDbScale
 70
     0
300
1:4
140
1.0
141
4.0
290
     0
  0
SCALE
  5
2DE7
102
{ACAD_REACTORS
330
2DE3
102
}
330
2DE3
100
AcDbScale
 70
     0
300
1:5
140
1.0
141
5.0
290
     0
  0
SCALE
  5
2DE8
102
{ACAD_REACTORS
330
2DE3
102
}
330
2DE3
100
AcDbScale
 70
     0
300
1:8
140
1.0
141
8.0
290
     0
  0
SCALE
  5
2DE9
102
{ACAD_REACTORS
330
2DE3
102
}
330
2DE3
100
AcDbScale
 70
     0
300
1:10
140
1.0
141
10.0
290
     0
  0
SCALE
  5
2DEA
102
{ACAD_REACTORS
330
2DE3
102
}
330
2DE3
100
AcDbScale
 70
     0
300
1:16
140
1.0
141
16.0
290
     0
  0
SCALE
  5
2DEB
102
{ACAD_REACTORS
330
2DE3
102
}
330
2DE3
100
AcDbScale
 70
     0
300
1:20
140
1.0
141
20.0
290
     0
  0
SCALE
  5
2DEC
102
{ACAD_REACTORS
330
2DE3
102
}
330
2DE3
100
AcDbScale
 70
     0
300
1:30
140
1.0
141
30.0
290
     0
  0
SCALE
  5
2DED
102
{ACAD_REACTORS
330
2DE3
102
}
330
2DE3
100
AcDbScale
 70
     0
300
1:40
140
1.0
141
40.0
290
     0
  0
SCALE
  5
2DEE
102
{ACAD_REACTORS
330
2DE3
102
}
330
2DE3
100
AcDbScale
 70
     0
300
1:50
140
1.0
141
50.0
290
     0
  0
SCALE
  5
2DEF
102
{ACAD_REACTORS
330
2DE3
102
}
330
2DE3
100
AcDbScale
 70
     0
300
1:100
140
1.0
141
100.0
290
     0
  0
SCALE
  5
2DF0
102
{ACAD_REACTORS
330
2DE3
102
}
330
2DE3
100
AcDbScale
 70
     0
300
2:1
140
2.0
141
1.0
290
     0
  0
SCALE
  5
2DF1
102
{ACAD_REACTORS
330
2DE3
102
}
330
2DE3
100
AcDbScale
 70
     0
300
4:1
140
4.0
141
1.0
290
     0
  0
SCALE
  5
2DF2
102
{ACAD_REACTORS
330
2DE3
102
}
330
2DE3
100
AcDbScale
 70
     0
300
8:1
140
8.0
141
1.0
290
     0
  0
SCALE
  5
2DF3
102
{ACAD_REACTORS
330
2DE3
102
}
330
2DE3
100
AcDbScale
 70
     0
300
10:1
140
10.0
141
1.0
290
     0
  0
SCALE
  5
2DF4
102
{ACAD_REACTORS
330
2DE3
102
}
330
2DE3
100
AcDbScale
 70
     0
300
100:1
140
100.0
141
1.0
290
     0
  0
ACDBSECTIONVIEWSTYLE
  5
2DF9
102
{ACAD_XDICTIONARY
360
2E31
102
}
102
{ACAD_REACTORS
330
2DF7
102
}
330
2DF7
100
AcDbModelDocViewStyle
 70
     0
  3
Metric50
290
     0
100
AcDbSectionViewStyle
 70
     0
 71
     0
 90
      102
 71
     1
340
11
 62
   256
 40
5.0
340
0
340
0
 62
   256
 40
5.0
300
I, O, Q, S, X, Z
 40
10.0
 90
        0
 40
2.5
 90
        0
 71
     2
340
16
 90
       25
 62
   256
340
16
 90
       50
 62
   256
 40
5.0
 40
2.5
 40
5.0
 71
     3
340
11
 62
   256
 40
5.0
 90
        0
 40
15.0
 90
        1
300
%<\AcVar ViewSectionStartId>%-%<\AcVar ViewSectionEndId>% (%<\AcVar ViewScale \f "%sn">%)
 71
     4
 62
   256
 62
   257
300
ANSI31
 40
1.0
 90
        0
290
     0
290
     0
 90
        6
 40
0.0
 40
1.570796326794896
 40
0.2617993877991494
 40
1.308996938995747
 40
-0.2617993877991494
 40
1.832595714594046
  0
TABLESTYLE
  5
7F
102
{ACAD_XDICTIONARY
360
2E2F
102
}
102
{ACAD_REACTORS
330
7E
102
}
330
7E
100
AcDbTableStyle
280
     0
  3
Standard
 70
     0
 71
     0
 40
1.5
 41
1.5
280
     0
281
     0
  7
Standard
140
4.5
170
     2
 62
     0
 63
     7
283
     0
 90
        4
 91
        0
  1

274
    -2
284
     1
 64
     0
275
    -2
285
     1
 65
     0
276
    -2
286
     1
 66
     0
277
    -2
287
     1
 67
     0
278
    -2
288
     1
 68
     0
279
    -2
289
     1
 69
     0
  7
Standard
140
6.0
170
     5
 62
     0
 63
     7
283
     0
 90
        4
 91
        0
  1

274
    -2
284
     1
 64
     0
275
    -2
285
     1
 65
     0
276
    -2
286
     1
 66
     0
277
    -2
287
     1
 67
     0
278
    -2
288
     1
 68
     0
279
    -2
289
     1
 69
     0
  7
Standard
140
4.5
170
     5
 62
     0
 63
     7
283
     0
 90
        4
 91
        0
  1

274
    -2
284
     1
 64
     0
275
    -2
285
     1
 65
     0
276
    -2
286
     1
 66
     0
277
    -2
287
     1
 67
     0
278
    -2
288
     1
 68
     0
279
    -2
289
     1
 69
     0
  0
VISUALSTYLE
  5
2DD0
102
{ACAD_REACTORS
330
2DCA
102
}
330
2DCA
100
AcDbVisualStyle
  2
2dWireframe
 70
     4
177
     3
291
     0
 70
    58
 90
        0
176
     1
 90
        2
176
     1
 90
        0
176
     1
 90
        0
176
     1
 40
0.6
176
     1
 40
30.0
176
     1
 62
     7
420
 16777215
176
     1
 90
        1
176
     1
 90
        4
176
     1
 62
     7
176
     1
 62
   257
176
     1
 90
        1
176
     1
 90
        1
176
     1
 40
1.0
176
     1
 90
        0
176
     1
 62
   257
176
     1
 40
1.0
176
     1
 90
        1
176
     1
 90
        6
176
     1
 90
        2
176
     1
 62
     7
176
     1
 90
        5
176
     1
 90
        0
176
     1
 90
        0
176
     1
290
     0
176
     1
 90
        1
176
     1
 40
0.0
176
     1
 90
        0
176
     1
290
     1
176
     1
290
     1
176
     1
290
     0
176
     1
290
     0
176
     1
290
     0
176
     1
290
     0
176
     1
290
     0
176
     1
290
     0
176
     1
290
     0
176
     1
 90
       50
176
     1
 40
0.0
176
     1
 40
1.0
176
     1
 90
        0
176
     1
 62
    18
420
        0
176
     1
 90
       50
176
     1
 90
        3
176
     1
 62
     5
420
      255
176
     1
290
     0
176
     1
 90
       50
176
     1
 90
       50
176
     1
 90
       50
176
     1
290
     0
176
     1
 90
       50
176
     1
 62
   256
176
     0
 40
1.0
176
     0
 90
        2
176
     1
  1
strokes_ogs.tif
176
     1
290
     0
176
     1
 40
1.0
176
     1
 40
1.0
176
     1
  0
VISUALSTYLE
  5
2DCF
102
{ACAD_REACTORS
330
2DCA
102
}
330
2DCA
100
AcDbVisualStyle
  2
Basic
 70
     7
177
     3
291
     1
 70
    58
 90
        1
176
     1
 90
        0
176
     1
 90
        1
176
     1
 90
        0
176
     1
 40
0.6
176
     1
 40
30.0
176
     1
 62
     7
420
 16777215
176
     1
 90
        0
176
     1
 90
        4
176
     1
 62
     7
176
     1
 62
   257
176
     1
 90
        1
176
     1
 90
        1
176
     1
 40
1.0
176
     1
 90
        8
176
     1
 62
     7
176
     1
 40
1.0
176
     1
 90
        1
176
     1
 90
        6
176
     1
 90
        2
176
     1
 62
     7
176
     1
 90
        5
176
     1
 90
        0
176
     1
 90
        0
176
     1
290
     0
176
     1
 90
        1
176
     1
 40
0.0
176
     1
 90
        0
176
     1
290
     0
176
     1
290
     1
176
     1
290
     1
176
     1
290
     0
176
     1
290
     0
176
     1
290
     0
176
     1
290
     0
176
     1
290
     0
176
     1
290
     0
176
     1
 90
       50
176
     1
 40
0.0
176
     1
 40
1.0
176
     1
 90
        0
176
     1
 62
    18
420
        0
176
     1
 90
       50
176
     1
 90
        3
176
     1
 62
     5
420
      255
176
     1
290
     0
176
     1
 90
       50
176
     1
 90
       50
176
     1
 90
       50
176
     1
290
     0
176
     1
 90
       50
176
     1
 62
   256
176
     0
 40
1.0
176
     0
 90
        2
176
     1
  1
strokes_ogs.tif
176
     1
290
     0
176
     1
 40
1.0
176
     1
 40
1.0
176
     1
  0
VISUALSTYLE
  5
2DD6
102
{ACAD_REACTORS
330
2DCA
102
}
330
2DCA
100
AcDbVisualStyle
  2
Brighten
 70
    12
177
     3
291
     1
 70
    58
 90
        2
176
     1
 90
        2
176
     1
 90
        0
176
     1
 90
        0
176
     1
 40
0.6
176
     1
 40
30.0
176
     1
 62
     7
420
 16777215
176
     1
 90
        1
176
     1
 90
        4
176
     1
 62
     7
176
     1
 62
   257
176
     1
 90
        1
176
     1
 90
        1
176
     1
 40
1.0
176
     1
 90
        8
176
     1
 62
     7
176
     1
 40
1.0
176
     1
 90
        1
176
     1
 90
        6
176
     1
 90
        2
176
     1
 62
     7
176
     1
 90
        5
176
     1
 90
        0
176
     1
 90
        0
176
     1
290
     0
176
     1
 90
        1
176
     1
 40
50.0
176
     1
 90
        0
176
     1
290
     0
176
     1
290
     1
176
     1
290
     1
176
     1
290
     0
176
     1
290
     0
176
     1
290
     0
176
     1
290
     0
176
     1
290
     0
176
     1
290
     0
176
     1
 90
       50
176
     1
 40
0.0
176
     1
 40
1.0
176
     1
 90
        0
176
     1
 62
    18
420
        0
176
     1
 90
       50
176
     1
 90
        3
176
     1
 62
     5
420
      255
176
     1
290
     0
176
     1
 90
       50
176
     1
 90
       50
176
     1
 90
       50
176
     1
290
     0
176
     1
 90
       50
176
     1
 62
   256
176
     0
 40
1.0
176
     0
 90
        2
176
     1
  1
strokes_ogs.tif
176
     1
290
     0
176
     1
 40
1.0
176
     1
 40
1.0
176
     1
  0
VISUALSTYLE
  5
2DDA
102
{ACAD_REACTORS
330
2DCA
102
}
330
2DCA
100
AcDbVisualStyle
  2
ColorChange
 70
    16
177
     3
291
     1
 70
    58
 90
        2
176
     1
 90
        2
176
     1
 90
        3
176
     1
 90
        0
176
     1
 40
0.6
176
     1
 40
30.0
176
     1
 62
     8
420
  8421504
176
     1
 90
        1
176
     1
 90
        4
176
     1
 62
     7
176
     1
 62
   257
176
     1
 90
        1
176
     1
 90
        1
176
     1
 40
1.0
176
     1
 90
        8
176
     1
 62
     8
420
  8421504
176
     1
 40
1.0
176
     1
 90
        1
176
     1
 90
        6
176
     1
 90
        2
176
     1
 62
     7
176
     1
 90
        5
176
     1
 90
        0
176
     1
 90
        0
176
     1
290
     0
176
     1
 90
        1
176
     1
 40
0.0
176
     1
 90
        0
176
     1
290
     0
176
     1
290
     1
176
     1
290
     1
176
     1
290
     0
176
     1
290
     0
176
     1
290
     0
176
     1
290
     0
176
     1
290
     0
176
     1
290
     0
176
     1
 90
       50
176
     1
 40
0.0
176
     1
 40
1.0
176
     1
 90
        0
176
     1
 62
    18
420
        0
176
     1
 90
       50
176
     1
 90
        3
176
     1
 62
     5
420
      255
176
     1
290
     0
176
     1
 90
       50
176
     1
 90
       50
176
     1
 90
       50
176
     1
290
     0
176
     1
 90
       50
176
     1
 62
   256
176
     0
 40
1.0
176
     0
 90
        2
176
     1
  1
strokes_ogs.tif
176
     1
290
     0
176
     1
 40
1.0
176
     1
 40
1.0
176
     1
  0
VISUALSTYLE
  5
2DD3
102
{ACAD_REACTORS
330
2DCA
102
}
330
2DCA
100
AcDbVisualStyle
  2
Conceptual
 70
     9
177
     3
291
     0
 70
    58
 90
        3
176
     1
 90
        2
176
     1
 90
        0
176
     1
 90
        0
176
     1
 40
0.6
176
     1
 40
30.0
176
     1
 62
     7
420
 16777215
176
     1
 90
        2
176
     1
 90
        2
176
     1
 62
     7
176
     1
 62
   257
176
     1
 90
        1
176
     1
 90
        1
176
     1
 40
179.0
176
     1
 90
        8
176
     1
 62
     7
176
     1
 40
1.0
176
     1
 90
        1
176
     1
 90
        6
176
     1
 90
        2
176
     1
 62
     7
176
     1
 90
        3
176
     1
 90
        0
176
     1
 90
        0
176
     1
290
     0
176
     1
 90
        1
176
     1
 40
0.0
176
     1
 90
        0
176
     1
290
     0
176
     1
290
     1
176
     1
290
     1
176
     1
290
     0
176
     1
290
     0
176
     1
290
     0
176
     1
290
     0
176
     1
290
     0
176
     1
290
     0
176
     1
 90
       50
176
     1
 40
0.0
176
     1
 40
1.0
176
     1
 90
        0
176
     1
 62
    18
420
        0
176
     1
 90
       50
176
     1
 90
        3
176
     1
 62
     5
420
      255
176
     1
290
     0
176
     1
 90
       50
176
     1
 90
       50
176
     1
 90
       50
176
     1
290
     0
176
     1
 90
       50
176
     1
 62
   256
176
     0
 40
1.0
176
     0
 90
        2
176
     1
  1
strokes_ogs.tif
176
     1
290
     0
176
     1
 40
1.0
176
     1
 40
1.0
176
     1
  0
VISUALSTYLE
  5
2DD5
102
{ACAD_REACTORS
330
2DCA
102
}
330
2DCA
100
AcDbVisualStyle
  2
Dim
 70
    11
177
     3
291
     1
 70
    58
 90
        2
176
     1
 90
        2
176
     1
 90
        0
176
     1
 90
        0
176
     1
 40
0.6
176
     1
 40
30.0
176
     1
 62
     7
420
 16777215
176
     1
 90
        1
176
     1
 90
        4
176
     1
 62
     7
176
     1
 62
   257
176
     1
 90
        1
176
     1
 90
        1
176
     1
 40
1.0
176
     1
 90
        8
176
     1
 62
     7
176
     1
 40
1.0
176
     1
 90
        1
176
     1
 90
        6
176
     1
 90
        2
176
     1
 62
     7
176
     1
 90
        5
176
     1
 90
        0
176
     1
 90
        0
176
     1
290
     0
176
     1
 90
        1
176
     1
 40
-50.0
176
     1
 90
        0
176
     1
290
     0
176
     1
290
     1
176
     1
290
     1
176
     1
290
     0
176
     1
290
     0
176
     1
290
     0
176
     1
290
     0
176
     1
290
     0
176
     1
290
     0
176
     1
 90
       50
176
     1
 40
0.0
176
     1
 40
1.0
176
     1
 90
        0
176
     1
 62
    18
420
        0
176
     1
 90
       50
176
     1
 90
        3
176
     1
 62
     5
420
      255
176
     1
290
     0
176
     1
 90
       50
176
     1
 90
       50
176
     1
 90
       50
176
     1
290
     0
176
     1
 90
       50
176
     1
 62
   256
176
     0
 40
1.0
176
     0
 90
        2
176
     1
  1
strokes_ogs.tif
176
     1
290
     0
176
     1
 40
1.0
176
     1
 40
1.0
176
     1
  0
VISUALSTYLE
  5
2DE2
102
{ACAD_REACTORS
330
2DCA
102
}
330
2DCA
100
AcDbVisualStyle
  2
EdgeColorOff
 70
    22
177
     3
291
     1
 70
    58
 90
        2
176
     0
 90
        2
176
     0
 90
        0
176
     0
 90
        0
176
     0
 40
0.6
176
     0
 40
30.0
176
     0
 62
     7
420
 16777215
176
     0
 90
        1
176
     0
 90
        4
176
     0
 62
     7
176
     0
 62
   257
176
     0
 90
        1
176
     0
 90
        1
176
     0
 40
1.0
176
     0
 90
        8
176
     2
 62
     7
176
     0
 40
1.0
176
     0
 90
        1
176
     0
 90
        6
176
     0
 90
        2
176
     0
 62
     7
176
     0
 90
        5
176
     0
 90
        0
176
     0
 90
        0
176
     0
290
     0
176
     0
 90
        1
176
     0
 40
0.0
176
     0
 90
        0
176
     0
290
     0
176
     0
290
     1
176
     0
290
     1
176
     0
290
     0
176
     0
290
     0
176
     0
290
     0
176
     0
290
     0
176
     0
290
     0
176
     0
290
     0
176
     0
 90
       50
176
     0
 40
0.0
176
     0
 40
1.0
176
     0
 90
        0
176
     0
 62
    18
420
        0
176
     0
 90
       50
176
     0
 90
        3
176
     0
 62
     5
420
      255
176
     0
290
     0
176
     0
 90
       50
176
     0
 90
       50
176
     0
 90
       50
176
     0
290
     0
176
     0
 90
       50
176
     0
 62
   256
176
     0
 40
1.0
176
     0
 90
        2
176
     0
  1
strokes_ogs.tif
176
     0
290
     0
176
     0
 40
1.0
176
     0
 40
1.0
176
     0
  0
VISUALSTYLE
  5
2DD9
102
{ACAD_REACTORS
330
2DCA
102
}
330
2DCA
100
AcDbVisualStyle
  2
Facepattern
 70
    15
177
     3
291
     1
 70
    58
 90
        2
176
     1
 90
        2
176
     1
 90
        0
176
     1
 90
        0
176
     1
 40
0.6
176
     1
 40
30.0
176
     1
 62
     7
420
 16777215
176
     1
 90
        1
176
     1
 90
        4
176
     1
 62
     7
176
     1
 62
   257
176
     1
 90
        1
176
     1
 90
        1
176
     1
 40
1.0
176
     1
 90
        8
176
     1
 62
     7
176
     1
 40
1.0
176
     1
 90
        1
176
     1
 90
        6
176
     1
 90
        2
176
     1
 62
     7
176
     1
 90
        5
176
     1
 90
        0
176
     1
 90
        0
176
     1
290
     0
176
     1
 90
        1
176
     1
 40
0.0
176
     1
 90
        0
176
     1
290
     0
176
     1
290
     1
176
     1
290
     1
176
     1
290
     0
176
     1
290
     0
176
     1
290
     0
176
     1
290
     0
176
     1
290
     0
176
     1
290
     0
176
     1
 90
       50
176
     1
 40
0.0
176
     1
 40
1.0
176
     1
 90
        0
176
     1
 62
    18
420
        0
176
     1
 90
       50
176
     1
 90
        3
176
     1
 62
     5
420
      255
176
     1
290
     0
176
     1
 90
       50
176
     1
 90
       50
176
     1
 90
       50
176
     1
290
     0
176
     1
 90
       50
176
     1
 62
   256
176
     0
 40
1.0
176
     0
 90
        2
176
     1
  1
strokes_ogs.tif
176
     1
290
     0
176
     1
 40
1.0
176
     1
 40
1.0
176
     1
  0
VISUALSTYLE
  5
2DCB
102
{ACAD_REACTORS
330
2DCA
102
}
330
2DCA
100
AcDbVisualStyle
  2
Flat
 70
     0
177
     3
291
     1
 70
    58
 90
        2
176
     1
 90
        1
176
     1
 90
        1
176
     1
 90
        2
176
     1
 40
0.6
176
     1
 40
30.0
176
     1
 62
     7
420
 16777215
176
     1
 90
        0
176
     1
 90
        0
176
     1
 62
     7
176
     1
 62
   257
176
     1
 90
        1
176
     1
 90
        1
176
     1
 40
1.0
176
     1
 90
        8
176
     1
 62
     7
176
     1
 40
1.0
176
     1
 90
        1
176
     1
 90
        6
176
     1
 90
        2
176
     1
 62
     7
176
     1
 90
        5
176
     1
 90
        0
176
     1
 90
        0
176
     1
290
     0
176
     1
 90
       13
176
     1
 40
0.0
176
     1
 90
        0
176
     1
290
     0
176
     1
290
     1
176
     1
290
     1
176
     1
290
     0
176
     1
290
     0
176
     1
290
     0
176
     1
290
     0
176
     1
290
     0
176
     1
290
     0
176
     1
 90
       50
176
     1
 40
0.0
176
     1
 40
1.0
176
     1
 90
        0
176
     1
 62
    18
420
        0
176
     1
 90
       50
176
     1
 90
        3
176
     1
 62
     5
420
      255
176
     1
290
     0
176
     1
 90
       50
176
     1
 90
       50
176
     1
 90
       50
176
     1
290
     0
176
     1
 90
       50
176
     1
 62
   256
176
     0
 40
1.0
176
     0
 90
        2
176
     1
  1
strokes_ogs.tif
176
     1
290
     0
176
     1
 40
1.0
176
     1
 40
1.0
176
     1
  0
VISUALSTYLE
  5
2DCC
102
{ACAD_REACTORS
330
2DCA
102
}
330
2DCA
100
AcDbVisualStyle
  2
FlatWithEdges
 70
     1
177
     3
291
     1
 70
    58
 90
        2
176
     1
 90
        1
176
     1
 90
        1
176
     1
 90
        2
176
     1
 40
0.6
176
     1
 40
30.0
176
     1
 62
     7
420
 16777215
176
     1
 90
        1
176
     1
 90
        0
176
     1
 62
     7
176
     1
 62
   257
176
     1
 90
        1
176
     1
 90
        1
176
     1
 40
1.0
176
     1
 90
        0
176
     1
 62
   257
176
     1
 40
1.0
176
     1
 90
        1
176
     1
 90
        6
176
     1
 90
        2
176
     1
 62
     7
176
     1
 90
        5
176
     1
 90
        0
176
     1
 90
        0
176
     1
290
     0
176
     1
 90
       13
176
     1
 40
0.0
176
     1
 90
        0
176
     1
290
     0
176
     1
290
     1
176
     1
290
     1
176
     1
290
     0
176
     1
290
     0
176
     1
290
     0
176
     1
290
     0
176
     1
290
     0
176
     1
290
     0
176
     1
 90
       50
176
     1
 40
0.0
176
     1
 40
1.0
176
     1
 90
        0
176
     1
 62
    18
420
        0
176
     1
 90
       50
176
     1
 90
        3
176
     1
 62
     5
420
      255
176
     1
290
     0
176
     1
 90
       50
176
     1
 90
       50
176
     1
 90
       50
176
     1
290
     0
176
     1
 90
       50
176
     1
 62
   256
176
     0
 40
1.0
176
     0
 90
        2
176
     1
  1
strokes_ogs.tif
176
     1
290
     0
176
     1
 40
1.0
176
     1
 40
1.0
176
     1
  0
VISUALSTYLE
  5
2DCD
102
{ACAD_REACTORS
330
2DCA
102
}
330
2DCA
100
AcDbVisualStyle
  2
Gouraud
 70
     2
177
     3
291
     1
 70
    58
 90
        2
176
     1
 90
        2
176
     1
 90
        1
176
     1
 90
        2
176
     1
 40
0.6
176
     1
 40
30.0
176
     1
 62
     7
420
 16777215
176
     1
 90
        0
176
     1
 90
        0
176
     1
 62
     7
176
     1
 62
   257
176
     1
 90
        1
176
     1
 90
        1
176
     1
 40
1.0
176
     1
 90
        0
176
     1
 62
     7
176
     1
 40
1.0
176
     1
 90
        1
176
     1
 90
        6
176
     1
 90
        2
176
     1
 62
     7
176
     1
 90
        5
176
     1
 90
        0
176
     1
 90
        0
176
     1
290
     0
176
     1
 90
       13
176
     1
 40
0.0
176
     1
 90
        0
176
     1
290
     0
176
     1
290
     1
176
     1
290
     1
176
     1
290
     0
176
     1
290
     0
176
     1
290
     0
176
     1
290
     0
176
     1
290
     0
176
     1
290
     0
176
     1
 90
       50
176
     1
 40
0.0
176
     1
 40
1.0
176
     1
 90
        0
176
     1
 62
    18
420
        0
176
     1
 90
       50
176
     1
 90
        3
176
     1
 62
     5
420
      255
176
     1
290
     0
176
     1
 90
       50
176
     1
 90
       50
176
     1
 90
       50
176
     1
290
     0
176
     1
 90
       50
176
     1
 62
   256
176
     0
 40
1.0
176
     0
 90
        2
176
     1
  1
strokes_ogs.tif
176
     1
290
     0
176
     1
 40
1.0
176
     1
 40
1.0
176
     1
  0
VISUALSTYLE
  5
2DCE
102
{ACAD_REACTORS
330
2DCA
102
}
330
2DCA
100
AcDbVisualStyle
  2
GouraudWithEdges
 70
     3
177
     3
291
     1
 70
    58
 90
        2
176
     1
 90
        2
176
     1
 90
        1
176
     1
 90
        2
176
     1
 40
0.6
176
     1
 40
30.0
176
     1
 62
     7
420
 16777215
176
     1
 90
        1
176
     1
 90
        0
176
     1
 62
     7
176
     1
 62
   257
176
     1
 90
        1
176
     1
 90
        1
176
     1
 40
1.0
176
     1
 90
        0
176
     1
 62
   257
176
     1
 40
1.0
176
     1
 90
        1
176
     1
 90
        6
176
     1
 90
        2
176
     1
 62
     7
176
     1
 90
        5
176
     1
 90
        0
176
     1
 90
        0
176
     1
290
     0
176
     1
 90
       13
176
     1
 40
0.0
176
     1
 90
        0
176
     1
290
     0
176
     1
290
     1
176
     1
290
     1
176
     1
290
     0
176
     1
290
     0
176
     1
290
     0
176
     1
290
     0
176
     1
290
     0
176
     1
290
     0
176
     1
 90
       50
176
     1
 40
0.0
176
     1
 40
1.0
176
     1
 90
        0
176
     1
 62
    18
420
        0
176
     1
 90
       50
176
     1
 90
        3
176
     1
 62
     5
420
      255
176
     1
290
     0
176
     1
 90
       50
176
     1
 90
       50
176
     1
 90
       50
176
     1
290
     0
176
     1
 90
       50
176
     1
 62
   256
176
     0
 40
1.0
176
     0
 90
        2
176
     1
  1
strokes_ogs.tif
176
     1
290
     0
176
     1
 40
1.0
176
     1
 40
1.0
176
     1
  0
VISUALSTYLE
  5
2DD2
102
{ACAD_REACTORS
330
2DCA
102
}
330
2DCA
100
AcDbVisualStyle
  2
Hidden
 70
     6
177
     3
291
     0
 70
    58
 90
        1
176
     1
 90
        2
176
     1
 90
        2
176
     1
 90
        0
176
     1
 40
0.6
176
     1
 40
30.0
176
     1
 62
     7
420
 16777215
176
     1
 90
        2
176
     1
 90
        2
176
     1
 62
     7
176
     1
 62
   257
176
     1
 90
        2
176
     1
 90
        1
176
     1
 40
40.0
176
     1
 90
        0
176
     1
 62
   257
176
     1
 40
1.0
176
     1
 90
        1
176
     1
 90
        6
176
     1
 90
        2
176
     1
 62
     7
176
     1
 90
        3
176
     1
 90
        0
176
     1
 90
        0
176
     1
290
     0
176
     1
 90
        1
176
     1
 40
0.0
176
     1
 90
        0
176
     1
290
     0
176
     1
290
     1
176
     1
290
     1
176
     1
290
     0
176
     1
290
     0
176
     1
290
     0
176
     1
290
     0
176
     1
290
     0
176
     1
290
     0
176
     1
 90
       50
176
     1
 40
0.0
176
     1
 40
1.0
176
     1
 90
        0
176
     1
 62
    18
420
        0
176
     1
 90
       50
176
     1
 90
        3
176
     1
 62
     5
420
      255
176
     1
290
     0
176
     1
 90
       50
176
     1
 90
       50
176
     1
 90
       50
176
     1
290
     0
176
     1
 90
       50
176
     1
 62
   256
176
     0
 40
1.0
176
     0
 90
        2
176
     1
  1
strokes_ogs.tif
176
     1
290
     0
176
     1
 40
1.0
176
     1
 40
1.0
176
     1
  0
VISUALSTYLE
  5
2DE0
102
{ACAD_REACTORS
330
2DCA
102
}
330
2DCA
100
AcDbVisualStyle
  2
JitterOff
 70
    20
177
     3
291
     1
 70
    58
 90
        2
176
     0
 90
        2
176
     0
 90
        0
176
     0
 90
        0
176
     0
 40
0.6
176
     0
 40
30.0
176
     0
 62
     7
420
 16777215
176
     0
 90
        1
176
     0
 90
        4
176
     0
 62
     7
176
     0
 62
   257
176
     0
 90
        1
176
     0
 90
        1
176
     0
 40
1.0
176
     0
 90
       10
176
     2
 62
     7
176
     0
 40
1.0
176
     0
 90
        1
176
     0
 90
        6
176
     0
 90
        2
176
     0
 62
     7
176
     0
 90
        5
176
     0
 90
        0
176
     0
 90
        0
176
     0
290
     0
176
     0
 90
        1
176
     0
 40
0.0
176
     0
 90
        0
176
     0
290
     0
176
     0
290
     1
176
     0
290
     1
176
     0
290
     0
176
     0
290
     0
176
     0
290
     0
176
     0
290
     0
176
     0
290
     0
176
     0
290
     0
176
     0
 90
       50
176
     0
 40
0.0
176
     0
 40
1.0
176
     0
 90
        0
176
     0
 62
    18
420
        0
176
     0
 90
       50
176
     0
 90
        3
176
     0
 62
     5
420
      255
176
     0
290
     0
176
     0
 90
       50
176
     0
 90
       50
176
     0
 90
       50
176
     0
290
     0
176
     0
 90
       50
176
     0
 62
   256
176
     0
 40
1.0
176
     0
 90
        2
176
     0
  1
strokes_ogs.tif
176
     0
290
     0
176
     0
 40
1.0
176
     0
 40
1.0
176
     0
  0
VISUALSTYLE
  5
2DD8
102
{ACAD_REACTORS
330
2DCA
102
}
330
2DCA
100
AcDbVisualStyle
  2
Linepattern
 70
    14
177
     3
291
     1
 70
    58
 90
        2
176
     1
 90
        2
176
     1
 90
        0
176
     1
 90
        0
176
     1
 40
0.6
176
     1
 40
30.0
176
     1
 62
     7
420
 16777215
176
     1
 90
        1
176
     1
 90
        4
176
     1
 62
     7
176
     1
 62
   257
176
     1
 90
        7
176
     1
 90
        7
176
     1
 40
1.0
176
     1
 90
        8
176
     1
 62
     7
176
     1
 40
1.0
176
     1
 90
        1
176
     1
 90
        6
176
     1
 90
        2
176
     1
 62
     7
176
     1
 90
        5
176
     1
 90
        0
176
     1
 90
        0
176
     1
290
     0
176
     1
 90
        1
176
     1
 40
0.0
176
     1
 90
        0
176
     1
290
     0
176
     1
290
     1
176
     1
290
     1
176
     1
290
     0
176
     1
290
     0
176
     1
290
     0
176
     1
290
     0
176
     1
290
     0
176
     1
290
     0
176
     1
 90
       50
176
     1
 40
0.0
176
     1
 40
1.0
176
     1
 90
        0
176
     1
 62
    18
420
        0
176
     1
 90
       50
176
     1
 90
        3
176
     1
 62
     5
420
      255
176
     1
290
     0
176
     1
 90
       50
176
     1
 90
       50
176
     1
 90
       50
176
     1
290
     0
176
     1
 90
       50
176
     1
 62
   256
176
     0
 40
1.0
176
     0
 90
        2
176
     1
  1
strokes_ogs.tif
176
     1
290
     0
176
     1
 40
1.0
176
     1
 40
1.0
176
     1
  0
VISUALSTYLE
  5
2DE1
102
{ACAD_REACTORS
330
2DCA
102
}
330
2DCA
100
AcDbVisualStyle
  2
OverhangOff
 70
    21
177
     3
291
     1
 70
    58
 90
        2
176
     0
 90
        2
176
     0
 90
        0
176
     0
 90
        0
176
     0
 40
0.6
176
     0
 40
30.0
176
     0
 62
     7
420
 16777215
176
     0
 90
        1
176
     0
 90
        4
176
     0
 62
     7
176
     0
 62
   257
176
     0
 90
        1
176
     0
 90
        1
176
     0
 40
1.0
176
     0
 90
        9
176
     2
 62
     7
176
     0
 40
1.0
176
     0
 90
        1
176
     0
 90
        6
176
     0
 90
        2
176
     0
 62
     7
176
     0
 90
        5
176
     0
 90
        0
176
     0
 90
        0
176
     0
290
     0
176
     0
 90
        1
176
     0
 40
0.0
176
     0
 90
        0
176
     0
290
     0
176
     0
290
     1
176
     0
290
     1
176
     0
290
     0
176
     0
290
     0
176
     0
290
     0
176
     0
290
     0
176
     0
290
     0
176
     0
290
     0
176
     0
 90
       50
176
     0
 40
0.0
176
     0
 40
1.0
176
     0
 90
        0
176
     0
 62
    18
420
        0
176
     0
 90
       50
176
     0
 90
        3
176
     0
 62
     5
420
      255
176
     0
290
     0
176
     0
 90
       50
176
     0
 90
       50
176
     0
 90
       50
176
     0
290
     0
176
     0
 90
       50
176
     0
 62
   256
176
     0
 40
1.0
176
     0
 90
        2
176
     0
  1
strokes_ogs.tif
176
     0
290
     0
176
     0
 40
1.0
176
     0
 40
1.0
176
     0
  0
VISUALSTYLE
  5
2DD4
102
{ACAD_REACTORS
330
2DCA
102
}
330
2DCA
100
AcDbVisualStyle
  2
Realistic
 70
     8
177
     3
291
     0
 70
    58
 90
        2
176
     1
 90
        3
176
     1
 90
        0
176
     1
 90
        2
176
     1
 40
0.6
176
     1
 40
30.0
176
     1
 62
     7
420
 16777215
176
     1
 90
        0
176
     1
 90
        0
176
     1
 62
     7
176
     1
 62
   257
176
     1
 90
        1
176
     1
 90
        1
176
     1
 40
1.0
176
     1
 90
        8
176
     1
 62
   257
176
     1
 40
1.0
176
     1
 90
        1
176
     1
 90
        6
176
     1
 90
        2
176
     1
 62
     7
176
     1
 90
        3
176
     1
 90
        0
176
     1
 90
        0
176
     1
290
     0
176
     1
 90
       13
176
     1
 40
0.0
176
     1
 90
        0
176
     1
290
     0
176
     1
290
     1
176
     1
290
     1
176
     1
290
     0
176
     1
290
     0
176
     1
290
     0
176
     1
290
     0
176
     1
290
     0
176
     1
290
     0
176
     1
 90
       50
176
     1
 40
0.0
176
     1
 40
1.0
176
     1
 90
        0
176
     1
 62
    18
420
        0
176
     1
 90
       50
176
     1
 90
        3
176
     1
 62
     5
420
      255
176
     1
290
     0
176
     1
 90
       50
176
     1
 90
       50
176
     1
 90
       50
176
     1
290
     0
176
     1
 90
       50
176
     1
 62
   256
176
     0
 40
1.0
176
     0
 90
        2
176
     1
  1
strokes_ogs.tif
176
     1
290
     0
176
     1
 40
1.0
176
     1
 40
1.0
176
     1
  0
VISUALSTYLE
  5
2DDF
102
{ACAD_REACTORS
330
2DCA
102
}
330
2DCA
100
AcDbVisualStyle
  2
Shaded
 70
    27
177
     3
291
     0
 70
    58
 90
        2
176
     1
 90
        2
176
     1
 90
        1
176
     1
 90
        2
176
     1
 40
0.6
176
     1
 40
30.0
176
     1
 62
     7
420
 16777215
176
     1
 90
        0
176
     1
 90
        4
176
     1
 62
     7
176
     1
 62
   257
176
     1
 90
        1
176
     1
 90
        1
176
     1
 40
1.0
176
     1
 90
        8
176
     1
 62
   257
176
     1
 40
1.0
176
     1
 90
        1
176
     1
 90
        6
176
     1
 90
        2
176
     1
 62
     8
420
  7895160
176
     1
 90
        3
176
     1
 90
        0
176
     1
 90
        0
176
     1
290
     0
176
     1
 90
        5
176
     1
 40
0.0
176
     1
 90
        0
176
     1
290
     0
176
     1
290
     1
176
     1
290
     1
176
     1
290
     0
176
     1
290
     0
176
     1
290
     0
176
     1
290
     0
176
     1
290
     0
176
     1
290
     0
176
     1
 90
       50
176
     1
 40
0.0
176
     1
 40
1.0
176
     1
 90
        0
176
     1
 62
    18
420
        0
176
     1
 90
       50
176
     1
 90
        3
176
     1
 62
     5
420
      255
176
     1
290
     0
176
     1
 90
       50
176
     1
 90
       50
176
     1
 90
       50
176
     1
290
     0
176
     1
 90
       50
176
     1
 62
   256
176
     0
 40
1.0
176
     0
 90
        2
176
     1
  1
strokes_ogs.tif
176
     1
290
     0
176
     1
 40
1.0
176
     1
 40
1.0
176
     1
  0
VISUALSTYLE
  5
2DDE
102
{ACAD_REACTORS
330
2DCA
102
}
330
2DCA
100
AcDbVisualStyle
  2
Shaded with edges
 70
    26
177
     3
291
     0
 70
    58
 90
        2
176
     1
 90
        2
176
     1
 90
        1
176
     1
 90
        2
176
     1
 40
0.6
176
     1
 40
30.0
176
     1
 62
     7
420
 16777215
176
     1
 90
        1
176
     1
 90
        2
176
     1
 62
     7
176
     1
 62
   257
176
     1
 90
        2
176
     1
 90
        1
176
     1
 40
1.0
176
     1
 90
        8
176
     1
 62
   257
176
     1
 40
1.0
176
     1
 90
        1
176
     1
 90
        6
176
     1
 90
        2
176
     1
 62
     7
176
     1
 90
        3
176
     1
 90
        0
176
     1
 90
        0
176
     1
290
     0
176
     1
 90
        5
176
     1
 40
0.0
176
     1
 90
        0
176
     1
290
     0
176
     1
290
     1
176
     1
290
     1
176
     1
290
     0
176
     1
290
     0
176
     1
290
     0
176
     1
290
     0
176
     1
290
     0
176
     1
290
     0
176
     1
 90
       50
176
     1
 40
0.0
176
     1
 40
1.0
176
     1
 90
        0
176
     1
 62
    18
420
        0
176
     1
 90
       50
176
     1
 90
        3
176
     1
 62
     5
420
      255
176
     1
290
     0
176
     1
 90
       50
176
     1
 90
       50
176
     1
 90
       50
176
     1
290
     0
176
     1
 90
       50
176
     1
 62
   256
176
     0
 40
1.0
176
     0
 90
        2
176
     1
  1
strokes_ogs.tif
176
     1
290
     0
176
     1
 40
1.0
176
     1
 40
1.0
176
     1
  0
VISUALSTYLE
  5
2DDB
102
{ACAD_REACTORS
330
2DCA
102
}
330
2DCA
100
AcDbVisualStyle
  2
Shades of Gray
 70
    23
177
     3
291
     0
 70
    58
 90
        2
176
     1
 90
        2
176
     1
 90
        3
176
     1
 90
        0
176
     1
 40
0.6
176
     1
 40
30.0
176
     1
 62
     7
420
 16777215
176
     1
 90
        2
176
     1
 90
        2
176
     1
 62
     7
176
     1
 62
     7
176
     1
 90
        1
176
     1
 90
        1
176
     1
 40
40.0
176
     1
 90
        8
176
     1
 62
     7
176
     1
 40
1.0
176
     1
 90
        1
176
     1
 90
        6
176
     1
 90
        2
176
     1
 62
     7
176
     1
 90
        3
176
     1
 90
        0
176
     1
 90
        0
176
     1
290
     0
176
     1
 90
        1
176
     1
 40
0.0
176
     1
 90
        0
176
     1
290
     0
176
     1
290
     1
176
     1
290
     1
176
     1
290
     0
176
     1
290
     0
176
     1
290
     0
176
     1
290
     0
176
     1
290
     0
176
     1
290
     0
176
     1
 90
       50
176
     1
 40
0.0
176
     1
 40
1.0
176
     1
 90
        0
176
     1
 62
    18
420
        0
176
     1
 90
       50
176
     1
 90
        3
176
     1
 62
     5
420
      255
176
     1
290
     0
176
     1
 90
       50
176
     1
 90
       50
176
     1
 90
       50
176
     1
290
     0
176
     1
 90
       50
176
     1
 62
   256
176
     0
 40
1.0
176
     0
 90
        2
176
     1
  1
strokes_ogs.tif
176
     1
290
     0
176
     1
 40
1.0
176
     1
 40
1.0
176
     1
  0
VISUALSTYLE
  5
2DDC
102
{ACAD_REACTORS
330
2DCA
102
}
330
2DCA
100
AcDbVisualStyle
  2
Sketchy
 70
    24
177
     3
291
     0
 70
    58
 90
        1
176
     1
 90
        2
176
     1
 90
        2
176
     1
 90
        0
176
     1
 40
0.6
176
     1
 40
30.0
176
     1
 62
     7
420
 16777215
176
     1
 90
        2
176
     1
 90
        2
176
     1
 62
     7
176
     1
 62
     7
176
     1
 90
        1
176
     1
 90
        1
176
     1
 40
40.0
176
     1
 90
       11
176
     1
 62
     7
176
     1
 40
1.0
176
     1
 90
        1
176
     1
 90
        6
176
     1
 90
        2
176
     1
 62
     7
176
     1
 90
        6
176
     1
 90
        0
176
     1
 90
        0
176
     1
290
     0
176
     1
 90
        1
176
     1
 40
0.0
176
     1
 90
        0
176
     1
290
     0
176
     1
290
     1
176
     1
290
     1
176
     1
290
     0
176
     1
290
     0
176
     1
290
     0
176
     1
290
     0
176
     1
290
     0
176
     1
290
     0
176
     1
 90
       50
176
     1
 40
0.0
176
     1
 40
1.0
176
     1
 90
        0
176
     1
 62
    18
420
        0
176
     1
 90
       50
176
     1
 90
        3
176
     1
 62
     5
420
      255
176
     1
290
     0
176
     1
 90
       50
176
     1
 90
       50
176
     1
 90
       50
176
     1
290
     0
176
     1
 90
       50
176
     1
 62
   256
176
     0
 40
1.0
176
     0
 90
        2
176
     1
  1
strokes_ogs.tif
176
     1
290
     0
176
     1
 40
1.0
176
     1
 40
1.0
176
     1
  0
VISUALSTYLE
  5
2DD7
102
{ACAD_REACTORS
330
2DCA
102
}
330
2DCA
100
AcDbVisualStyle
  2
Thicken
 70
    13
177
     3
291
     1
 70
    58
 90
        2
176
     1
 90
        2
176
     1
 90
        0
176
     1
 90
        0
176
     1
 40
0.6
176
     1
 40
30.0
176
     1
 62
     7
420
 16777215
176
     1
 90
        1
176
     1
 90
        4
176
     1
 62
     7
176
     1
 62
   257
176
     1
 90
        1
176
     1
 90
        1
176
     1
 40
1.0
176
     1
 90
       12
176
     1
 62
     7
176
     1
 40
1.0
176
     1
 90
        1
176
     1
 90
        6
176
     1
 90
        2
176
     1
 62
     7
176
     1
 90
        5
176
     1
 90
        0
176
     1
 90
        0
176
     1
290
     0
176
     1
 90
        1
176
     1
 40
0.0
176
     1
 90
        0
176
     1
290
     0
176
     1
290
     1
176
     1
290
     1
176
     1
290
     0
176
     1
290
     0
176
     1
290
     0
176
     1
290
     0
176
     1
290
     0
176
     1
290
     0
176
     1
 90
       50
176
     1
 40
0.0
176
     1
 40
1.0
176
     1
 90
        0
176
     1
 62
    18
420
        0
176
     1
 90
       50
176
     1
 90
        3
176
     1
 62
     5
420
      255
176
     1
290
     0
176
     1
 90
       50
176
     1
 90
       50
176
     1
 90
       50
176
     1
290
     0
176
     1
 90
       50
176
     1
 62
   256
176
     0
 40
1.0
176
     0
 90
        2
176
     1
  1
strokes_ogs.tif
176
     1
290
     0
176
     1
 40
1.0
176
     1
 40
1.0
176
     1
  0
VISUALSTYLE
  5
2DD1
102
{ACAD_REACTORS
330
2DCA
102
}
330
2DCA
100
AcDbVisualStyle
  2
Wireframe
 70
     5
177
     3
291
     0
 70
    58
 90
        0
176
     1
 90
        2
176
     1
 90
        0
176
     1
 90
        0
176
     1
 40
0.6
176
     1
 40
30.0
176
     1
 62
     7
420
 16777215
176
     1
 90
        1
176
     1
 90
        4
176
     1
 62
     7
176
     1
 62
   257
176
     1
 90
        1
176
     1
 90
        1
176
     1
 40
1.0
176
     1
 90
        0
176
     1
 62
   257
176
     1
 40
1.0
176
     1
 90
        1
176
     1
 90
        6
176
     1
 90
        2
176
     1
 62
     7
176
     1
 90
        3
176
     1
 90
        0
176
     1
 90
        0
176
     1
290
     0
176
     1
 90
        1
176
     1
 40
0.0
176
     1
 90
        0
176
     1
290
     0
176
     1
290
     1
176
     1
290
     1
176
     1
290
     0
176
     1
290
     0
176
     1
290
     0
176
     1
290
     0
176
     1
290
     0
176
     1
290
     0
176
     1
 90
       50
176
     1
 40
0.0
176
     1
 40
1.0
176
     1
 90
        0
176
     1
 62
    18
420
        0
176
     1
 90
       50
176
     1
 90
        3
176
     1
 62
     5
420
      255
176
     1
290
     0
176
     1
 90
       50
176
     1
 90
       50
176
     1
 90
       50
176
     1
290
     0
176
     1
 90
       50
176
     1
 62
   256
176
     0
 40
1.0
176
     0
 90
        2
176
     1
  1
strokes_ogs.tif
176
     1
290
     0
176
     1
 40
1.0
176
     1
 40
1.0
176
     1
  0
VISUALSTYLE
  5
2DDD
102
{ACAD_REACTORS
330
2DCA
102
}
330
2DCA
100
AcDbVisualStyle
  2
X-Ray
 70
    25
177
     3
291
     0
 70
    58
 90
        2
176
     1
 90
        2
176
     1
 90
        1
176
     1
 90
        1
176
     1
 40
0.5
176
     1
 40
30.0
176
     1
 62
     7
420
 16777215
176
     1
 90
        1
176
     1
 90
        0
176
     1
 62
     7
176
     1
 62
   257
176
     1
 90
        1
176
     1
 90
        1
176
     1
 40
1.0
176
     1
 90
        8
176
     1
 62
     7
176
     1
 40
1.0
176
     1
 90
        1
176
     1
 90
        6
176
     1
 90
        2
176
     1
 62
     7
176
     1
 90
        3
176
     1
 90
        0
176
     1
 90
        0
176
     1
290
     0
176
     1
 90
       13
176
     1
 40
0.0
176
     1
 90
        0
176
     1
290
     0
176
     1
290
     1
176
     1
290
     1
176
     1
290
     0
176
     1
290
     0
176
     1
290
     0
176
     1
290
     0
176
     1
290
     0
176
     1
290
     0
176
     1
 90
       50
176
     1
 40
0.0
176
     1
 40
1.0
176
     1
 90
        0
176
     1
 62
    18
420
        0
176
     1
 90
       50
176
     1
 90
        3
176
     1
 62
     5
420
      255
176
     1
290
     0
176
     1
 90
       50
176
     1
 90
       50
176
     1
 90
       50
176
     1
290
     0
176
     1
 90
       50
176
     1
 62
   256
176
     0
 40
1.0
176
     0
 90
        2
176
     1
  1
strokes_ogs.tif
176
     1
290
     0
176
     1
 40
1.0
176
     1
 40
1.0
176
     1
  0
DICTIONARYVAR
  5
2E2B
102
{ACAD_REACTORS
330
5E
102
}
330
5E
100
DictionaryVariables
280
     0
  1
1:1
  0
DICTIONARYVAR
  5
2E27
102
{ACAD_REACTORS
330
5E
102
}
330
5E
100
DictionaryVariables
280
     0
  1
STANDARD
  0
DICTIONARYVAR
  5
84
102
{ACAD_REACTORS
330
5E
102
}
330
5E
100
DictionaryVariables
280
     0
  1
STANDARD
  0
DICTIONARYVAR
  5
2E28
102
{ACAD_REACTORS
330
5E
102
}
330
5E
100
DictionaryVariables
280
     0
  1
Metric50
  0
DICTIONARYVAR
  5
2E29
102
{ACAD_REACTORS
330
5E
102
}
330
5E
100
DictionaryVariables
280
     0
  1
Metric50
  0
DICTIONARYVAR
  5
5F
102
{ACAD_REACTORS
330
5E
102
}
330
5E
100
DictionaryVariables
280
     0
  1
2
  0
DICTIONARYVAR
  5
63
102
{ACAD_REACTORS
330
5E
102
}
330
5E
100
DictionaryVariables
280
     0
  1
1
  0
DICTIONARYVAR
  5
2E2D
102
{ACAD_REACTORS
330
5E
102
}
330
5E
100
DictionaryVariables
280
     0
  1
1
  0
DICTIONARYVAR
  5
2E2E
102
{ACAD_REACTORS
330
5E
102
}
330
5E
100
DictionaryVariables
280
     0
  1
15
  0
DICTIONARYVAR
  5
2E2C
102
{ACAD_REACTORS
330
5E
102
}
330
5E
100
DictionaryVariables
280
     0
  1
0
  0
DICTIONARYVAR
  5
2E2A
102
{ACAD_REACTORS
330
5E
102
}
330
5E
100
DictionaryVariables
280
     0
  1
0
  0
DICTIONARYVAR
  5
482
102
{ACAD_REACTORS
330
5E
102
}
330
5E
100
DictionaryVariables
280
     0
  1

  0
XRECORD
  5
446
102
{ACAD_REACTORS
330
445
102
}
330
445
100
AcDbXrecord
280
     1
  0
DICTIONARY
  5
2E33
330
2DFB
100
AcDbDictionary
280
     1
281
     1
  3
ACAD_XREC_ROUNDTRIP
360
2E34
  0
DICTIONARY
  5
2DBB
330
2DBA
100
AcDbDictionary
280
     1
281
     1
  3
BUMPTILE
360
2DBD
  3
DIFFUSETILE
360
2DBC
  3
OPACITYTILE
360
2DC0
  3
REFLECTIONTILE
360
2DBF
  3
REFRACTIONTILE
360
2DC1
  3
SPECULARTILE
360
2DBE
  0
DICTIONARY
  5
2DB3
330
2DB2
100
AcDbDictionary
280
     1
281
     1
  3
BUMPTILE
360
2DB5
  3
DIFFUSETILE
360
2DB4
  3
OPACITYTILE
360
2DB8
  3
REFLECTIONTILE
360
2DB7
  3
REFRACTIONTILE
360
2DB9
  3
SPECULARTILE
360
2DB6
  0
DICTIONARY
  5
2DC3
330
2DC2
100
AcDbDictionary
280
     1
281
     1
  3
BUMPTILE
360
2DC5
  3
DIFFUSETILE
360
2DC4
  3
OPACITYTILE
360
2DC8
  3
REFLECTIONTILE
360
2DC7
  3
REFRACTIONTILE
360
2DC9
  3
SPECULARTILE
360
2DC6
  0
DICTIONARY
  5
2E31
330
2DF9
100
AcDbDictionary
280
     1
281
     1
  3
ACAD_XREC_ROUNDTRIP
360
2E32
  0
DICTIONARY
  5
2E2F
330
7F
100
AcDbDictionary
280
     1
281
     1
  3
ACAD_ROUNDTRIP_2008_TABLESTYLE_CELLSTYLEMAP
360
2E30
  0
XRECORD
  5
2E34
102
{ACAD_REACTORS
330
2E33
102
}
330
2E33
100
AcDbXrecord
280
     1
102
DISPLAYNAME
  1
Metric50
102
FLAGS
 90
        0
  0
XRECORD
  5
2DBD
102
{ACAD_REACTORS
330
2DBB
102
}
330
2DBB
100
AcDbXrecord
280
     1
270
     1
271
     1
  0
XRECORD
  5
2DBC
102
{ACAD_REACTORS
330
2DBB
102
}
330
2DBB
100
AcDbXrecord
280
     1
270
     1
271
     1
  0
XRECORD
  5
2DC0
102
{ACAD_REACTORS
330
2DBB
102
}
330
2DBB
100
AcDbXrecord
280
     1
270
     1
271
     1
  0
XRECORD
  5
2DBF
102
{ACAD_REACTORS
330
2DBB
102
}
330
2DBB
100
AcDbXrecord
280
     1
270
     1
271
     1
  0
XRECORD
  5
2DC1
102
{ACAD_REACTORS
330
2DBB
102
}
330
2DBB
100
AcDbXrecord
280
     1
270
     1
271
     1
  0
XRECORD
  5
2DBE
102
{ACAD_REACTORS
330
2DBB
102
}
330
2DBB
100
AcDbXrecord
280
     1
270
     1
271
     1
  0
XRECORD
  5
2DB5
102
{ACAD_REACTORS
330
2DB3
102
}
330
2DB3
100
AcDbXrecord
280
     1
270
     1
271
     1
  0
XRECORD
  5
2DB4
102
{ACAD_REACTORS
330
2DB3
102
}
330
2DB3
100
AcDbXrecord
280
     1
270
     1
271
     1
  0
XRECORD
  5
2DB8
102
{ACAD_REACTORS
330
2DB3
102
}
330
2DB3
100
AcDbXrecord
280
     1
270
     1
271
     1
  0
XRECORD
  5
2DB7
102
{ACAD_REACTORS
330
2DB3
102
}
330
2DB3
100
AcDbXrecord
280
     1
270
     1
271
     1
  0
XRECORD
  5
2DB9
102
{ACAD_REACTORS
330
2DB3
102
}
330
2DB3
100
AcDbXrecord
280
     1
270
     1
271
     1
  0
XRECORD
  5
2DB6
102
{ACAD_REACTORS
330
2DB3
102
}
330
2DB3
100
AcDbXrecord
280
     1
270
     1
271
     1
  0
XRECORD
  5
2DC5
102
{ACAD_REACTORS
330
2DC3
102
}
330
2DC3
100
AcDbXrecord
280
     1
270
     1
271
     1
  0
XRECORD
  5
2DC4
102
{ACAD_REACTORS
330
2DC3
102
}
330
2DC3
100
AcDbXrecord
280
     1
270
     1
271
     1
  0
XRECORD
  5
2DC8
102
{ACAD_REACTORS
330
2DC3
102
}
330
2DC3
100
AcDbXrecord
280
     1
270
     1
271
     1
  0
XRECORD
  5
2DC7
102
{ACAD_REACTORS
330
2DC3
102
}
330
2DC3
100
AcDbXrecord
280
     1
270
     1
271
     1
  0
XRECORD
  5
2DC9
102
{ACAD_REACTORS
330
2DC3
102
}
330
2DC3
100
AcDbXrecord
280
     1
270
     1
271
     1
  0
XRECORD
  5
2DC6
102
{ACAD_REACTORS
330
2DC3
102
}
330
2DC3
100
AcDbXrecord
280
     1
270
     1
271
     1
  0
XRECORD
  5
2E32
102
{ACAD_REACTORS
330
2E31
102
}
330
2E31
100
AcDbXrecord
280
     1
102
DISPLAYNAME
  1
Metric50
102
FLAGS
 90
        0
  0
CELLSTYLEMAP
  5
2E30
102
{ACAD_REACTORS
330
2E2F
102
}
330
2E2F
100
AcDbCellStyleMap
 90
        3
300
CELLSTYLE
  1
TABLEFORMAT_BEGIN
 90
        5
170
     1
 91
        0
 92
    32768
 62
   257
 93
        1
300
CONTENTFORMAT
  1
CONTENTFORMAT_BEGIN
 90
        0
 91
        0
 92
        4
 93
        0
300

 40
0.0
140
1.0
 94
        5
 62
     0
340
11
144
6.0
309
CONTENTFORMAT_END
171
     1
301
MARGIN
  1
CELLMARGIN_BEGIN
 40
1.5
 40
1.5
 40
1.5
 40
1.5
 40
0.18
 40
0.18
309
CELLMARGIN_END
 94
        6
 95
        1
302
GRIDFORMAT
  1
GRIDFORMAT_BEGIN
 90
        0
 91
        1
 62
     0
 92
       -2
340
0
 93
        0
 40
0.045
309
GRIDFORMAT_END
 95
        2
302
GRIDFORMAT
  1
GRIDFORMAT_BEGIN
 90
        0
 91
        1
 62
     0
 92
       -2
340
0
 93
        0
 40
0.045
309
GRIDFORMAT_END
 95
        4
302
GRIDFORMAT
  1
GRIDFORMAT_BEGIN
 90
        0
 91
        1
 62
     0
 92
       -2
340
0
 93
        0
 40
0.045
309
GRIDFORMAT_END
 95
        8
302
GRIDFORMAT
  1
GRIDFORMAT_BEGIN
 90
        0
 91
        1
 62
     0
 92
       -2
340
0
 93
        0
 40
0.045
309
GRIDFORMAT_END
 95
       16
302
GRIDFORMAT
  1
GRIDFORMAT_BEGIN
 90
        0
 91
        1
 62
     0
 92
       -2
340
0
 93
        0
 40
0.045
309
GRIDFORMAT_END
 95
       32
302
GRIDFORMAT
  1
GRIDFORMAT_BEGIN
 90
        0
 91
        1
 62
     0
 92
       -2
340
0
 93
        0
 40
0.045
309
GRIDFORMAT_END
309
TABLEFORMAT_END
  1
CELLSTYLE_BEGIN
 90
        1
 91
        1
300
_TITLE
309
CELLSTYLE_END
300
CELLSTYLE
  1
TABLEFORMAT_BEGIN
 90
        5
170
     1
 91
        0
 92
        0
 62
   257
 93
        1
300
CONTENTFORMAT
  1
CONTENTFORMAT_BEGIN
 90
        0
 91
        0
 92
        4
 93
        0
300

 40
0.0
140
1.0
 94
        5
 62
     0
340
11
144
4.5
309
CONTENTFORMAT_END
171
     1
301
MARGIN
  1
CELLMARGIN_BEGIN
 40
1.5
 40
1.5
 40
1.5
 40
1.5
 40
0.18
 40
0.18
309
CELLMARGIN_END
 94
        6
 95
        1
302
GRIDFORMAT
  1
GRIDFORMAT_BEGIN
 90
        0
 91
        1
 62
     0
 92
       -2
340
0
 93
        0
 40
0.045
309
GRIDFORMAT_END
 95
        2
302
GRIDFORMAT
  1
GRIDFORMAT_BEGIN
 90
        0
 91
        1
 62
     0
 92
       -2
340
0
 93
        0
 40
0.045
309
GRIDFORMAT_END
 95
        4
302
GRIDFORMAT
  1
GRIDFORMAT_BEGIN
 90
        0
 91
        1
 62
     0
 92
       -2
340
0
 93
        0
 40
0.045
309
GRIDFORMAT_END
 95
        8
302
GRIDFORMAT
  1
GRIDFORMAT_BEGIN
 90
        0
 91
        1
 62
     0
 92
       -2
340
0
 93
        0
 40
0.045
309
GRIDFORMAT_END
 95
       16
302
GRIDFORMAT
  1
GRIDFORMAT_BEGIN
 90
        0
 91
        1
 62
     0
 92
       -2
340
0
 93
        0
 40
0.045
309
GRIDFORMAT_END
 95
       32
302
GRIDFORMAT
  1
GRIDFORMAT_BEGIN
 90
        0
 91
        1
 62
     0
 92
       -2
340
0
 93
        0
 40
0.045
309
GRIDFORMAT_END
309
TABLEFORMAT_END
  1
CELLSTYLE_BEGIN
 90
        2
 91
        1
300
_HEADER
309
CELLSTYLE_END
300
CELLSTYLE
  1
TABLEFORMAT_BEGIN
 90
        5
170
     1
 91
        0
 92
        0
 62
   257
 93
        1
300
CONTENTFORMAT
  1
CONTENTFORMAT_BEGIN
 90
        0
 91
        0
 92
        4
 93
        0
300

 40
0.0
140
1.0
 94
        2
 62
     0
340
11
144
4.5
309
CONTENTFORMAT_END
171
     1
301
MARGIN
  1
CELLMARGIN_BEGIN
 40
1.5
 40
1.5
 40
1.5
 40
1.5
 40
0.18
 40
0.18
309
CELLMARGIN_END
 94
        6
 95
        1
302
GRIDFORMAT
  1
GRIDFORMAT_BEGIN
 90
        0
 91
        1
 62
     0
 92
       -2
340
0
 93
        0
 40
0.045
309
GRIDFORMAT_END
 95
        2
302
GRIDFORMAT
  1
GRIDFORMAT_BEGIN
 90
        0
 91
        1
 62
     0
 92
       -2
340
0
 93
        0
 40
0.045
309
GRIDFORMAT_END
 95
        4
302
GRIDFORMAT
  1
GRIDFORMAT_BEGIN
 90
        0
 91
        1
 62
     0
 92
       -2
340
0
 93
        0
 40
0.045
309
GRIDFORMAT_END
 95
        8
302
GRIDFORMAT
  1
GRIDFORMAT_BEGIN
 90
        0
 91
        1
 62
     0
 92
       -2
340
0
 93
        0
 40
0.045
309
GRIDFORMAT_END
 95
       16
302
GRIDFORMAT
  1
GRIDFORMAT_BEGIN
 90
        0
 91
        1
 62
     0
 92
       -2
340
0
 93
        0
 40
0.045
309
GRIDFORMAT_END
 95
       32
302
GRIDFORMAT
  1
GRIDFORMAT_BEGIN
 90
        0
 91
        1
 62
     0
 92
       -2
340
0
 93
        0
 40
0.045
309
GRIDFORMAT_END
309
TABLEFORMAT_END
  1
CELLSTYLE_BEGIN
 90
        3
 91
        2
300
_DATA
309
CELLSTYLE_END
  0
ENDSEC
  0
EOF
