  0
SECTION
  2
HEADER
  9
$ACADVER
  1
AC1027
  9
$ACADMAINTVER
 70
   125
  9
$DWGCODEPAGE
  3
ANSI_1252
  9
$LASTSAVEDBY
  1
fleminab
  9
$REQUIREDVERSIONS
160
                 0
  9
$INSBASE
 10
0.0
 20
0.0
 30
0.0
  9
$EXTMIN
 10
-47.32218765235361
 20
-4.500671286411166
 30
0.0
  9
$EXTMAX
 10
58.12866206639376
 20
53.4508497187474
 30
0.0
  9
$LIMMIN
 10
0.0
 20
0.0
  9
$LIMMAX
 10
12.0
 20
9.0
  9
$ORTHOMODE
 70
     0
  9
$REGENMODE
 70
     1
  9
$FILLMODE
 70
     1
  9
$QTEXTMODE
 70
     0
  9
$MIRRTEXT
 70
     1
  9
$LTSCALE
 40
1.0
  9
$ATTMODE
 70
     1
  9
$TEXTSIZE
 40
0.2
  9
$TRACEWID
 40
0.05
  9
$TEXTSTYLE
  7
Standard
  9
$CLAYER
  8
Predefinito
  9
$CELTYPE
  6
ByLayer
  9
$CECOLOR
 62
   256
  9
$CELTSCALE
 40
1.0
  9
$DISPSILH
 70
     0
  9
$DIMSCALE
 40
1.0
  9
$DIMASZ
 40
0.18
  9
$DIMEXO
 40
0.0625
  9
$DIMDLI
 40
0.38
  9
$DIMRND
 40
0.0
  9
$DIMDLE
 40
0.0
  9
$DIMEXE
 40
0.18
  9
$DIMTP
 40
0.0
  9
$DIMTM
 40
0.0
  9
$DIMTXT
 40
0.18
  9
$DIMCEN
 40
0.09
  9
$DIMTSZ
 40
0.0
  9
$DIMTOL
 70
     0
  9
$DIMLIM
 70
     0
  9
$DIMTIH
 70
     1
  9
$DIMTOH
 70
     1
  9
$DIMSE1
 70
     0
  9
$DIMSE2
 70
     0
  9
$DIMTAD
 70
     0
  9
$DIMZIN
 70
     0
  9
$DIMBLK
  1

  9
$DIMASO
 70
     1
  9
$DIMSHO
 70
     1
  9
$DIMPOST
  1

  9
$DIMAPOST
  1

  9
$DIMALT
 70
     0
  9
$DIMALTD
 70
     2
  9
$DIMALTF
 40
25.4
  9
$DIMLFAC
 40
1.0
  9
$DIMTOFL
 70
     0
  9
$DIMTVP
 40
0.0
  9
$DIMTIX
 70
     0
  9
$DIMSOXD
 70
     0
  9
$DIMSAH
 70
     0
  9
$DIMBLK1
  1

  9
$DIMBLK2
  1

  9
$DIMSTYLE
  2
Standard
  9
$DIMCLRD
 70
     0
  9
$DIMCLRE
 70
     0
  9
$DIMCLRT
 70
     0
  9
$DIMTFAC
 40
1.0
  9
$DIMGAP
 40
0.09
  9
$DIMJUST
 70
     0
  9
$DIMSD1
 70
     0
  9
$DIMSD2
 70
     0
  9
$DIMTOLJ
 70
     1
  9
$DIMTZIN
 70
     0
  9
$DIMALTZ
 70
     0
  9
$DIMALTTZ
 70
     0
  9
$DIMUPT
 70
     0
  9
$DIMDEC
 70
     4
  9
$DIMTDEC
 70
     4
  9
$DIMALTU
 70
     2
  9
$DIMALTTD
 70
     2
  9
$DIMTXSTY
  7
Standard
  9
$DIMAUNIT
 70
     0
  9
$DIMADEC
 70
     0
  9
$DIMALTRND
 40
0.0
  9
$DIMAZIN
 70
     0
  9
$DIMDSEP
 70
    46
  9
$DIMATFIT
 70
     3
  9
$DIMFRAC
 70
     0
  9
$DIMLDRBLK
  1

  9
$DIMLUNIT
 70
     2
  9
$DIMLWD
 70
    -2
  9
$DIMLWE
 70
    -2
  9
$DIMTMOVE
 70
     2
  9
$DIMFXL
 40
1.0
  9
$DIMFXLON
 70
     0
  9
$DIMJOGANG
 40
0.7853981633974483
  9
$DIMTFILL
 70
     0
  9
$DIMTFILLCLR
 70
     0
  9
$DIMARCSYM
 70
     0
  9
$DIMLTYPE
  6

  9
$DIMLTEX1
  6

  9
$DIMLTEX2
  6

  9
$DIMTXTDIRECTION
 70
     0
  9
$LUNITS
 70
     2
  9
$LUPREC
 70
     3
  9
$SKETCHINC
 40
0.1
  9
$FILLETRAD
 40
0.5
  9
$AUNITS
 70
     0
  9
$AUPREC
 70
     0
  9
$MENU
  1
.
  9
$ELEVATION
 40
0.0
  9
$PELEVATION
 40
0.0
  9
$THICKNESS
 40
0.0
  9
$LIMCHECK
 70
     0
  9
$CHAMFERA
 40
0.0
  9
$CHAMFERB
 40
0.0
  9
$CHAMFERC
 40
0.0
  9
$CHAMFERD
 40
0.0
  9
$SKPOLY
 70
     0
  9
$TDCREATE
 40
2457059.838946759
  9
$TDUCREATE
 40
2457059.380619468
  9
$TDUPDATE
 40
2458204.381898148
  9
$TDUUPDATE
 40
2458203.923564815
  9
$TDINDWG
 40
0.0000926042
  9
$TDUSRTIMER
 40
0.0000926042
  9
$USRTIMER
 70
     1
  9
$ANGBASE
 50
0.0
  9
$ANGDIR
 70
     0
  9
$PDMODE
 70
     0
  9
$PDSIZE
 40
0.0
  9
$PLINEWID
 40
0.0
  9
$SPLFRAME
 70
     0
  9
$SPLINETYPE
 70
     6
  9
$SPLINESEGS
 70
     8
  9
$HANDSEED
  5
575
  9
$SURFTAB1
 70
     6
  9
$SURFTAB2
 70
     6
  9
$SURFTYPE
 70
     6
  9
$SURFU
 70
     6
  9
$SURFV
 70
     6
  9
$UCSBASE
  2

  9
$UCSNAME
  2

  9
$UCSORG
 10
0.0
 20
0.0
 30
0.0
  9
$UCSXDIR
 10
1.0
 20
0.0
 30
0.0
  9
$UCSYDIR
 10
0.0
 20
1.0
 30
0.0
  9
$UCSORTHOREF
  2

  9
$UCSORTHOVIEW
 70
     0
  9
$UCSORGTOP
 10
0.0
 20
0.0
 30
0.0
  9
$UCSORGBOTTOM
 10
0.0
 20
0.0
 30
0.0
  9
$UCSORGLEFT
 10
0.0
 20
0.0
 30
0.0
  9
$UCSORGRIGHT
 10
0.0
 20
0.0
 30
0.0
  9
$UCSORGFRONT
 10
0.0
 20
0.0
 30
0.0
  9
$UCSORGBACK
 10
0.0
 20
0.0
 30
0.0
  9
$PUCSBASE
  2

  9
$PUCSNAME
  2

  9
$PUCSORG
 10
0.0
 20
0.0
 30
0.0
  9
$PUCSXDIR
 10
1.0
 20
0.0
 30
0.0
  9
$PUCSYDIR
 10
0.0
 20
1.0
 30
0.0
  9
$PUCSORTHOREF
  2

  9
$PUCSORTHOVIEW
 70
     0
  9
$PUCSORGTOP
 10
0.0
 20
0.0
 30
0.0
  9
$PUCSORGBOTTOM
 10
0.0
 20
0.0
 30
0.0
  9
$PUCSORGLEFT
 10
0.0
 20
0.0
 30
0.0
  9
$PUCSORGRIGHT
 10
0.0
 20
0.0
 30
0.0
  9
$PUCSORGFRONT
 10
0.0
 20
0.0
 30
0.0
  9
$PUCSORGBACK
 10
0.0
 20
0.0
 30
0.0
  9
$USERI1
 70
     0
  9
$USERI2
 70
     0
  9
$USERI3
 70
     0
  9
$USERI4
 70
     0
  9
$USERI5
 70
     0
  9
$USERR1
 40
0.0
  9
$USERR2
 40
0.0
  9
$USERR3
 40
0.0
  9
$USERR4
 40
0.0
  9
$USERR5
 40
0.0
  9
$WORLDVIEW
 70
     1
  9
$SHADEDGE
 70
     3
  9
$SHADEDIF
 70
    70
  9
$TILEMODE
 70
     1
  9
$MAXACTVP
 70
    64
  9
$PINSBASE
 10
0.0
 20
0.0
 30
0.0
  9
$PLIMCHECK
 70
     0
  9
$PEXTMIN
 10
1.000000000000000E+20
 20
1.000000000000000E+20
 30
1.000000000000000E+20
  9
$PEXTMAX
 10
-1.000000000000000E+20
 20
-1.000000000000000E+20
 30
-1.000000000000000E+20
  9
$PLIMMIN
 10
0.0
 20
0.0
  9
$PLIMMAX
 10
12.0
 20
9.0
  9
$UNITMODE
 70
     0
  9
$VISRETAIN
 70
     1
  9
$PLINEGEN
 70
     0
  9
$PSLTSCALE
 70
     1
  9
$TREEDEPTH
 70
  3020
  9
$CMLSTYLE
  2
Standard
  9
$CMLJUST
 70
     0
  9
$CMLSCALE
 40
1.0
  9
$PROXYGRAPHICS
 70
     1
  9
$MEASUREMENT
 70
     0
  9
$CELWEIGHT
370
    -1
  9
$ENDCAPS
280
     0
  9
$JOINSTYLE
280
     0
  9
$LWDISPLAY
290
     0
  9
$INSUNITS
 70
     4
  9
$HYPERLINKBASE
  1

  9
$STYLESHEET
  1

  9
$XEDIT
290
     1
  9
$CEPSNTYPE
380
     0
  9
$PSTYLEMODE
290
     1
  9
$FINGERPRINTGUID
  2
{A39EE2D6-5D4C-480F-89DF-04E2363E2B38}
  9
$VERSIONGUID
  2
{FAEB1C32-E019-11D5-929B-00C0DF256EC4}
  9
$EXTNAMES
290
     1
  9
$PSVPSCALE
 40
0.0
  9
$OLESTARTUP
290
     0
  9
$SORTENTS
280
   127
  9
$INDEXCTL
280
     0
  9
$HIDETEXT
280
     1
  9
$XCLIPFRAME
280
     0
  9
$HALOGAP
280
     0
  9
$OBSCOLOR
 70
   257
  9
$OBSLTYPE
280
     0
  9
$INTERSECTIONDISPLAY
280
     0
  9
$INTERSECTIONCOLOR
 70
   257
  9
$DIMASSOC
280
     2
  9
$PROJECTNAME
  1

  9
$CAMERADISPLAY
290
     0
  9
$LENSLENGTH
 40
50.0
  9
$CAMERAHEIGHT
 40
0.0
  9
$STEPSPERSEC
 40
2.0
  9
$STEPSIZE
 40
6.0
  9
$3DDWFPREC
 40
2.0
  9
$PSOLWIDTH
 40
0.25
  9
$PSOLHEIGHT
 40
4.0
  9
$LOFTANG1
 40
1.570796326794896
  9
$LOFTANG2
 40
1.570796326794896
  9
$LOFTMAG1
 40
0.0
  9
$LOFTMAG2
 40
0.0
  9
$LOFTPARAM
 70
     7
  9
$LOFTNORMALS
280
     1
  9
$LATITUDE
 40
37.795
  9
$LONGITUDE
 40
-122.394
  9
$NORTHDIRECTION
 40
0.0
  9
$TIMEZONE
 70
 -8000
  9
$LIGHTGLYPHDISPLAY
280
     1
  9
$TILEMODELIGHTSYNCH
280
     1
  9
$CMATERIAL
347
44
  9
$SOLIDHIST
280
     0
  9
$SHOWHIST
280
     1
  9
$DWFFRAME
280
     2
  9
$DGNFRAME
280
     0
  9
$REALWORLDSCALE
290
     1
  9
$INTERFERECOLOR
 62
     1
  9
$INTERFEREOBJVS
345
33
  9
$INTERFEREVPVS
346
30
  9
$CSHADOW
280
     0
  9
$SHADOWPLANELOCATION
 40
0.0
  0
ENDSEC
  0
SECTION
  2
CLASSES
  0
CLASS
  1
ACDBDICTIONARYWDFLT
  2
AcDbDictionaryWithDefault
  3
ObjectDBX Classes
 90
        0
 91
        1
280
     0
281
     0
  0
CLASS
  1
VISUALSTYLE
  2
AcDbVisualStyle
  3
ObjectDBX Classes
 90
     4095
 91
       24
280
     0
281
     0
  0
CLASS
  1
MATERIAL
  2
AcDbMaterial
  3
ObjectDBX Classes
 90
     1153
 91
        3
280
     0
281
     0
  0
CLASS
  1
SCALE
  2
AcDbScale
  3
ObjectDBX Classes
 90
     1153
 91
       33
280
     0
281
     0
  0
CLASS
  1
SUN
  2
AcDbSun
  3
SCENEOE
 90
     1153
 91
        1
280
     0
281
     0
  0
CLASS
  1
DICTIONARYVAR
  2
AcDbDictionaryVar
  3
ObjectDBX Classes
 90
        0
 91
        9
280
     0
281
     0
  0
CLASS
  1
TABLESTYLE
  2
AcDbTableStyle
  3
ObjectDBX Classes
 90
     4095
 91
        1
280
     0
281
     0
  0
CLASS
  1
MLEADERSTYLE
  2
AcDbMLeaderStyle
  3
ACDB_MLEADERSTYLE_CLASS
 90
     4095
 91
        1
280
     0
281
     0
  0
CLASS
  1
ACDBSECTIONVIEWSTYLE
  2
AcDbSectionViewStyle
  3
ObjectDBX Classes
 90
     1025
 91
        1
280
     0
281
     0
  0
CLASS
  1
ACDBDETAILVIEWSTYLE
  2
AcDbDetailViewStyle
  3
ObjectDBX Classes
 90
     1025
 91
        1
280
     0
281
     0
  0
CLASS
  1
CELLSTYLEMAP
  2
AcDbCellStyleMap
  3
ObjectDBX Classes
 90
     1152
 91
        1
280
     0
281
     0
  0
ENDSEC
  0
SECTION
  2
TABLES
  0
TABLE
  2
VPORT
  5
8
102
{ACAD_XDICTIONARY
360
515
102
}
330
0
100
AcDbSymbolTable
 70
     1
1001
ACAD
1000
DbSaveVer
1071
        5
  0
VPORT
  5
29
330
8
100
AcDbSymbolTableRecord
100
AcDbViewportTableRecord
  2
*Active
 70
     0
 10
0.0
 20
0.0
 11
1.0
 21
1.0
 12
17.11588363399081
 22
24.47508921616812
 13
0.0
 23
0.0
 14
0.5
 24
0.5
 15
0.5
 25
0.5
 16
0.0
 26
0.0
 36
1.0
 17
0.0
 27
0.0
 37
0.0
 40
57.13338188508574
 41
2.292712066905615
 42
50.0
 43
0.0
 44
0.0
 50
0.0
 51
0.0
 71
     0
 72
   100
 73
     1
 74
     3
 75
     0
 76
     0
 77
     0
 78
     0
281
     0
 65
     1
110
0.0
120
0.0
130
0.0
111
1.0
121
0.0
131
0.0
112
0.0
122
1.0
132
0.0
 79
     0
146
0.0
348
2F
 60
     3
 61
     5
292
     1
282
     1
141
0.0
142
0.0
 63
   250
421
  3355443
361
69
1001
ACAD_NAV_VCDISPLAY
1070
     3
  0
ENDTAB
  0
TABLE
  2
LTYPE
  5
5
330
0
100
AcDbSymbolTable
 70
     1
  0
LTYPE
  5
14
330
5
100
AcDbSymbolTableRecord
100
AcDbLinetypeTableRecord
  2
ByBlock
 70
     0
  3

 72
    65
 73
     0
 40
0.0
  0
LTYPE
  5
15
330
5
100
AcDbSymbolTableRecord
100
AcDbLinetypeTableRecord
  2
ByLayer
 70
     0
  3

 72
    65
 73
     0
 40
0.0
  0
LTYPE
  5
16
330
5
100
AcDbSymbolTableRecord
100
AcDbLinetypeTableRecord
  2
Continuous
 70
     0
  3
Solid line
 72
    65
 73
     0
 40
0.0
  0
ENDTAB
  0
TABLE
  2
LAYER
  5
2
330
0
100
AcDbSymbolTable
 70
     4
  0
LAYER
  5
10
102
{ACAD_XDICTIONARY
360
560
102
}
330
2
100
AcDbSymbolTableRecord
100
AcDbLayerTableRecord
  2
0
 70
     0
 62
     7
  6
Continuous
370
    -3
390
F
347
46
348
0
  0
LAYER
  5
6A
102
{ACAD_XDICTIONARY
360
562
102
}
330
2
100
AcDbSymbolTableRecord
100
AcDbLayerTableRecord
  2
Crea2D$visibili$linee
 70
     0
 62
    18
420
        0
  6
Continuous
370
    -3
390
F
347
46
348
0
  0
LAYER
  5
4D7
102
{ACAD_XDICTIONARY
360
564
102
}
330
2
100
AcDbSymbolTableRecord
100
AcDbLayerTableRecord
  2
Predefinito
 70
     0
 62
    18
420
        0
  6
Continuous
370
    -3
390
F
347
46
348
0
  0
LAYER
  5
4DB
330
2
100
AcDbSymbolTableRecord
100
AcDbLayerTableRecord
  2
Defpoints
 70
     0
 62
     7
  6
Continuous
290
     0
370
    -3
390
F
347
46
348
0
  0
ENDTAB
  0
TABLE
  2
STYLE
  5
3
330
0
100
AcDbSymbolTable
 70
     2
  0
STYLE
  5
11
330
3
100
AcDbSymbolTableRecord
100
AcDbTextStyleTableRecord
  2
Standard
 70
     0
 40
0.0
 41
1.0
 50
0.0
 71
     0
 42
0.2
  3
txt
  4

  0
STYLE
  5
4D8
330
3
100
AcDbSymbolTableRecord
100
AcDbTextStyleTableRecord
  2
Arial
 70
     0
 40
0.0
 41
1.0
 50
0.0
 71
     0
 42
0.2
  3
arial.ttf
  4

1001
ACAD
1000
Arial
1071
      256
  0
ENDTAB
  0
TABLE
  2
VIEW
  5
6
330
0
100
AcDbSymbolTable
 70
     0
  0
ENDTAB
  0
TABLE
  2
UCS
  5
7
330
0
100
AcDbSymbolTable
 70
     0
  0
ENDTAB
  0
TABLE
  2
APPID
  5
9
330
0
100
AcDbSymbolTable
 70
     2
  0
APPID
  5
12
330
9
100
AcDbSymbolTableRecord
100
AcDbRegAppTableRecord
  2
ACAD
 70
     0
  0
APPID
  5
56D
330
9
100
AcDbSymbolTableRecord
100
AcDbRegAppTableRecord
  2
ACAD_NAV_VCDISPLAY
 70
     0
  0
ENDTAB
  0
TABLE
  2
DIMSTYLE
  5
A
330
0
100
AcDbSymbolTable
 70
     2
100
AcDbDimStyleTable
 71
     0
  0
DIMSTYLE
105
27
330
A
100
AcDbSymbolTableRecord
100
AcDbDimStyleTableRecord
  2
Standard
 70
     0
340
11
  0
DIMSTYLE
105
4D9
102
{ACAD_REACTORS
330
4DA
330
4E8
330
4F5
330
502
102
}
330
A
100
AcDbSymbolTableRecord
100
AcDbDimStyleTableRecord
  2
Default
 70
     0
 41
1.0
 42
0.5
 44
0.5
 73
     0
 77
     1
 78
     1
140
1.0
141
0.5
147
0.25
172
     1
174
     1
179
     2
271
     2
279
     1
284
     1
340
4D8
  0
ENDTAB
  0
TABLE
  2
BLOCK_RECORD
  5
1
330
0
100
AcDbSymbolTable
 70
     5
  0
BLOCK_RECORD
  5
1F
330
1
100
AcDbSymbolTableRecord
100
AcDbBlockTableRecord
  2
*Model_Space
340
22
 70
     0
280
     1
281
     0
  0
BLOCK_RECORD
  5
1B
330
1
100
AcDbSymbolTableRecord
100
AcDbBlockTableRecord
  2
*Paper_Space
340
1E
 70
     0
280
     1
281
     0
  0
BLOCK_RECORD
  5
23
330
1
100
AcDbSymbolTableRecord
100
AcDbBlockTableRecord
  2
*Paper_Space0
340
26
 70
     0
280
     1
281
     0
  0
BLOCK_RECORD
  5
4DC
330
1
100
AcDbSymbolTableRecord
100
AcDbBlockTableRecord
  2
*D1
340
0
 70
     0
280
     1
281
     0
  0
BLOCK_RECORD
  5
4E9
330
1
100
AcDbSymbolTableRecord
100
AcDbBlockTableRecord
  2
*D2
340
0
 70
     0
280
     1
281
     0
  0
BLOCK_RECORD
  5
4F6
330
1
100
AcDbSymbolTableRecord
100
AcDbBlockTableRecord
  2
*D3
340
0
 70
     0
280
     1
281
     0
  0
BLOCK_RECORD
  5
503
330
1
100
AcDbSymbolTableRecord
100
AcDbBlockTableRecord
  2
*D4
340
0
 70
     0
280
     1
281
     0
  0
ENDTAB
  0
ENDSEC
  0
SECTION
  2
BLOCKS
  0
BLOCK
  5
20
330
1F
100
AcDbEntity
  8
0
100
AcDbBlockBegin
  2
*Model_Space
 70
     0
 10
0.0
 20
0.0
 30
0.0
  3
*Model_Space
  1

  0
ENDBLK
  5
21
330
1F
100
AcDbEntity
  8
0
100
AcDbBlockEnd
  0
BLOCK
  5
1C
330
1B
100
AcDbEntity
 67
     1
  8
0
100
AcDbBlockBegin
  2
*Paper_Space
 70
     0
 10
0.0
 20
0.0
 30
0.0
  3
*Paper_Space
  1

  0
ENDBLK
  5
1D
330
1B
100
AcDbEntity
 67
     1
  8
0
100
AcDbBlockEnd
  0
BLOCK
  5
24
330
23
100
AcDbEntity
 67
     1
  8
0
100
AcDbBlockBegin
  2
*Paper_Space0
 70
     0
 10
0.0
 20
0.0
 30
0.0
  3
*Paper_Space0
  1

  0
ENDBLK
  5
25
330
23
100
AcDbEntity
 67
     1
  8
0
100
AcDbBlockEnd
  0
BLOCK
  5
4DD
330
4DC
100
AcDbEntity
  8
0
100
AcDbBlockBegin
  2
*D1
 70
     1
 10
0.0
 20
0.0
 30
0.0
  3
*D1
  1

  0
LINE
  5
4DF
330
4DC
100
AcDbEntity
  8
Predefinito
 62
     0
440
 16777216
370
    -2
100
AcDbLine
 10
-1.822187652353619
 20
25.0
 30
0.0
 11
2.994527610623153
 21
25.0
 31
0.0
  0
LINE
  5
4E0
330
4DC
100
AcDbEntity
  8
Predefinito
 62
     0
440
 16777216
370
    -2
100
AcDbLine
 10
-1.822187652353619
 20
0.0
 30
0.0
 11
2.994527610623151
 21
-0.0000000000000003
 31
0.0
  0
LINE
  5
4E1
330
4DC
100
AcDbEntity
  8
Predefinito
 62
     0
440
 16777216
370
    -2
100
AcDbLine
 10
2.494527610623153
 20
24.0
 30
0.0
 11
2.494527610623151
 21
0.9999999999999996
 31
0.0
  0
SOLID
  5
4E2
330
4DC
100
AcDbEntity
  8
Predefinito
 62
     0
440
 16777216
100
AcDbTrace
 10
2.661194277289819
 20
24.0
 30
0.0
 11
2.327860943956486
 21
24.0
 31
0.0
 12
2.494527610623153
 22
25.0
 32
0.0
 13
2.494527610623153
 23
25.0
 33
0.0
  0
SOLID
  5
4E3
330
4DC
100
AcDbEntity
  8
Predefinito
 62
     0
440
 16777216
100
AcDbTrace
 10
2.327860943956485
 20
0.9999999999999996
 30
0.0
 11
2.661194277289818
 21
0.9999999999999996
 31
0.0
 12
2.494527610623151
 22
-0.0000000000000003
 32
0.0
 13
2.494527610623151
 23
-0.0000000000000003
 33
0.0
  0
MTEXT
  5
4E4
330
4DC
100
AcDbEntity
  8
Predefinito
 62
     0
440
 16777216
100
AcDbMText
 10
1.734027610623152
 20
12.5
 30
0.0
 40
1.0
 41
0.0
 46
0.0
 71
     5
 72
     1
  1
\A1;25.00
  7
Arial
 11
0.0000000000000001
 21
1.0
 31
0.0
 73
     1
 44
1.0
  0
POINT
  5
4E5
330
4DC
100
AcDbEntity
  8
Defpoints
 62
     0
440
 16777216
100
AcDbPoint
 10
-2.322187652353619
 20
25.0
 30
0.0
  0
POINT
  5
4E6
330
4DC
100
AcDbEntity
  8
Defpoints
 62
     0
440
 16777216
100
AcDbPoint
 10
-2.322187652353619
 20
0.0
 30
0.0
  0
POINT
  5
4E7
330
4DC
100
AcDbEntity
  8
Defpoints
 62
     0
440
 16777216
100
AcDbPoint
 10
2.494527610623151
 20
-0.0000000000000003
 30
0.0
  0
ENDBLK
  5
4DE
330
4DC
100
AcDbEntity
  8
0
100
AcDbBlockEnd
  0
BLOCK
  5
4EA
330
4E9
100
AcDbEntity
  8
0
100
AcDbBlockBegin
  2
*D2
 70
     1
 10
0.0
 20
0.0
 30
0.0
  3
*D2
  1

  0
LINE
  5
4EC
330
4E9
100
AcDbEntity
  8
Predefinito
 62
     0
440
 16777216
370
    -2
100
AcDbLine
 10
-47.32218765235361
 20
-0.5
 30
0.0
 11
-47.32218765235361
 21
-4.500671286411166
 31
0.0
  0
LINE
  5
4ED
330
4E9
100
AcDbEntity
  8
Predefinito
 62
     0
440
 16777216
370
    -2
100
AcDbLine
 10
-2.322187652353619
 20
-0.5
 30
0.0
 11
-2.322187652353619
 21
-4.500671286411166
 31
0.0
  0
LINE
  5
4EE
330
4E9
100
AcDbEntity
  8
Predefinito
 62
     0
440
 16777216
370
    -2
100
AcDbLine
 10
-46.32218765235362
 20
-4.000671286411166
 30
0.0
 11
-3.322187652353619
 21
-4.000671286411166
 31
0.0
  0
SOLID
  5
4EF
330
4E9
100
AcDbEntity
  8
Predefinito
 62
     0
440
 16777216
100
AcDbTrace
 10
-46.32218765235362
 20
-3.834004619744499
 30
0.0
 11
-46.32218765235362
 21
-4.167337953077833
 31
0.0
 12
-47.32218765235361
 22
-4.000671286411166
 32
0.0
 13
-47.32218765235361
 23
-4.000671286411166
 33
0.0
  0
SOLID
  5
4F0
330
4E9
100
AcDbEntity
  8
Predefinito
 62
     0
440
 16777216
100
AcDbTrace
 10
-3.322187652353619
 20
-4.167337953077833
 30
0.0
 11
-3.322187652353619
 21
-3.834004619744499
 31
0.0
 12
-2.322187652353619
 22
-4.000671286411166
 32
0.0
 13
-2.322187652353619
 23
-4.000671286411166
 33
0.0
  0
MTEXT
  5
4F1
330
4E9
100
AcDbEntity
  8
Predefinito
 62
     0
440
 16777216
100
AcDbMText
 10
-24.82218765235362
 20
-3.240171286411166
 30
0.0
 40
1.0
 41
0.0
 46
0.0
 71
     5
 72
     1
  1
\A1;45.00
  7
Arial
 73
     1
 44
1.0
  0
POINT
  5
4F2
330
4E9
100
AcDbEntity
  8
Defpoints
 62
     0
440
 16777216
100
AcDbPoint
 10
-47.32218765235361
 20
0.0
 30
0.0
  0
POINT
  5
4F3
330
4E9
100
AcDbEntity
  8
Defpoints
 62
     0
440
 16777216
100
AcDbPoint
 10
-2.322187652353619
 20
0.0
 30
0.0
  0
POINT
  5
4F4
330
4E9
100
AcDbEntity
  8
Defpoints
 62
     0
440
 16777216
100
AcDbPoint
 10
-2.322187652353619
 20
-4.000671286411166
 30
0.0
  0
ENDBLK
  5
4EB
330
4E9
100
AcDbEntity
  8
0
100
AcDbBlockEnd
  0
BLOCK
  5
4F7
330
4F6
100
AcDbEntity
  8
0
100
AcDbBlockBegin
  2
*D3
 70
     1
 10
0.0
 20
0.0
 30
0.0
  3
*D3
  1

  0
LINE
  5
4F9
330
4F6
100
AcDbEntity
  8
Predefinito
 62
     0
440
 16777216
370
    -2
100
AcDbLine
 10
-1.822187652353619
 20
40.45084971874737
 30
0.0
 11
2.99452761062315
 21
40.45084971874737
 31
0.0
  0
LINE
  5
4FA
330
4F6
100
AcDbEntity
  8
Predefinito
 62
     0
440
 16777216
370
    -2
100
AcDbLine
 10
-1.822187652353619
 20
53.45084971874737
 30
0.0
 11
2.994527610623151
 21
53.45084971874737
 31
0.0
  0
LINE
  5
4FB
330
4F6
100
AcDbEntity
  8
Predefinito
 62
     0
440
 16777216
370
    -2
100
AcDbLine
 10
2.49452761062315
 20
41.45084971874736
 30
0.0
 11
2.494527610623151
 21
52.45084971874737
 31
0.0
  0
SOLID
  5
4FC
330
4F6
100
AcDbEntity
  8
Predefinito
 62
     0
440
 16777216
100
AcDbTrace
 10
2.327860943956484
 20
41.45084971874736
 30
0.0
 11
2.661194277289817
 21
41.45084971874736
 31
0.0
 12
2.49452761062315
 22
40.45084971874737
 32
0.0
 13
2.49452761062315
 23
40.45084971874737
 33
0.0
  0
SOLID
  5
4FD
330
4F6
100
AcDbEntity
  8
Predefinito
 62
     0
440
 16777216
100
AcDbTrace
 10
2.661194277289818
 20
52.45084971874737
 30
0.0
 11
2.327860943956485
 21
52.45084971874737
 31
0.0
 12
2.494527610623151
 22
53.45084971874737
 32
0.0
 13
2.494527610623151
 23
53.45084971874737
 33
0.0
  0
MTEXT
  5
4FE
330
4F6
100
AcDbEntity
  8
Predefinito
 62
     0
440
 16777216
100
AcDbMText
 10
1.73402761062315
 20
46.95084971874737
 30
0.0
 40
1.0
 41
0.0
 46
0.0
 71
     5
 72
     1
  1
\A1;13.00
  7
Arial
 11
0.0000000000000001
 21
1.0
 31
0.0
 73
     1
 44
1.0
  0
POINT
  5
4FF
330
4F6
100
AcDbEntity
  8
Defpoints
 62
     0
440
 16777216
100
AcDbPoint
 10
-2.322187652353619
 20
40.45084971874737
 30
0.0
  0
POINT
  5
500
330
4F6
100
AcDbEntity
  8
Defpoints
 62
     0
440
 16777216
100
AcDbPoint
 10
-2.322187652353619
 20
53.45084971874737
 30
0.0
  0
POINT
  5
501
330
4F6
100
AcDbEntity
  8
Defpoints
 62
     0
440
 16777216
100
AcDbPoint
 10
2.494527610623151
 20
53.45084971874737
 30
0.0
  0
ENDBLK
  5
4F8
330
4F6
100
AcDbEntity
  8
0
100
AcDbBlockEnd
  0
BLOCK
  5
504
330
503
100
AcDbEntity
  8
0
100
AcDbBlockBegin
  2
*D4
 70
     1
 10
0.0
 20
0.0
 30
0.0
  3
*D4
  1

  0
LINE
  5
506
330
503
100
AcDbEntity
  8
Predefinito
 62
     0
440
 16777216
370
    -2
100
AcDbLine
 10
33.12866206639376
 20
39.9508497187474
 30
0.0
 11
33.12866206639376
 21
36.01370198215585
 31
0.0
  0
LINE
  5
507
330
503
100
AcDbEntity
  8
Predefinito
 62
     0
440
 16777216
370
    -2
100
AcDbLine
 10
58.12866206639376
 20
39.9508497187474
 30
0.0
 11
58.12866206639376
 21
36.01370198215585
 31
0.0
  0
LINE
  5
508
330
503
100
AcDbEntity
  8
Predefinito
 62
     0
440
 16777216
370
    -2
100
AcDbLine
 10
34.12866206639376
 20
36.51370198215584
 30
0.0
 11
57.12866206639375
 21
36.51370198215584
 31
0.0
  0
SOLID
  5
509
330
503
100
AcDbEntity
  8
Predefinito
 62
     0
440
 16777216
100
AcDbTrace
 10
34.12866206639376
 20
36.68036864882251
 30
0.0
 11
34.12866206639376
 21
36.34703531548918
 31
0.0
 12
33.12866206639376
 22
36.51370198215584
 32
0.0
 13
33.12866206639376
 23
36.51370198215584
 33
0.0
  0
SOLID
  5
50A
330
503
100
AcDbEntity
  8
Predefinito
 62
     0
440
 16777216
100
AcDbTrace
 10
57.12866206639375
 20
36.34703531548918
 30
0.0
 11
57.12866206639375
 21
36.68036864882251
 31
0.0
 12
58.12866206639376
 22
36.51370198215584
 32
0.0
 13
58.12866206639376
 23
36.51370198215584
 33
0.0
  0
MTEXT
  5
50B
330
503
100
AcDbEntity
  8
Predefinito
 62
     0
440
 16777216
100
AcDbMText
 10
45.62866206639376
 20
37.27420198215585
 30
0.0
 40
1.0
 41
0.0
 46
0.0
 71
     5
 72
     1
  1
\A1;25.00
  7
Arial
 73
     1
 44
1.0
  0
POINT
  5
50C
330
503
100
AcDbEntity
  8
Defpoints
 62
     0
440
 16777216
100
AcDbPoint
 10
33.12866206639376
 20
40.45084971874739
 30
0.0
  0
POINT
  5
50D
330
503
100
AcDbEntity
  8
Defpoints
 62
     0
440
 16777216
100
AcDbPoint
 10
58.12866206639376
 20
40.45084971874739
 30
0.0
  0
POINT
  5
50E
330
503
100
AcDbEntity
  8
Defpoints
 62
     0
440
 16777216
100
AcDbPoint
 10
58.12866206639376
 20
36.51370198215584
 30
0.0
  0
ENDBLK
  5
505
330
503
100
AcDbEntity
  8
0
100
AcDbBlockEnd
  0
ENDSEC
  0
SECTION
  2
ENTITIES
  0
LINE
  5
6B
330
1F
100
AcDbEntity
  8
Crea2D$visibili$linee
100
AcDbLine
 10
58.12866206639376
 20
16.71984007886711
 30
0.0
 11
48.77847569589204
 21
25.0
 31
0.0
  0
LINE
  5
6C
330
1F
100
AcDbEntity
  8
Crea2D$visibili$linee
100
AcDbLine
 10
48.77847569589204
 20
25.0
 30
0.0
 11
25.62296901863652
 21
15.25546989169836
 31
0.0
  0
LINE
  5
6D
330
1F
100
AcDbEntity
  8
Crea2D$visibili$linee
100
AcDbLine
 10
25.62296901863652
 20
15.25546989169836
 30
0.0
 11
34.46006795303737
 21
6.160181707636218
 31
0.0
  0
LINE
  5
6E
330
1F
100
AcDbEntity
  8
Crea2D$visibili$linee
100
AcDbLine
 10
34.46006795303737
 20
6.160181707636218
 30
0.0
 11
58.12866206639376
 21
16.71984007886711
 31
0.0
  0
LINE
  5
6F
330
1F
100
AcDbEntity
  8
Crea2D$visibili$linee
100
AcDbLine
 10
44.8861754214729
 20
21.93169326474908
 30
0.0
 11
28.26155749325887
 21
14.88759062585021
 31
0.0
  0
LINE
  5
70
330
1F
100
AcDbEntity
  8
Crea2D$visibili$linee
100
AcDbLine
 10
44.88617542147295
 20
21.93169326474905
 30
0.0
 11
51.91326573333094
 21
15.50958025177565
 31
0.0
  0
LINE
  5
71
330
1F
100
AcDbEntity
  8
Crea2D$visibili$linee
100
AcDbLine
 10
35.00588898722018
 20
8.020478716402013
 30
0.0
 11
51.91326573333094
 21
15.50958025177565
 31
0.0
  0
LINE
  5
72
330
1F
100
AcDbEntity
  8
Crea2D$visibili$linee
100
AcDbLine
 10
28.26155749325892
 20
14.88759062585017
 30
0.0
 11
35.0058889872202
 21
8.020478716402003
 31
0.0
  0
LINE
  5
73
330
1F
100
AcDbEntity
  8
Crea2D$visibili$linee
100
AcDbLine
 10
50.21825592943226
 20
20.44433199460461
 30
0.0
 11
50.19896295870085
 21
20.4357976817127
 31
0.0
  0
LINE
  5
74
330
1F
100
AcDbEntity
  8
Crea2D$visibili$linee
100
AcDbLine
 10
50.19896295870085
 20
20.4357976817127
 30
0.0
 11
50.17982783834118
 21
20.42689950110351
 31
0.0
  0
LINE
  5
75
330
1F
100
AcDbEntity
  8
Crea2D$visibili$linee
100
AcDbLine
 10
50.17982783834118
 20
20.42689950110351
 30
0.0
 11
50.16087163609991
 21
20.41763544134981
 31
0.0
  0
LINE
  5
76
330
1F
100
AcDbEntity
  8
Crea2D$visibili$linee
100
AcDbLine
 10
50.16087163609991
 20
20.41763544134981
 30
0.0
 11
50.14211585535916
 21
20.40800406728136
 31
0.0
  0
LINE
  5
77
330
1F
100
AcDbEntity
  8
Crea2D$visibili$linee
100
AcDbLine
 10
50.14211585535916
 20
20.40800406728136
 30
0.0
 11
50.12358239041637
 21
20.39800454977149
 31
0.0
  0
LINE
  5
78
330
1F
100
AcDbEntity
  8
Crea2D$visibili$linee
100
AcDbLine
 10
50.12358239041637
 20
20.39800454977149
 30
0.0
 11
50.10529347764976
 21
20.3876366943643
 31
0.0
  0
LINE
  5
79
330
1F
100
AcDbEntity
  8
Crea2D$visibili$linee
100
AcDbLine
 10
50.10529347764976
 20
20.3876366943643
 30
0.0
 11
50.08727164262925
 21
20.37690096849041
 31
0.0
  0
LINE
  5
7A
330
1F
100
AcDbEntity
  8
Crea2D$visibili$linee
100
AcDbLine
 10
50.08727164262925
 20
20.37690096849041
 30
0.0
 11
50.06953964327123
 21
20.36579852701351
 31
0.0
  0
LINE
  5
7B
330
1F
100
AcDbEntity
  8
Crea2D$visibili$linee
100
AcDbLine
 10
50.06953964327123
 20
20.36579852701351
 30
0.0
 11
50.05212040917625
 21
20.35433123584703
 31
0.0
  0
LINE
  5
7C
330
1F
100
AcDbEntity
  8
Crea2D$visibili$linee
100
AcDbLine
 10
50.05212040917625
 20
20.35433123584703
 30
0.0
 11
50.03503697733069
 21
20.34250169338034
 31
0.0
  0
LINE
  5
7D
330
1F
100
AcDbEntity
  8
Crea2D$visibili$linee
100
AcDbLine
 10
50.03503697733069
 20
20.34250169338034
 30
0.0
 11
50.0183124243964
 21
20.33031324945636
 31
0.0
  0
LINE
  5
7E
330
1F
100
AcDbEntity
  8
Crea2D$visibili$linee
100
AcDbLine
 10
50.0183124243964
 20
20.33031324945636
 30
0.0
 11
50.00196979585627
 21
20.31777002164816
 31
0.0
  0
LINE
  5
7F
330
1F
100
AcDbEntity
  8
Crea2D$visibili$linee
100
AcDbLine
 10
50.00196979585627
 20
20.31777002164816
 30
0.0
 11
49.9860320323266
 21
20.30487690859152
 31
0.0
  0
LINE
  5
80
330
1F
100
AcDbEntity
  8
Crea2D$visibili$linee
100
AcDbLine
 10
49.9860320323266
 20
20.30487690859152
 30
0.0
 11
49.97052189339004
 21
20.29163960014247
 31
0.0
  0
LINE
  5
81
330
1F
100
AcDbEntity
  8
Crea2D$visibili$linee
100
AcDbLine
 10
49.97052189339004
 20
20.29163960014247
 30
0.0
 11
49.95546187934443
 21
20.27806458414486
 31
0.0
  0
LINE
  5
82
330
1F
100
AcDbEntity
  8
Crea2D$visibili$linee
100
AcDbLine
 10
49.95546187934443
 20
20.27806458414486
 30
0.0
 11
49.94087415130152
 21
20.26415914961223
 31
0.0
  0
LINE
  5
83
330
1F
100
AcDbEntity
  8
Crea2D$visibili$linee
100
AcDbLine
 10
49.94087415130152
 20
20.26415914961223
 30
0.0
 11
49.92678045010672
 21
20.2499313861509
 31
0.0
  0
LINE
  5
84
330
1F
100
AcDbEntity
  8
Crea2D$visibili$linee
100
AcDbLine
 10
49.92678045010672
 20
20.2499313861509
 30
0.0
 11
49.913202014583
 21
20.23539017947692
 31
0.0
  0
LINE
  5
85
330
1F
100
AcDbEntity
  8
Crea2D$visibili$linee
100
AcDbLine
 10
49.913202014583
 20
20.23539017947692
 30
0.0
 11
49.90015949963197
 21
20.22054520290875
 31
0.0
  0
LINE
  5
86
330
1F
100
AcDbEntity
  8
Crea2D$visibili$linee
100
AcDbLine
 10
49.90015949963197
 20
20.22054520290875
 30
0.0
 11
49.88767289474786
 21
20.20540690474922
 31
0.0
  0
LINE
  5
87
330
1F
100
AcDbEntity
  8
Crea2D$visibili$linee
100
AcDbLine
 10
49.88767289474786
 20
20.20540690474922
 30
0.0
 11
49.87576144351964
 21
20.18998649150414
 31
0.0
  0
LINE
  5
88
330
1F
100
AcDbEntity
  8
Crea2D$visibili$linee
100
AcDbLine
 10
49.87576144351964
 20
20.18998649150414
 30
0.0
 11
49.86444356470819
 21
20.17429590692229
 31
0.0
  0
LINE
  5
89
330
1F
100
AcDbEntity
  8
Crea2D$visibili$linee
100
AcDbLine
 10
49.86444356470819
 20
20.17429590692229
 30
0.0
 11
49.85373677549178
 21
20.15834780687844
 31
0.0
  0
LINE
  5
8A
330
1F
100
AcDbEntity
  8
Crea2D$visibili$linee
100
AcDbLine
 10
49.85373677549178
 20
20.15834780687844
 30
0.0
 11
49.84365761747222
 21
20.14215553016106
 31
0.0
  0
LINE
  5
8B
330
1F
100
AcDbEntity
  8
Crea2D$visibili$linee
100
AcDbLine
 10
49.84365761747222
 20
20.14215553016106
 30
0.0
 11
49.83885828518861
 21
20.13397217256331
 31
0.0
  0
LINE
  5
8C
330
1F
100
AcDbEntity
  8
Crea2D$visibili$linee
100
AcDbLine
 10
49.83885828518861
 20
20.13397217256331
 30
0.0
 11
49.83422158602614
 21
20.12573306526602
 31
0.0
  0
LINE
  5
8D
330
1F
100
AcDbEntity
  8
Crea2D$visibili$linee
100
AcDbLine
 10
49.83422158602614
 20
20.12573306526602
 30
0.0
 11
49.82974928248399
 21
20.11744005226736
 31
0.0
  0
LINE
  5
8E
330
1F
100
AcDbEntity
  8
Crea2D$visibili$linee
100
AcDbLine
 10
49.82974928248399
 20
20.11744005226736
 30
0.0
 11
49.82544306357031
 21
20.10909501333732
 31
0.0
  0
LINE
  5
8F
330
1F
100
AcDbEntity
  8
Crea2D$visibili$linee
100
AcDbLine
 10
49.82544306357031
 20
20.10909501333732
 30
0.0
 11
49.82130454296895
 21
20.100699862662
 31
0.0
  0
LINE
  5
90
330
1F
100
AcDbEntity
  8
Crea2D$visibili$linee
100
AcDbLine
 10
49.82130454296895
 20
20.100699862662
 30
0.0
 11
49.81733525728802
 21
20.0922565474358
 31
0.0
  0
LINE
  5
91
330
1F
100
AcDbEntity
  8
Crea2D$visibili$linee
100
AcDbLine
 10
49.81733525728802
 20
20.0922565474358
 30
0.0
 11
49.81353666439374
 21
20.08376704640348
 31
0.0
  0
LINE
  5
92
330
1F
100
AcDbEntity
  8
Crea2D$visibili$linee
100
AcDbLine
 10
49.81353666439374
 20
20.08376704640348
 30
0.0
 11
49.80991014183327
 21
20.07523336835442
 31
0.0
  0
LINE
  5
93
330
1F
100
AcDbEntity
  8
Crea2D$visibili$linee
100
AcDbLine
 10
49.80991014183327
 20
20.07523336835442
 30
0.0
 11
49.80645698534989
 21
20.06665755057132
 31
0.0
  0
LINE
  5
94
330
1F
100
AcDbEntity
  8
Crea2D$visibili$linee
100
AcDbLine
 10
49.80645698534989
 20
20.06665755057132
 30
0.0
 11
49.80317840749344
 21
20.05804165723581
 31
0.0
  0
LINE
  5
95
330
1F
100
AcDbEntity
  8
Crea2D$visibili$linee
100
AcDbLine
 10
49.80317840749344
 20
20.05804165723581
 30
0.0
 11
49.80007553632918
 21
20.04938777779357
 31
0.0
  0
LINE
  5
96
330
1F
100
AcDbEntity
  8
Crea2D$visibili$linee
100
AcDbLine
 10
49.80007553632918
 20
20.04938777779357
 30
0.0
 11
49.79714941424782
 21
20.04069802528165
 31
0.0
  0
LINE
  5
97
330
1F
100
AcDbEntity
  8
Crea2D$visibili$linee
100
AcDbLine
 10
49.79714941424782
 20
20.04069802528165
 30
0.0
 11
49.79440099687893
 21
20.03197453462068
 31
0.0
  0
LINE
  5
98
330
1F
100
AcDbEntity
  8
Crea2D$visibili$linee
100
AcDbLine
 10
49.79440099687893
 20
20.03197453462068
 30
0.0
 11
49.7918311521104
 21
20.02321946087498
 31
0.0
  0
LINE
  5
99
330
1F
100
AcDbEntity
  8
Crea2D$visibili$linee
100
AcDbLine
 10
49.7918311521104
 20
20.02321946087498
 30
0.0
 11
49.78944065921568
 21
20.01443497748343
 31
0.0
  0
LINE
  5
9A
330
1F
100
AcDbEntity
  8
Crea2D$visibili$linee
100
AcDbLine
 10
49.78944065921568
 20
20.01443497748343
 30
0.0
 11
49.78723020809067
 21
20.00562327446417
 31
0.0
  0
LINE
  5
9B
330
1F
100
AcDbEntity
  8
Crea2D$visibili$linee
100
AcDbLine
 10
49.78723020809067
 20
20.00562327446417
 30
0.0
 11
49.78520039860197
 21
19.99678655659629
 31
0.0
  0
LINE
  5
9C
330
1F
100
AcDbEntity
  8
Crea2D$visibili$linee
100
AcDbLine
 10
49.78520039860197
 20
19.99678655659629
 30
0.0
 11
49.78335174004737
 21
19.98792704158156
 31
0.0
  0
LINE
  5
9D
330
1F
100
AcDbEntity
  8
Crea2D$visibili$linee
100
AcDbLine
 10
49.78335174004737
 20
19.98792704158156
 30
0.0
 11
49.78168465073003
 21
19.97904695818957
 31
0.0
  0
LINE
  5
9E
330
1F
100
AcDbEntity
  8
Crea2D$visibili$linee
100
AcDbLine
 10
49.78168465073003
 20
19.97904695818957
 30
0.0
 11
49.78019945764686
 21
19.97014854438934
 31
0.0
  0
LINE
  5
9F
330
1F
100
AcDbEntity
  8
Crea2D$visibili$linee
100
AcDbLine
 10
49.78019945764686
 20
19.97014854438934
 30
0.0
 11
49.77889639629155
 21
19.96123404547098
 31
0.0
  0
LINE
  5
A0
330
1F
100
AcDbEntity
  8
Crea2D$visibili$linee
100
AcDbLine
 10
49.77889639629155
 20
19.96123404547098
 30
0.0
 11
49.77777561057255
 21
19.95230571216032
 31
0.0
  0
LINE
  5
A1
330
1F
100
AcDbEntity
  8
Crea2D$visibili$linee
100
AcDbLine
 10
49.77777561057255
 20
19.95230571216032
 30
0.0
 11
49.77683715284602
 21
19.9433657987302
 31
0.0
  0
LINE
  5
A2
330
1F
100
AcDbEntity
  8
Crea2D$visibili$linee
100
AcDbLine
 10
49.77683715284602
 20
19.9433657987302
 30
0.0
 11
49.77608098406324
 21
19.93441656111151
 31
0.0
  0
LINE
  5
A3
330
1F
100
AcDbEntity
  8
Crea2D$visibili$linee
100
AcDbLine
 10
49.77608098406324
 20
19.93441656111151
 30
0.0
 11
49.77550697403199
 21
19.9254602550074
 31
0.0
  0
LINE
  5
A4
330
1F
100
AcDbEntity
  8
Crea2D$visibili$linee
100
AcDbLine
 10
49.77550697403199
 20
19.9254602550074
 30
0.0
 11
49.77511490179096
 21
19.91649913401381
 31
0.0
  0
LINE
  5
A5
330
1F
100
AcDbEntity
  8
Crea2D$visibili$linee
100
AcDbLine
 10
49.77511490179096
 20
19.91649913401381
 30
0.0
 11
49.77490445609634
 21
19.90753544774981
 31
0.0
  0
LINE
  5
A6
330
1F
100
AcDbEntity
  8
Crea2D$visibili$linee
100
AcDbLine
 10
49.77490445609634
 20
19.90753544774981
 30
0.0
 11
49.77487523601882
 21
19.89857144000074
 31
0.0
  0
LINE
  5
A7
330
1F
100
AcDbEntity
  8
Crea2D$visibili$linee
100
AcDbLine
 10
49.77487523601882
 20
19.89857144000074
 30
0.0
 11
49.77502675164966
 21
19.88960934687744
 31
0.0
  0
LINE
  5
A8
330
1F
100
AcDbEntity
  8
Crea2D$visibili$linee
100
AcDbLine
 10
49.77502675164966
 20
19.88960934687744
 30
0.0
 11
49.77535842491392
 21
19.88065139499473
 31
0.0
  0
LINE
  5
A9
330
1F
100
AcDbEntity
  8
Crea2D$visibili$linee
100
AcDbLine
 10
49.77535842491392
 20
19.88065139499473
 30
0.0
 11
49.77586959048857
 21
19.87169979967205
 31
0.0
  0
LINE
  5
AA
330
1F
100
AcDbEntity
  8
Crea2D$visibili$linee
100
AcDbLine
 10
49.77586959048857
 20
19.87169979967205
 30
0.0
 11
49.7765594968235
 21
19.86275676315939
 31
0.0
  0
LINE
  5
AB
330
1F
100
AcDbEntity
  8
Crea2D$visibili$linee
100
AcDbLine
 10
49.7765594968235
 20
19.86275676315939
 30
0.0
 11
49.77742730726256
 21
19.85382447289121
 31
0.0
  0
LINE
  5
AC
330
1F
100
AcDbEntity
  8
Crea2D$visibili$linee
100
AcDbLine
 10
49.77742730726256
 20
19.85382447289121
 30
0.0
 11
49.77847210126193
 21
19.84490509977138
 31
0.0
  0
LINE
  5
AD
330
1F
100
AcDbEntity
  8
Crea2D$visibili$linee
100
AcDbLine
 10
49.77847210126193
 20
19.84490509977138
 30
0.0
 11
49.7796928757031
 21
19.83600079649174
 31
0.0
  0
LINE
  5
AE
330
1F
100
AcDbEntity
  8
Crea2D$visibili$linee
100
AcDbLine
 10
49.7796928757031
 20
19.83600079649174
 30
0.0
 11
49.781088546297
 21
19.82711369588672
 31
0.0
  0
LINE
  5
AF
330
1F
100
AcDbEntity
  8
Crea2D$visibili$linee
100
AcDbLine
 10
49.781088546297
 20
19.82711369588672
 30
0.0
 11
49.78265794907617
 21
19.81824590932683
 31
0.0
  0
LINE
  5
B0
330
1F
100
AcDbEntity
  8
Crea2D$visibili$linee
100
AcDbLine
 10
49.78265794907617
 20
19.81824590932683
 30
0.0
 11
49.78439984197148
 21
19.80939952515312
 31
0.0
  0
LINE
  5
B1
330
1F
100
AcDbEntity
  8
Crea2D$visibili$linee
100
AcDbLine
 10
49.78439984197148
 20
19.80939952515312
 30
0.0
 11
49.78631290646954
 21
19.80057660715491
 31
0.0
  0
LINE
  5
B2
330
1F
100
AcDbEntity
  8
Crea2D$visibili$linee
100
AcDbLine
 10
49.78631290646954
 20
19.80057660715491
 30
0.0
 11
49.78839574934744
 21
19.79177919309308
 31
0.0
  0
LINE
  5
B3
330
1F
100
AcDbEntity
  8
Crea2D$visibili$linee
100
AcDbLine
 10
49.78839574934744
 20
19.79177919309308
 30
0.0
 11
49.79064690448048
 21
19.78300929327066
 31
0.0
  0
LINE
  5
B4
330
1F
100
AcDbEntity
  8
Crea2D$visibili$linee
100
AcDbLine
 10
49.79064690448048
 20
19.78300929327066
 30
0.0
 11
49.79306483471923
 21
19.7742688891527
 31
0.0
  0
LINE
  5
B5
330
1F
100
AcDbEntity
  8
Crea2D$visibili$linee
100
AcDbLine
 10
49.79306483471923
 20
19.7742688891527
 30
0.0
 11
49.79564793383153
 21
19.76555993203716
 31
0.0
  0
LINE
  5
B6
330
1F
100
AcDbEntity
  8
Crea2D$visibili$linee
100
AcDbLine
 10
49.79564793383153
 20
19.76555993203716
 30
0.0
 11
49.79839452850552
 21
19.7568843417783
 31
0.0
  0
LINE
  5
B7
330
1F
100
AcDbEntity
  8
Crea2D$visibili$linee
100
AcDbLine
 10
49.79839452850552
 20
19.7568843417783
 30
0.0
 11
49.80130288040918
 21
19.74824400556407
 31
0.0
  0
LINE
  5
B8
330
1F
100
AcDbEntity
  8
Crea2D$visibili$linee
100
AcDbLine
 10
49.80130288040918
 20
19.74824400556407
 30
0.0
 11
49.80437118830215
 21
19.73964077674872
 31
0.0
  0
LINE
  5
B9
330
1F
100
AcDbEntity
  8
Crea2D$visibili$linee
100
AcDbLine
 10
49.80437118830215
 20
19.73964077674872
 30
0.0
 11
49.80759759019559
 21
19.73107647374177
 31
0.0
  0
LINE
  5
BA
330
1F
100
AcDbEntity
  8
Crea2D$visibili$linee
100
AcDbLine
 10
49.80759759019559
 20
19.73107647374177
 30
0.0
 11
49.81098016555542
 21
19.72255287895445
 31
0.0
  0
LINE
  5
BB
330
1F
100
AcDbEntity
  8
Crea2D$visibili$linee
100
AcDbLine
 10
49.81098016555542
 20
19.72255287895445
 30
0.0
 11
49.81820587530144
 21
19.70563475777821
 31
0.0
  0
LINE
  5
BC
330
1F
100
AcDbEntity
  8
Crea2D$visibili$linee
100
AcDbLine
 10
49.81820587530144
 20
19.70563475777821
 30
0.0
 11
49.82603186840804
 21
19.68889991619371
 31
0.0
  0
LINE
  5
BD
330
1F
100
AcDbEntity
  8
Crea2D$visibili$linee
100
AcDbLine
 10
49.82603186840804
 20
19.68889991619371
 30
0.0
 11
49.83444090575606
 21
19.67236122366228
 31
0.0
  0
LINE
  5
BE
330
1F
100
AcDbEntity
  8
Crea2D$visibili$linee
100
AcDbLine
 10
49.83444090575606
 20
19.67236122366228
 30
0.0
 11
49.84341503380088
 21
19.65603089287052
 31
0.0
  0
LINE
  5
BF
330
1F
100
AcDbEntity
  8
Crea2D$visibili$linee
100
AcDbLine
 10
49.84341503380088
 20
19.65603089287052
 30
0.0
 11
49.85293566096686
 21
19.63992046031648
 31
0.0
  0
LINE
  5
C0
330
1F
100
AcDbEntity
  8
Crea2D$visibili$linee
100
AcDbLine
 10
49.85293566096686
 20
19.63992046031648
 30
0.0
 11
49.86298363434443
 21
19.62404077071861
 31
0.0
  0
LINE
  5
C1
330
1F
100
AcDbEntity
  8
Crea2D$visibili$linee
100
AcDbLine
 10
49.86298363434443
 20
19.62404077071861
 30
0.0
 11
49.87353931618103
 21
19.60840196518932
 31
0.0
  0
LINE
  5
C2
330
1F
100
AcDbEntity
  8
Crea2D$visibili$linee
100
AcDbLine
 10
49.87353931618103
 20
19.60840196518932
 30
0.0
 11
49.88458265968376
 21
19.59301347308628
 31
0.0
  0
LINE
  5
C3
330
1F
100
AcDbEntity
  8
Crea2D$visibili$linee
100
AcDbLine
 10
49.88458265968376
 20
19.59301347308628
 30
0.0
 11
49.89609328368157
 21
19.57788400742696
 31
0.0
  0
LINE
  5
C4
330
1F
100
AcDbEntity
  8
Crea2D$visibili$linee
100
AcDbLine
 10
49.89609328368157
 20
19.57788400742696
 30
0.0
 11
49.90805054572816
 21
19.56302156372858
 31
0.0
  0
LINE
  5
C5
330
1F
100
AcDbEntity
  8
Crea2D$visibili$linee
100
AcDbLine
 10
49.90805054572816
 20
19.56302156372858
 30
0.0
 11
49.92043361326288
 21
19.54843342211388
 31
0.0
  0
LINE
  5
C6
330
1F
100
AcDbEntity
  8
Crea2D$visibili$linee
100
AcDbLine
 10
49.92043361326288
 20
19.54843342211388
 30
0.0
 11
49.93322153248404
 21
19.53412615250534
 31
0.0
  0
LINE
  5
C7
330
1F
100
AcDbEntity
  8
Crea2D$visibili$linee
100
AcDbLine
 10
49.93322153248404
 20
19.53412615250534
 30
0.0
 11
49.94639329462843
 21
19.52010562271536
 31
0.0
  0
LINE
  5
C8
330
1F
100
AcDbEntity
  8
Crea2D$visibili$linee
100
AcDbLine
 10
49.94639329462843
 20
19.52010562271536
 30
0.0
 11
49.95992789939042
 21
19.50637700922763
 31
0.0
  0
LINE
  5
C9
330
1F
100
AcDbEntity
  8
Crea2D$visibili$linee
100
AcDbLine
 10
49.95992789939042
 20
19.50637700922763
 30
0.0
 11
49.97380441525319
 21
19.49294481045608
 31
0.0
  0
LINE
  5
CA
330
1F
100
AcDbEntity
  8
Crea2D$visibili$linee
100
AcDbLine
 10
49.97380441525319
 20
19.49294481045608
 30
0.0
 11
49.98800203654453
 21
19.47981286226127
 31
0.0
  0
LINE
  5
CB
330
1F
100
AcDbEntity
  8
Crea2D$visibili$linee
100
AcDbLine
 10
49.98800203654453
 20
19.47981286226127
 30
0.0
 11
50.00263539950703
 21
19.4668672755906
 31
0.0
  0
LINE
  5
CC
330
1F
100
AcDbEntity
  8
Crea2D$visibili$linee
100
AcDbLine
 10
50.00263539950703
 20
19.4668672755906
 30
0.0
 11
50.01783461529628
 21
19.45400078339676
 31
0.0
  0
LINE
  5
CD
330
1F
100
AcDbEntity
  8
Crea2D$visibili$linee
100
AcDbLine
 10
50.01783461529628
 20
19.45400078339676
 30
0.0
 11
50.03360153429611
 21
19.44122692232945
 31
0.0
  0
LINE
  5
CE
330
1F
100
AcDbEntity
  8
Crea2D$visibili$linee
100
AcDbLine
 10
50.03360153429611
 20
19.44122692232945
 30
0.0
 11
50.04993705890793
 21
19.42855954807041
 31
0.0
  0
LINE
  5
CF
330
1F
100
AcDbEntity
  8
Crea2D$visibili$linee
100
AcDbLine
 10
50.04993705890793
 20
19.42855954807041
 30
0.0
 11
50.06684109878811
 21
19.41601280788894
 31
0.0
  0
LINE
  5
D0
330
1F
100
AcDbEntity
  8
Crea2D$visibili$linee
100
AcDbLine
 10
50.06684109878811
 20
19.41601280788894
 30
0.0
 11
50.08431252823055
 21
19.40360111042605
 31
0.0
  0
LINE
  5
D1
330
1F
100
AcDbEntity
  8
Crea2D$visibili$linee
100
AcDbLine
 10
50.08431252823055
 20
19.40360111042605
 30
0.0
 11
50.10234914609802
 21
19.39133909273173
 31
0.0
  0
LINE
  5
D2
330
1F
100
AcDbEntity
  8
Crea2D$visibili$linee
100
AcDbLine
 10
50.10234914609802
 20
19.39133909273173
 30
0.0
 11
50.12094763871203
 21
19.37924158460532
 31
0.0
  0
LINE
  5
D3
330
1F
100
AcDbEntity
  8
Crea2D$visibili$linee
100
AcDbLine
 10
50.12094763871203
 20
19.37924158460532
 30
0.0
 11
50.14010354611265
 21
19.36732357031566
 31
0.0
  0
LINE
  5
D4
330
1F
100
AcDbEntity
  8
Crea2D$visibili$linee
100
AcDbLine
 10
50.14010354611265
 20
19.36732357031566
 30
0.0
 11
50.15981123209677
 21
19.35560014780532
 31
0.0
  0
LINE
  5
D5
330
1F
100
AcDbEntity
  8
Crea2D$visibili$linee
100
AcDbLine
 10
50.15981123209677
 20
19.35560014780532
 30
0.0
 11
50.18006385843655
 21
19.34408648551223
 31
0.0
  0
LINE
  5
D6
330
1F
100
AcDbEntity
  8
Crea2D$visibili$linee
100
AcDbLine
 10
50.18006385843655
 20
19.34408648551223
 30
0.0
 11
50.20085336366616
 21
19.332797776971
 31
0.0
  0
LINE
  5
D7
330
1F
100
AcDbEntity
  8
Crea2D$visibili$linee
100
AcDbLine
 10
50.20085336366616
 20
19.332797776971
 30
0.0
 11
50.22217044680801
 21
19.3217491933855
 31
0.0
  0
LINE
  5
D8
330
1F
100
AcDbEntity
  8
Crea2D$visibili$linee
100
AcDbLine
 10
50.22217044680801
 20
19.3217491933855
 30
0.0
 11
50.2440045563859
 21
19.31095583439326
 31
0.0
  0
LINE
  5
D9
330
1F
100
AcDbEntity
  8
Crea2D$visibili$linee
100
AcDbLine
 10
50.2440045563859
 20
19.31095583439326
 30
0.0
 11
50.2663438850435
 21
19.30043267727046
 31
0.0
  0
LINE
  5
DA
330
1F
100
AcDbEntity
  8
Crea2D$visibili$linee
100
AcDbLine
 10
50.2663438850435
 20
19.30043267727046
 30
0.0
 11
50.28917537005316
 21
19.29019452485333
 31
0.0
  0
LINE
  5
DB
330
1F
100
AcDbEntity
  8
Crea2D$visibili$linee
100
AcDbLine
 10
50.28917537005316
 20
19.29019452485333
 30
0.0
 11
50.31248469995968
 21
19.28025595247714
 31
0.0
  0
LINE
  5
DC
330
1F
100
AcDbEntity
  8
Crea2D$visibili$linee
100
AcDbLine
 10
50.31248469995968
 20
19.28025595247714
 30
0.0
 11
50.33625632755966
 21
19.27063125425688
 31
0.0
  0
LINE
  5
DD
330
1F
100
AcDbEntity
  8
Crea2D$visibili$linee
100
AcDbLine
 10
50.33625632755966
 20
19.27063125425688
 30
0.0
 11
50.36047348936794
 21
19.26133438905475
 31
0.0
  0
LINE
  5
DE
330
1F
100
AcDbEntity
  8
Crea2D$visibili$linee
100
AcDbLine
 10
50.36047348936794
 20
19.26133438905475
 30
0.0
 11
50.38511823166867
 21
19.25237892649653
 31
0.0
  0
LINE
  5
DF
330
1F
100
AcDbEntity
  8
Crea2D$visibili$linee
100
AcDbLine
 10
50.38511823166867
 20
19.25237892649653
 30
0.0
 11
50.41017144319216
 21
19.24377799341324
 31
0.0
  0
LINE
  5
E0
330
1F
100
AcDbEntity
  8
Crea2D$visibili$linee
100
AcDbLine
 10
50.41017144319216
 20
19.24377799341324
 30
0.0
 11
50.43561289439842
 21
19.23554422109442
 31
0.0
  0
LINE
  5
E1
330
1F
100
AcDbEntity
  8
Crea2D$visibili$linee
100
AcDbLine
 10
50.43561289439842
 20
19.23554422109442
 30
0.0
 11
50.48757428758039
 21
19.22022589854097
 31
0.0
  0
LINE
  5
E2
330
1F
100
AcDbEntity
  8
Crea2D$visibili$linee
100
AcDbLine
 10
50.48757428758039
 20
19.22022589854097
 30
0.0
 11
50.54082010799499
 21
19.20651318274199
 31
0.0
  0
LINE
  5
E3
330
1F
100
AcDbEntity
  8
Crea2D$visibili$linee
100
AcDbLine
 10
50.54082010799499
 20
19.20651318274199
 30
0.0
 11
50.59515373444234
 21
19.19448427028669
 31
0.0
  0
LINE
  5
E4
330
1F
100
AcDbEntity
  8
Crea2D$visibili$linee
100
AcDbLine
 10
50.59515373444234
 20
19.19448427028669
 30
0.0
 11
50.65036653808398
 21
19.18420501415664
 31
0.0
  0
LINE
  5
E5
330
1F
100
AcDbEntity
  8
Crea2D$visibili$linee
100
AcDbLine
 10
50.65036653808398
 20
19.18420501415664
 30
0.0
 11
50.70624049236652
 21
19.17572782497597
 31
0.0
  0
LINE
  5
E6
330
1F
100
AcDbEntity
  8
Crea2D$visibili$linee
100
AcDbLine
 10
50.70624049236652
 20
19.17572782497597
 30
0.0
 11
50.76255101577721
 21
19.16909082609747
 31
0.0
  0
LINE
  5
E7
330
1F
100
AcDbEntity
  8
Crea2D$visibili$linee
100
AcDbLine
 10
50.76255101577721
 20
19.16909082609747
 30
0.0
 11
50.81906997045287
 21
19.16431729004808
 31
0.0
  0
LINE
  5
E8
330
1F
100
AcDbEntity
  8
Crea2D$visibili$linee
100
AcDbLine
 10
50.81906997045287
 20
19.16431729004808
 30
0.0
 11
50.87556873296414
 21
19.16141537359494
 31
0.0
  0
LINE
  5
E9
330
1F
100
AcDbEntity
  8
Crea2D$visibili$linee
100
AcDbLine
 10
50.87556873296414
 20
19.16141537359494
 30
0.0
 11
50.93182125087575
 21
19.16037815753688
 31
0.0
  0
LINE
  5
EA
330
1F
100
AcDbEntity
  8
Crea2D$visibili$linee
100
AcDbLine
 10
50.93182125087575
 20
19.16037815753688
 30
0.0
 11
50.98760700010482
 21
19.16118398594161
 31
0.0
  0
LINE
  5
EB
330
1F
100
AcDbEntity
  8
Crea2D$visibili$linee
100
AcDbLine
 10
50.98760700010482
 20
19.16118398594161
 30
0.0
 11
51.04271376352627
 21
19.16379708861307
 31
0.0
  0
LINE
  5
EC
330
1F
100
AcDbEntity
  8
Crea2D$visibili$linee
100
AcDbLine
 10
51.04271376352627
 20
19.16379708861307
 30
0.0
 11
51.09694016028367
 21
19.16816846071825
 31
0.0
  0
LINE
  5
ED
330
1F
100
AcDbEntity
  8
Crea2D$visibili$linee
100
AcDbLine
 10
51.09694016028367
 20
19.16816846071825
 30
0.0
 11
51.15009786719487
 21
19.17423696526105
 31
0.0
  0
LINE
  5
EE
330
1F
100
AcDbEntity
  8
Crea2D$visibili$linee
100
AcDbLine
 10
51.15009786719487
 20
19.17423696526105
 30
0.0
 11
51.20201348765671
 21
19.18193061785258
 31
0.0
  0
LINE
  5
EF
330
1F
100
AcDbEntity
  8
Crea2D$visibili$linee
100
AcDbLine
 10
51.20201348765671
 20
19.18193061785258
 30
0.0
 11
51.25253003862614
 21
19.19116800922529
 31
0.0
  0
LINE
  5
F0
330
1F
100
AcDbEntity
  8
Crea2D$visibili$linee
100
AcDbLine
 10
51.25253003862614
 20
19.19116800922529
 30
0.0
 11
51.30150804164582
 21
19.20185981922626
 31
0.0
  0
LINE
  5
F1
330
1F
100
AcDbEntity
  8
Crea2D$visibili$linee
100
AcDbLine
 10
51.30150804164582
 20
19.20185981922626
 30
0.0
 11
51.34882621862102
 21
19.21391037650551
 31
0.0
  0
LINE
  5
F2
330
1F
100
AcDbEntity
  8
Crea2D$visibili$linee
100
AcDbLine
 10
51.34882621862102
 20
19.21391037650551
 30
0.0
 11
51.37183003445265
 21
19.22041393642848
 31
0.0
  0
LINE
  5
F3
330
1F
100
AcDbEntity
  8
Crea2D$visibili$linee
100
AcDbLine
 10
51.37183003445265
 20
19.22041393642848
 30
0.0
 11
51.39438180640166
 21
19.2272192205462
 31
0.0
  0
LINE
  5
F4
330
1F
100
AcDbEntity
  8
Crea2D$visibili$linee
100
AcDbLine
 10
51.39438180640166
 20
19.2272192205462
 30
0.0
 11
51.41647157516921
 21
19.23431317328628
 31
0.0
  0
LINE
  5
F5
330
1F
100
AcDbEntity
  8
Crea2D$visibili$linee
100
AcDbLine
 10
51.41647157516921
 20
19.23431317328628
 30
0.0
 11
51.43809051560932
 21
19.24168262672955
 31
0.0
  0
LINE
  5
F6
330
1F
100
AcDbEntity
  8
Crea2D$visibili$linee
100
AcDbLine
 10
51.43809051560932
 20
19.24168262672955
 30
0.0
 11
51.45923091848843
 21
19.24931434391277
 31
0.0
  0
LINE
  5
F7
330
1F
100
AcDbEntity
  8
Crea2D$visibili$linee
100
AcDbLine
 10
51.45923091848843
 20
19.24931434391277
 30
0.0
 11
51.47988616820526
 21
19.25719506038362
 31
0.0
  0
LINE
  5
F8
330
1F
100
AcDbEntity
  8
Crea2D$visibili$linee
100
AcDbLine
 10
51.47988616820526
 20
19.25719506038362
 30
0.0
 11
51.50005071683217
 21
19.26531152385214
 31
0.0
  0
LINE
  5
F9
330
1F
100
AcDbEntity
  8
Crea2D$visibili$linee
100
AcDbLine
 10
51.50005071683217
 20
19.26531152385214
 30
0.0
 11
51.51972005484545
 21
19.27365053180794
 31
0.0
  0
LINE
  5
FA
330
1F
100
AcDbEntity
  8
Crea2D$visibili$linee
100
AcDbLine
 10
51.51972005484545
 20
19.27365053180794
 30
0.0
 11
51.53906543349862
 21
19.28227886838523
 31
0.0
  0
LINE
  5
FB
330
1F
100
AcDbEntity
  8
Crea2D$visibili$linee
100
AcDbLine
 10
51.53906543349862
 20
19.28227886838523
 30
0.0
 11
51.55824660029314
 21
19.29127359487335
 31
0.0
  0
LINE
  5
FC
330
1F
100
AcDbEntity
  8
Crea2D$visibili$linee
100
AcDbLine
 10
51.55824660029314
 20
19.29127359487335
 30
0.0
 11
51.57724220580227
 21
19.30063655822629
 31
0.0
  0
LINE
  5
FD
330
1F
100
AcDbEntity
  8
Crea2D$visibili$linee
100
AcDbLine
 10
51.57724220580227
 20
19.30063655822629
 30
0.0
 11
51.59603047644004
 21
19.31036901414907
 31
0.0
  0
LINE
  5
FE
330
1F
100
AcDbEntity
  8
Crea2D$visibili$linee
100
AcDbLine
 10
51.59603047644004
 20
19.31036901414907
 30
0.0
 11
51.61458926110764
 21
19.32047159742855
 31
0.0
  0
LINE
  5
FF
330
1F
100
AcDbEntity
  8
Crea2D$visibili$linee
100
AcDbLine
 10
51.61458926110764
 20
19.32047159742855
 30
0.0
 11
51.63289608197974
 21
19.33094429353117
 31
0.0
  0
LINE
  5
100
330
1F
100
AcDbEntity
  8
Crea2D$visibili$linee
100
AcDbLine
 10
51.63289608197974
 20
19.33094429353117
 30
0.0
 11
51.65092818935504
 21
19.34178641172533
 31
0.0
  0
LINE
  5
101
330
1F
100
AcDbEntity
  8
Crea2D$visibili$linee
100
AcDbLine
 10
51.65092818935504
 20
19.34178641172533
 30
0.0
 11
51.66866262045608
 21
19.35299655999065
 31
0.0
  0
LINE
  5
102
330
1F
100
AcDbEntity
  8
Crea2D$visibili$linee
100
AcDbLine
 10
51.66866262045608
 20
19.35299655999065
 30
0.0
 11
51.68607626202071
 21
19.3645726219781
 31
0.0
  0
LINE
  5
103
330
1F
100
AcDbEntity
  8
Crea2D$visibili$linee
100
AcDbLine
 10
51.68607626202071
 20
19.3645726219781
 30
0.0
 11
51.70314591648527
 21
19.37651173628414
 31
0.0
  0
LINE
  5
104
330
1F
100
AcDbEntity
  8
Crea2D$visibili$linee
100
AcDbLine
 10
51.70314591648527
 20
19.37651173628414
 30
0.0
 11
51.71984837151519
 21
19.38881027829801
 31
0.0
  0
LINE
  5
105
330
1F
100
AcDbEntity
  8
Crea2D$visibili$linee
100
AcDbLine
 10
51.71984837151519
 20
19.38881027829801
 30
0.0
 11
51.73616047259457
 21
19.40146384487427
 31
0.0
  0
LINE
  5
106
330
1F
100
AcDbEntity
  8
Crea2D$visibili$linee
100
AcDbLine
 10
51.73616047259457
 20
19.40146384487427
 30
0.0
 11
51.75205919834312
 21
19.41446724207172
 31
0.0
  0
LINE
  5
107
330
1F
100
AcDbEntity
  8
Crea2D$visibili$linee
100
AcDbLine
 10
51.75205919834312
 20
19.41446724207172
 30
0.0
 11
51.76752173818524
 21
19.42781447618655
 31
0.0
  0
LINE
  5
108
330
1F
100
AcDbEntity
  8
Crea2D$visibili$linee
100
AcDbLine
 10
51.76752173818524
 20
19.42781447618655
 30
0.0
 11
51.78252557195553
 21
19.44149874828931
 31
0.0
  0
LINE
  5
109
330
1F
100
AcDbEntity
  8
Crea2D$visibili$linee
100
AcDbLine
 10
51.78252557195553
 20
19.44149874828931
 30
0.0
 11
51.79704855098647
 21
19.45551245245514
 31
0.0
  0
LINE
  5
10A
330
1F
100
AcDbEntity
  8
Crea2D$visibili$linee
100
AcDbLine
 10
51.79704855098647
 20
19.45551245245514
 30
0.0
 11
51.81106898018793
 21
19.4698471778518
 31
0.0
  0
LINE
  5
10B
330
1F
100
AcDbEntity
  8
Crea2D$visibili$linee
100
AcDbLine
 10
51.81106898018793
 20
19.4698471778518
 30
0.0
 11
51.82456570059698
 21
19.48449371482285
 31
0.0
  0
LINE
  5
10C
330
1F
100
AcDbEntity
  8
Crea2D$visibili$linee
100
AcDbLine
 10
51.82456570059698
 20
19.48449371482285
 30
0.0
 11
51.83751817184941
 21
19.49944206507282
 31
0.0
  0
LINE
  5
10D
330
1F
100
AcDbEntity
  8
Crea2D$visibili$linee
100
AcDbLine
 10
51.83751817184941
 20
19.49944206507282
 30
0.0
 11
51.84990655400201
 21
19.51468145602761
 31
0.0
  0
LINE
  5
10E
330
1F
100
AcDbEntity
  8
Crea2D$visibili$linee
100
AcDbLine
 10
51.84990655400201
 20
19.51468145602761
 30
0.0
 11
51.86171178811847
 21
19.5302003594081
 31
0.0
  0
LINE
  5
10F
330
1F
100
AcDbEntity
  8
Crea2D$visibili$linee
100
AcDbLine
 10
51.86171178811847
 20
19.5302003594081
 30
0.0
 11
51.87291567502256
 21
19.54598651401737
 31
0.0
  0
LINE
  5
110
330
1F
100
AcDbEntity
  8
Crea2D$visibili$linee
100
AcDbLine
 10
51.87291567502256
 20
19.54598651401737
 30
0.0
 11
51.88350095161828
 21
19.56202695270238
 31
0.0
  0
LINE
  5
111
330
1F
100
AcDbEntity
  8
Crea2D$visibili$linee
100
AcDbLine
 10
51.88350095161828
 20
19.56202695270238
 30
0.0
 11
51.88855649040047
 21
19.57013829086397
 31
0.0
  0
LINE
  5
112
330
1F
100
AcDbEntity
  8
Crea2D$visibili$linee
100
AcDbLine
 10
51.88855649040047
 20
19.57013829086397
 30
0.0
 11
51.89345136418079
 21
19.57830803341155
 31
0.0
  0
LINE
  5
113
330
1F
100
AcDbEntity
  8
Crea2D$visibili$linee
100
AcDbLine
 10
51.89345136418079
 20
19.57830803341155
 30
0.0
 11
51.8981837103909
 21
19.58653437538402
 31
0.0
  0
LINE
  5
114
330
1F
100
AcDbEntity
  8
Crea2D$visibili$linee
100
AcDbLine
 10
51.8981837103909
 20
19.58653437538402
 30
0.0
 11
51.9027517380334
 21
19.59481547422866
 31
0.0
  0
LINE
  5
115
330
1F
100
AcDbEntity
  8
Crea2D$visibili$linee
100
AcDbLine
 10
51.9027517380334
 20
19.59481547422866
 30
0.0
 11
51.90715372962206
 21
19.60314945110167
 31
0.0
  0
LINE
  5
116
330
1F
100
AcDbEntity
  8
Crea2D$visibili$linee
100
AcDbLine
 10
51.90715372962206
 20
19.60314945110167
 30
0.0
 11
51.91138804304406
 21
19.61153439222378
 31
0.0
  0
LINE
  5
117
330
1F
100
AcDbEntity
  8
Crea2D$visibili$linee
100
AcDbLine
 10
51.91138804304406
 20
19.61153439222378
 30
0.0
 11
51.91545311334045
 21
19.61996835028859
 31
0.0
  0
LINE
  5
118
330
1F
100
AcDbEntity
  8
Crea2D$visibili$linee
100
AcDbLine
 10
51.91545311334045
 20
19.61996835028859
 30
0.0
 11
51.91934745440098
 21
19.62844934592192
 31
0.0
  0
LINE
  5
119
330
1F
100
AcDbEntity
  8
Crea2D$visibili$linee
100
AcDbLine
 10
51.91934745440098
 20
19.62844934592192
 30
0.0
 11
51.92306966057003
 21
19.63697536918975
 31
0.0
  0
LINE
  5
11A
330
1F
100
AcDbEntity
  8
Crea2D$visibili$linee
100
AcDbLine
 10
51.92306966057003
 20
19.63697536918975
 30
0.0
 11
51.92661840815966
 21
19.64554438115246
 31
0.0
  0
LINE
  5
11B
330
1F
100
AcDbEntity
  8
Crea2D$visibili$linee
100
AcDbLine
 10
51.92661840815966
 20
19.64554438115246
 30
0.0
 11
51.92999245686719
 21
19.65415431546297
 31
0.0
  0
LINE
  5
11C
330
1F
100
AcDbEntity
  8
Crea2D$visibili$linee
100
AcDbLine
 10
51.92999245686719
 20
19.65415431546297
 30
0.0
 11
51.93319065109392
 21
19.66280308000616
 31
0.0
  0
LINE
  5
11D
330
1F
100
AcDbEntity
  8
Crea2D$visibili$linee
100
AcDbLine
 10
51.93319065109392
 20
19.66280308000616
 30
0.0
 11
51.93621192116239
 21
19.67148855857682
 31
0.0
  0
LINE
  5
11E
330
1F
100
AcDbEntity
  8
Crea2D$visibili$linee
100
AcDbLine
 10
51.93621192116239
 20
19.67148855857682
 30
0.0
 11
51.93905528442954
 21
19.68020861259345
 31
0.0
  0
LINE
  5
11F
330
1F
100
AcDbEntity
  8
Crea2D$visibili$linee
100
AcDbLine
 10
51.93905528442954
 20
19.68020861259345
 30
0.0
 11
51.94171984629331
 21
19.68896108284488
 31
0.0
  0
LINE
  5
120
330
1F
100
AcDbEntity
  8
Crea2D$visibili$linee
100
AcDbLine
 10
51.94171984629331
 20
19.68896108284488
 30
0.0
 11
51.94420480109112
 21
19.69774379126694
 31
0.0
  0
LINE
  5
121
330
1F
100
AcDbEntity
  8
Crea2D$visibili$linee
100
AcDbLine
 10
51.94420480109112
 20
19.69774379126694
 30
0.0
 11
51.94650943288755
 21
19.70655454274582
 31
0.0
  0
LINE
  5
122
330
1F
100
AcDbEntity
  8
Crea2D$visibili$linee
100
AcDbLine
 10
51.94650943288755
 20
19.70655454274582
 30
0.0
 11
51.94863311615045
 21
19.71539112694526
 31
0.0
  0
LINE
  5
123
330
1F
100
AcDbEntity
  8
Crea2D$visibili$linee
100
AcDbLine
 10
51.94863311615045
 20
19.71539112694526
 30
0.0
 11
51.95057531631367
 21
19.72425132015428
 31
0.0
  0
LINE
  5
124
330
1F
100
AcDbEntity
  8
Crea2D$visibili$linee
100
AcDbLine
 10
51.95057531631367
 20
19.72425132015428
 30
0.0
 11
51.95233559022551
 21
19.73313288715214
 31
0.0
  0
LINE
  5
125
330
1F
100
AcDbEntity
  8
Crea2D$visibili$linee
100
AcDbLine
 10
51.95233559022551
 20
19.73313288715214
 30
0.0
 11
51.95391358648209
 21
19.74203358308739
 31
0.0
  0
LINE
  5
126
330
1F
100
AcDbEntity
  8
Crea2D$visibili$linee
100
AcDbLine
 10
51.95391358648209
 20
19.74203358308739
 30
0.0
 11
51.9553090456451
 21
19.75095115536752
 31
0.0
  0
LINE
  5
127
330
1F
100
AcDbEntity
  8
Crea2D$visibili$linee
100
AcDbLine
 10
51.9553090456451
 20
19.75095115536752
 30
0.0
 11
51.95652180034371
 21
19.75988334555605
 31
0.0
  0
LINE
  5
128
330
1F
100
AcDbEntity
  8
Crea2D$visibili$linee
100
AcDbLine
 10
51.95652180034371
 20
19.75988334555605
 30
0.0
 11
51.95755177526071
 21
19.7688278912736
 31
0.0
  0
LINE
  5
129
330
1F
100
AcDbEntity
  8
Crea2D$visibili$linee
100
AcDbLine
 10
51.95755177526071
 20
19.7688278912736
 30
0.0
 11
51.95839898700295
 21
19.7777825280996
 31
0.0
  0
LINE
  5
12A
330
1F
100
AcDbEntity
  8
Crea2D$visibili$linee
100
AcDbLine
 10
51.95839898700295
 20
19.7777825280996
 30
0.0
 11
51.95906354385702
 21
19.78674499147131
 31
0.0
  0
LINE
  5
12B
330
1F
100
AcDbEntity
  8
Crea2D$visibili$linee
100
AcDbLine
 10
51.95906354385702
 20
19.78674499147131
 30
0.0
 11
51.95954564543063
 21
19.7957130185769
 31
0.0
  0
LINE
  5
12C
330
1F
100
AcDbEntity
  8
Crea2D$visibili$linee
100
AcDbLine
 10
51.95954564543063
 20
19.7957130185769
 30
0.0
 11
51.95984558218099
 21
19.8046843502391
 31
0.0
  0
LINE
  5
12D
330
1F
100
AcDbEntity
  8
Crea2D$visibili$linee
100
AcDbLine
 10
51.95984558218099
 20
19.8046843502391
 30
0.0
 11
51.95996373483164
 21
19.81365673278646
 31
0.0
  0
LINE
  5
12E
330
1F
100
AcDbEntity
  8
Crea2D$visibili$linee
100
AcDbLine
 10
51.95996373483164
 20
19.81365673278646
 30
0.0
 11
51.95990057367893
 21
19.82262791990864
 31
0.0
  0
LINE
  5
12F
330
1F
100
AcDbEntity
  8
Crea2D$visibili$linee
100
AcDbLine
 10
51.95990057367893
 20
19.82262791990864
 30
0.0
 11
51.95965665779059
 21
19.83159567449297
 31
0.0
  0
LINE
  5
130
330
1F
100
AcDbEntity
  8
Crea2D$visibili$linee
100
AcDbLine
 10
51.95965665779059
 20
19.83159567449297
 30
0.0
 11
51.95923263409785
 21
19.84055777043886
 31
0.0
  0
LINE
  5
131
330
1F
100
AcDbEntity
  8
Crea2D$visibili$linee
100
AcDbLine
 10
51.95923263409785
 20
19.84055777043886
 30
0.0
 11
51.95862923638403
 21
19.8495119944473
 31
0.0
  0
LINE
  5
132
330
1F
100
AcDbEntity
  8
Crea2D$visibili$linee
100
AcDbLine
 10
51.95862923638403
 20
19.8495119944473
 30
0.0
 11
51.95784728417171
 21
19.85845614778229
 31
0.0
  0
LINE
  5
133
330
1F
100
AcDbEntity
  8
Crea2D$visibili$linee
100
AcDbLine
 10
51.95784728417171
 20
19.85845614778229
 30
0.0
 11
51.95688768151141
 21
19.86738804800161
 31
0.0
  0
LINE
  5
134
330
1F
100
AcDbEntity
  8
Crea2D$visibili$linee
100
AcDbLine
 10
51.95688768151141
 20
19.86738804800161
 30
0.0
 11
51.95575141567474
 21
19.87630553065399
 31
0.0
  0
LINE
  5
135
330
1F
100
AcDbEntity
  8
Crea2D$visibili$linee
100
AcDbLine
 10
51.95575141567474
 20
19.87630553065399
 30
0.0
 11
51.95443955575518
 21
19.88520645094016
 31
0.0
  0
LINE
  5
136
330
1F
100
AcDbEntity
  8
Crea2D$visibili$linee
100
AcDbLine
 10
51.95443955575518
 20
19.88520645094016
 30
0.0
 11
51.95295325117969
 21
19.89408868533521
 31
0.0
  0
LINE
  5
137
330
1F
100
AcDbEntity
  8
Crea2D$visibili$linee
100
AcDbLine
 10
51.95295325117969
 20
19.89408868533521
 30
0.0
 11
51.95129373013496
 21
19.90295013316985
 31
0.0
  0
LINE
  5
138
330
1F
100
AcDbEntity
  8
Crea2D$visibili$linee
100
AcDbLine
 10
51.95129373013496
 20
19.90295013316985
 30
0.0
 11
51.94946229791139
 21
19.91178871816834
 31
0.0
  0
LINE
  5
139
330
1F
100
AcDbEntity
  8
Crea2D$visibili$linee
100
AcDbLine
 10
51.94946229791139
 20
19.91178871816834
 30
0.0
 11
51.94746033516941
 21
19.92060238994095
 31
0.0
  0
LINE
  5
13A
330
1F
100
AcDbEntity
  8
Crea2D$visibili$linee
100
AcDbLine
 10
51.94746033516941
 20
19.92060238994095
 30
0.0
 11
51.94528929613106
 21
19.92938912542876
 31
0.0
  0
LINE
  5
13B
330
1F
100
AcDbEntity
  8
Crea2D$visibili$linee
100
AcDbLine
 10
51.94528929613106
 20
19.92938912542876
 30
0.0
 11
51.9429507067018
 21
19.93814693029921
 31
0.0
  0
LINE
  5
13C
330
1F
100
AcDbEntity
  8
Crea2D$visibili$linee
100
AcDbLine
 10
51.9429507067018
 20
19.93814693029921
 30
0.0
 11
51.94044616252603
 21
19.9468738402904
 31
0.0
  0
LINE
  5
13D
330
1F
100
AcDbEntity
  8
Crea2D$visibili$linee
100
AcDbLine
 10
51.94044616252603
 20
19.9468738402904
 30
0.0
 11
51.93777732698102
 21
19.95556792250271
 31
0.0
  0
LINE
  5
13E
330
1F
100
AcDbEntity
  8
Crea2D$visibili$linee
100
AcDbLine
 10
51.93777732698102
 20
19.95556792250271
 30
0.0
 11
51.93494592911306
 21
19.96422727663615
 31
0.0
  0
LINE
  5
13F
330
1F
100
AcDbEntity
  8
Crea2D$visibili$linee
100
AcDbLine
 10
51.93494592911306
 20
19.96422727663615
 30
0.0
 11
51.93195376152059
 21
19.9728500361723
 31
0.0
  0
LINE
  5
140
330
1F
100
AcDbEntity
  8
Crea2D$visibili$linee
100
AcDbLine
 10
51.93195376152059
 20
19.9728500361723
 30
0.0
 11
51.92880267818853
 21
19.9814343694995
 31
0.0
  0
LINE
  5
141
330
1F
100
AcDbEntity
  8
Crea2D$visibili$linee
100
AcDbLine
 10
51.92880267818853
 20
19.9814343694995
 30
0.0
 11
51.92203147387786
 21
19.99848061196131
 31
0.0
  0
LINE
  5
142
330
1F
100
AcDbEntity
  8
Crea2D$visibili$linee
100
AcDbLine
 10
51.92203147387786
 20
19.99848061196131
 30
0.0
 11
51.91464829084819
 21
20.01535208836305
 31
0.0
  0
LINE
  5
143
330
1F
100
AcDbEntity
  8
Crea2D$visibili$linee
100
AcDbLine
 10
51.91464829084819
 20
20.01535208836305
 30
0.0
 11
51.9066699407532
 21
20.03203550373569
 31
0.0
  0
LINE
  5
144
330
1F
100
AcDbEntity
  8
Crea2D$visibili$linee
100
AcDbLine
 10
51.9066699407532
 20
20.03203550373569
 30
0.0
 11
51.89811399697703
 21
20.04851820938077
 31
0.0
  0
LINE
  5
145
330
1F
100
AcDbEntity
  8
Crea2D$visibili$linee
100
AcDbLine
 10
51.89811399697703
 20
20.04851820938077
 30
0.0
 11
51.88899871823608
 21
20.06478822457672
 31
0.0
  0
LINE
  5
146
330
1F
100
AcDbEntity
  8
Crea2D$visibili$linee
100
AcDbLine
 10
51.88899871823608
 20
20.06478822457672
 30
0.0
 11
51.87934297158353
 21
20.08083425441825
 31
0.0
  0
LINE
  5
147
330
1F
100
AcDbEntity
  8
Crea2D$visibili$linee
100
AcDbLine
 10
51.87934297158353
 20
20.08083425441825
 30
0.0
 11
51.86916615534149
 21
20.09664570383014
 31
0.0
  0
LINE
  5
148
330
1F
100
AcDbEntity
  8
Crea2D$visibili$linee
100
AcDbLine
 10
51.86916615534149
 20
20.09664570383014
 30
0.0
 11
51.8584881224623
 21
20.11221268782748
 31
0.0
  0
LINE
  5
149
330
1F
100
AcDbEntity
  8
Crea2D$visibili$linee
100
AcDbLine
 10
51.8584881224623
 20
20.11221268782748
 30
0.0
 11
51.84732910479112
 21
20.12752603812309
 31
0.0
  0
LINE
  5
14A
330
1F
100
AcDbEntity
  8
Crea2D$visibili$linee
100
AcDbLine
 10
51.84732910479112
 20
20.12752603812309
 30
0.0
 11
51.83570963867051
 21
20.14257730620868
 31
0.0
  0
LINE
  5
14B
330
1F
100
AcDbEntity
  8
Crea2D$visibili$linee
100
AcDbLine
 10
51.83570963867051
 20
20.14257730620868
 30
0.0
 11
51.82365049229256
 21
20.15735876305912
 31
0.0
  0
LINE
  5
14C
330
1F
100
AcDbEntity
  8
Crea2D$visibili$linee
100
AcDbLine
 10
51.82365049229256
 20
20.15735876305912
 30
0.0
 11
51.81117259516731
 21
20.17186339562922
 31
0.0
  0
LINE
  5
14D
330
1F
100
AcDbEntity
  8
Crea2D$visibili$linee
100
AcDbLine
 10
51.81117259516731
 20
20.17186339562922
 30
0.0
 11
51.79829697003707
 21
20.18608490032929
 31
0.0
  0
LINE
  5
14E
330
1F
100
AcDbEntity
  8
Crea2D$visibili$linee
100
AcDbLine
 10
51.79829697003707
 20
20.18608490032929
 30
0.0
 11
51.78504466752698
 21
20.20001767367929
 31
0.0
  0
LINE
  5
14F
330
1F
100
AcDbEntity
  8
Crea2D$visibili$linee
100
AcDbLine
 10
51.78504466752698
 20
20.20001767367929
 30
0.0
 11
51.77143670378196
 21
20.21365680035265
 31
0.0
  0
LINE
  5
150
330
1F
100
AcDbEntity
  8
Crea2D$visibili$linee
100
AcDbLine
 10
51.77143670378196
 20
20.21365680035265
 30
0.0
 11
51.7574940013003
 21
20.22699803882798
 31
0.0
  0
LINE
  5
151
330
1F
100
AcDbEntity
  8
Crea2D$visibili$linee
100
AcDbLine
 10
51.7574940013003
 20
20.22699803882798
 30
0.0
 11
51.74323733313544
 21
20.24003780487268
 31
0.0
  0
LINE
  5
152
330
1F
100
AcDbEntity
  8
Crea2D$visibili$linee
100
AcDbLine
 10
51.74323733313544
 20
20.24003780487268
 30
0.0
 11
51.72855156096573
 21
20.25288936864434
 31
0.0
  0
LINE
  5
153
330
1F
100
AcDbEntity
  8
Crea2D$visibili$linee
100
AcDbLine
 10
51.72855156096573
 20
20.25288936864434
 30
0.0
 11
51.71330629734608
 21
20.26565931567999
 31
0.0
  0
LINE
  5
154
330
1F
100
AcDbEntity
  8
Crea2D$visibili$linee
100
AcDbLine
 10
51.71330629734608
 20
20.26565931567999
 30
0.0
 11
51.69749997358174
 21
20.27833427379527
 31
0.0
  0
LINE
  5
155
330
1F
100
AcDbEntity
  8
Crea2D$visibili$linee
100
AcDbLine
 10
51.69749997358174
 20
20.27833427379527
 30
0.0
 11
51.68113195748538
 21
20.29090056676613
 31
0.0
  0
LINE
  5
156
330
1F
100
AcDbEntity
  8
Crea2D$visibili$linee
100
AcDbLine
 10
51.68113195748538
 20
20.29090056676613
 30
0.0
 11
51.66420259621359
 21
20.30334424165607
 31
0.0
  0
LINE
  5
157
330
1F
100
AcDbEntity
  8
Crea2D$visibili$linee
100
AcDbLine
 10
51.66420259621359
 20
20.30334424165607
 30
0.0
 11
51.64671325693251
 21
20.31565109880711
 31
0.0
  0
LINE
  5
158
330
1F
100
AcDbEntity
  8
Crea2D$visibili$linee
100
AcDbLine
 10
51.64671325693251
 20
20.31565109880711
 30
0.0
 11
51.62866636492482
 21
20.32780672446445
 31
0.0
  0
LINE
  5
159
330
1F
100
AcDbEntity
  8
Crea2D$visibili$linee
100
AcDbLine
 10
51.62866636492482
 20
20.32780672446445
 30
0.0
 11
51.61006543874523
 21
20.33979652598052
 31
0.0
  0
LINE
  5
15A
330
1F
100
AcDbEntity
  8
Crea2D$visibili$linee
100
AcDbLine
 10
51.61006543874523
 20
20.33979652598052
 30
0.0
 11
51.5909151220314
 21
20.35160576951804
 31
0.0
  0
LINE
  5
15B
330
1F
100
AcDbEntity
  8
Crea2D$visibili$linee
100
AcDbLine
 10
51.5909151220314
 20
20.35160576951804
 30
0.0
 11
51.57122121158064
 21
20.3632196201456
 31
0.0
  0
LINE
  5
15C
330
1F
100
AcDbEntity
  8
Crea2D$visibili$linee
100
AcDbLine
 10
51.57122121158064
 20
20.3632196201456
 30
0.0
 11
51.55099068131113
 21
20.37462318419113
 31
0.0
  0
LINE
  5
15D
330
1F
100
AcDbEntity
  8
Crea2D$visibili$linee
100
AcDbLine
 10
51.55099068131113
 20
20.37462318419113
 30
0.0
 11
51.5302317017397
 21
20.38580155369163
 31
0.0
  0
LINE
  5
15E
330
1F
100
AcDbEntity
  8
Crea2D$visibili$linee
100
AcDbLine
 10
51.5302317017397
 20
20.38580155369163
 30
0.0
 11
51.5089536546262
 21
20.39673985274907
 31
0.0
  0
LINE
  5
15F
330
1F
100
AcDbEntity
  8
Crea2D$visibili$linee
100
AcDbLine
 10
51.5089536546262
 20
20.39673985274907
 30
0.0
 11
51.48716714245812
 21
20.40742328557543
 31
0.0
  0
LINE
  5
160
330
1F
100
AcDbEntity
  8
Crea2D$visibili$linee
100
AcDbLine
 10
51.48716714245812
 20
20.40742328557543
 30
0.0
 11
51.4648839924774
 21
20.41783718598314
 31
0.0
  0
LINE
  5
161
330
1F
100
AcDbEntity
  8
Crea2D$visibili$linee
100
AcDbLine
 10
51.4648839924774
 20
20.41783718598314
 30
0.0
 11
51.44211725498506
 21
20.4279670680516
 31
0.0
  0
LINE
  5
162
330
1F
100
AcDbEntity
  8
Crea2D$visibili$linee
100
AcDbLine
 10
51.44211725498506
 20
20.4279670680516
 30
0.0
 11
51.41888119569804
 21
20.43779867767711
 31
0.0
  0
LINE
  5
163
330
1F
100
AcDbEntity
  8
Crea2D$visibili$linee
100
AcDbLine
 10
51.41888119569804
 20
20.43779867767711
 30
0.0
 11
51.39519128197562
 21
20.44731804469196
 31
0.0
  0
LINE
  5
164
330
1F
100
AcDbEntity
  8
Crea2D$visibili$linee
100
AcDbLine
 10
51.39519128197562
 20
20.44731804469196
 30
0.0
 11
51.3710641627804
 21
20.45651153521909
 31
0.0
  0
LINE
  5
165
330
1F
100
AcDbEntity
  8
Crea2D$visibili$linee
100
AcDbLine
 10
51.3710641627804
 20
20.45651153521909
 30
0.0
 11
51.34651764229065
 21
20.46536590391338
 31
0.0
  0
LINE
  5
166
330
1F
100
AcDbEntity
  8
Crea2D$visibili$linee
100
AcDbLine
 10
51.34651764229065
 20
20.46536590391338
 30
0.0
 11
51.32157064713513
 21
20.47386834572739
 31
0.0
  0
LINE
  5
167
330
1F
100
AcDbEntity
  8
Crea2D$visibili$linee
100
AcDbLine
 10
51.32157064713513
 20
20.47386834572739
 30
0.0
 11
51.29624318727913
 21
20.48200654683111
 31
0.0
  0
LINE
  5
168
330
1F
100
AcDbEntity
  8
Crea2D$visibili$linee
100
AcDbLine
 10
51.29624318727913
 20
20.48200654683111
 30
0.0
 11
51.24453205165027
 21
20.4971437242642
 31
0.0
  0
LINE
  5
169
330
1F
100
AcDbEntity
  8
Crea2D$visibili$linee
100
AcDbLine
 10
51.24453205165027
 20
20.4971437242642
 30
0.0
 11
51.19156410656245
 21
20.5106905955261
 31
0.0
  0
LINE
  5
16A
330
1F
100
AcDbEntity
  8
Crea2D$visibili$linee
100
AcDbLine
 10
51.19156410656245
 20
20.5106905955261
 30
0.0
 11
51.13753303783621
 21
20.52257116153621
 31
0.0
  0
LINE
  5
16B
330
1F
100
AcDbEntity
  8
Crea2D$visibili$linee
100
AcDbLine
 10
51.13753303783621
 20
20.52257116153621
 30
0.0
 11
51.08264408738124
 21
20.53272152695797
 31
0.0
  0
LINE
  5
16C
330
1F
100
AcDbEntity
  8
Crea2D$visibili$linee
100
AcDbLine
 10
51.08264408738124
 20
20.53272152695797
 30
0.0
 11
51.02711151009965
 21
20.54109095052755
 31
0.0
  0
LINE
  5
16D
330
1F
100
AcDbEntity
  8
Crea2D$visibili$linee
100
AcDbLine
 10
51.02711151009965
 20
20.54109095052755
 30
0.0
 11
50.97115581078495
 21
20.54764264933716
 31
0.0
  0
LINE
  5
16E
330
1F
100
AcDbEntity
  8
Crea2D$visibili$linee
100
AcDbLine
 10
50.97115581078495
 20
20.54764264933716
 30
0.0
 11
50.91500083507042
 21
20.55235433126938
 31
0.0
  0
LINE
  5
16F
330
1F
100
AcDbEntity
  8
Crea2D$visibili$linee
100
AcDbLine
 10
50.91500083507042
 20
20.55235433126938
 30
0.0
 11
50.85887079465399
 21
20.55521843958898
 31
0.0
  0
LINE
  5
170
330
1F
100
AcDbEntity
  8
Crea2D$visibili$linee
100
AcDbLine
 10
50.85887079465399
 20
20.55521843958898
 30
0.0
 11
50.8029873094291
 21
20.5562421043222
 31
0.0
  0
LINE
  5
171
330
1F
100
AcDbEntity
  8
Crea2D$visibili$linee
100
AcDbLine
 10
50.8029873094291
 20
20.5562421043222
 30
0.0
 11
50.74756654764161
 21
20.55544680586466
 31
0.0
  0
LINE
  5
172
330
1F
100
AcDbEntity
  8
Crea2D$visibili$linee
100
AcDbLine
 10
50.74756654764161
 20
20.55544680586466
 30
0.0
 11
50.69281653991451
 21
20.55286776662196
 31
0.0
  0
LINE
  5
173
330
1F
100
AcDbEntity
  8
Crea2D$visibili$linee
100
AcDbLine
 10
50.69281653991451
 20
20.55286776662196
 30
0.0
 11
50.63893473433621
 21
20.54855309581279
 31
0.0
  0
LINE
  5
174
330
1F
100
AcDbEntity
  8
Crea2D$visibili$linee
100
AcDbLine
 10
50.63893473433621
 20
20.54855309581279
 30
0.0
 11
50.58610584842508
 21
20.54256272035686
 31
0.0
  0
LINE
  5
175
330
1F
100
AcDbEntity
  8
Crea2D$visibili$linee
100
AcDbLine
 10
50.58610584842508
 20
20.54256272035686
 30
0.0
 11
50.53450006044617
 21
20.5349671406638
 31
0.0
  0
LINE
  5
176
330
1F
100
AcDbEntity
  8
Crea2D$visibili$linee
100
AcDbLine
 10
50.53450006044617
 20
20.5349671406638
 30
0.0
 11
50.48427156813963
 21
20.52584605392328
 31
0.0
  0
LINE
  5
177
330
1F
100
AcDbEntity
  8
Crea2D$visibili$linee
100
AcDbLine
 10
50.48427156813963
 20
20.52584605392328
 30
0.0
 11
50.43555752830156
 21
20.51528688911723
 31
0.0
  0
LINE
  5
178
330
1F
100
AcDbEntity
  8
Crea2D$visibili$linee
100
AcDbLine
 10
50.43555752830156
 20
20.51528688911723
 30
0.0
 11
50.38847737665561
 21
20.503383297528
 31
0.0
  0
LINE
  5
179
330
1F
100
AcDbEntity
  8
Crea2D$visibili$linee
100
AcDbLine
 10
50.38847737665561
 20
20.503383297528
 30
0.0
 11
50.34313251476012
 21
20.49023364022534
 31
0.0
  0
LINE
  5
17A
330
1F
100
AcDbEntity
  8
Crea2D$visibili$linee
100
AcDbLine
 10
50.34313251476012
 20
20.49023364022534
 30
0.0
 11
50.32113757505582
 21
20.48322319764948
 31
0.0
  0
LINE
  5
17B
330
1F
100
AcDbEntity
  8
Crea2D$visibili$linee
100
AcDbLine
 10
50.32113757505582
 20
20.48322319764948
 30
0.0
 11
50.29960633984646
 21
20.47593951019612
 31
0.0
  0
LINE
  5
17C
330
1F
100
AcDbEntity
  8
Crea2D$visibili$linee
100
AcDbLine
 10
50.29960633984646
 20
20.47593951019612
 30
0.0
 11
50.2785464765132
 21
20.46839555048762
 31
0.0
  0
LINE
  5
17D
330
1F
100
AcDbEntity
  8
Crea2D$visibili$linee
100
AcDbLine
 10
50.2785464765132
 20
20.46839555048762
 30
0.0
 11
50.25796458482859
 21
20.46060432181153
 31
0.0
  0
LINE
  5
17E
330
1F
100
AcDbEntity
  8
Crea2D$visibili$linee
100
AcDbLine
 10
50.25796458482859
 20
20.46060432181153
 30
0.0
 11
50.23786622175011
 21
20.45257881955838
 31
0.0
  0
LINE
  5
17F
330
1F
100
AcDbEntity
  8
Crea2D$visibili$linee
100
AcDbLine
 10
50.23786622175011
 20
20.45257881955838
 30
0.0
 11
50.21825592943226
 21
20.44433199460461
 31
0.0
  0
LINE
  5
180
330
1F
100
AcDbEntity
  8
Crea2D$visibili$linee
100
AcDbLine
 10
34.46006795303737
 20
6.160181707636218
 30
0.0
 11
34.35266297328769
 21
0.0
 31
0.0
  0
LINE
  5
181
330
1F
100
AcDbEntity
  8
Crea2D$visibili$linee
100
AcDbLine
 10
34.35266297328769
 20
0.0
 30
0.0
 11
57.44741230882692
 21
10.58246670821858
 31
0.0
  0
LINE
  5
182
330
1F
100
AcDbEntity
  8
Crea2D$visibili$linee
100
AcDbLine
 10
58.12866206639376
 20
16.71984007886711
 30
0.0
 11
57.44741230882692
 21
10.58246670821858
 31
0.0
  0
LINE
  5
183
330
1F
100
AcDbEntity
  8
Crea2D$visibili$linee
100
AcDbLine
 10
25.62296901863652
 20
15.25546989169836
 30
0.0
 11
25.73730193143032
 21
9.11341762435585
 31
0.0
  0
LINE
  5
184
330
1F
100
AcDbEntity
  8
Crea2D$visibili$linee
100
AcDbLine
 10
25.73730193143032
 20
9.11341762435585
 30
0.0
 11
34.35266297328769
 21
0.0
 31
0.0
  0
LINE
  5
185
330
1F
100
AcDbEntity
  8
Crea2D$visibili$linee
100
AcDbLine
 10
46.11507605971129
 20
12.94127933562905
 30
0.0
 11
43.0988780641141
 21
15.80050147933087
 31
0.0
  0
LINE
  5
186
330
1F
100
AcDbEntity
  8
Crea2D$visibili$linee
100
AcDbLine
 10
43.0988780641141
 20
15.80050147933087
 30
0.0
 11
32.07106230307662
 21
11.00873385969924
 31
0.0
  0
LINE
  5
187
330
1F
100
AcDbEntity
  8
Crea2D$visibili$linee
100
AcDbLine
 10
38.61974275044678
 20
11.96623417313545
 30
0.0
 11
38.57802144926241
 21
11.94749347734472
 31
0.0
  0
LINE
  5
188
330
1F
100
AcDbEntity
  8
Crea2D$visibili$linee
100
AcDbLine
 10
38.57802144926241
 20
11.94749347734472
 30
0.0
 11
38.53658740930678
 21
11.92795196650751
 31
0.0
  0
LINE
  5
189
330
1F
100
AcDbEntity
  8
Crea2D$visibili$linee
100
AcDbLine
 10
38.53658740930678
 20
11.92795196650751
 30
0.0
 11
38.49548468374992
 21
11.90760499826053
 31
0.0
  0
LINE
  5
18A
330
1F
100
AcDbEntity
  8
Crea2D$visibili$linee
100
AcDbLine
 10
38.49548468374992
 20
11.90760499826053
 30
0.0
 11
38.45475832335901
 21
11.88644918506368
 31
0.0
  0
LINE
  5
18B
330
1F
100
AcDbEntity
  8
Crea2D$visibili$linee
100
AcDbLine
 10
38.45475832335901
 20
11.88644918506368
 30
0.0
 11
38.41445428730142
 21
11.86448246012525
 31
0.0
  0
LINE
  5
18C
330
1F
100
AcDbEntity
  8
Crea2D$visibili$linee
100
AcDbLine
 10
38.41445428730142
 20
11.86448246012525
 30
0.0
 11
38.3746193451488
 21
11.84170414089574
 31
0.0
  0
LINE
  5
18D
330
1F
100
AcDbEntity
  8
Crea2D$visibili$linee
100
AcDbLine
 10
38.3746193451488
 20
11.84170414089574
 30
0.0
 11
38.33530097016358
 21
11.81811498957974
 31
0.0
  0
LINE
  5
18E
330
1F
100
AcDbEntity
  8
Crea2D$visibili$linee
100
AcDbLine
 10
38.33530097016358
 20
11.81811498957974
 30
0.0
 11
38.29654722402881
 21
11.79371727010222
 31
0.0
  0
LINE
  5
18F
330
1F
100
AcDbEntity
  8
Crea2D$visibili$linee
100
AcDbLine
 10
38.29654722402881
 20
11.79371727010222
 30
0.0
 11
38.2584066332669
 21
11.76851480095836
 31
0.0
  0
LINE
  5
190
330
1F
100
AcDbEntity
  8
Crea2D$visibili$linee
100
AcDbLine
 10
38.2584066332669
 20
11.76851480095836
 30
0.0
 11
38.2209280576801
 21
11.74251300337392
 31
0.0
  0
LINE
  5
191
330
1F
100
AcDbEntity
  8
Crea2D$visibili$linee
100
AcDbLine
 10
38.2209280576801
 20
11.74251300337392
 30
0.0
 11
38.1841605512359
 21
11.71571894420764
 31
0.0
  0
LINE
  5
192
330
1F
100
AcDbEntity
  8
Crea2D$visibili$linee
100
AcDbLine
 10
38.1841605512359
 20
11.71571894420764
 30
0.0
 11
38.148153215913
 21
11.68814137303852
 31
0.0
  0
LINE
  5
193
330
1F
100
AcDbEntity
  8
Crea2D$visibili$linee
100
AcDbLine
 10
38.148153215913
 20
11.68814137303852
 30
0.0
 11
38.11295504911529
 21
11.65979075289872
 31
0.0
  0
LINE
  5
194
330
1F
100
AcDbEntity
  8
Crea2D$visibili$linee
100
AcDbLine
 10
38.11295504911529
 20
11.65979075289872
 30
0.0
 11
38.07861478535309
 21
11.6306792841385
 31
0.0
  0
LINE
  5
195
330
1F
100
AcDbEntity
  8
Crea2D$visibili$linee
100
AcDbLine
 10
38.07861478535309
 20
11.6306792841385
 30
0.0
 11
38.04518073298039
 21
11.60082092094273
 31
0.0
  0
LINE
  5
196
330
1F
100
AcDbEntity
  8
Crea2D$visibili$linee
100
AcDbLine
 10
38.04518073298039
 20
11.60082092094273
 30
0.0
 11
38.01270060686188
 21
11.57023138005875
 31
0.0
  0
LINE
  5
197
330
1F
100
AcDbEntity
  8
Crea2D$visibili$linee
100
AcDbLine
 10
38.01270060686188
 20
11.57023138005875
 30
0.0
 11
37.98122135792461
 21
11.53892814134361
 31
0.0
  0
LINE
  5
198
330
1F
100
AcDbEntity
  8
Crea2D$visibili$linee
100
AcDbLine
 10
37.98122135792461
 20
11.53892814134361
 30
0.0
 11
37.9507890006228
 21
11.50693043979374
 31
0.0
  0
LINE
  5
199
330
1F
100
AcDbEntity
  8
Crea2D$visibili$linee
100
AcDbLine
 10
37.9507890006228
 20
11.50693043979374
 30
0.0
 11
37.92144843940951
 21
11.47425924878213
 31
0.0
  0
LINE
  5
19A
330
1F
100
AcDbEntity
  8
Crea2D$visibili$linee
100
AcDbLine
 10
37.92144843940951
 20
11.47425924878213
 30
0.0
 11
37.89324329536599
 21
11.4409372542965
 31
0.0
  0
LINE
  5
19B
330
1F
100
AcDbEntity
  8
Crea2D$visibili$linee
100
AcDbLine
 10
37.89324329536599
 20
11.4409372542965
 30
0.0
 11
37.86621573418389
 21
11.4069888200458
 31
0.0
  0
LINE
  5
19C
330
1F
100
AcDbEntity
  8
Crea2D$visibili$linee
100
AcDbLine
 10
37.86621573418389
 20
11.4069888200458
 30
0.0
 11
37.84040629672921
 21
11.37243994338134
 31
0.0
  0
LINE
  5
19D
330
1F
100
AcDbEntity
  8
Crea2D$visibili$linee
100
AcDbLine
 10
37.84040629672921
 20
11.37243994338134
 30
0.0
 11
37.81585373343658
 21
11.33731820206143
 31
0.0
  0
LINE
  5
19E
330
1F
100
AcDbEntity
  8
Crea2D$visibili$linee
100
AcDbLine
 10
37.81585373343658
 20
11.33731820206143
 30
0.0
 11
37.79259484378862
 21
11.30165269197429
 31
0.0
  0
LINE
  5
19F
330
1F
100
AcDbEntity
  8
Crea2D$visibili$linee
100
AcDbLine
 10
37.79259484378862
 20
11.30165269197429
 30
0.0
 11
37.77066432212588
 21
11.26547395602083
 31
0.0
  0
LINE
  5
1A0
330
1F
100
AcDbEntity
  8
Crea2D$visibili$linee
100
AcDbLine
 10
37.77066432212588
 20
11.26547395602083
 30
0.0
 11
37.75009461100947
 21
11.22881390444721
 31
0.0
  0
LINE
  5
1A1
330
1F
100
AcDbEntity
  8
Crea2D$visibili$linee
100
AcDbLine
 10
37.75009461100947
 20
11.22881390444721
 30
0.0
 11
37.73091576331843
 21
11.19170572700364
 31
0.0
  0
LINE
  5
1A2
330
1F
100
AcDbEntity
  8
Crea2D$visibili$linee
100
AcDbLine
 10
37.73091576331843
 20
11.19170572700364
 30
0.0
 11
37.72185661962408
 21
11.17299428937642
 31
0.0
  0
LINE
  5
1A3
330
1F
100
AcDbEntity
  8
Crea2D$visibili$linee
100
AcDbLine
 10
37.72185661962408
 20
11.17299428937642
 30
0.0
 11
37.71315531420994
 21
11.15418379739064
 31
0.0
  0
LINE
  5
1A4
330
1F
100
AcDbEntity
  8
Crea2D$visibili$linee
100
AcDbLine
 10
37.71315531420994
 20
11.15418379739064
 30
0.0
 11
37.70481487635905
 21
11.13527871589613
 31
0.0
  0
LINE
  5
1A5
330
1F
100
AcDbEntity
  8
Crea2D$visibili$linee
100
AcDbLine
 10
37.70481487635905
 20
11.13527871589613
 30
0.0
 11
37.69683816400061
 21
11.11628357053566
 31
0.0
  0
LINE
  5
1A6
330
1F
100
AcDbEntity
  8
Crea2D$visibili$linee
100
AcDbLine
 10
37.69683816400061
 20
11.11628357053566
 30
0.0
 11
37.68922786071474
 21
11.09720294418699
 31
0.0
  0
LINE
  5
1A7
330
1F
100
AcDbEntity
  8
Crea2D$visibili$linee
100
AcDbLine
 10
37.68922786071474
 20
11.09720294418699
 30
0.0
 11
37.68198647294365
 21
11.0780414733189
 31
0.0
  0
LINE
  5
1A8
330
1F
100
AcDbEntity
  8
Crea2D$visibili$linee
100
AcDbLine
 10
37.68198647294365
 20
11.0780414733189
 30
0.0
 11
37.67511632741452
 21
11.05880384426736
 31
0.0
  0
LINE
  5
1A9
330
1F
100
AcDbEntity
  8
Crea2D$visibili$linee
100
AcDbLine
 10
37.67511632741452
 20
11.05880384426736
 30
0.0
 11
37.66861956877987
 21
11.03949478943783
 31
0.0
  0
LINE
  5
1AA
330
1F
100
AcDbEntity
  8
Crea2D$visibili$linee
100
AcDbLine
 10
37.66861956877987
 20
11.03949478943783
 30
0.0
 11
37.66249815747989
 21
11.02011908344024
 31
0.0
  0
LINE
  5
1AB
330
1F
100
AcDbEntity
  8
Crea2D$visibili$linee
100
AcDbLine
 10
37.66249815747989
 20
11.02011908344024
 30
0.0
 11
37.65675386783143
 21
11.00068153916331
 31
0.0
  0
LINE
  5
1AC
330
1F
100
AcDbEntity
  8
Crea2D$visibili$linee
100
AcDbLine
 10
37.65675386783143
 20
11.00068153916331
 30
0.0
 11
37.6513882863471
 21
10.98118700379476
 31
0.0
  0
LINE
  5
1AD
330
1F
100
AcDbEntity
  8
Crea2D$visibili$linee
100
AcDbLine
 10
37.6513882863471
 20
10.98118700379476
 30
0.0
 11
37.64640281028808
 21
10.96164035479458
 31
0.0
  0
LINE
  5
1AE
330
1F
100
AcDbEntity
  8
Crea2D$visibili$linee
100
AcDbLine
 10
37.64640281028808
 20
10.96164035479458
 30
0.0
 11
37.64179864645325
 21
10.9420464958282
 31
0.0
  0
LINE
  5
1AF
330
1F
100
AcDbEntity
  8
Crea2D$visibili$linee
100
AcDbLine
 10
37.64179864645325
 20
10.9420464958282
 30
0.0
 11
37.63757681020685
 21
10.92241035266662
 31
0.0
  0
LINE
  5
1B0
330
1F
100
AcDbEntity
  8
Crea2D$visibili$linee
100
AcDbLine
 10
37.63757681020685
 20
10.92241035266662
 30
0.0
 11
37.63373812474628
 21
10.902736869061
 31
0.0
  0
LINE
  5
1B1
330
1F
100
AcDbEntity
  8
Crea2D$visibili$linee
100
AcDbLine
 10
37.63373812474628
 20
10.902736869061
 30
0.0
 11
37.63028322061127
 21
10.88303100259858
 31
0.0
  0
LINE
  5
1B2
330
1F
100
AcDbEntity
  8
Crea2D$visibili$linee
100
AcDbLine
 10
37.63028322061127
 20
10.88303100259858
 30
0.0
 11
37.62721253543471
 21
10.86329772054749
 31
0.0
  0
LINE
  5
1B3
330
1F
100
AcDbEntity
  8
Crea2D$visibili$linee
100
AcDbLine
 10
37.62721253543471
 20
10.86329772054749
 30
0.0
 11
37.62452631393535
 21
10.84354199569764
 31
0.0
  0
LINE
  5
1B4
330
1F
100
AcDbEntity
  8
Crea2D$visibili$linee
100
AcDbLine
 10
37.62452631393535
 20
10.84354199569764
 30
0.0
 11
37.62222460815138
 21
10.82376880220495
 31
0.0
  0
LINE
  5
1B5
330
1F
100
AcDbEntity
  8
Crea2D$visibili$linee
100
AcDbLine
 10
37.62222460815138
 20
10.82376880220495
 30
0.0
 11
37.62030727791426
 21
10.80398311144631
 31
0.0
  0
LINE
  5
1B6
330
1F
100
AcDbEntity
  8
Crea2D$visibili$linee
100
AcDbLine
 10
37.62030727791426
 20
10.80398311144631
 30
0.0
 11
37.61877399156055
 21
10.78418988789228
 31
0.0
  0
LINE
  5
1B7
330
1F
100
AcDbEntity
  8
Crea2D$visibili$linee
100
AcDbLine
 10
37.61877399156055
 20
10.78418988789228
 30
0.0
 11
37.61762422687971
 21
10.76439408500478
 31
0.0
  0
LINE
  5
1B8
330
1F
100
AcDbEntity
  8
Crea2D$visibili$linee
100
AcDbLine
 10
37.61762422687971
 20
10.76439408500478
 30
0.0
 11
37.61685727229504
 21
10.74460064116683
 31
0.0
  0
LINE
  5
1B9
330
1F
100
AcDbEntity
  8
Crea2D$visibili$linee
100
AcDbLine
 10
37.61685727229504
 20
10.74460064116683
 30
0.0
 11
37.61647222827451
 21
10.72481447565116
 31
0.0
  0
LINE
  5
1BA
330
1F
100
AcDbEntity
  8
Crea2D$visibili$linee
100
AcDbLine
 10
37.61647222827451
 20
10.72481447565116
 30
0.0
 11
37.61646800896734
 21
10.70504048463447
 31
0.0
  0
LINE
  5
1BB
330
1F
100
AcDbEntity
  8
Crea2D$visibili$linee
100
AcDbLine
 10
37.61646800896734
 20
10.70504048463447
 30
0.0
 11
37.61684334406242
 21
10.68528353726413
 31
0.0
  0
LINE
  5
1BC
330
1F
100
AcDbEntity
  8
Crea2D$visibili$linee
100
AcDbLine
 10
37.61684334406242
 20
10.68528353726413
 30
0.0
 11
37.61759678086324
 21
10.66554847178348
 31
0.0
  0
LINE
  5
1BD
330
1F
100
AcDbEntity
  8
Crea2D$visibili$linee
100
AcDbLine
 10
37.61759678086324
 20
10.66554847178348
 30
0.0
 11
37.61872668657455
 21
10.64584009172233
 31
0.0
  0
LINE
  5
1BE
330
1F
100
AcDbEntity
  8
Crea2D$visibili$linee
100
AcDbLine
 10
37.61872668657455
 20
10.64584009172233
 30
0.0
 11
37.62023125079469
 21
10.62616316215841
 31
0.0
  0
LINE
  5
1BF
330
1F
100
AcDbEntity
  8
Crea2D$visibili$linee
100
AcDbLine
 10
37.62023125079469
 20
10.62616316215841
 30
0.0
 11
37.62210848820755
 21
10.60652240605577
 31
0.0
  0
LINE
  5
1C0
330
1F
100
AcDbEntity
  8
Crea2D$visibili$linee
100
AcDbLine
 10
37.62210848820755
 20
10.60652240605577
 30
0.0
 11
37.62435624146769
 21
10.58692250068573
 31
0.0
  0
LINE
  5
1C1
330
1F
100
AcDbEntity
  8
Crea2D$visibili$linee
100
AcDbLine
 10
37.62435624146769
 20
10.58692250068573
 30
0.0
 11
37.62697218427163
 21
10.56736807413556
 31
0.0
  0
LINE
  5
1C2
330
1F
100
AcDbEntity
  8
Crea2D$visibili$linee
100
AcDbLine
 10
37.62697218427163
 20
10.56736807413556
 30
0.0
 11
37.62995382460808
 21
10.5478637019102
 31
0.0
  0
LINE
  5
1C3
330
1F
100
AcDbEntity
  8
Crea2D$visibili$linee
100
AcDbLine
 10
37.62995382460808
 20
10.5478637019102
 30
0.0
 11
37.63329850817959
 21
10.52841390363159
 31
0.0
  0
LINE
  5
1C4
330
1F
100
AcDbEntity
  8
Crea2D$visibili$linee
100
AcDbLine
 10
37.63329850817959
 20
10.52841390363159
 30
0.0
 11
37.63700342198761
 21
10.50902313984029
 31
0.0
  0
LINE
  5
1C5
330
1F
100
AcDbEntity
  8
Crea2D$visibili$linee
100
AcDbLine
 10
37.63700342198761
 20
10.50902313984029
 30
0.0
 11
37.64106559807313
 21
10.48969580890351
 31
0.0
  0
LINE
  5
1C6
330
1F
100
AcDbEntity
  8
Crea2D$visibili$linee
100
AcDbLine
 10
37.64106559807313
 20
10.48969580890351
 30
0.0
 11
37.64548191740415
 21
10.47043624403354
 31
0.0
  0
LINE
  5
1C7
330
1F
100
AcDbEntity
  8
Crea2D$visibili$linee
100
AcDbLine
 10
37.64548191740415
 20
10.47043624403354
 30
0.0
 11
37.65024911390171
 21
10.45124871042011
 31
0.0
  0
LINE
  5
1C8
330
1F
100
AcDbEntity
  8
Crea2D$visibili$linee
100
AcDbLine
 10
37.65024911390171
 20
10.45124871042011
 30
0.0
 11
37.65536377859553
 21
10.43213740248006
 31
0.0
  0
LINE
  5
1C9
330
1F
100
AcDbEntity
  8
Crea2D$visibili$linee
100
AcDbLine
 10
37.65536377859553
 20
10.43213740248006
 30
0.0
 11
37.66082236390057
 21
10.4131064412272
 31
0.0
  0
LINE
  5
1CA
330
1F
100
AcDbEntity
  8
Crea2D$visibili$linee
100
AcDbLine
 10
37.66082236390057
 20
10.4131064412272
 30
0.0
 11
37.66662118800513
 21
10.39415987176512
 31
0.0
  0
LINE
  5
1CB
330
1F
100
AcDbEntity
  8
Crea2D$visibili$linee
100
AcDbLine
 10
37.66662118800513
 20
10.39415987176512
 30
0.0
 11
37.6727564393618
 21
10.37530166090522
 31
0.0
  0
LINE
  5
1CC
330
1F
100
AcDbEntity
  8
Crea2D$visibili$linee
100
AcDbLine
 10
37.6727564393618
 20
10.37530166090522
 30
0.0
 11
37.68602035655276
 21
10.33786577737678
 31
0.0
  0
LINE
  5
1CD
330
1F
100
AcDbEntity
  8
Crea2D$visibili$linee
100
AcDbLine
 10
37.68602035655276
 20
10.33786577737678
 30
0.0
 11
37.70058120461217
 21
10.30082887684211
 31
0.0
  0
LINE
  5
1CE
330
1F
100
AcDbEntity
  8
Crea2D$visibili$linee
100
AcDbLine
 10
37.70058120461217
 20
10.30082887684211
 30
0.0
 11
37.7164042982441
 21
10.26421966203819
 31
0.0
  0
LINE
  5
1CF
330
1F
100
AcDbEntity
  8
Crea2D$visibili$linee
100
AcDbLine
 10
37.7164042982441
 20
10.26421966203819
 30
0.0
 11
37.73345333403341
 21
10.22806539893658
 31
0.0
  0
LINE
  5
1D0
330
1F
100
AcDbEntity
  8
Crea2D$visibili$linee
100
AcDbLine
 10
37.73345333403341
 20
10.22806539893658
 30
0.0
 11
37.75169054922333
 21
10.19239187191642
 31
0.0
  0
LINE
  5
1D1
330
1F
100
AcDbEntity
  8
Crea2D$visibili$linee
100
AcDbLine
 10
37.75169054922333
 20
10.19239187191642
 30
0.0
 11
37.7710768818246
 21
10.15722334737382
 31
0.0
  0
LINE
  5
1D2
330
1F
100
AcDbEntity
  8
Crea2D$visibili$linee
100
AcDbLine
 10
37.7710768818246
 20
10.15722334737382
 30
0.0
 11
37.79157213096554
 21
10.12258254565792
 31
0.0
  0
LINE
  5
1D3
330
1F
100
AcDbEntity
  8
Crea2D$visibili$linee
100
AcDbLine
 10
37.79157213096554
 20
10.12258254565792
 30
0.0
 11
37.81313511644247
 21
10.08849062115764
 31
0.0
  0
LINE
  5
1D4
330
1F
100
AcDbEntity
  8
Crea2D$visibili$linee
100
AcDbLine
 10
37.81313511644247
 20
10.08849062115764
 30
0.0
 11
37.83572383648821
 21
10.05496715030281
 31
0.0
  0
LINE
  5
1D5
330
1F
100
AcDbEntity
  8
Crea2D$visibili$linee
100
AcDbLine
 10
37.83572383648821
 20
10.05496715030281
 30
0.0
 11
37.85929562284272
 21
10.02203012718858
 31
0.0
  0
LINE
  5
1D6
330
1F
100
AcDbEntity
  8
Crea2D$visibili$linee
100
AcDbLine
 10
37.85929562284272
 20
10.02203012718858
 30
0.0
 11
37.88380729228143
 21
9.989695966483886
 31
0.0
  0
LINE
  5
1D7
330
1F
100
AcDbEntity
  8
Crea2D$visibili$linee
100
AcDbLine
 10
37.88380729228143
 20
9.989695966483886
 30
0.0
 11
37.90921529383336
 21
9.95797951324319
 31
0.0
  0
LINE
  5
1D8
330
1F
100
AcDbEntity
  8
Crea2D$visibili$linee
100
AcDbLine
 10
37.90921529383336
 20
9.95797951324319
 30
0.0
 11
37.93547585100111
 21
9.926894059205739
 31
0.0
  0
LINE
  5
1D9
330
1F
100
AcDbEntity
  8
Crea2D$visibili$linee
100
AcDbLine
 10
37.93547585100111
 20
9.926894059205739
 30
0.0
 11
37.96254509837619
 21
9.896451365138206
 31
0.0
  0
LINE
  5
1DA
330
1F
100
AcDbEntity
  8
Crea2D$visibili$linee
100
AcDbLine
 10
37.96254509837619
 20
9.896451365138206
 30
0.0
 11
37.9903792121261
 21
9.866661688755005
 31
0.0
  0
LINE
  5
1DB
330
1F
100
AcDbEntity
  8
Crea2D$visibili$linee
100
AcDbLine
 10
37.9903792121261
 20
9.866661688755005
 30
0.0
 11
38.01893453391147
 21
9.837533817735003
 31
0.0
  0
LINE
  5
1DC
330
1F
100
AcDbEntity
  8
Crea2D$visibili$linee
100
AcDbLine
 10
38.01893453391147
 20
9.837533817735003
 30
0.0
 11
38.06443921666723
 21
9.794135134947326
 31
0.0
  0
LINE
  5
1DD
330
1F
100
AcDbEntity
  8
Crea2D$visibili$linee
100
AcDbLine
 10
38.06443921666723
 20
9.794135134947326
 30
0.0
 11
38.11132566827711
 21
9.752098530607376
 31
0.0
  0
LINE
  5
1DE
330
1F
100
AcDbEntity
  8
Crea2D$visibili$linee
100
AcDbLine
 10
38.11132566827711
 20
9.752098530607376
 30
0.0
 11
38.15953181987684
 21
9.711488945750129
 31
0.0
  0
LINE
  5
1DF
330
1F
100
AcDbEntity
  8
Crea2D$visibili$linee
100
AcDbLine
 10
38.15953181987684
 20
9.711488945750129
 30
0.0
 11
38.20899159313058
 21
9.672367489267363
 31
0.0
  0
LINE
  5
1E0
330
1F
100
AcDbEntity
  8
Crea2D$visibili$linee
100
AcDbLine
 10
38.20899159313058
 20
9.672367489267363
 30
0.0
 11
38.25963520068199
 21
9.63479113311323
 31
0.0
  0
LINE
  5
1E1
330
1F
100
AcDbEntity
  8
Crea2D$visibili$linee
100
AcDbLine
 10
38.25963520068199
 20
9.63479113311323
 30
0.0
 11
38.3113894739474
 21
9.598812436178743
 31
0.0
  0
LINE
  5
1E2
330
1F
100
AcDbEntity
  8
Crea2D$visibili$linee
100
AcDbLine
 10
38.3113894739474
 20
9.598812436178743
 30
0.0
 11
38.36417821502354
 21
9.564479299639906
 31
0.0
  0
LINE
  5
1E3
330
1F
100
AcDbEntity
  8
Crea2D$visibili$linee
100
AcDbLine
 10
38.36417821502354
 20
9.564479299639906
 30
0.0
 11
38.41792256916221
 21
9.531834756165938
 31
0.0
  0
LINE
  5
1E4
330
1F
100
AcDbEntity
  8
Crea2D$visibili$linee
100
AcDbLine
 10
42.09456816950964
 20
11.16040035729406
 30
0.0
 11
42.02908505208785
 21
11.23716929900386
 31
0.0
  0
LINE
  5
1E5
330
1F
100
AcDbEntity
  8
Crea2D$visibili$linee
100
AcDbLine
 10
42.02908505208785
 20
11.23716929900386
 30
0.0
 11
41.96099917367617
 21
11.31163957656095
 31
0.0
  0
LINE
  5
1E6
330
1F
100
AcDbEntity
  8
Crea2D$visibili$linee
100
AcDbLine
 10
41.96099917367617
 20
11.31163957656095
 30
0.0
 11
41.89039117012212
 21
11.38372299291055
 31
0.0
  0
LINE
  5
1E7
330
1F
100
AcDbEntity
  8
Crea2D$visibili$linee
100
AcDbLine
 10
41.89039117012212
 20
11.38372299291055
 30
0.0
 11
41.81734466429054
 21
11.45333417781871
 31
0.0
  0
LINE
  5
1E8
330
1F
100
AcDbEntity
  8
Crea2D$visibili$linee
100
AcDbLine
 10
41.81734466429054
 20
11.45333417781871
 30
0.0
 11
41.74194616702693
 21
11.52039068897839
 31
0.0
  0
LINE
  5
1E9
330
1F
100
AcDbEntity
  8
Crea2D$visibili$linee
100
AcDbLine
 10
41.74194616702693
 20
11.52039068897839
 30
0.0
 11
41.66428497470036
 21
11.58481310964803
 31
0.0
  0
LINE
  5
1EA
330
1F
100
AcDbEntity
  8
Crea2D$visibili$linee
100
AcDbLine
 10
41.66428497470036
 20
11.58481310964803
 30
0.0
 11
41.58445306344761
 21
11.64652514270684
 31
0.0
  0
LINE
  5
1EB
330
1F
100
AcDbEntity
  8
Crea2D$visibili$linee
100
AcDbLine
 10
41.58445306344761
 20
11.64652514270684
 30
0.0
 11
41.50254498024334
 21
11.70545370101538
 31
0.0
  0
LINE
  5
1EC
330
1F
100
AcDbEntity
  8
Crea2D$visibili$linee
100
AcDbLine
 10
41.50254498024334
 20
11.70545370101538
 30
0.0
 11
41.41865773092582
 21
11.76152899397459
 31
0.0
  0
LINE
  5
1ED
330
1F
100
AcDbEntity
  8
Crea2D$visibili$linee
100
AcDbLine
 10
41.41865773092582
 20
11.76152899397459
 30
0.0
 11
41.33289066531038
 21
11.81468461018053
 31
0.0
  0
LINE
  5
1EE
330
1F
100
AcDbEntity
  8
Crea2D$visibili$linee
100
AcDbLine
 10
41.33289066531038
 20
11.81468461018053
 30
0.0
 11
41.24534535952682
 21
11.86485759607715
 31
0.0
  0
LINE
  5
1EF
330
1F
100
AcDbEntity
  8
Crea2D$visibili$linee
100
AcDbLine
 10
41.24534535952682
 20
11.86485759607715
 30
0.0
 11
41.15612549572031
 21
11.91198853051376
 31
0.0
  0
LINE
  5
1F0
330
1F
100
AcDbEntity
  8
Crea2D$visibili$linee
100
AcDbLine
 10
41.15612549572031
 20
11.91198853051376
 30
0.0
 11
41.06533673925792
 21
11.95602159511904
 31
0.0
  0
LINE
  5
1F1
330
1F
100
AcDbEntity
  8
Crea2D$visibili$linee
100
AcDbLine
 10
41.06533673925792
 20
11.95602159511904
 30
0.0
 11
40.97308661358642
 21
11.99690464040816
 31
0.0
  0
LINE
  5
1F2
330
1F
100
AcDbEntity
  8
Crea2D$visibili$linee
100
AcDbLine
 10
40.97308661358642
 20
11.99690464040816
 30
0.0
 11
40.87948437288951
 21
12.03458924754473
 31
0.0
  0
LINE
  5
1F3
330
1F
100
AcDbEntity
  8
Crea2D$visibili$linee
100
AcDbLine
 10
40.87948437288951
 20
12.03458924754473
 30
0.0
 11
40.78464087269533
 21
12.06903078568451
 31
0.0
  0
LINE
  5
1F4
330
1F
100
AcDbEntity
  8
Crea2D$visibili$linee
100
AcDbLine
 10
40.78464087269533
 20
12.06903078568451
 30
0.0
 11
40.68866843858734
 21
12.10018846483283
 31
0.0
  0
LINE
  5
1F5
330
1F
100
AcDbEntity
  8
Crea2D$visibili$linee
100
AcDbLine
 10
40.68866843858734
 20
12.10018846483283
 30
0.0
 11
40.59168073317439
 21
12.1280253841532
 31
0.0
  0
LINE
  5
1F6
330
1F
100
AcDbEntity
  8
Crea2D$visibili$linee
100
AcDbLine
 10
40.59168073317439
 20
12.1280253841532
 30
0.0
 11
40.49379262147705
 21
12.15250857566998
 31
0.0
  0
LINE
  5
1F7
330
1F
100
AcDbEntity
  8
Crea2D$visibili$linee
100
AcDbLine
 10
40.49379262147705
 20
12.15250857566998
 30
0.0
 11
40.3951200348901
 21
12.17360904331315
 31
0.0
  0
LINE
  5
1F8
330
1F
100
AcDbEntity
  8
Crea2D$visibili$linee
100
AcDbLine
 10
40.3951200348901
 20
12.17360904331315
 30
0.0
 11
40.295779833882
 21
12.19130179725909
 31
0.0
  0
LINE
  5
1F9
330
1F
100
AcDbEntity
  8
Crea2D$visibili$linee
100
AcDbLine
 10
40.295779833882
 20
12.19130179725909
 30
0.0
 11
40.19588966959407
 21
12.20556588352671
 31
0.0
  0
LINE
  5
1FA
330
1F
100
AcDbEntity
  8
Crea2D$visibili$linee
100
AcDbLine
 10
40.19588966959407
 20
12.20556588352671
 30
0.0
 11
40.09556784450318
 21
12.21638440879374
 31
0.0
  0
LINE
  5
1FB
330
1F
100
AcDbEntity
  8
Crea2D$visibili$linee
100
AcDbLine
 10
40.09556784450318
 20
12.21638440879374
 30
0.0
 11
39.99493317231316
 21
12.22374456040397
 31
0.0
  0
LINE
  5
1FC
330
1F
100
AcDbEntity
  8
Crea2D$visibili$linee
100
AcDbLine
 10
39.99493317231316
 20
12.22374456040397
 30
0.0
 11
39.89410483724063
 21
12.22763762154155
 31
0.0
  0
LINE
  5
1FD
330
1F
100
AcDbEntity
  8
Crea2D$visibili$linee
100
AcDbLine
 10
39.89410483724063
 20
12.22763762154155
 30
0.0
 11
39.79320225286214
 21
12.22805898155459
 31
0.0
  0
LINE
  5
1FE
330
1F
100
AcDbEntity
  8
Crea2D$visibili$linee
100
AcDbLine
 10
39.79320225286214
 20
12.22805898155459
 30
0.0
 11
39.69234492068958
 21
12.22500814141565
 31
0.0
  0
LINE
  5
1FF
330
1F
100
AcDbEntity
  8
Crea2D$visibili$linee
100
AcDbLine
 10
39.69234492068958
 20
12.22500814141565
 30
0.0
 11
39.5916522886415
 21
12.21848871431275
 31
0.0
  0
LINE
  5
200
330
1F
100
AcDbEntity
  8
Crea2D$visibili$linee
100
AcDbLine
 10
39.5916522886415
 20
12.21848871431275
 30
0.0
 11
39.49124360957788
 21
12.20850842137019
 31
0.0
  0
LINE
  5
201
330
1F
100
AcDbEntity
  8
Crea2D$visibili$linee
100
AcDbLine
 10
39.49124360957788
 20
12.20850842137019
 30
0.0
 11
39.39123780006593
 21
12.1950790825042
 31
0.0
  0
LINE
  5
202
330
1F
100
AcDbEntity
  8
Crea2D$visibili$linee
100
AcDbLine
 10
39.39123780006593
 20
12.1950790825042
 30
0.0
 11
39.29175329954411
 21
12.17821660242434
 31
0.0
  0
LINE
  5
203
330
1F
100
AcDbEntity
  8
Crea2D$visibili$linee
100
AcDbLine
 10
39.29175329954411
 20
12.17821660242434
 30
0.0
 11
39.19290793005134
 21
12.15794095179713
 31
0.0
  0
LINE
  5
204
330
1F
100
AcDbEntity
  8
Crea2D$visibili$linee
100
AcDbLine
 10
39.19290793005134
 20
12.15794095179713
 30
0.0
 11
39.09481875668728
 21
12.1342761435943
 31
0.0
  0
LINE
  5
205
330
1F
100
AcDbEntity
  8
Crea2D$visibili$linee
100
AcDbLine
 10
39.09481875668728
 20
12.1342761435943
 30
0.0
 11
38.99760194896922
 21
12.10725020465357
 31
0.0
  0
LINE
  5
206
330
1F
100
AcDbEntity
  8
Crea2D$visibili$linee
100
AcDbLine
 10
38.99760194896922
 20
12.10725020465357
 30
0.0
 11
38.90137264324945
 21
12.07689514248577
 31
0.0
  0
LINE
  5
207
330
1F
100
AcDbEntity
  8
Crea2D$visibili$linee
100
AcDbLine
 10
38.90137264324945
 20
12.07689514248577
 30
0.0
 11
38.80624480635641
 21
12.04324690736757
 31
0.0
  0
LINE
  5
208
330
1F
100
AcDbEntity
  8
Crea2D$visibili$linee
100
AcDbLine
 10
38.80624480635641
 20
12.04324690736757
 30
0.0
 11
38.7123311006208
 21
12.00634534976458
 31
0.0
  0
LINE
  5
209
330
1F
100
AcDbEntity
  8
Crea2D$visibili$linee
100
AcDbLine
 10
38.7123311006208
 20
12.00634534976458
 30
0.0
 11
38.61974275044679
 21
11.96623417313545
 31
0.0
  0
LINE
  5
20A
330
1F
100
AcDbEntity
  8
Crea2D$visibili$linee
100
AcDbLine
 10
44.88617542147278
 20
21.93169326474903
 30
0.0
 11
43.0988780641141
 21
15.80050147933087
 31
0.0
  0
LINE
  5
20B
330
1F
100
AcDbEntity
  8
Crea2D$visibili$linee
100
AcDbLine
 10
39.02271569305534
 20
11.06329164015956
 30
0.0
 11
39.08917967906576
 21
11.09047080130505
 31
0.0
  0
LINE
  5
20C
330
1F
100
AcDbEntity
  8
Crea2D$visibili$linee
100
AcDbLine
 10
39.08917967906576
 20
11.09047080130505
 30
0.0
 11
39.15653093422635
 21
11.11537013192373
 31
0.0
  0
LINE
  5
20D
330
1F
100
AcDbEntity
  8
Crea2D$visibili$linee
100
AcDbLine
 10
39.15653093422635
 20
11.11537013192373
 30
0.0
 11
39.22469128250751
 21
11.13796073083472
 31
0.0
  0
LINE
  5
20E
330
1F
100
AcDbEntity
  8
Crea2D$visibili$linee
100
AcDbLine
 10
39.22469128250751
 20
11.13796073083472
 30
0.0
 11
39.29358160874807
 21
11.15821637665097
 31
0.0
  0
LINE
  5
20F
330
1F
100
AcDbEntity
  8
Crea2D$visibili$linee
100
AcDbLine
 10
39.29358160874807
 20
11.15821637665097
 30
0.0
 11
39.36312195048602
 21
11.17611355821499
 31
0.0
  0
LINE
  5
210
330
1F
100
AcDbEntity
  8
Crea2D$visibili$linee
100
AcDbLine
 10
39.36312195048602
 20
11.17611355821499
 30
0.0
 11
39.43323159077252
 21
11.19163150188876
 31
0.0
  0
LINE
  5
211
330
1F
100
AcDbEntity
  8
Crea2D$visibili$linee
100
AcDbLine
 10
39.43323159077252
 20
11.19163150188876
 30
0.0
 11
39.50382915186189
 21
11.20475219566608
 31
0.0
  0
LINE
  5
212
330
1F
100
AcDbEntity
  8
Crea2D$visibili$linee
100
AcDbLine
 10
39.50382915186189
 20
11.20475219566608
 30
0.0
 11
39.5748326896684
 21
11.21546041007956
 31
0.0
  0
LINE
  5
213
330
1F
100
AcDbEntity
  8
Crea2D$visibili$linee
100
AcDbLine
 10
39.5748326896684
 20
11.21546041007956
 30
0.0
 11
39.64615978888055
 21
11.22374371587772
 31
0.0
  0
LINE
  5
214
330
1F
100
AcDbEntity
  8
Crea2D$visibili$linee
100
AcDbLine
 10
39.64615978888055
 20
11.22374371587772
 30
0.0
 11
39.71772765862225
 21
11.22959249845193
 31
0.0
  0
LINE
  5
215
330
1F
100
AcDbEntity
  8
Crea2D$visibili$linee
100
AcDbLine
 10
39.71772765862225
 20
11.22959249845193
 30
0.0
 11
39.78945322854997
 21
11.23299996899627
 31
0.0
  0
LINE
  5
216
330
1F
100
AcDbEntity
  8
Crea2D$visibili$linee
100
AcDbLine
 10
39.78945322854997
 20
11.23299996899627
 30
0.0
 11
39.8612532452742
 21
11.23396217238745
 31
0.0
  0
LINE
  5
217
330
1F
100
AcDbEntity
  8
Crea2D$visibili$linee
100
AcDbLine
 10
39.8612532452742
 20
11.23396217238745
 30
0.0
 11
39.93304436899347
 21
11.23247799177559
 31
0.0
  0
LINE
  5
218
330
1F
100
AcDbEntity
  8
Crea2D$visibili$linee
100
AcDbLine
 10
39.93304436899347
 20
11.23247799177559
 30
0.0
 11
40.00474327022863
 21
11.2285491498806
 31
0.0
  0
LINE
  5
219
330
1F
100
AcDbEntity
  8
Crea2D$visibili$linee
100
AcDbLine
 10
40.00474327022863
 20
11.2285491498806
 30
0.0
 11
40.0762667265451
 21
11.22218020699254
 31
0.0
  0
LINE
  5
21A
330
1F
100
AcDbEntity
  8
Crea2D$visibili$linee
100
AcDbLine
 10
40.0762667265451
 20
11.22218020699254
 30
0.0
 11
40.14753171915095
 21
11.21337855567843
 31
0.0
  0
LINE
  5
21B
330
1F
100
AcDbEntity
  8
Crea2D$visibili$linee
100
AcDbLine
 10
40.14753171915095
 20
11.21337855567843
 30
0.0
 11
40.21845552925852
 21
11.20215441220155
 31
0.0
  0
LINE
  5
21C
330
1F
100
AcDbEntity
  8
Crea2D$visibili$linee
100
AcDbLine
 10
40.21845552925852
 20
11.20215441220155
 30
0.0
 11
40.28895583409797
 21
11.18852080466316
 31
0.0
  0
LINE
  5
21D
330
1F
100
AcDbEntity
  8
Crea2D$visibili$linee
100
AcDbLine
 10
40.28895583409797
 20
11.18852080466316
 30
0.0
 11
40.35895080247095
 21
11.17249355788054
 31
0.0
  0
LINE
  5
21E
330
1F
100
AcDbEntity
  8
Crea2D$visibili$linee
100
AcDbLine
 10
40.35895080247095
 20
11.17249355788054
 30
0.0
 11
40.42835918973388
 21
11.15409127501878
 31
0.0
  0
LINE
  5
21F
330
1F
100
AcDbEntity
  8
Crea2D$visibili$linee
100
AcDbLine
 10
40.42835918973388
 20
11.15409127501878
 30
0.0
 11
40.49710043210032
 21
11.13333531599771
 31
0.0
  0
LINE
  5
220
330
1F
100
AcDbEntity
  8
Crea2D$visibili$linee
100
AcDbLine
 10
40.49710043210032
 20
11.13333531599771
 30
0.0
 11
40.56509474015302
 21
11.11024977269896
 31
0.0
  0
LINE
  5
221
330
1F
100
AcDbEntity
  8
Crea2D$visibili$linee
100
AcDbLine
 10
40.56509474015302
 20
11.11024977269896
 30
0.0
 11
40.63226319145727
 21
11.08486144100201
 31
0.0
  0
LINE
  5
222
330
1F
100
AcDbEntity
  8
Crea2D$visibili$linee
100
AcDbLine
 10
40.63226319145727
 20
11.08486144100201
 30
0.0
 11
40.69852782216776
 21
11.05719978968166
 31
0.0
  0
LINE
  5
223
330
1F
100
AcDbEntity
  8
Crea2D$visibili$linee
100
AcDbLine
 10
40.69852782216776
 20
11.05719978968166
 30
0.0
 11
40.76381171752291
 21
11.02729692620298
 31
0.0
  0
LINE
  5
224
330
1F
100
AcDbEntity
  8
Crea2D$visibili$linee
100
AcDbLine
 10
40.76381171752291
 20
11.02729692620298
 30
0.0
 11
40.82803910112144
 21
10.99518755945351
 31
0.0
  0
LINE
  5
225
330
1F
100
AcDbEntity
  8
Crea2D$visibili$linee
100
AcDbLine
 10
40.82803910112144
 20
10.99518755945351
 30
0.0
 11
40.89113542287771
 21
10.96090895945591
 31
0.0
  0
LINE
  5
226
330
1F
100
AcDbEntity
  8
Crea2D$visibili$linee
100
AcDbLine
 10
40.89113542287771
 20
10.96090895945591
 30
0.0
 11
40.95302744555349
 21
10.92450091410786
 31
0.0
  0
LINE
  5
227
330
1F
100
AcDbEntity
  8
Crea2D$visibili$linee
100
AcDbLine
 10
40.95302744555349
 20
10.92450091410786
 30
0.0
 11
41.01364332976603
 21
10.88600568299937
 31
0.0
  0
LINE
  5
228
330
1F
100
AcDbEntity
  8
Crea2D$visibili$linee
100
AcDbLine
 10
41.01364332976603
 20
10.88600568299937
 30
0.0
 11
41.07291271737359
 21
10.84546794836125
 31
0.0
  0
LINE
  5
229
330
1F
100
AcDbEntity
  8
Crea2D$visibili$linee
100
AcDbLine
 10
41.07291271737359
 20
10.84546794836125
 30
0.0
 11
41.13076681314153
 21
10.80293476320143
 31
0.0
  0
LINE
  5
22A
330
1F
100
AcDbEntity
  8
Crea2D$visibili$linee
100
AcDbLine
 10
41.13076681314153
 20
10.80293476320143
 30
0.0
 11
41.18713846459447
 21
10.75845549668956
 31
0.0
  0
LINE
  5
22B
330
1F
100
AcDbEntity
  8
Crea2D$visibili$linee
100
AcDbLine
 10
38.61979063908797
 20
9.621251969205767
 30
0.0
 11
38.59896888512803
 21
9.6416647840649
 31
0.0
  0
LINE
  5
22C
330
1F
100
AcDbEntity
  8
Crea2D$visibili$linee
100
AcDbLine
 10
38.59896888512803
 20
9.6416647840649
 30
0.0
 11
38.57886245203391
 21
9.662782544284034
 31
0.0
  0
LINE
  5
22D
330
1F
100
AcDbEntity
  8
Crea2D$visibili$linee
100
AcDbLine
 10
38.57886245203391
 20
9.662782544284034
 30
0.0
 11
38.55949519220653
 21
9.684580197717846
 31
0.0
  0
LINE
  5
22E
330
1F
100
AcDbEntity
  8
Crea2D$visibili$linee
100
AcDbLine
 10
38.55949519220653
 20
9.684580197717846
 30
0.0
 11
38.5408900811605
 21
9.707031885658977
 31
0.0
  0
LINE
  5
22F
330
1F
100
AcDbEntity
  8
Crea2D$visibili$linee
100
AcDbLine
 10
38.5408900811605
 20
9.707031885658977
 30
0.0
 11
38.52306919026798
 21
9.730110973514404
 31
0.0
  0
LINE
  5
230
330
1F
100
AcDbEntity
  8
Crea2D$visibili$linee
100
AcDbLine
 10
38.52306919026798
 20
9.730110973514404
 30
0.0
 11
38.50605366057538
 21
9.753790082402232
 31
0.0
  0
LINE
  5
231
330
1F
100
AcDbEntity
  8
Crea2D$visibili$linee
100
AcDbLine
 10
38.50605366057538
 20
9.753790082402232
 30
0.0
 11
38.48986367772351
 21
9.778041121631458
 31
0.0
  0
LINE
  5
232
330
1F
100
AcDbEntity
  8
Crea2D$visibili$linee
100
AcDbLine
 10
38.48986367772351
 20
9.778041121631458
 30
0.0
 11
38.47451844800124
 21
9.802835322026155
 31
0.0
  0
LINE
  5
233
330
1F
100
AcDbEntity
  8
Crea2D$visibili$linee
100
AcDbLine
 10
38.47451844800124
 20
9.802835322026155
 30
0.0
 11
38.46003617556097
 21
9.828143270054528
 31
0.0
  0
LINE
  5
234
330
1F
100
AcDbEntity
  8
Crea2D$visibili$linee
100
AcDbLine
 10
38.46003617556097
 20
9.828143270054528
 30
0.0
 11
38.44643404082286
 21
9.853934942722421
 31
0.0
  0
LINE
  5
235
330
1F
100
AcDbEntity
  8
Crea2D$visibili$linee
100
AcDbLine
 10
38.44643404082286
 20
9.853934942722421
 30
0.0
 11
38.43372818009364
 21
9.880179743189771
 31
0.0
  0
LINE
  5
236
330
1F
100
AcDbEntity
  8
Crea2D$visibili$linee
100
AcDbLine
 10
38.43372818009364
 20
9.880179743189771
 30
0.0
 11
38.42193366642396
 21
9.906846537067872
 31
0.0
  0
LINE
  5
237
330
1F
100
AcDbEntity
  8
Crea2D$visibili$linee
100
AcDbLine
 10
38.42193366642396
 20
9.906846537067872
 30
0.0
 11
38.41106449172713
 21
9.933903689354307
 31
0.0
  0
LINE
  5
238
330
1F
100
AcDbEntity
  8
Crea2D$visibili$linee
100
AcDbLine
 10
38.41106449172713
 20
9.933903689354307
 30
0.0
 11
38.40113355018046
 21
9.961319101961777
 31
0.0
  0
LINE
  5
239
330
1F
100
AcDbEntity
  8
Crea2D$visibili$linee
100
AcDbLine
 10
38.40113355018046
 20
9.961319101961777
 30
0.0
 11
38.39215262292871
 21
9.989060251796278
 31
0.0
  0
LINE
  5
23A
330
1F
100
AcDbEntity
  8
Crea2D$visibili$linee
100
AcDbLine
 10
38.39215262292871
 20
9.989060251796278
 30
0.0
 11
38.38413236410814
 21
10.01709422933947
 31
0.0
  0
LINE
  5
23B
330
1F
100
AcDbEntity
  8
Crea2D$visibili$linee
100
AcDbLine
 10
38.38413236410814
 20
10.01709422933947
 30
0.0
 11
38.37708228820739
 21
10.04538777768949
 31
0.0
  0
LINE
  5
23C
330
1F
100
AcDbEntity
  8
Crea2D$visibili$linee
100
AcDbLine
 10
38.37708228820739
 20
10.04538777768949
 30
0.0
 11
38.37101075878036
 21
10.07390733201382
 31
0.0
  0
LINE
  5
23D
330
1F
100
AcDbEntity
  8
Crea2D$visibili$linee
100
AcDbLine
 10
38.37101075878036
 20
10.07390733201382
 30
0.0
 11
38.36592497852449
 21
10.10261905936747
 31
0.0
  0
LINE
  5
23E
330
1F
100
AcDbEntity
  8
Crea2D$visibili$linee
100
AcDbLine
 10
38.36592497852449
 20
10.10261905936747
 30
0.0
 11
38.36183098073615
 21
10.13148889882928
 31
0.0
  0
LINE
  5
23F
330
1F
100
AcDbEntity
  8
Crea2D$visibili$linee
100
AcDbLine
 10
38.36183098073615
 20
10.13148889882928
 30
0.0
 11
38.3587336221533
 21
10.16048260190858
 31
0.0
  0
LINE
  5
240
330
1F
100
AcDbEntity
  8
Crea2D$visibili$linee
100
AcDbLine
 10
38.3587336221533
 20
10.16048260190858
 30
0.0
 11
38.35663657719388
 21
10.18956577317444
 31
0.0
  0
LINE
  5
241
330
1F
100
AcDbEntity
  8
Crea2D$visibili$linee
100
AcDbLine
 10
38.35663657719388
 20
10.18956577317444
 30
0.0
 11
38.35554233359689
 21
10.21870391105921
 31
0.0
  0
LINE
  5
242
330
1F
100
AcDbEntity
  8
Crea2D$visibili$linee
100
AcDbLine
 10
38.35554233359689
 20
10.21870391105921
 30
0.0
 11
38.35545218947107
 21
10.24786244878794
 31
0.0
  0
LINE
  5
243
330
1F
100
AcDbEntity
  8
Crea2D$visibili$linee
100
AcDbLine
 10
38.35545218947107
 20
10.24786244878794
 30
0.0
 11
38.35636625175503
 21
10.27700679538522
 31
0.0
  0
LINE
  5
244
330
1F
100
AcDbEntity
  8
Crea2D$visibili$linee
100
AcDbLine
 10
38.35636625175503
 20
10.27700679538522
 30
0.0
 11
38.35828343609034
 21
10.30610237671067
 31
0.0
  0
LINE
  5
245
330
1F
100
AcDbEntity
  8
Crea2D$visibili$linee
100
AcDbLine
 10
38.35828343609034
 20
10.30610237671067
 30
0.0
 11
38.36120146810794
 21
10.33511467647449
 31
0.0
  0
LINE
  5
246
330
1F
100
AcDbEntity
  8
Crea2D$visibili$linee
100
AcDbLine
 10
38.36120146810794
 20
10.33511467647449
 30
0.0
 11
38.36511688612623
 21
10.36400927718437
 31
0.0
  0
LINE
  5
247
330
1F
100
AcDbEntity
  8
Crea2D$visibili$linee
100
AcDbLine
 10
38.36511688612623
 20
10.36400927718437
 30
0.0
 11
38.37002504525765
 21
10.39275190097522
 31
0.0
  0
LINE
  5
248
330
1F
100
AcDbEntity
  8
Crea2D$visibili$linee
100
AcDbLine
 10
38.37002504525765
 20
10.39275190097522
 30
0.0
 11
38.37592012291903
 21
10.42130845027319
 31
0.0
  0
LINE
  5
249
330
1F
100
AcDbEntity
  8
Crea2D$visibili$linee
100
AcDbLine
 10
38.37592012291903
 20
10.42130845027319
 30
0.0
 11
38.38279512573886
 21
10.44964504824593
 31
0.0
  0
LINE
  5
24A
330
1F
100
AcDbEntity
  8
Crea2D$visibili$linee
100
AcDbLine
 10
38.38279512573886
 20
10.44964504824593
 30
0.0
 11
38.39064189785365
 21
10.47772807899085
 31
0.0
  0
LINE
  5
24B
330
1F
100
AcDbEntity
  8
Crea2D$visibili$linee
100
AcDbLine
 10
38.39064189785365
 20
10.47772807899085
 30
0.0
 11
38.39945113058325
 21
10.50552422741391
 31
0.0
  0
LINE
  5
24C
330
1F
100
AcDbEntity
  8
Crea2D$visibili$linee
100
AcDbLine
 10
38.39945113058325
 20
10.50552422741391
 30
0.0
 11
38.40921237347382
 21
10.53300051875159
 31
0.0
  0
LINE
  5
24D
330
1F
100
AcDbEntity
  8
Crea2D$visibili$linee
100
AcDbLine
 10
38.40921237347382
 20
10.53300051875159
 30
0.0
 11
38.41991404669523
 21
10.56012435768901
 31
0.0
  0
LINE
  5
24E
330
1F
100
AcDbEntity
  8
Crea2D$visibili$linee
100
AcDbLine
 10
38.41991404669523
 20
10.56012435768901
 30
0.0
 11
38.43154345477841
 21
10.58686356702804
 31
0.0
  0
LINE
  5
24F
330
1F
100
AcDbEntity
  8
Crea2D$visibili$linee
100
AcDbLine
 10
38.43154345477841
 20
10.58686356702804
 30
0.0
 11
38.4440868016759
 21
10.6131864258593
 31
0.0
  0
LINE
  5
250
330
1F
100
AcDbEntity
  8
Crea2D$visibili$linee
100
AcDbLine
 10
38.4440868016759
 20
10.6131864258593
 30
0.0
 11
38.45752920712835
 21
10.63906170719291
 31
0.0
  0
LINE
  5
251
330
1F
100
AcDbEntity
  8
Crea2D$visibili$linee
100
AcDbLine
 10
38.45752920712835
 20
10.63906170719291
 30
0.0
 11
38.471854724317
 21
10.66445871500326
 31
0.0
  0
LINE
  5
252
330
1F
100
AcDbEntity
  8
Crea2D$visibili$linee
100
AcDbLine
 10
38.471854724317
 20
10.66445871500326
 30
0.0
 11
38.48704635878151
 21
10.68934732064396
 31
0.0
  0
LINE
  5
253
330
1F
100
AcDbEntity
  8
Crea2D$visibili$linee
100
AcDbLine
 10
38.48704635878151
 20
10.68934732064396
 30
0.0
 11
38.5030860885806
 21
10.71369799858962
 31
0.0
  0
LINE
  5
254
330
1F
100
AcDbEntity
  8
Crea2D$visibili$linee
100
AcDbLine
 10
38.5030860885806
 20
10.71369799858962
 30
0.0
 11
38.51995488567166
 21
10.73748186146221
 31
0.0
  0
LINE
  5
255
330
1F
100
AcDbEntity
  8
Crea2D$visibili$linee
100
AcDbLine
 10
38.51995488567166
 20
10.73748186146221
 30
0.0
 11
38.53763273848376
 21
10.76067069430035
 31
0.0
  0
LINE
  5
256
330
1F
100
AcDbEntity
  8
Crea2D$visibili$linee
100
AcDbLine
 10
38.53763273848376
 20
10.76067069430035
 30
0.0
 11
38.55609867565758
 21
10.78323698803091
 31
0.0
  0
LINE
  5
257
330
1F
100
AcDbEntity
  8
Crea2D$visibili$linee
100
AcDbLine
 10
38.55609867565758
 20
10.78323698803091
 30
0.0
 11
38.57533079092386
 21
10.80515397210323
 31
0.0
  0
LINE
  5
258
330
1F
100
AcDbEntity
  8
Crea2D$visibili$linee
100
AcDbLine
 10
38.57533079092386
 20
10.80515397210323
 30
0.0
 11
38.59530626909094
 21
10.82639564624717
 31
0.0
  0
LINE
  5
259
330
1F
100
AcDbEntity
  8
Crea2D$visibili$linee
100
AcDbLine
 10
38.59530626909094
 20
10.82639564624717
 30
0.0
 11
38.61600141311063
 21
10.84693681131749
 31
0.0
  0
LINE
  5
25A
330
1F
100
AcDbEntity
  8
Crea2D$visibili$linee
100
AcDbLine
 10
38.61600141311063
 20
10.84693681131749
 30
0.0
 11
38.63739167219012
 21
10.86675309918766
 31
0.0
  0
LINE
  5
25B
330
1F
100
AcDbEntity
  8
Crea2D$visibili$linee
100
AcDbLine
 10
38.63739167219012
 20
10.86675309918766
 30
0.0
 11
38.65945167091681
 21
10.88582100165804
 31
0.0
  0
LINE
  5
25C
330
1F
100
AcDbEntity
  8
Crea2D$visibili$linee
100
AcDbLine
 10
38.65945167091681
 20
10.88582100165804
 30
0.0
 11
38.68215523936129
 21
10.90411789834376
 31
0.0
  0
LINE
  5
25D
330
1F
100
AcDbEntity
  8
Crea2D$visibili$linee
100
AcDbLine
 10
38.68215523936129
 20
10.90411789834376
 30
0.0
 11
38.70547544412297
 21
10.92162208350945
 31
0.0
  0
LINE
  5
25E
330
1F
100
AcDbEntity
  8
Crea2D$visibili$linee
100
AcDbLine
 10
38.70547544412297
 20
10.92162208350945
 30
0.0
 11
38.72938462028128
 21
10.93831279181893
 31
0.0
  0
LINE
  5
25F
330
1F
100
AcDbEntity
  8
Crea2D$visibili$linee
100
AcDbLine
 10
38.72938462028128
 20
10.93831279181893
 30
0.0
 11
38.75385440421484
 21
10.95417022296924
 31
0.0
  0
LINE
  5
260
330
1F
100
AcDbEntity
  8
Crea2D$visibili$linee
100
AcDbLine
 10
38.75385440421484
 20
10.95417022296924
 30
0.0
 11
38.77885576724933
 21
10.9691755651799
 31
0.0
  0
LINE
  5
261
330
1F
100
AcDbEntity
  8
Crea2D$visibili$linee
100
AcDbLine
 10
38.77885576724933
 20
10.9691755651799
 30
0.0
 11
38.80435905009451
 21
10.98331101750942
 31
0.0
  0
LINE
  5
262
330
1F
100
AcDbEntity
  8
Crea2D$visibili$linee
100
AcDbLine
 10
38.80435905009451
 20
10.98331101750942
 30
0.0
 11
38.83033399802915
 21
10.99655981097273
 31
0.0
  0
LINE
  5
263
330
1F
100
AcDbEntity
  8
Crea2D$visibili$linee
100
AcDbLine
 10
38.83033399802915
 20
10.99655981097273
 30
0.0
 11
38.8567497967925
 21
11.00890622843432
 31
0.0
  0
LINE
  5
264
330
1F
100
AcDbEntity
  8
Crea2D$visibili$linee
100
AcDbLine
 10
38.8567497967925
 20
11.00890622843432
 30
0.0
 11
38.88357510913937
 21
11.02033562325358
 31
0.0
  0
LINE
  5
265
330
1F
100
AcDbEntity
  8
Crea2D$visibili$linee
100
AcDbLine
 10
38.88357510913937
 20
11.02033562325358
 30
0.0
 11
38.91077811201578
 21
11.03083443666019
 31
0.0
  0
LINE
  5
266
330
1F
100
AcDbEntity
  8
Crea2D$visibili$linee
100
AcDbLine
 10
38.91077811201578
 20
11.03083443666019
 30
0.0
 11
38.93832653431089
 21
11.04039021383906
 31
0.0
  0
LINE
  5
267
330
1F
100
AcDbEntity
  8
Crea2D$visibili$linee
100
AcDbLine
 10
38.93832653431089
 20
11.04039021383906
 30
0.0
 11
38.96618769514035
 21
11.04899161870548
 31
0.0
  0
LINE
  5
268
330
1F
100
AcDbEntity
  8
Crea2D$visibili$linee
100
AcDbLine
 10
38.96618769514035
 20
11.04899161870548
 30
0.0
 11
38.99432854261597
 21
11.05662844735323
 31
0.0
  0
LINE
  5
269
330
1F
100
AcDbEntity
  8
Crea2D$visibili$linee
100
AcDbLine
 10
38.99432854261597
 20
11.05662844735323
 30
0.0
 11
39.02271569305534
 21
11.06329164015956
 31
0.0
  0
LINE
  5
26A
330
1F
100
AcDbEntity
  8
Crea2D$visibili$linee
100
AcDbLine
 10
50.18052742565856
 20
19.96262213016633
 30
0.0
 11
50.22600466189931
 21
19.98162468136492
 31
0.0
  0
LINE
  5
26B
330
1F
100
AcDbEntity
  8
Crea2D$visibili$linee
100
AcDbLine
 10
50.22600466189931
 20
19.98162468136492
 30
0.0
 11
50.2721120031251
 21
19.9990427482278
 31
0.0
  0
LINE
  5
26C
330
1F
100
AcDbEntity
  8
Crea2D$visibili$linee
100
AcDbLine
 10
50.2721120031251
 20
19.9990427482278
 30
0.0
 11
50.31879426303227
 21
20.01485548290943
 31
0.0
  0
LINE
  5
26D
330
1F
100
AcDbEntity
  8
Crea2D$visibili$linee
100
AcDbLine
 10
50.31879426303227
 20
20.01485548290943
 30
0.0
 11
50.36599556719162
 21
20.02904395900124
 31
0.0
  0
LINE
  5
26E
330
1F
100
AcDbEntity
  8
Crea2D$visibili$linee
100
AcDbLine
 10
50.36599556719162
 20
20.02904395900124
 30
0.0
 11
50.41365941992511
 21
20.04159119418481
 31
0.0
  0
LINE
  5
26F
330
1F
100
AcDbEntity
  8
Crea2D$visibili$linee
100
AcDbLine
 10
50.41365941992511
 20
20.04159119418481
 30
0.0
 11
50.46172877192602
 21
20.05248217055816
 31
0.0
  0
LINE
  5
270
330
1F
100
AcDbEntity
  8
Crea2D$visibili$linee
100
AcDbLine
 10
50.46172877192602
 20
20.05248217055816
 30
0.0
 11
50.51014608854178
 21
20.06170385261081
 31
0.0
  0
LINE
  5
271
330
1F
100
AcDbEntity
  8
Crea2D$visibili$linee
100
AcDbLine
 10
50.51014608854178
 20
20.06170385261081
 30
0.0
 11
50.5588534186378
 21
20.06924520282611
 31
0.0
  0
LINE
  5
272
330
1F
100
AcDbEntity
  8
Crea2D$visibili$linee
100
AcDbLine
 10
50.5588534186378
 20
20.06924520282611
 30
0.0
 11
50.60779246395962
 21
20.07509719489215
 31
0.0
  0
LINE
  5
273
330
1F
100
AcDbEntity
  8
Crea2D$visibili$linee
100
AcDbLine
 10
50.60779246395962
 20
20.07509719489215
 30
0.0
 11
50.65690464891069
 21
20.07925282450544
 31
0.0
  0
LINE
  5
274
330
1F
100
AcDbEntity
  8
Crea2D$visibili$linee
100
AcDbLine
 10
50.65690464891069
 20
20.07925282450544
 30
0.0
 11
50.70613119066207
 21
20.08170711775442
 31
0.0
  0
LINE
  5
275
330
1F
100
AcDbEntity
  8
Crea2D$visibili$linee
100
AcDbLine
 10
50.70613119066207
 20
20.08170711775442
 30
0.0
 11
50.75541316951006
 21
20.08245713707276
 31
0.0
  0
LINE
  5
276
330
1F
100
AcDbEntity
  8
Crea2D$visibili$linee
100
AcDbLine
 10
50.75541316951006
 20
20.08245713707276
 30
0.0
 11
50.80469159939781
 21
20.0815019847554
 31
0.0
  0
LINE
  5
277
330
1F
100
AcDbEntity
  8
Crea2D$visibili$linee
100
AcDbLine
 10
50.80469159939781
 20
20.0815019847554
 30
0.0
 11
50.85390749851626
 21
20.07884280403299
 31
0.0
  0
LINE
  5
278
330
1F
100
AcDbEntity
  8
Crea2D$visibili$linee
100
AcDbLine
 10
50.85390749851626
 20
20.07884280403299
 30
0.0
 11
50.90300195989999
 21
20.07448277770357
 31
0.0
  0
LINE
  5
279
330
1F
100
AcDbEntity
  8
Crea2D$visibili$linee
100
AcDbLine
 10
50.90300195989999
 20
20.07448277770357
 30
0.0
 11
50.95191622193354
 21
20.06842712432302
 31
0.0
  0
LINE
  5
27A
330
1F
100
AcDbEntity
  8
Crea2D$visibili$linee
100
AcDbLine
 10
50.95191622193354
 20
20.06842712432302
 30
0.0
 11
51.0005917386837
 21
20.06068309195895
 31
0.0
  0
LINE
  5
27B
330
1F
100
AcDbEntity
  8
Crea2D$visibili$linee
100
AcDbLine
 10
51.0005917386837
 20
20.06068309195895
 30
0.0
 11
51.04897024997374
 21
20.05125994951541
 31
0.0
  0
LINE
  5
27C
330
1F
100
AcDbEntity
  8
Crea2D$visibili$linee
100
AcDbLine
 10
51.04897024997374
 20
20.05125994951541
 30
0.0
 11
51.09699385111549
 21
20.04016897563885
 31
0.0
  0
LINE
  5
27D
330
1F
100
AcDbEntity
  8
Crea2D$visibili$linee
100
AcDbLine
 10
51.09699385111549
 20
20.04016897563885
 30
0.0
 11
51.144605062216
 21
20.02742344521861
 31
0.0
  0
LINE
  5
27E
330
1F
100
AcDbEntity
  8
Crea2D$visibili$linee
100
AcDbLine
 10
51.144605062216
 20
20.02742344521861
 30
0.0
 11
51.19174689697585
 21
20.01303861349809
 31
0.0
  0
LINE
  5
27F
330
1F
100
AcDbEntity
  8
Crea2D$visibili$linee
100
AcDbLine
 10
51.19174689697585
 20
20.01303861349809
 30
0.0
 11
51.23836293089643
 21
19.99703169781557
 31
0.0
  0
LINE
  5
280
330
1F
100
AcDbEntity
  8
Crea2D$visibili$linee
100
AcDbLine
 10
51.23836293089643
 20
19.99703169781557
 30
0.0
 11
51.28439736881507
 21
19.97942185699668
 31
0.0
  0
LINE
  5
281
330
1F
100
AcDbEntity
  8
Crea2D$visibili$linee
100
AcDbLine
 10
51.28439736881507
 20
19.97942185699668
 30
0.0
 11
51.32979511168671
 21
19.96023016842294
 31
0.0
  0
LINE
  5
282
330
1F
100
AcDbEntity
  8
Crea2D$visibili$linee
100
AcDbLine
 10
51.32979511168671
 20
19.96023016842294
 30
0.0
 11
51.37450182253254
 21
19.93947960280416
 31
0.0
  0
LINE
  5
283
330
1F
100
AcDbEntity
  8
Crea2D$visibili$linee
100
AcDbLine
 10
51.37450182253254
 20
19.93947960280416
 30
0.0
 11
51.41846399147633
 21
19.91719499668446
 31
0.0
  0
LINE
  5
284
330
1F
100
AcDbEntity
  8
Crea2D$visibili$linee
100
AcDbLine
 10
51.41846399147633
 20
19.91719499668446
 30
0.0
 11
51.46162899979096
 21
19.89340302271529
 31
0.0
  0
LINE
  5
285
330
1F
100
AcDbEntity
  8
Crea2D$visibili$linee
100
AcDbLine
 10
51.46162899979096
 20
19.89340302271529
 30
0.0
 11
51.50394518287825
 21
19.8681321577306
 31
0.0
  0
LINE
  5
286
330
1F
100
AcDbEntity
  8
Crea2D$visibili$linee
100
AcDbLine
 10
51.50394518287825
 20
19.8681321577306
 30
0.0
 11
51.54536189210681
 21
19.84141264866272
 31
0.0
  0
LINE
  5
287
330
1F
100
AcDbEntity
  8
Crea2D$visibili$linee
100
AcDbLine
 10
51.54536189210681
 20
19.84141264866272
 30
0.0
 11
51.58582955543382
 21
19.81327647633947
 31
0.0
  0
LINE
  5
288
330
1F
100
AcDbEntity
  8
Crea2D$visibili$linee
100
AcDbLine
 10
51.58582955543382
 20
19.81327647633947
 30
0.0
 11
51.62529973673831
 21
19.78375731720608
 31
0.0
  0
LINE
  5
289
330
1F
100
AcDbEntity
  8
Crea2D$visibili$linee
100
AcDbLine
 10
51.62529973673831
 20
19.78375731720608
 30
0.0
 11
51.66372519379475
 21
19.75289050301746
 31
0.0
  0
LINE
  5
28A
330
1F
100
AcDbEntity
  8
Crea2D$visibili$linee
100
AcDbLine
 10
51.66372519379475
 20
19.75289050301746
 30
0.0
 11
51.70105993481778
 21
19.72071297854935
 31
0.0
  0
LINE
  5
28B
330
1F
100
AcDbEntity
  8
Crea2D$visibili$linee
100
AcDbLine
 10
51.70105993481778
 20
19.72071297854935
 30
0.0
 11
51.73725927351011
 21
19.68726325737877
 31
0.0
  0
LINE
  5
28C
330
1F
100
AcDbEntity
  8
Crea2D$visibili$linee
100
AcDbLine
 10
51.73725927351011
 20
19.68726325737877
 30
0.0
 11
51.77227988254805
 21
19.65258137578674
 31
0.0
  0
LINE
  5
28D
330
1F
100
AcDbEntity
  8
Crea2D$visibili$linee
100
AcDbLine
 10
51.77227988254805
 20
19.65258137578674
 30
0.0
 11
51.80607984544033
 21
19.61670884483851
 31
0.0
  0
LINE
  5
28E
330
1F
100
AcDbEntity
  8
Crea2D$visibili$linee
100
AcDbLine
 10
51.80607984544033
 20
19.61670884483851
 30
0.0
 11
51.83861870669838
 21
19.57968860069856
 31
0.0
  0
LINE
  5
28F
330
1F
100
AcDbEntity
  8
Crea2D$visibili$linee
100
AcDbLine
 10
51.83861870669838
 20
19.57968860069856
 30
0.0
 11
51.86985752025782
 21
19.54156495323993
 31
0.0
  0
LINE
  5
290
330
1F
100
AcDbEntity
  8
Crea2D$visibili$linee
100
AcDbLine
 10
49.82554803658248
 20
19.68989376223861
 30
0.0
 11
49.84283531316544
 21
19.71234726661002
 31
0.0
  0
LINE
  5
291
330
1F
100
AcDbEntity
  8
Crea2D$visibili$linee
100
AcDbLine
 10
49.84283531316544
 20
19.71234726661002
 30
0.0
 11
49.86088916794622
 21
19.73418915567133
 31
0.0
  0
LINE
  5
292
330
1F
100
AcDbEntity
  8
Crea2D$visibili$linee
100
AcDbLine
 10
49.86088916794622
 20
19.73418915567133
 30
0.0
 11
49.87968797893373
 21
19.75539327073584
 31
0.0
  0
LINE
  5
293
330
1F
100
AcDbEntity
  8
Crea2D$visibili$linee
100
AcDbLine
 10
49.87968797893373
 20
19.75539327073584
 30
0.0
 11
49.89920923194862
 21
19.77593421693949
 31
0.0
  0
LINE
  5
294
330
1F
100
AcDbEntity
  8
Crea2D$visibili$linee
100
AcDbLine
 10
49.89920923194862
 20
19.77593421693949
 30
0.0
 11
49.91942954758719
 21
19.79578739365479
 31
0.0
  0
LINE
  5
295
330
1F
100
AcDbEntity
  8
Crea2D$visibili$linee
100
AcDbLine
 10
49.91942954758719
 20
19.79578739365479
 30
0.0
 11
49.94032470922146
 21
19.81492902395345
 31
0.0
  0
LINE
  5
296
330
1F
100
AcDbEntity
  8
Crea2D$visibili$linee
100
AcDbLine
 10
49.94032470922146
 20
19.81492902395345
 30
0.0
 11
49.96186969200189
 21
19.83333618308253
 31
0.0
  0
LINE
  5
297
330
1F
100
AcDbEntity
  8
Crea2D$visibili$linee
100
AcDbLine
 10
49.96186969200189
 20
19.83333618308253
 30
0.0
 11
49.98403869282816
 21
19.85098682592005
 31
0.0
  0
LINE
  5
298
330
1F
100
AcDbEntity
  8
Crea2D$visibili$linee
100
AcDbLine
 10
49.98403869282816
 20
19.85098682592005
 30
0.0
 11
50.00680516125191
 21
19.86785981337701
 31
0.0
  0
LINE
  5
299
330
1F
100
AcDbEntity
  8
Crea2D$visibili$linee
100
AcDbLine
 10
50.00680516125191
 20
19.86785981337701
 30
0.0
 11
50.03014183127461
 21
19.88393493771446
 31
0.0
  0
LINE
  5
29A
330
1F
100
AcDbEntity
  8
Crea2D$visibili$linee
100
AcDbLine
 10
50.03014183127461
 20
19.88393493771446
 30
0.0
 11
50.05402075400234
 21
19.89919294674497
 31
0.0
  0
LINE
  5
29B
330
1F
100
AcDbEntity
  8
Crea2D$visibili$linee
100
AcDbLine
 10
50.05402075400234
 20
19.89919294674497
 30
0.0
 11
50.07841333111851
 21
19.91361556688989
 31
0.0
  0
LINE
  5
29C
330
1F
100
AcDbEntity
  8
Crea2D$visibili$linee
100
AcDbLine
 10
50.07841333111851
 20
19.91361556688989
 30
0.0
 11
50.10329034913423
 21
19.9271855250644
 31
0.0
  0
LINE
  5
29D
330
1F
100
AcDbEntity
  8
Crea2D$visibili$linee
100
AcDbLine
 10
50.10329034913423
 20
19.9271855250644
 30
0.0
 11
50.12862201437559
 21
19.93988656936448
 31
0.0
  0
LINE
  5
29E
330
1F
100
AcDbEntity
  8
Crea2D$visibili$linee
100
AcDbLine
 10
50.12862201437559
 20
19.93988656936448
 30
0.0
 11
50.15437798866562
 21
19.95170348853081
 31
0.0
  0
LINE
  5
29F
330
1F
100
AcDbEntity
  8
Crea2D$visibili$linee
100
AcDbLine
 10
50.15437798866562
 20
19.95170348853081
 30
0.0
 11
50.18052742565856
 21
19.96262213016633
 31
0.0
  0
LINE
  5
2A0
330
1F
100
AcDbEntity
  8
Crea2D$visibili$linee
100
AcDbLine
 10
33.12866206639376
 20
53.4508497187474
 30
0.0
 11
58.12866206639376
 21
53.4508497187474
 31
0.0
  0
LINE
  5
2A1
330
1F
100
AcDbEntity
  8
Crea2D$visibili$linee
100
AcDbLine
 10
58.12866206639376
 20
53.4508497187474
 30
0.0
 11
58.12866206639376
 21
40.45084971874739
 31
0.0
  0
LINE
  5
2A2
330
1F
100
AcDbEntity
  8
Crea2D$visibili$linee
100
AcDbLine
 10
33.12866206639376
 20
53.4508497187474
 30
0.0
 11
33.12866206639376
 21
40.45084971874739
 31
0.0
  0
LINE
  5
2A3
330
1F
100
AcDbEntity
  8
Crea2D$visibili$linee
100
AcDbLine
 10
33.12866206639376
 20
40.45084971874739
 30
0.0
 11
58.12866206639376
 21
40.45084971874739
 31
0.0
  0
LINE
  5
2A4
330
1F
100
AcDbEntity
  8
Crea2D$visibili$linee
100
AcDbLine
 10
-47.32218765235361
 20
53.45084971874737
 30
0.0
 11
-47.32218765235361
 21
40.45084971874737
 31
0.0
  0
LINE
  5
2A5
330
1F
100
AcDbEntity
  8
Crea2D$visibili$linee
100
AcDbLine
 10
-2.322187652353619
 20
40.45084971874737
 30
0.0
 11
-47.32218765235361
 21
40.45084971874737
 31
0.0
  0
LINE
  5
2A6
330
1F
100
AcDbEntity
  8
Crea2D$visibili$linee
100
AcDbLine
 10
-2.322187652353619
 20
53.45084971874737
 30
0.0
 11
-2.322187652353619
 21
40.45084971874737
 31
0.0
  0
LINE
  5
2A7
330
1F
100
AcDbEntity
  8
Crea2D$visibili$linee
100
AcDbLine
 10
-2.322187652353619
 20
53.45084971874737
 30
0.0
 11
-47.32218765235361
 21
53.45084971874737
 31
0.0
  0
LINE
  5
2A8
330
1F
100
AcDbEntity
  8
Crea2D$visibili$linee
100
AcDbLine
 10
-28.32218765235362
 20
10.0
 30
0.0
 11
-28.23542075366566
 21
10.00150615264074
 31
0.0
  0
LINE
  5
2A9
330
1F
100
AcDbEntity
  8
Crea2D$visibili$linee
100
AcDbLine
 10
-28.23542075366566
 20
10.00150615264074
 30
0.0
 11
-28.14875840233258
 21
10.00602279576634
 31
0.0
  0
LINE
  5
2AA
330
1F
100
AcDbEntity
  8
Crea2D$visibili$linee
100
AcDbLine
 10
-28.14875840233258
 20
10.00602279576634
 30
0.0
 11
-28.06230501973782
 21
10.01354448717362
 31
0.0
  0
LINE
  5
2AB
330
1F
100
AcDbEntity
  8
Crea2D$visibili$linee
100
AcDbLine
 10
-28.06230501973782
 20
10.01354448717362
 30
0.0
 11
-27.97616477547377
 21
10.02406216381029
 31
0.0
  0
LINE
  5
2AC
330
1F
100
AcDbEntity
  8
Crea2D$visibili$linee
100
AcDbLine
 10
-27.97616477547377
 20
10.02406216381029
 30
0.0
 11
-27.89044146182554
 21
10.03756315269518
 31
0.0
  0
LINE
  5
2AD
330
1F
100
AcDbEntity
  8
Crea2D$visibili$linee
100
AcDbLine
 10
-27.89044146182554
 20
10.03756315269518
 30
0.0
 11
-27.8052383687093
 21
10.05403118618825
 31
0.0
  0
LINE
  5
2AE
330
1F
100
AcDbEntity
  8
Crea2D$visibili$linee
100
AcDbLine
 10
-27.8052383687093
 20
10.05403118618825
 30
0.0
 11
-27.72065815921602
 21
10.0734464215918
 31
0.0
  0
LINE
  5
2AF
330
1F
100
AcDbEntity
  8
Crea2D$visibili$linee
100
AcDbLine
 10
-27.72065815921602
 20
10.0734464215918
 30
0.0
 11
-27.63680274591039
 21
10.09578546505936
 31
0.0
  0
LINE
  5
2B0
330
1F
100
AcDbEntity
  8
Crea2D$visibili$linee
100
AcDbLine
 10
-27.63680274591039
 20
10.09578546505936
 30
0.0
 11
-27.55377316803417
 21
10.12102139978349
 31
0.0
  0
LINE
  5
2B1
330
1F
100
AcDbEntity
  8
Crea2D$visibili$linee
100
AcDbLine
 10
-27.55377316803417
 20
10.12102139978349
 30
0.0
 11
-27.47166946976175
 21
10.1491238184284
 31
0.0
  0
LINE
  5
2B2
330
1F
100
AcDbEntity
  8
Crea2D$visibili$linee
100
AcDbLine
 10
-27.47166946976175
 20
10.1491238184284
 30
0.0
 11
-27.3905905796547
 21
10.18005885976846
 31
0.0
  0
LINE
  5
2B3
330
1F
100
AcDbEntity
  8
Crea2D$visibili$linee
100
AcDbLine
 10
-27.3905905796547
 20
10.18005885976846
 30
0.0
 11
-27.31063419146056
 21
10.21378924948829
 31
0.0
  0
LINE
  5
2B4
330
1F
100
AcDbEntity
  8
Crea2D$visibili$linee
100
AcDbLine
 10
-27.31063419146056
 20
10.21378924948829
 30
0.0
 11
-27.23189664639953
 21
10.25027434509547
 31
0.0
  0
LINE
  5
2B5
330
1F
100
AcDbEntity
  8
Crea2D$visibili$linee
100
AcDbLine
 10
-27.23189664639953
 20
10.25027434509547
 30
0.0
 11
-27.15447281708073
 21
10.2894701848915
 31
0.0
  0
LINE
  5
2B6
330
1F
100
AcDbEntity
  8
Crea2D$visibili$linee
100
AcDbLine
 10
-27.15447281708073
 20
10.2894701848915
 30
0.0
 11
-27.07845599318815
 21
10.3313295409423
 31
0.0
  0
LINE
  5
2B7
330
1F
100
AcDbEntity
  8
Crea2D$visibili$linee
100
AcDbLine
 10
-27.07845599318815
 20
10.3313295409423
 30
0.0
 11
-27.00393776907383
 21
10.37580197598415
 31
0.0
  0
LINE
  5
2B8
330
1F
100
AcDbEntity
  8
Crea2D$visibili$linee
100
AcDbLine
 10
-27.00393776907383
 20
10.37580197598415
 30
0.0
 11
-26.9310079333938
 21
10.42283390419666
 31
0.0
  0
LINE
  5
2B9
330
1F
100
AcDbEntity
  8
Crea2D$visibili$linee
100
AcDbLine
 10
-26.9310079333938
 20
10.42283390419666
 30
0.0
 11
-26.85975436091973
 21
10.47236865576953
 31
0.0
  0
LINE
  5
2BA
330
1F
100
AcDbEntity
  8
Crea2D$visibili$linee
100
AcDbLine
 10
-26.85975436091973
 20
10.47236865576953
 30
0.0
 11
-26.7902629066567
 21
10.52434654518525
 31
0.0
  0
LINE
  5
2BB
330
1F
100
AcDbEntity
  8
Crea2D$visibili$linee
100
AcDbLine
 10
-26.7902629066567
 20
10.52434654518525
 30
0.0
 11
-26.7226173023946
 21
10.57870494313549
 31
0.0
  0
LINE
  5
2BC
330
1F
100
AcDbEntity
  8
Crea2D$visibili$linee
100
AcDbLine
 10
-26.7226173023946
 20
10.57870494313549
 30
0.0
 11
-26.6568990558178
 21
10.63537835198457
 31
0.0
  0
LINE
  5
2BD
330
1F
100
AcDbEntity
  8
Crea2D$visibili$linee
100
AcDbLine
 10
-26.6568990558178
 20
10.63537835198457
 30
0.0
 11
-26.59318735229482
 21
10.69429848468895
 31
0.0
  0
LINE
  5
2BE
330
1F
100
AcDbEntity
  8
Crea2D$visibili$linee
100
AcDbLine
 10
-26.59318735229482
 20
10.69429848468895
 30
0.0
 11
-26.53155895946606
 21
10.75539434707788
 31
0.0
  0
LINE
  5
2BF
330
1F
100
AcDbEntity
  8
Crea2D$visibili$linee
100
AcDbLine
 10
-26.53155895946606
 20
10.75539434707788
 30
0.0
 11
-26.4720881347448
 21
10.81859232339577
 31
0.0
  0
LINE
  5
2C0
330
1F
100
AcDbEntity
  8
Crea2D$visibili$linee
100
AcDbLine
 10
-26.4720881347448
 20
10.81859232339577
 30
0.0
 11
-26.4148465358428
 21
10.88381626500348
 31
0.0
  0
LINE
  5
2C1
330
1F
100
AcDbEntity
  8
Crea2D$visibili$linee
100
AcDbLine
 10
-26.4148465358428
 20
10.88381626500348
 30
0.0
 11
-26.35990313442834
 21
10.95098758213151
 31
0.0
  0
LINE
  5
2C2
330
1F
100
AcDbEntity
  8
Crea2D$visibili$linee
100
AcDbLine
 10
-26.35990313442834
 20
10.95098758213151
 30
0.0
 11
-26.30732413302073
 21
11.02002533857449
 31
0.0
  0
LINE
  5
2C3
330
1F
100
AcDbEntity
  8
Crea2D$visibili$linee
100
AcDbLine
 10
-26.30732413302073
 20
11.02002533857449
 30
0.0
 11
-26.25717288522143
 21
11.09084634921311
 31
0.0
  0
LINE
  5
2C4
330
1F
100
AcDbEntity
  8
Crea2D$visibili$linee
100
AcDbLine
 10
-26.25717288522143
 20
11.09084634921311
 30
0.0
 11
-26.20950981937787
 21
11.16336528024561
 31
0.0
  0
LINE
  5
2C5
330
1F
100
AcDbEntity
  8
Crea2D$visibili$linee
100
AcDbLine
 10
-26.20950981937787
 20
11.16336528024561
 30
0.0
 11
-26.16439236577204
 21
11.23749475200839
 31
0.0
  0
LINE
  5
2C6
330
1F
100
AcDbEntity
  8
Crea2D$visibili$linee
100
AcDbLine
 10
-26.16439236577204
 20
11.23749475200839
 30
0.0
 11
-26.12187488742147
 21
11.31314544426174
 31
0.0
  0
LINE
  5
2C7
330
1F
100
AcDbEntity
  8
Crea2D$visibili$linee
100
AcDbLine
 10
-26.12187488742147
 20
11.31314544426174
 30
0.0
 11
-26.08200861457598
 21
11.39022620381374
 31
0.0
  0
LINE
  5
2C8
330
1F
100
AcDbEntity
  8
Crea2D$visibili$linee
100
AcDbLine
 10
-26.08200861457598
 20
11.39022620381374
 30
0.0
 11
-26.04484158298927
 21
11.46864415435273
 31
0.0
  0
LINE
  5
2C9
330
1F
100
AcDbEntity
  8
Crea2D$visibili$linee
100
AcDbLine
 10
-26.04484158298927
 20
11.46864415435273
 30
0.0
 11
-26.01041857603958
 21
11.5483048083561
 31
0.0
  0
LINE
  5
2CA
330
1F
100
AcDbEntity
  8
Crea2D$visibili$linee
100
AcDbLine
 10
-26.01041857603958
 20
11.5483048083561
 30
0.0
 11
-25.97878107076913
 21
11.62911218094032
 31
0.0
  0
LINE
  5
2CB
330
1F
100
AcDbEntity
  8
Crea2D$visibili$linee
100
AcDbLine
 10
-25.97878107076913
 20
11.62911218094032
 30
0.0
 11
-25.94996718790763
 21
11.71096890551532
 31
0.0
  0
LINE
  5
2CC
330
1F
100
AcDbEntity
  8
Crea2D$visibili$linee
100
AcDbLine
 10
-25.94996718790763
 20
11.71096890551532
 30
0.0
 11
-25.92401164593969
 21
11.79377635110358
 31
0.0
  0
LINE
  5
2CD
330
1F
100
AcDbEntity
  8
Crea2D$visibili$linee
100
AcDbLine
 10
-25.92401164593969
 20
11.79377635110358
 30
0.0
 11
-25.90094571927176
 21
11.87743474118284
 31
0.0
  0
LINE
  5
2CE
330
1F
100
AcDbEntity
  8
Crea2D$visibili$linee
100
AcDbLine
 10
-25.90094571927176
 20
11.87743474118284
 30
0.0
 11
-25.88079720054894
 21
11.96184327390898
 31
0.0
  0
LINE
  5
2CF
330
1F
100
AcDbEntity
  8
Crea2D$visibili$linee
100
AcDbLine
 10
-25.88079720054894
 20
11.96184327390898
 30
0.0
 11
-25.86359036716698
 21
12.04690024357442
 31
0.0
  0
LINE
  5
2D0
330
1F
100
AcDbEntity
  8
Crea2D$visibili$linee
100
AcDbLine
 10
-25.86359036716698
 20
12.04690024357442
 30
0.0
 11
-25.84934595201989
 21
12.13250316315559
 31
0.0
  0
LINE
  5
2D1
330
1F
100
AcDbEntity
  8
Crea2D$visibili$linee
100
AcDbLine
 10
-25.84934595201989
 20
12.13250316315559
 30
0.0
 11
-25.83808111851848
 21
12.21854888780179
 31
0.0
  0
LINE
  5
2D2
330
1F
100
AcDbEntity
  8
Crea2D$visibili$linee
100
AcDbLine
 10
-25.83808111851848
 20
12.21854888780179
 30
0.0
 11
-25.82980943990972
 21
12.30493373911668
 31
0.0
  0
LINE
  5
2D3
330
1F
100
AcDbEntity
  8
Crea2D$visibili$linee
100
AcDbLine
 10
-25.82980943990972
 20
12.30493373911668
 30
0.0
 11
-25.82454088292208
 21
12.39155363008273
 31
0.0
  0
LINE
  5
2D4
330
1F
100
AcDbEntity
  8
Crea2D$visibili$linee
100
AcDbLine
 10
-25.82454088292208
 20
12.39155363008273
 30
0.0
 11
-25.82228179575637
 21
12.47830419047793
 31
0.0
  0
LINE
  5
2D5
330
1F
100
AcDbEntity
  8
Crea2D$visibili$linee
100
AcDbLine
 10
-25.82228179575637
 20
12.47830419047793
 30
0.0
 11
-25.82303490043668
 21
12.56508089263377
 31
0.0
  0
LINE
  5
2D6
330
1F
100
AcDbEntity
  8
Crea2D$visibili$linee
100
AcDbLine
 10
-25.82303490043668
 20
12.56508089263377
 30
0.0
 11
-25.82679928953051
 21
12.65177917738297
 31
0.0
  0
LINE
  5
2D7
330
1F
100
AcDbEntity
  8
Crea2D$visibili$linee
100
AcDbLine
 10
-25.82679928953051
 20
12.65177917738297
 30
0.0
 11
-25.83357042724222
 21
12.73829458004511
 31
0.0
  0
LINE
  5
2D8
330
1F
100
AcDbEntity
  8
Crea2D$visibili$linee
100
AcDbLine
 10
-25.83357042724222
 20
12.73829458004511
 30
0.0
 11
-25.84334015487824
 21
12.82452285629844
 31
0.0
  0
LINE
  5
2D9
330
1F
100
AcDbEntity
  8
Crea2D$visibili$linee
100
AcDbLine
 10
-25.84334015487824
 20
12.82452285629844
 30
0.0
 11
-25.85609670067772
 21
12.91036010778618
 31
0.0
  0
LINE
  5
2DA
330
1F
100
AcDbEntity
  8
Crea2D$visibili$linee
100
AcDbLine
 10
-25.85609670067772
 20
12.91036010778618
 30
0.0
 11
-25.87182469399654
 21
12.99570290730592
 31
0.0
  0
LINE
  5
2DB
330
1F
100
AcDbEntity
  8
Crea2D$visibili$linee
100
AcDbLine
 10
-25.87182469399654
 20
12.99570290730592
 30
0.0
 11
-25.89050518382775
 21
13.08044842343137
 31
0.0
  0
LINE
  5
2DC
330
1F
100
AcDbEntity
  8
Crea2D$visibili$linee
100
AcDbLine
 10
-25.89050518382775
 20
13.08044842343137
 30
0.0
 11
-25.9121156616361
 21
13.1644945444162
 31
0.0
  0
LINE
  5
2DD
330
1F
100
AcDbEntity
  8
Crea2D$visibili$linee
100
AcDbLine
 10
-25.9121156616361
 20
13.1644945444162
 30
0.0
 11
-25.936630088479
 21
13.24774000123078
 31
0.0
  0
LINE
  5
2DE
330
1F
100
AcDbEntity
  8
Crea2D$visibili$linee
100
AcDbLine
 10
-25.936630088479
 20
13.24774000123078
 30
0.0
 11
-25.96401892638147
 21
13.3300844895834
 31
0.0
  0
LINE
  5
2DF
330
1F
100
AcDbEntity
  8
Crea2D$visibili$linee
100
AcDbLine
 10
-25.96401892638147
 20
13.3300844895834
 30
0.0
 11
-25.9942491739271
 21
13.4114287907792
 31
0.0
  0
LINE
  5
2E0
330
1F
100
AcDbEntity
  8
Crea2D$visibili$linee
100
AcDbLine
 10
-25.9942491739271
 20
13.4114287907792
 30
0.0
 11
-26.02728440602213
 21
13.49167489127094
 31
0.0
  0
LINE
  5
2E1
330
1F
100
AcDbEntity
  8
Crea2D$visibili$linee
100
AcDbLine
 10
-26.02728440602213
 20
13.49167489127094
 30
0.0
 11
-26.06308481778493
 21
13.57072610075768
 31
0.0
  0
LINE
  5
2E2
330
1F
100
AcDbEntity
  8
Crea2D$visibili$linee
100
AcDbLine
 10
-26.06308481778493
 20
13.57072610075768
 30
0.0
 11
-26.10160727250772
 21
13.64848716868909
 31
0.0
  0
LINE
  5
2E3
330
1F
100
AcDbEntity
  8
Crea2D$visibili$linee
100
AcDbLine
 10
-26.10160727250772
 20
13.64848716868909
 30
0.0
 11
-26.14280535363298
 21
13.72486439903492
 31
0.0
  0
LINE
  5
2E4
330
1F
100
AcDbEntity
  8
Crea2D$visibili$linee
100
AcDbLine
 10
-26.14280535363298
 20
13.72486439903492
 30
0.0
 11
-26.18662942068176
 21
13.79976576318143
 31
0.0
  0
LINE
  5
2E5
330
1F
100
AcDbEntity
  8
Crea2D$visibili$linee
100
AcDbLine
 10
-26.18662942068176
 20
13.79976576318143
 30
0.0
 11
-26.23302666906662
 21
13.87310101081868
 31
0.0
  0
LINE
  5
2E6
330
1F
100
AcDbEntity
  8
Crea2D$visibili$linee
100
AcDbLine
 10
-26.23302666906662
 20
13.87310101081868
 30
0.0
 11
-26.28194119371699
 21
13.94478177868518
 31
0.0
  0
LINE
  5
2E7
330
1F
100
AcDbEntity
  8
Crea2D$visibili$linee
100
AcDbLine
 10
-26.28194119371699
 20
13.94478177868518
 30
0.0
 11
-26.33331405644052
 21
14.01472169703867
 31
0.0
  0
LINE
  5
2E8
330
1F
100
AcDbEntity
  8
Crea2D$visibili$linee
100
AcDbLine
 10
-26.33331405644052
 20
14.01472169703867
 30
0.0
 11
-26.38708335693892
 21
14.08283649372497
 31
0.0
  0
LINE
  5
2E9
330
1F
100
AcDbEntity
  8
Crea2D$visibili$linee
100
AcDbLine
 10
-26.38708335693892
 20
14.08283649372497
 30
0.0
 11
-26.44318430739303
 21
14.14904409571937
 31
0.0
  0
LINE
  5
2EA
330
1F
100
AcDbEntity
  8
Crea2D$visibili$linee
100
AcDbLine
 10
-26.44318430739303
 20
14.14904409571937
 30
0.0
 11
-26.50154931052711
 21
14.21326472801819
 31
0.0
  0
LINE
  5
2EB
330
1F
100
AcDbEntity
  8
Crea2D$visibili$linee
100
AcDbLine
 10
-26.50154931052711
 20
14.21326472801819
 30
0.0
 11
-26.5621080410583
 21
14.2754210097615
 31
0.0
  0
LINE
  5
2EC
330
1F
100
AcDbEntity
  8
Crea2D$visibili$linee
100
AcDbLine
 10
-26.5621080410583
 20
14.2754210097615
 30
0.0
 11
-26.62478753043307
 21
14.33543804747099
 31
0.0
  0
LINE
  5
2ED
330
1F
100
AcDbEntity
  8
Crea2D$visibili$linee
100
AcDbLine
 10
-26.62478753043307
 20
14.33543804747099
 30
0.0
 11
-26.68951225474865
 21
14.39324352529078
 31
0.0
  0
LINE
  5
2EE
330
1F
100
AcDbEntity
  8
Crea2D$visibili$linee
100
AcDbLine
 10
-26.68951225474865
 20
14.39324352529078
 30
0.0
 11
-26.75620422575349
 21
14.44876779212243
 31
0.0
  0
LINE
  5
2EF
330
1F
100
AcDbEntity
  8
Crea2D$visibili$linee
100
AcDbLine
 10
-26.75620422575349
 20
14.44876779212243
 30
0.0
 11
-26.824783084817
 21
14.50194394554905
 31
0.0
  0
LINE
  5
2F0
330
1F
100
AcDbEntity
  8
Crea2D$visibili$linee
100
AcDbLine
 10
-26.824783084817
 20
14.50194394554905
 30
0.0
 11
-26.89516619975543
 21
14.5527079124475
 31
0.0
  0
LINE
  5
2F1
330
1F
100
AcDbEntity
  8
Crea2D$visibili$linee
100
AcDbLine
 10
-26.89516619975543
 20
14.5527079124475
 30
0.0
 11
-26.96726876439724
 21
14.60099852619155
 31
0.0
  0
LINE
  5
2F2
330
1F
100
AcDbEntity
  8
Crea2D$visibili$linee
100
AcDbLine
 10
-26.96726876439724
 20
14.60099852619155
 30
0.0
 11
-27.04100390076791
 21
14.64675760035286
 31
0.0
  0
LINE
  5
2F3
330
1F
100
AcDbEntity
  8
Crea2D$visibili$linee
100
AcDbLine
 10
-27.04100390076791
 20
14.64675760035286
 30
0.0
 11
-27.11628276377117
 21
14.68992999881114
 31
0.0
  0
LINE
  5
2F4
330
1F
100
AcDbEntity
  8
Crea2D$visibili$linee
100
AcDbLine
 10
-27.11628276377117
 20
14.68992999881114
 30
0.0
 11
-27.19301464824036
 21
14.73046370218882
 31
0.0
  0
LINE
  5
2F5
330
1F
100
AcDbEntity
  8
Crea2D$visibili$linee
100
AcDbLine
 10
-27.19301464824036
 20
14.73046370218882
 30
0.0
 11
-27.27110709823115
 21
14.76830987053039
 31
0.0
  0
LINE
  5
2F6
330
1F
100
AcDbEntity
  8
Crea2D$visibili$linee
100
AcDbLine
 10
-27.27110709823115
 20
14.76830987053039
 30
0.0
 11
-27.35046601842372
 21
14.80342290215076
 31
0.0
  0
LINE
  5
2F7
330
1F
100
AcDbEntity
  8
Crea2D$visibili$linee
100
AcDbLine
 10
-27.35046601842372
 20
14.80342290215076
 30
0.0
 11
-27.4309957875003
 21
14.83576048858167
 31
0.0
  0
LINE
  5
2F8
330
1F
100
AcDbEntity
  8
Crea2D$visibili$linee
100
AcDbLine
 10
-27.4309957875003
 20
14.83576048858167
 30
0.0
 11
-27.5125993733614
 21
14.86528366555016
 31
0.0
  0
LINE
  5
2F9
330
1F
100
AcDbEntity
  8
Crea2D$visibili$linee
100
AcDbLine
 10
-27.5125993733614
 20
14.86528366555016
 30
0.0
 11
-27.59517845004195
 21
14.89195685992748
 31
0.0
  0
LINE
  5
2FA
330
1F
100
AcDbEntity
  8
Crea2D$visibili$linee
100
AcDbLine
 10
-27.59517845004195
 20
14.89195685992748
 30
0.0
 11
-27.67863351618643
 21
14.91574793259191
 31
0.0
  0
LINE
  5
2FB
330
1F
100
AcDbEntity
  8
Crea2D$visibili$linee
100
AcDbLine
 10
-27.67863351618643
 20
14.91574793259191
 30
0.0
 11
-27.76286401494022
 21
14.93662821715391
 31
0.0
  0
LINE
  5
2FC
330
1F
100
AcDbEntity
  8
Crea2D$visibili$linee
100
AcDbLine
 10
-27.76286401494022
 20
14.93662821715391
 30
0.0
 11
-27.84776845511283
 21
14.95457255449689
 31
0.0
  0
LINE
  5
2FD
330
1F
100
AcDbEntity
  8
Crea2D$visibili$linee
100
AcDbLine
 10
-27.84776845511283
 20
14.95457255449689
 30
0.0
 11
-27.93324453346683
 21
14.969559323092
 31
0.0
  0
LINE
  5
2FE
330
1F
100
AcDbEntity
  8
Crea2D$visibili$linee
100
AcDbLine
 10
-27.93324453346683
 20
14.969559323092
 30
0.0
 11
-28.01918925798533
 21
14.98157046505036
 31
0.0
  0
LINE
  5
2FF
330
1F
100
AcDbEntity
  8
Crea2D$visibili$linee
100
AcDbLine
 10
-28.01918925798533
 20
14.98157046505036
 30
0.0
 11
-28.10549907196927
 21
14.99059150788141
 31
0.0
  0
LINE
  5
300
330
1F
100
AcDbEntity
  8
Crea2D$visibili$linee
100
AcDbLine
 10
-28.10549907196927
 20
14.99059150788141
 30
0.0
 11
-28.19206997881527
 21
14.99661158193119
 31
0.0
  0
LINE
  5
301
330
1F
100
AcDbEntity
  8
Crea2D$visibili$linee
100
AcDbLine
 10
-28.19206997881527
 20
14.99661158193119
 30
0.0
 11
-28.27879766732335
 21
14.99962343347934
 31
0.0
  0
LINE
  5
302
330
1F
100
AcDbEntity
  8
Crea2D$visibili$linee
100
AcDbLine
 10
-28.27879766732335
 20
14.99962343347934
 30
0.0
 11
-28.36557763738386
 21
14.99962343347934
 31
0.0
  0
LINE
  5
303
330
1F
100
AcDbEntity
  8
Crea2D$visibili$linee
100
AcDbLine
 10
-28.36557763738386
 20
14.99962343347934
 30
0.0
 11
-28.45230532589194
 21
14.99661158193119
 31
0.0
  0
LINE
  5
304
330
1F
100
AcDbEntity
  8
Crea2D$visibili$linee
100
AcDbLine
 10
-28.45230532589194
 20
14.99661158193119
 30
0.0
 11
-28.53887623273794
 21
14.99059150788141
 31
0.0
  0
LINE
  5
305
330
1F
100
AcDbEntity
  8
Crea2D$visibili$linee
100
AcDbLine
 10
-28.53887623273794
 20
14.99059150788141
 30
0.0
 11
-28.62518604672189
 21
14.98157046505036
 31
0.0
  0
LINE
  5
306
330
1F
100
AcDbEntity
  8
Crea2D$visibili$linee
100
AcDbLine
 10
-28.62518604672189
 20
14.98157046505036
 30
0.0
 11
-28.71113077124038
 21
14.969559323092
 31
0.0
  0
LINE
  5
307
330
1F
100
AcDbEntity
  8
Crea2D$visibili$linee
100
AcDbLine
 10
-28.71113077124038
 20
14.969559323092
 30
0.0
 11
-28.79660684959438
 21
14.9545725544969
 31
0.0
  0
LINE
  5
308
330
1F
100
AcDbEntity
  8
Crea2D$visibili$linee
100
AcDbLine
 10
-28.79660684959438
 20
14.9545725544969
 30
0.0
 11
-28.88151128976699
 21
14.93662821715391
 31
0.0
  0
LINE
  5
309
330
1F
100
AcDbEntity
  8
Crea2D$visibili$linee
100
AcDbLine
 10
-28.88151128976699
 20
14.93662821715391
 30
0.0
 11
-28.96574178852079
 21
14.91574793259192
 31
0.0
  0
LINE
  5
30A
330
1F
100
AcDbEntity
  8
Crea2D$visibili$linee
100
AcDbLine
 10
-28.96574178852079
 20
14.91574793259192
 30
0.0
 11
-29.04919685466526
 21
14.89195685992749
 31
0.0
  0
LINE
  5
30B
330
1F
100
AcDbEntity
  8
Crea2D$visibili$linee
100
AcDbLine
 10
-29.04919685466526
 20
14.89195685992749
 30
0.0
 11
-29.13177593134582
 21
14.86528366555017
 31
0.0
  0
LINE
  5
30C
330
1F
100
AcDbEntity
  8
Crea2D$visibili$linee
100
AcDbLine
 10
-29.13177593134582
 20
14.86528366555017
 30
0.0
 11
-29.21337951720691
 21
14.83576048858167
 31
0.0
  0
LINE
  5
30D
330
1F
100
AcDbEntity
  8
Crea2D$visibili$linee
100
AcDbLine
 10
-29.21337951720691
 20
14.83576048858167
 30
0.0
 11
-29.29390928628349
 21
14.80342290215076
 31
0.0
  0
LINE
  5
30E
330
1F
100
AcDbEntity
  8
Crea2D$visibili$linee
100
AcDbLine
 10
-29.29390928628349
 20
14.80342290215076
 30
0.0
 11
-29.37326820647606
 21
14.7683098705304
 31
0.0
  0
LINE
  5
30F
330
1F
100
AcDbEntity
  8
Crea2D$visibili$linee
100
AcDbLine
 10
-29.37326820647606
 20
14.7683098705304
 30
0.0
 11
-29.45136065646685
 21
14.73046370218883
 31
0.0
  0
LINE
  5
310
330
1F
100
AcDbEntity
  8
Crea2D$visibili$linee
100
AcDbLine
 10
-29.45136065646685
 20
14.73046370218883
 30
0.0
 11
-29.52809254093604
 21
14.68992999881115
 31
0.0
  0
LINE
  5
311
330
1F
100
AcDbEntity
  8
Crea2D$visibili$linee
100
AcDbLine
 10
-29.52809254093604
 20
14.68992999881115
 30
0.0
 11
-29.6033714039393
 21
14.64675760035287
 31
0.0
  0
LINE
  5
312
330
1F
100
AcDbEntity
  8
Crea2D$visibili$linee
100
AcDbLine
 10
-29.6033714039393
 20
14.64675760035287
 30
0.0
 11
-29.67710654030997
 21
14.60099852619156
 31
0.0
  0
LINE
  5
313
330
1F
100
AcDbEntity
  8
Crea2D$visibili$linee
100
AcDbLine
 10
-29.67710654030997
 20
14.60099852619156
 30
0.0
 11
-29.74920910495178
 21
14.55270791244751
 31
0.0
  0
LINE
  5
314
330
1F
100
AcDbEntity
  8
Crea2D$visibili$linee
100
AcDbLine
 10
-29.74920910495178
 20
14.55270791244751
 30
0.0
 11
-29.81959221989021
 21
14.50194394554906
 31
0.0
  0
LINE
  5
315
330
1F
100
AcDbEntity
  8
Crea2D$visibili$linee
100
AcDbLine
 10
-29.81959221989021
 20
14.50194394554906
 30
0.0
 11
-29.88817107895372
 21
14.44876779212244
 31
0.0
  0
LINE
  5
316
330
1F
100
AcDbEntity
  8
Crea2D$visibili$linee
100
AcDbLine
 10
-29.88817107895372
 20
14.44876779212244
 30
0.0
 11
-29.95486304995856
 21
14.39324352529079
 31
0.0
  0
LINE
  5
317
330
1F
100
AcDbEntity
  8
Crea2D$visibili$linee
100
AcDbLine
 10
-29.95486304995856
 20
14.39324352529079
 30
0.0
 11
-30.01958777427415
 21
14.335438047471
 31
0.0
  0
LINE
  5
318
330
1F
100
AcDbEntity
  8
Crea2D$visibili$linee
100
AcDbLine
 10
-30.01958777427415
 20
14.335438047471
 30
0.0
 11
-30.08226726364891
 21
14.27542100976151
 31
0.0
  0
LINE
  5
319
330
1F
100
AcDbEntity
  8
Crea2D$visibili$linee
100
AcDbLine
 10
-30.08226726364891
 20
14.27542100976151
 30
0.0
 11
-30.1428259941801
 21
14.2132647280182
 31
0.0
  0
LINE
  5
31A
330
1F
100
AcDbEntity
  8
Crea2D$visibili$linee
100
AcDbLine
 10
-30.1428259941801
 20
14.2132647280182
 30
0.0
 11
-30.20119099731419
 21
14.14904409571938
 31
0.0
  0
LINE
  5
31B
330
1F
100
AcDbEntity
  8
Crea2D$visibili$linee
100
AcDbLine
 10
-30.20119099731419
 20
14.14904409571938
 30
0.0
 11
-30.25729194776831
 21
14.08283649372499
 31
0.0
  0
LINE
  5
31C
330
1F
100
AcDbEntity
  8
Crea2D$visibili$linee
100
AcDbLine
 10
-30.25729194776831
 20
14.08283649372499
 30
0.0
 11
-30.3110612482667
 21
14.01472169703868
 31
0.0
  0
LINE
  5
31D
330
1F
100
AcDbEntity
  8
Crea2D$visibili$linee
100
AcDbLine
 10
-30.3110612482667
 20
14.01472169703868
 30
0.0
 11
-30.36243411099023
 21
13.94478177868519
 31
0.0
  0
LINE
  5
31E
330
1F
100
AcDbEntity
  8
Crea2D$visibili$linee
100
AcDbLine
 10
-30.36243411099023
 20
13.94478177868519
 30
0.0
 11
-30.41134863564061
 21
13.8731010108187
 31
0.0
  0
LINE
  5
31F
330
1F
100
AcDbEntity
  8
Crea2D$visibili$linee
100
AcDbLine
 10
-30.41134863564061
 20
13.8731010108187
 30
0.0
 11
-30.45774588402546
 21
13.79976576318144
 31
0.0
  0
LINE
  5
320
330
1F
100
AcDbEntity
  8
Crea2D$visibili$linee
100
AcDbLine
 10
-30.45774588402546
 20
13.79976576318144
 30
0.0
 11
-30.50156995107423
 21
13.72486439903494
 31
0.0
  0
LINE
  5
321
330
1F
100
AcDbEntity
  8
Crea2D$visibili$linee
100
AcDbLine
 10
-30.50156995107423
 20
13.72486439903494
 30
0.0
 11
-30.54276803219949
 21
13.64848716868911
 31
0.0
  0
LINE
  5
322
330
1F
100
AcDbEntity
  8
Crea2D$visibili$linee
100
AcDbLine
 10
-30.54276803219949
 20
13.64848716868911
 30
0.0
 11
-30.58129048692229
 21
13.5707261007577
 31
0.0
  0
LINE
  5
323
330
1F
100
AcDbEntity
  8
Crea2D$visibili$linee
100
AcDbLine
 10
-30.58129048692229
 20
13.5707261007577
 30
0.0
 11
-30.61709089868509
 21
13.49167489127095
 31
0.0
  0
LINE
  5
324
330
1F
100
AcDbEntity
  8
Crea2D$visibili$linee
100
AcDbLine
 10
-30.61709089868509
 20
13.49167489127095
 30
0.0
 11
-30.65012613078012
 21
13.41142879077922
 31
0.0
  0
LINE
  5
325
330
1F
100
AcDbEntity
  8
Crea2D$visibili$linee
100
AcDbLine
 10
-30.65012613078012
 20
13.41142879077922
 30
0.0
 11
-30.68035637832574
 21
13.33008448958342
 31
0.0
  0
LINE
  5
326
330
1F
100
AcDbEntity
  8
Crea2D$visibili$linee
100
AcDbLine
 10
-30.68035637832574
 20
13.33008448958342
 30
0.0
 11
-30.70774521622822
 21
13.2477400012308
 31
0.0
  0
LINE
  5
327
330
1F
100
AcDbEntity
  8
Crea2D$visibili$linee
100
AcDbLine
 10
-30.70774521622822
 20
13.2477400012308
 30
0.0
 11
-30.73225964307113
 21
13.16449454441622
 31
0.0
  0
LINE
  5
328
330
1F
100
AcDbEntity
  8
Crea2D$visibili$linee
100
AcDbLine
 10
-30.73225964307113
 20
13.16449454441622
 30
0.0
 11
-30.75387012087948
 21
13.08044842343138
 31
0.0
  0
LINE
  5
329
330
1F
100
AcDbEntity
  8
Crea2D$visibili$linee
100
AcDbLine
 10
-30.75387012087948
 20
13.08044842343138
 30
0.0
 11
-30.77255061071069
 21
12.99570290730593
 31
0.0
  0
LINE
  5
32A
330
1F
100
AcDbEntity
  8
Crea2D$visibili$linee
100
AcDbLine
 10
-30.77255061071069
 20
12.99570290730593
 30
0.0
 11
-30.78827860402951
 21
12.9103601077862
 31
0.0
  0
LINE
  5
32B
330
1F
100
AcDbEntity
  8
Crea2D$visibili$linee
100
AcDbLine
 10
-30.78827860402951
 20
12.9103601077862
 30
0.0
 11
-30.80103514982898
 21
12.82452285629846
 31
0.0
  0
LINE
  5
32C
330
1F
100
AcDbEntity
  8
Crea2D$visibili$linee
100
AcDbLine
 10
-30.80103514982898
 20
12.82452285629846
 30
0.0
 11
-30.81080487746501
 21
12.73829458004512
 31
0.0
  0
LINE
  5
32D
330
1F
100
AcDbEntity
  8
Crea2D$visibili$linee
100
AcDbLine
 10
-30.81080487746501
 20
12.73829458004512
 30
0.0
 11
-30.81757601517671
 21
12.65177917738299
 31
0.0
  0
LINE
  5
32E
330
1F
100
AcDbEntity
  8
Crea2D$visibili$linee
100
AcDbLine
 10
-30.81757601517671
 20
12.65177917738299
 30
0.0
 11
-30.82134040427055
 21
12.56508089263379
 31
0.0
  0
LINE
  5
32F
330
1F
100
AcDbEntity
  8
Crea2D$visibili$linee
100
AcDbLine
 10
-30.82134040427055
 20
12.56508089263379
 30
0.0
 11
-30.82209350895086
 21
12.47830419047794
 31
0.0
  0
LINE
  5
330
330
1F
100
AcDbEntity
  8
Crea2D$visibili$linee
100
AcDbLine
 10
-30.82209350895086
 20
12.47830419047794
 30
0.0
 11
-30.81983442178515
 21
12.39155363008275
 31
0.0
  0
LINE
  5
331
330
1F
100
AcDbEntity
  8
Crea2D$visibili$linee
100
AcDbLine
 10
-30.81983442178515
 20
12.39155363008275
 30
0.0
 11
-30.8145658647975
 21
12.30493373911669
 31
0.0
  0
LINE
  5
332
330
1F
100
AcDbEntity
  8
Crea2D$visibili$linee
100
AcDbLine
 10
-30.8145658647975
 20
12.30493373911669
 30
0.0
 11
-30.80629418618875
 21
12.2185488878018
 31
0.0
  0
LINE
  5
333
330
1F
100
AcDbEntity
  8
Crea2D$visibili$linee
100
AcDbLine
 10
-30.80629418618875
 20
12.2185488878018
 30
0.0
 11
-30.79502935268733
 21
12.13250316315561
 31
0.0
  0
LINE
  5
334
330
1F
100
AcDbEntity
  8
Crea2D$visibili$linee
100
AcDbLine
 10
-30.79502935268733
 20
12.13250316315561
 30
0.0
 11
-30.78078493754025
 21
12.04690024357443
 31
0.0
  0
LINE
  5
335
330
1F
100
AcDbEntity
  8
Crea2D$visibili$linee
100
AcDbLine
 10
-30.78078493754025
 20
12.04690024357443
 30
0.0
 11
-30.76357810415828
 21
11.96184327390899
 31
0.0
  0
LINE
  5
336
330
1F
100
AcDbEntity
  8
Crea2D$visibili$linee
100
AcDbLine
 10
-30.76357810415828
 20
11.96184327390899
 30
0.0
 11
-30.74342958543546
 21
11.87743474118285
 31
0.0
  0
LINE
  5
337
330
1F
100
AcDbEntity
  8
Crea2D$visibili$linee
100
AcDbLine
 10
-30.74342958543546
 20
11.87743474118285
 30
0.0
 11
-30.72036365876754
 21
11.79377635110359
 31
0.0
  0
LINE
  5
338
330
1F
100
AcDbEntity
  8
Crea2D$visibili$linee
100
AcDbLine
 10
-30.72036365876754
 20
11.79377635110359
 30
0.0
 11
-30.6944081167996
 21
11.71096890551533
 31
0.0
  0
LINE
  5
339
330
1F
100
AcDbEntity
  8
Crea2D$visibili$linee
100
AcDbLine
 10
-30.6944081167996
 20
11.71096890551533
 30
0.0
 11
-30.6655942339381
 21
11.62911218094033
 31
0.0
  0
LINE
  5
33A
330
1F
100
AcDbEntity
  8
Crea2D$visibili$linee
100
AcDbLine
 10
-30.6655942339381
 20
11.62911218094033
 30
0.0
 11
-30.63395672866766
 21
11.54830480835611
 31
0.0
  0
LINE
  5
33B
330
1F
100
AcDbEntity
  8
Crea2D$visibili$linee
100
AcDbLine
 10
-30.63395672866766
 20
11.54830480835611
 30
0.0
 11
-30.59953372171796
 21
11.46864415435274
 31
0.0
  0
LINE
  5
33C
330
1F
100
AcDbEntity
  8
Crea2D$visibili$linee
100
AcDbLine
 10
-30.59953372171796
 20
11.46864415435274
 30
0.0
 11
-30.56236669013126
 21
11.39022620381375
 31
0.0
  0
LINE
  5
33D
330
1F
100
AcDbEntity
  8
Crea2D$visibili$linee
100
AcDbLine
 10
-30.56236669013126
 20
11.39022620381375
 30
0.0
 11
-30.52250041728577
 21
11.31314544426176
 31
0.0
  0
LINE
  5
33E
330
1F
100
AcDbEntity
  8
Crea2D$visibili$linee
100
AcDbLine
 10
-30.52250041728577
 20
11.31314544426176
 30
0.0
 11
-30.47998293893519
 21
11.2374947520084
 31
0.0
  0
LINE
  5
33F
330
1F
100
AcDbEntity
  8
Crea2D$visibili$linee
100
AcDbLine
 10
-30.47998293893519
 20
11.2374947520084
 30
0.0
 11
-30.43486548532937
 21
11.16336528024562
 31
0.0
  0
LINE
  5
340
330
1F
100
AcDbEntity
  8
Crea2D$visibili$linee
100
AcDbLine
 10
-30.43486548532937
 20
11.16336528024562
 30
0.0
 11
-30.38720241948581
 21
11.09084634921313
 31
0.0
  0
LINE
  5
341
330
1F
100
AcDbEntity
  8
Crea2D$visibili$linee
100
AcDbLine
 10
-30.38720241948581
 20
11.09084634921313
 30
0.0
 11
-30.3370511716865
 21
11.02002533857451
 31
0.0
  0
LINE
  5
342
330
1F
100
AcDbEntity
  8
Crea2D$visibili$linee
100
AcDbLine
 10
-30.3370511716865
 20
11.02002533857451
 30
0.0
 11
-30.28447217027889
 21
10.95098758213152
 31
0.0
  0
LINE
  5
343
330
1F
100
AcDbEntity
  8
Crea2D$visibili$linee
100
AcDbLine
 10
-30.28447217027889
 20
10.95098758213152
 30
0.0
 11
-30.22952876886443
 21
10.8838162650035
 31
0.0
  0
LINE
  5
344
330
1F
100
AcDbEntity
  8
Crea2D$visibili$linee
100
AcDbLine
 10
-30.22952876886443
 20
10.8838162650035
 30
0.0
 11
-30.17228716996244
 21
10.81859232339578
 31
0.0
  0
LINE
  5
345
330
1F
100
AcDbEntity
  8
Crea2D$visibili$linee
100
AcDbLine
 10
-30.17228716996244
 20
10.81859232339578
 30
0.0
 11
-30.11281634524118
 21
10.7553943470779
 31
0.0
  0
LINE
  5
346
330
1F
100
AcDbEntity
  8
Crea2D$visibili$linee
100
AcDbLine
 10
-30.11281634524118
 20
10.7553943470779
 30
0.0
 11
-30.05118795241242
 21
10.69429848468897
 31
0.0
  0
LINE
  5
347
330
1F
100
AcDbEntity
  8
Crea2D$visibili$linee
100
AcDbLine
 10
-30.05118795241242
 20
10.69429848468897
 30
0.0
 11
-29.98747624888944
 21
10.63537835198458
 31
0.0
  0
LINE
  5
348
330
1F
100
AcDbEntity
  8
Crea2D$visibili$linee
100
AcDbLine
 10
-29.98747624888944
 20
10.63537835198458
 30
0.0
 11
-29.92175800231264
 21
10.5787049431355
 31
0.0
  0
LINE
  5
349
330
1F
100
AcDbEntity
  8
Crea2D$visibili$linee
100
AcDbLine
 10
-29.92175800231264
 20
10.5787049431355
 30
0.0
 11
-29.85411239805054
 21
10.52434654518526
 31
0.0
  0
LINE
  5
34A
330
1F
100
AcDbEntity
  8
Crea2D$visibili$linee
100
AcDbLine
 10
-29.85411239805054
 20
10.52434654518526
 30
0.0
 11
-29.78462094378751
 21
10.47236865576954
 31
0.0
  0
LINE
  5
34B
330
1F
100
AcDbEntity
  8
Crea2D$visibili$linee
100
AcDbLine
 10
-29.78462094378751
 20
10.47236865576954
 30
0.0
 11
-29.71336737131344
 21
10.42283390419667
 31
0.0
  0
LINE
  5
34C
330
1F
100
AcDbEntity
  8
Crea2D$visibili$linee
100
AcDbLine
 10
-29.71336737131344
 20
10.42283390419667
 30
0.0
 11
-29.64043753563341
 21
10.37580197598416
 31
0.0
  0
LINE
  5
34D
330
1F
100
AcDbEntity
  8
Crea2D$visibili$linee
100
AcDbLine
 10
-29.64043753563341
 20
10.37580197598416
 30
0.0
 11
-29.56591931151909
 21
10.33132954094231
 31
0.0
  0
LINE
  5
34E
330
1F
100
AcDbEntity
  8
Crea2D$visibili$linee
100
AcDbLine
 10
-29.56591931151909
 20
10.33132954094231
 30
0.0
 11
-29.48990248762651
 21
10.28947018489151
 31
0.0
  0
LINE
  5
34F
330
1F
100
AcDbEntity
  8
Crea2D$visibili$linee
100
AcDbLine
 10
-29.48990248762651
 20
10.28947018489151
 30
0.0
 11
-29.41247865830772
 21
10.25027434509548
 31
0.0
  0
LINE
  5
350
330
1F
100
AcDbEntity
  8
Crea2D$visibili$linee
100
AcDbLine
 10
-29.41247865830772
 20
10.25027434509548
 30
0.0
 11
-29.33374111324668
 21
10.2137892494883
 31
0.0
  0
LINE
  5
351
330
1F
100
AcDbEntity
  8
Crea2D$visibili$linee
100
AcDbLine
 10
-29.33374111324668
 20
10.2137892494883
 30
0.0
 11
-29.25378472505255
 21
10.18005885976847
 31
0.0
  0
LINE
  5
352
330
1F
100
AcDbEntity
  8
Crea2D$visibili$linee
100
AcDbLine
 10
-29.25378472505255
 20
10.18005885976847
 30
0.0
 11
-29.17270583494549
 21
10.14912381842841
 31
0.0
  0
LINE
  5
353
330
1F
100
AcDbEntity
  8
Crea2D$visibili$linee
100
AcDbLine
 10
-29.17270583494549
 20
10.14912381842841
 30
0.0
 11
-29.09060213667307
 21
10.12102139978349
 31
0.0
  0
LINE
  5
354
330
1F
100
AcDbEntity
  8
Crea2D$visibili$linee
100
AcDbLine
 10
-29.09060213667307
 20
10.12102139978349
 30
0.0
 11
-29.00757255879685
 21
10.09578546505937
 31
0.0
  0
LINE
  5
355
330
1F
100
AcDbEntity
  8
Crea2D$visibili$linee
100
AcDbLine
 10
-29.00757255879685
 20
10.09578546505937
 30
0.0
 11
-28.92371714549123
 21
10.0734464215918
 31
0.0
  0
LINE
  5
356
330
1F
100
AcDbEntity
  8
Crea2D$visibili$linee
100
AcDbLine
 10
-28.92371714549123
 20
10.0734464215918
 30
0.0
 11
-28.83913693599794
 21
10.05403118618826
 31
0.0
  0
LINE
  5
357
330
1F
100
AcDbEntity
  8
Crea2D$visibili$linee
100
AcDbLine
 10
-28.83913693599794
 20
10.05403118618826
 30
0.0
 11
-28.7539338428817
 21
10.03756315269518
 31
0.0
  0
LINE
  5
358
330
1F
100
AcDbEntity
  8
Crea2D$visibili$linee
100
AcDbLine
 10
-28.7539338428817
 20
10.03756315269518
 30
0.0
 11
-28.66821052923347
 21
10.02406216381029
 31
0.0
  0
LINE
  5
359
330
1F
100
AcDbEntity
  8
Crea2D$visibili$linee
100
AcDbLine
 10
-28.66821052923347
 20
10.02406216381029
 30
0.0
 11
-28.58207028496943
 21
10.01354448717362
 31
0.0
  0
LINE
  5
35A
330
1F
100
AcDbEntity
  8
Crea2D$visibili$linee
100
AcDbLine
 10
-28.58207028496943
 20
10.01354448717362
 30
0.0
 11
-28.49561690237466
 21
10.00602279576634
 31
0.0
  0
LINE
  5
35B
330
1F
100
AcDbEntity
  8
Crea2D$visibili$linee
100
AcDbLine
 10
-28.49561690237466
 20
10.00602279576634
 30
0.0
 11
-28.40895455104158
 21
10.00150615264074
 31
0.0
  0
LINE
  5
35C
330
1F
100
AcDbEntity
  8
Crea2D$visibili$linee
100
AcDbLine
 10
-28.40895455104158
 20
10.00150615264074
 30
0.0
 11
-28.32218765235362
 21
10.0
 31
0.0
  0
LINE
  5
35D
330
1F
100
AcDbEntity
  8
Crea2D$visibili$linee
100
AcDbLine
 10
-16.82218765235362
 20
20.0
 30
0.0
 11
-12.32218765235385
 21
22.0
 31
0.0
  0
LINE
  5
35E
330
1F
100
AcDbEntity
  8
Crea2D$visibili$linee
100
AcDbLine
 10
-12.32218765235385
 20
3.0
 30
0.0
 11
-16.82218765235362
 21
5.0
 31
0.0
  0
LINE
  5
35F
330
1F
100
AcDbEntity
  8
Crea2D$visibili$linee
100
AcDbLine
 10
-39.82218765235362
 20
20.0
 30
0.0
 11
-44.32218765235407
 21
22.0
 31
0.0
  0
LINE
  5
360
330
1F
100
AcDbEntity
  8
Crea2D$visibili$linee
100
AcDbLine
 10
-44.32218765235407
 20
3.0
 30
0.0
 11
-39.82218765235362
 21
5.0
 31
0.0
  0
LINE
  5
361
330
1F
100
AcDbEntity
  8
Crea2D$visibili$linee
100
AcDbLine
 10
-28.32218765235271
 20
8.806818181818186
 30
0.0
 11
-28.45036602541446
 21
8.809043180037425
 31
0.0
  0
LINE
  5
362
330
1F
100
AcDbEntity
  8
Crea2D$visibili$linee
100
AcDbLine
 10
-28.45036602541446
 20
8.809043180037425
 30
0.0
 11
-28.57838995352016
 21
8.81571549374566
 31
0.0
  0
LINE
  5
363
330
1F
100
AcDbEntity
  8
Crea2D$visibili$linee
100
AcDbLine
 10
-28.57838995352016
 20
8.81571549374566
 30
0.0
 11
-28.70610517780788
 21
8.826827083324563
 31
0.0
  0
LINE
  5
364
330
1F
100
AcDbEntity
  8
Crea2D$visibili$linee
100
AcDbLine
 10
-28.70610517780788
 20
8.826827083324563
 30
0.0
 11
-28.83335781137977
 21
8.842364560174143
 31
0.0
  0
LINE
  5
365
330
1F
100
AcDbEntity
  8
Crea2D$visibili$linee
100
AcDbLine
 10
-28.83335781137977
 20
8.842364560174143
 30
0.0
 11
-28.95999452472376
 21
8.862309202844972
 31
0.0
  0
LINE
  5
366
330
1F
100
AcDbEntity
  8
Crea2D$visibili$linee
100
AcDbLine
 10
-28.95999452472376
 20
8.862309202844972
 30
0.0
 11
-29.08586273046365
 21
8.886636979596067
 31
0.0
  0
LINE
  5
367
330
1F
100
AcDbEntity
  8
Crea2D$visibili$linee
100
AcDbLine
 10
-29.08586273046365
 20
8.886636979596067
 30
0.0
 11
-29.21081076721511
 21
8.915318577351273
 31
0.0
  0
LINE
  5
368
330
1F
100
AcDbEntity
  8
Crea2D$visibili$linee
100
AcDbLine
 10
-29.21081076721511
 20
8.915318577351273
 30
0.0
 11
-29.3346880823257
 21
8.948319437019225
 31
0.0
  0
LINE
  5
369
330
1F
100
AcDbEntity
  8
Crea2D$visibili$linee
100
AcDbLine
 10
-29.3346880823257
 20
8.948319437019225
 30
0.0
 11
-29.45734541327921
 21
8.985599795134378
 31
0.0
  0
LINE
  5
36A
330
1F
100
AcDbEntity
  8
Crea2D$visibili$linee
100
AcDbLine
 10
-29.45734541327921
 20
8.985599795134378
 30
0.0
 11
-29.5786349675453
 21
9.027114731768875
 31
0.0
  0
LINE
  5
36B
330
1F
100
AcDbEntity
  8
Crea2D$visibili$linee
100
AcDbLine
 10
-29.5786349675453
 20
9.027114731768875
 30
0.0
 11
-29.69841060065801
 21
9.072814224657559
 31
0.0
  0
LINE
  5
36C
330
1F
100
AcDbEntity
  8
Crea2D$visibili$linee
100
AcDbLine
 10
-29.69841060065801
 20
9.072814224657559
 30
0.0
 11
-29.81652799230845
 21
9.122643209470915
 31
0.0
  0
LINE
  5
36D
330
1F
100
AcDbEntity
  8
Crea2D$visibili$linee
100
AcDbLine
 10
-29.81652799230845
 20
9.122643209470915
 30
0.0
 11
-29.93284482023955
 21
9.176541646163293
 31
0.0
  0
LINE
  5
36E
330
1F
100
AcDbEntity
  8
Crea2D$visibili$linee
100
AcDbLine
 10
-29.93284482023955
 20
9.176541646163293
 30
0.0
 11
-30.04722093173324
 21
9.234444591316492
 31
0.0
  0
LINE
  5
36F
330
1F
100
AcDbEntity
  8
Crea2D$visibili$linee
100
AcDbLine
 10
-30.04722093173324
 20
9.234444591316492
 30
0.0
 11
-30.15951851248366
 21
9.296282276391508
 31
0.0
  0
LINE
  5
370
330
1F
100
AcDbEntity
  8
Crea2D$visibili$linee
100
AcDbLine
 10
-30.15951851248366
 20
9.296282276391508
 30
0.0
 11
-30.26960225265256
 21
9.361980191794204
 31
0.0
  0
LINE
  5
371
330
1F
100
AcDbEntity
  8
Crea2D$visibili$linee
100
AcDbLine
 10
-30.26960225265256
 20
9.361980191794204
 30
0.0
 11
-30.37733950990717
 21
9.431459176653561
 31
0.0
  0
LINE
  5
372
330
1F
100
AcDbEntity
  8
Crea2D$visibili$linee
100
AcDbLine
 10
-30.37733950990717
 20
9.431459176653561
 30
0.0
 11
-30.48260046924388
 21
9.504635514204361
 31
0.0
  0
LINE
  5
373
330
1F
100
AcDbEntity
  8
Crea2D$visibili$linee
100
AcDbLine
 10
-30.48260046924388
 20
9.504635514204361
 30
0.0
 11
-30.58525829940519
 21
9.58142103265937
 31
0.0
  0
LINE
  5
374
330
1F
100
AcDbEntity
  8
Crea2D$visibili$linee
100
AcDbLine
 10
-30.58525829940519
 20
9.58142103265937
 30
0.0
 11
-30.68518930570152
 21
9.661723211449475
 31
0.0
  0
LINE
  5
375
330
1F
100
AcDbEntity
  8
Crea2D$visibili$linee
100
AcDbLine
 10
-30.68518930570152
 20
9.661723211449475
 30
0.0
 11
-30.78227307905363
 21
9.745445292703763
 31
0.0
  0
LINE
  5
376
330
1F
100
AcDbEntity
  8
Crea2D$visibili$linee
100
AcDbLine
 10
-30.78227307905363
 20
9.745445292703763
 30
0.0
 11
-30.87639264107624
 21
9.832486397835218
 31
0.0
  0
LINE
  5
377
330
1F
100
AcDbEntity
  8
Crea2D$visibili$linee
100
AcDbLine
 10
-30.87639264107624
 20
9.832486397835218
 30
0.0
 11
-30.96743458502784
 21
9.922741649091562
 31
0.0
  0
LINE
  5
378
330
1F
100
AcDbEntity
  8
Crea2D$visibili$linee
100
AcDbLine
 10
-30.96743458502784
 20
9.922741649091562
 30
0.0
 11
-31.055289212457
 21
10.01610229592478
 31
0.0
  0
LINE
  5
379
330
1F
100
AcDbEntity
  8
Crea2D$visibili$linee
100
AcDbLine
 10
-31.055289212457
 20
10.01610229592478
 30
0.0
 11
-31.13985066538043
 21
10.11245584602705
 31
0.0
  0
LINE
  5
37A
330
1F
100
AcDbEntity
  8
Crea2D$visibili$linee
100
AcDbLine
 10
-31.13985066538043
 20
10.11245584602705
 30
0.0
 11
-31.22101705383363
 21
10.21168620087524
 31
0.0
  0
LINE
  5
37B
330
1F
100
AcDbEntity
  8
Crea2D$visibili$linee
100
AcDbLine
 10
-31.22101705383363
 20
10.21168620087524
 30
0.0
 11
-31.29869057864036
 21
10.31367379562055
 31
0.0
  0
LINE
  5
37C
330
1F
100
AcDbEntity
  8
Crea2D$visibili$linee
100
AcDbLine
 10
-31.29869057864036
 20
10.31367379562055
 30
0.0
 11
-31.372777649253
 21
10.41829574315485
 31
0.0
  0
LINE
  5
37D
330
1F
100
AcDbEntity
  8
Crea2D$visibili$linee
100
AcDbLine
 10
-31.372777649253
 20
10.41829574315485
 30
0.0
 11
-31.44318899652193
 21
10.5254259821801
 31
0.0
  0
LINE
  5
37E
330
1F
100
AcDbEntity
  8
Crea2D$visibili$linee
100
AcDbLine
 10
-31.44318899652193
 20
10.5254259821801
 30
0.0
 11
-31.50983978025784
 21
10.63493542910237
 31
0.0
  0
LINE
  5
37F
330
1F
100
AcDbEntity
  8
Crea2D$visibili$linee
100
AcDbLine
 10
-31.50983978025784
 20
10.63493542910237
 30
0.0
 11
-31.57264969145759
 21
10.74669213356753
 31
0.0
  0
LINE
  5
380
330
1F
100
AcDbEntity
  8
Crea2D$visibili$linee
100
AcDbLine
 10
-31.57264969145759
 20
10.74669213356753
 30
0.0
 11
-31.63154304907027
 21
10.86056143745114
 31
0.0
  0
LINE
  5
381
330
1F
100
AcDbEntity
  8
Crea2D$visibili$linee
100
AcDbLine
 10
-31.63154304907027
 20
10.86056143745114
 30
0.0
 11
-31.68644889118703
 21
10.976406137111
 31
0.0
  0
LINE
  5
382
330
1F
100
AcDbEntity
  8
Crea2D$visibili$linee
100
AcDbLine
 10
-31.68644889118703
 20
10.976406137111
 30
0.0
 11
-31.73730106054458
 21
11.09408664870687
 31
0.0
  0
LINE
  5
383
330
1F
100
AcDbEntity
  8
Crea2D$visibili$linee
100
AcDbLine
 10
-31.73730106054458
 20
11.09408664870687
 30
0.0
 11
-31.78403828423958
 21
11.21346117638809
 31
0.0
  0
LINE
  5
384
330
1F
100
AcDbEntity
  8
Crea2D$visibili$linee
100
AcDbLine
 10
-31.78403828423958
 20
11.21346117638809
 30
0.0
 11
-31.82660424755774
 21
11.3343858831466
 31
0.0
  0
LINE
  5
385
330
1F
100
AcDbEntity
  8
Crea2D$visibili$linee
100
AcDbLine
 10
-31.82660424755774
 20
11.3343858831466
 30
0.0
 11
-31.86494766182859
 21
11.45671506412925
 31
0.0
  0
LINE
  5
386
330
1F
100
AcDbEntity
  8
Crea2D$visibili$linee
100
AcDbLine
 10
-31.86494766182859
 20
11.45671506412925
 30
0.0
 11
-31.89902232622443
 21
11.58030132220087
 31
0.0
  0
LINE
  5
387
330
1F
100
AcDbEntity
  8
Crea2D$visibili$linee
100
AcDbLine
 10
-31.89902232622443
 20
11.58030132220087
 30
0.0
 11
-31.92878718342863
 21
11.70499574554629
 31
0.0
  0
LINE
  5
388
330
1F
100
AcDbEntity
  8
Crea2D$visibili$linee
100
AcDbLine
 10
-31.92878718342863
 20
11.70499574554629
 30
0.0
 11
-31.95420636910657
 21
11.83064808709751
 31
0.0
  0
LINE
  5
389
330
1F
100
AcDbEntity
  8
Crea2D$visibili$linee
100
AcDbLine
 10
-31.95420636910657
 20
11.83064808709751
 30
0.0
 11
-31.97524925511935
 21
11.95710694556969
 31
0.0
  0
LINE
  5
38A
330
1F
100
AcDbEntity
  8
Crea2D$visibili$linee
100
AcDbLine
 10
-31.97524925511935
 20
11.95710694556969
 30
0.0
 11
-31.99189048642829
 21
12.08421994788792
 31
0.0
  0
LINE
  5
38B
330
1F
100
AcDbEntity
  8
Crea2D$visibili$linee
100
AcDbLine
 10
-31.99189048642829
 20
12.08421994788792
 30
0.0
 11
-32.00411001164582
 21
12.21183393278493
 31
0.0
  0
LINE
  5
38C
330
1F
100
AcDbEntity
  8
Crea2D$visibili$linee
100
AcDbLine
 10
-32.00411001164582
 20
12.21183393278493
 30
0.0
 11
-32.01189310719577
 21
12.33979513534841
 31
0.0
  0
LINE
  5
38D
330
1F
100
AcDbEntity
  8
Crea2D$visibili$linee
100
AcDbLine
 10
-32.01189310719577
 20
12.33979513534841
 30
0.0
 11
-32.01523039505425
 21
12.46794937229586
 31
0.0
  0
LINE
  5
38E
330
1F
100
AcDbEntity
  8
Crea2D$visibili$linee
100
AcDbLine
 10
-32.01523039505425
 20
12.46794937229586
 30
0.0
 11
-32.01411785404929
 21
12.59614222775335
 31
0.0
  0
LINE
  5
38F
330
1F
100
AcDbEntity
  8
Crea2D$visibili$linee
100
AcDbLine
 10
-32.01411785404929
 20
12.59614222775335
 30
0.0
 11
-32.00855682470616
 21
12.72421923931467
 31
0.0
  0
LINE
  5
390
330
1F
100
AcDbEntity
  8
Crea2D$visibili$linee
100
AcDbLine
 10
-32.00855682470616
 20
12.72421923931467
 30
0.0
 11
-31.99855400763208
 21
12.85202608415647
 31
0.0
  0
LINE
  5
391
330
1F
100
AcDbEntity
  8
Crea2D$visibili$linee
100
AcDbLine
 10
-31.99855400763208
 20
12.85202608415647
 30
0.0
 11
-31.98412145544254
 21
12.97940876498526
 31
0.0
  0
LINE
  5
392
330
1F
100
AcDbEntity
  8
Crea2D$visibili$linee
100
AcDbLine
 10
-31.98412145544254
 20
12.97940876498526
 30
0.0
 11
-31.96527655823881
 21
13.10621379559215
 31
0.0
  0
LINE
  5
393
330
1F
100
AcDbEntity
  8
Crea2D$visibili$linee
100
AcDbLine
 10
-31.96527655823881
 20
13.10621379559215
 30
0.0
 11
-31.94204202265423
 21
13.23228838579177
 31
0.0
  0
LINE
  5
394
330
1F
100
AcDbEntity
  8
Crea2D$visibili$linee
100
AcDbLine
 10
-31.94204202265423
 20
13.23228838579177
 30
0.0
 11
-31.91444584449452
 21
13.35748062552255
 31
0.0
  0
LINE
  5
395
330
1F
100
AcDbEntity
  8
Crea2D$visibili$linee
100
AcDbLine
 10
-31.91444584449452
 20
13.35748062552255
 30
0.0
 11
-31.88252127500495
 21
13.48163966788653
 31
0.0
  0
LINE
  5
396
330
1F
100
AcDbEntity
  8
Crea2D$visibili$linee
100
AcDbLine
 10
-31.88252127500495
 20
13.48163966788653
 30
0.0
 11
-31.84630678080525
 21
13.60461591090807
 31
0.0
  0
LINE
  5
397
330
1F
100
AcDbEntity
  8
Crea2D$visibili$linee
100
AcDbLine
 10
-31.84630678080525
 20
13.60461591090807
 30
0.0
 11
-31.80584599754026
 21
13.72626117779264
 31
0.0
  0
LINE
  5
398
330
1F
100
AcDbEntity
  8
Crea2D$visibili$linee
100
AcDbLine
 10
-31.80584599754026
 20
13.72626117779264
 30
0.0
 11
-31.76118767730244
 21
13.84642889546826
 31
0.0
  0
LINE
  5
399
330
1F
100
AcDbEntity
  8
Crea2D$visibili$linee
100
AcDbLine
 10
-31.76118767730244
 20
13.84642889546826
 30
0.0
 11
-31.71238562988935
 21
13.96497427119471
 31
0.0
  0
LINE
  5
39A
330
1F
100
AcDbEntity
  8
Crea2D$visibili$linee
100
AcDbLine
 10
-31.71238562988935
 20
13.96497427119471
 30
0.0
 11
-31.65949865796707
 21
14.08175446702741
 31
0.0
  0
LINE
  5
39B
330
1F
100
AcDbEntity
  8
Crea2D$visibili$linee
100
AcDbLine
 10
-31.65949865796707
 20
14.08175446702741
 30
0.0
 11
-31.60259048621752
 21
14.1966287719261
 31
0.0
  0
LINE
  5
39C
330
1F
100
AcDbEntity
  8
Crea2D$visibili$linee
100
AcDbLine
 10
-31.60259048621752
 20
14.1966287719261
 30
0.0
 11
-31.54172968455525
 21
14.30945877130064
 31
0.0
  0
LINE
  5
39D
330
1F
100
AcDbEntity
  8
Crea2D$visibili$linee
100
AcDbLine
 10
-31.54172968455525
 20
14.30945877130064
 30
0.0
 11
-31.47698958550594
 21
14.42010851378981
 31
0.0
  0
LINE
  5
39E
330
1F
100
AcDbEntity
  8
Crea2D$visibili$linee
100
AcDbLine
 10
-31.47698958550594
 20
14.42010851378981
 30
0.0
 11
-31.40844819584654
 21
14.52844467507214
 31
0.0
  0
LINE
  5
39F
330
1F
100
AcDbEntity
  8
Crea2D$visibili$linee
100
AcDbLine
 10
-31.40844819584654
 20
14.52844467507214
 30
0.0
 11
-31.33618810261306
 21
14.63433671851131
 31
0.0
  0
LINE
  5
3A0
330
1F
100
AcDbEntity
  8
Crea2D$visibili$linee
100
AcDbLine
 10
-31.33618810261306
 20
14.63433671851131
 30
0.0
 11
-31.26029637358969
 21
14.73765705244262
 31
0.0
  0
LINE
  5
3A1
330
1F
100
AcDbEntity
  8
Crea2D$visibili$linee
100
AcDbLine
 10
-31.26029637358969
 20
14.73765705244262
 30
0.0
 11
-31.18086445239891
 21
14.83828118391105
 31
0.0
  0
LINE
  5
3A2
330
1F
100
AcDbEntity
  8
Crea2D$visibili$linee
100
AcDbLine
 10
-31.18086445239891
 20
14.83828118391105
 30
0.0
 11
-31.09798804831901
 21
14.93608786867552
 31
0.0
  0
LINE
  5
3A3
330
1F
100
AcDbEntity
  8
Crea2D$visibili$linee
100
AcDbLine
 10
-31.09798804831901
 20
14.93608786867552
 30
0.0
 11
-31.01176702096186
 21
15.0309592572988
 31
0.0
  0
LINE
  5
3A4
330
1F
100
AcDbEntity
  8
Crea2D$visibili$linee
100
AcDbLine
 10
-31.01176702096186
 20
15.0309592572988
 30
0.0
 11
-30.9223052599499
 21
15.1227810371469
 31
0.0
  0
LINE
  5
3A5
330
1F
100
AcDbEntity
  8
Crea2D$visibili$linee
100
AcDbLine
 10
-30.9223052599499
 20
15.1227810371469
 30
0.0
 11
-30.8297105597372
 21
15.21144257012685
 31
0.0
  0
LINE
  5
3A6
330
1F
100
AcDbEntity
  8
Crea2D$visibili$linee
100
AcDbLine
 10
-30.8297105597372
 20
15.21144257012685
 30
0.0
 11
-30.73409448972557
 21
15.29683702599703
 31
0.0
  0
LINE
  5
3A7
330
1F
100
AcDbEntity
  8
Crea2D$visibili$linee
100
AcDbLine
 10
-30.73409448972557
 20
15.29683702599703
 30
0.0
 11
-30.63557225983208
 21
15.37886151108927
 31
0.0
  0
LINE
  5
3A8
330
1F
100
AcDbEntity
  8
Crea2D$visibili$linee
100
AcDbLine
 10
-30.63557225983208
 20
15.37886151108927
 30
0.0
 11
-30.5342625816701
 21
15.4574171922877
 31
0.0
  0
LINE
  5
3A9
330
1F
100
AcDbEntity
  8
Crea2D$visibili$linee
100
AcDbLine
 10
-30.5342625816701
 20
15.4574171922877
 30
0.0
 11
-30.43028752551108
 21
15.53240941611499
 31
0.0
  0
LINE
  5
3AA
330
1F
100
AcDbEntity
  8
Crea2D$visibili$linee
100
AcDbLine
 10
-30.43028752551108
 20
15.53240941611499
 30
0.0
 11
-30.32377237319934
 21
15.60374782278237
 31
0.0
  0
LINE
  5
3AB
330
1F
100
AcDbEntity
  8
Crea2D$visibili$linee
100
AcDbLine
 10
-30.32377237319934
 20
15.60374782278237
 30
0.0
 11
-30.21484546719723
 21
15.67134645506616
 31
0.0
  0
LINE
  5
3AC
330
1F
100
AcDbEntity
  8
Crea2D$visibili$linee
100
AcDbLine
 10
-30.21484546719723
 20
15.67134645506616
 30
0.0
 11
-30.10363805594244
 21
15.73512386187956
 31
0.0
  0
LINE
  5
3AD
330
1F
100
AcDbEntity
  8
Crea2D$visibili$linee
100
AcDbLine
 10
-30.10363805594244
 20
15.73512386187956
 30
0.0
 11
-29.99028413570388
 21
15.7950031964148
 31
0.0
  0
LINE
  5
3AE
330
1F
100
AcDbEntity
  8
Crea2D$visibili$linee
100
AcDbLine
 10
-29.99028413570388
 20
15.7950031964148
 30
0.0
 11
-29.87492028912658
 21
15.85091230873761
 31
0.0
  0
LINE
  5
3AF
330
1F
100
AcDbEntity
  8
Crea2D$visibili$linee
100
AcDbLine
 10
-29.87492028912658
 20
15.85091230873761
 30
0.0
 11
-29.7576855206603
 21
15.90278383272227
 31
0.0
  0
LINE
  5
3B0
330
1F
100
AcDbEntity
  8
Crea2D$visibili$linee
100
AcDbLine
 10
-29.7576855206603
 20
15.90278383272227
 30
0.0
 11
-29.63872108906993
 21
15.95055526722251
 31
0.0
  0
LINE
  5
3B1
330
1F
100
AcDbEntity
  8
Crea2D$visibili$linee
100
AcDbLine
 10
-29.63872108906993
 20
15.95055526722251
 30
0.0
 11
-29.51817033722968
 21
15.99416905138055
 31
0.0
  0
LINE
  5
3B2
330
1F
100
AcDbEntity
  8
Crea2D$visibili$linee
100
AcDbLine
 10
-29.51817033722968
 20
15.99416905138055
 30
0.0
 11
-29.39617851940615
 21
16.03357263398345
 31
0.0
  0
LINE
  5
3B3
330
1F
100
AcDbEntity
  8
Crea2D$visibili$linee
100
AcDbLine
 10
-29.39617851940615
 20
16.03357263398345
 30
0.0
 11
-29.27289262623818
 21
16.06871853678321
 31
0.0
  0
LINE
  5
3B4
330
1F
100
AcDbEntity
  8
Crea2D$visibili$linee
100
AcDbLine
 10
-29.27289262623818
 20
16.06871853678321
 30
0.0
 11
-29.14846120762463
 21
16.09956441170438
 31
0.0
  0
LINE
  5
3B5
330
1F
100
AcDbEntity
  8
Crea2D$visibili$linee
100
AcDbLine
 10
-29.14846120762463
 20
16.09956441170438
 30
0.0
 11
-29.02303419373328
 21
16.12607309187019
 31
0.0
  0
LINE
  5
3B6
330
1F
100
AcDbEntity
  8
Crea2D$visibili$linee
100
AcDbLine
 10
-29.02303419373328
 20
16.12607309187019
 30
0.0
 11
-28.89676271434669
 21
16.14821263638572
 31
0.0
  0
LINE
  5
3B7
330
1F
100
AcDbEntity
  8
Crea2D$visibili$linee
100
AcDbLine
 10
-28.89676271434669
 20
16.14821263638572
 30
0.0
 11
-28.76979891676256
 21
16.16595636882424
 31
0.0
  0
LINE
  5
3B8
330
1F
100
AcDbEntity
  8
Crea2D$visibili$linee
100
AcDbLine
 10
-28.76979891676256
 20
16.16595636882424
 30
0.0
 11
-28.6422957824681
 21
16.17928290937016
 31
0.0
  0
LINE
  5
3B9
330
1F
100
AcDbEntity
  8
Crea2D$visibili$linee
100
AcDbLine
 10
-28.6422957824681
 20
16.17928290937016
 30
0.0
 11
-28.51440694280924
 21
16.18817620058009
 31
0.0
  0
LINE
  5
3BA
330
1F
100
AcDbEntity
  8
Crea2D$visibili$linee
100
AcDbLine
 10
-28.51440694280924
 20
16.18817620058009
 30
0.0
 11
-28.38628649387686
 21
16.19262552673081
 31
0.0
  0
LINE
  5
3BB
330
1F
100
AcDbEntity
  8
Crea2D$visibili$linee
100
AcDbLine
 10
-28.38628649387686
 20
16.19262552673081
 30
0.0
 11
-28.25808881083292
 21
16.19262552673085
 31
0.0
  0
LINE
  5
3BC
330
1F
100
AcDbEntity
  8
Crea2D$visibili$linee
100
AcDbLine
 10
-28.25808881083292
 20
16.19262552673085
 30
0.0
 11
-28.12996836190052
 21
16.18817620058021
 31
0.0
  0
LINE
  5
3BD
330
1F
100
AcDbEntity
  8
Crea2D$visibili$linee
100
AcDbLine
 10
-28.12996836190052
 20
16.18817620058021
 30
0.0
 11
-28.00207952224166
 21
16.17928290937035
 31
0.0
  0
LINE
  5
3BE
330
1F
100
AcDbEntity
  8
Crea2D$visibili$linee
100
AcDbLine
 10
-28.00207952224166
 20
16.17928290937035
 30
0.0
 11
-27.8745763879472
 21
16.1659563688245
 31
0.0
  0
LINE
  5
3BF
330
1F
100
AcDbEntity
  8
Crea2D$visibili$linee
100
AcDbLine
 10
-27.8745763879472
 20
16.1659563688245
 30
0.0
 11
-27.74761259036305
 21
16.14821263638606
 31
0.0
  0
LINE
  5
3C0
330
1F
100
AcDbEntity
  8
Crea2D$visibili$linee
100
AcDbLine
 10
-27.74761259036305
 20
16.14821263638606
 30
0.0
 11
-27.62134111097645
 21
16.1260730918706
 31
0.0
  0
LINE
  5
3C1
330
1F
100
AcDbEntity
  8
Crea2D$visibili$linee
100
AcDbLine
 10
-27.62134111097645
 20
16.1260730918706
 30
0.0
 11
-27.49591409708509
 21
16.09956441170487
 31
0.0
  0
LINE
  5
3C2
330
1F
100
AcDbEntity
  8
Crea2D$visibili$linee
100
AcDbLine
 10
-27.49591409708509
 20
16.09956441170487
 30
0.0
 11
-27.37148267847152
 21
16.06871853678377
 31
0.0
  0
LINE
  5
3C3
330
1F
100
AcDbEntity
  8
Crea2D$visibili$linee
100
AcDbLine
 10
-27.37148267847152
 20
16.06871853678377
 30
0.0
 11
-27.24819678530354
 21
16.03357263398408
 31
0.0
  0
LINE
  5
3C4
330
1F
100
AcDbEntity
  8
Crea2D$visibili$linee
100
AcDbLine
 10
-27.24819678530354
 20
16.03357263398408
 30
0.0
 11
-27.12620496747998
 21
15.99416905138126
 31
0.0
  0
LINE
  5
3C5
330
1F
100
AcDbEntity
  8
Crea2D$visibili$linee
100
AcDbLine
 10
-27.12620496747998
 20
15.99416905138126
 30
0.0
 11
-27.0056542156397
 21
15.95055526722329
 31
0.0
  0
LINE
  5
3C6
330
1F
100
AcDbEntity
  8
Crea2D$visibili$linee
100
AcDbLine
 10
-27.0056542156397
 20
15.95055526722329
 30
0.0
 11
-26.88668978404929
 21
15.90278383272312
 31
0.0
  0
LINE
  5
3C7
330
1F
100
AcDbEntity
  8
Crea2D$visibili$linee
100
AcDbLine
 10
-26.88668978404929
 20
15.90278383272312
 30
0.0
 11
-26.76945501558299
 21
15.85091230873852
 31
0.0
  0
LINE
  5
3C8
330
1F
100
AcDbEntity
  8
Crea2D$visibili$linee
100
AcDbLine
 10
-26.76945501558299
 20
15.85091230873852
 30
0.0
 11
-26.65409116900566
 21
15.79500319641578
 31
0.0
  0
LINE
  5
3C9
330
1F
100
AcDbEntity
  8
Crea2D$visibili$linee
100
AcDbLine
 10
-26.65409116900566
 20
15.79500319641578
 30
0.0
 11
-26.54073724876707
 21
15.73512386188061
 31
0.0
  0
LINE
  5
3CA
330
1F
100
AcDbEntity
  8
Crea2D$visibili$linee
100
AcDbLine
 10
-26.54073724876707
 20
15.73512386188061
 30
0.0
 11
-26.42952983751224
 21
15.67134645506728
 31
0.0
  0
LINE
  5
3CB
330
1F
100
AcDbEntity
  8
Crea2D$visibili$linee
100
AcDbLine
 10
-26.42952983751224
 20
15.67134645506728
 30
0.0
 11
-26.32060293151008
 21
15.60374782278355
 31
0.0
  0
LINE
  5
3CC
330
1F
100
AcDbEntity
  8
Crea2D$visibili$linee
100
AcDbLine
 10
-26.32060293151008
 20
15.60374782278355
 30
0.0
 11
-26.2140877791983
 21
15.53240941611623
 31
0.0
  0
LINE
  5
3CD
330
1F
100
AcDbEntity
  8
Crea2D$visibili$linee
100
AcDbLine
 10
-26.2140877791983
 20
15.53240941611623
 30
0.0
 11
-26.11011272303924
 21
15.45741719228901
 31
0.0
  0
LINE
  5
3CE
330
1F
100
AcDbEntity
  8
Crea2D$visibili$linee
100
AcDbLine
 10
-26.11011272303924
 20
15.45741719228901
 30
0.0
 11
-26.00880304487722
 21
15.37886151109063
 31
0.0
  0
LINE
  5
3CF
330
1F
100
AcDbEntity
  8
Crea2D$visibili$linee
100
AcDbLine
 10
-26.00880304487722
 20
15.37886151109063
 30
0.0
 11
-25.91028081498367
 21
15.29683702599845
 31
0.0
  0
LINE
  5
3D0
330
1F
100
AcDbEntity
  8
Crea2D$visibili$linee
100
AcDbLine
 10
-25.91028081498367
 20
15.29683702599845
 30
0.0
 11
-25.814664744972
 21
15.21144257012833
 31
0.0
  0
LINE
  5
3D1
330
1F
100
AcDbEntity
  8
Crea2D$visibili$linee
100
AcDbLine
 10
-25.814664744972
 20
15.21144257012833
 30
0.0
 11
-25.72207004475925
 21
15.12278103714843
 31
0.0
  0
LINE
  5
3D2
330
1F
100
AcDbEntity
  8
Crea2D$visibili$linee
100
AcDbLine
 10
-25.72207004475925
 20
15.12278103714843
 30
0.0
 11
-25.63260828374723
 21
15.03095925730039
 31
0.0
  0
LINE
  5
3D3
330
1F
100
AcDbEntity
  8
Crea2D$visibili$linee
100
AcDbLine
 10
-25.63260828374723
 20
15.03095925730039
 30
0.0
 11
-25.54638725639003
 21
14.93608786867715
 31
0.0
  0
LINE
  5
3D4
330
1F
100
AcDbEntity
  8
Crea2D$visibili$linee
100
AcDbLine
 10
-25.54638725639003
 20
14.93608786867715
 30
0.0
 11
-25.46351085231006
 21
14.83828118391273
 31
0.0
  0
LINE
  5
3D5
330
1F
100
AcDbEntity
  8
Crea2D$visibili$linee
100
AcDbLine
 10
-25.46351085231006
 20
14.83828118391273
 30
0.0
 11
-25.38407893111922
 21
14.73765705244435
 31
0.0
  0
LINE
  5
3D6
330
1F
100
AcDbEntity
  8
Crea2D$visibili$linee
100
AcDbLine
 10
-25.38407893111922
 20
14.73765705244435
 30
0.0
 11
-25.30818720209579
 21
14.63433671851308
 31
0.0
  0
LINE
  5
3D7
330
1F
100
AcDbEntity
  8
Crea2D$visibili$linee
100
AcDbLine
 10
-25.30818720209579
 20
14.63433671851308
 30
0.0
 11
-25.23592710886225
 21
14.52844467507396
 31
0.0
  0
LINE
  5
3D8
330
1F
100
AcDbEntity
  8
Crea2D$visibili$linee
100
AcDbLine
 10
-25.23592710886225
 20
14.52844467507396
 30
0.0
 11
-25.16738571920278
 21
14.42010851379167
 31
0.0
  0
LINE
  5
3D9
330
1F
100
AcDbEntity
  8
Crea2D$visibili$linee
100
AcDbLine
 10
-25.16738571920278
 20
14.42010851379167
 30
0.0
 11
-25.10264562015342
 21
14.30945877130254
 31
0.0
  0
LINE
  5
3DA
330
1F
100
AcDbEntity
  8
Crea2D$visibili$linee
100
AcDbLine
 10
-25.10264562015342
 20
14.30945877130254
 30
0.0
 11
-25.04178481849108
 21
14.19662877192804
 31
0.0
  0
LINE
  5
3DB
330
1F
100
AcDbEntity
  8
Crea2D$visibili$linee
100
AcDbLine
 10
-25.04178481849108
 20
14.19662877192804
 30
0.0
 11
-24.98487664674146
 21
14.08175446702938
 31
0.0
  0
LINE
  5
3DC
330
1F
100
AcDbEntity
  8
Crea2D$visibili$linee
100
AcDbLine
 10
-24.98487664674146
 20
14.08175446702938
 30
0.0
 11
-24.93198967481911
 21
13.96497427119671
 31
0.0
  0
LINE
  5
3DD
330
1F
100
AcDbEntity
  8
Crea2D$visibili$linee
100
AcDbLine
 10
-24.93198967481911
 20
13.96497427119671
 30
0.0
 11
-24.88318762740595
 21
13.84642889547029
 31
0.0
  0
LINE
  5
3DE
330
1F
100
AcDbEntity
  8
Crea2D$visibili$linee
100
AcDbLine
 10
-24.88318762740595
 20
13.84642889547029
 30
0.0
 11
-24.83852930716806
 21
13.72626117779469
 31
0.0
  0
LINE
  5
3DF
330
1F
100
AcDbEntity
  8
Crea2D$visibili$linee
100
AcDbLine
 10
-24.83852930716806
 20
13.72626117779469
 30
0.0
 11
-24.798068523903
 21
13.60461591091015
 31
0.0
  0
LINE
  5
3E0
330
1F
100
AcDbEntity
  8
Crea2D$visibili$linee
100
AcDbLine
 10
-24.798068523903
 20
13.60461591091015
 30
0.0
 11
-24.76185402970322
 21
13.48163966788863
 31
0.0
  0
LINE
  5
3E1
330
1F
100
AcDbEntity
  8
Crea2D$visibili$linee
100
AcDbLine
 10
-24.76185402970322
 20
13.48163966788863
 30
0.0
 11
-24.72992946021359
 21
13.35748062552467
 31
0.0
  0
LINE
  5
3E2
330
1F
100
AcDbEntity
  8
Crea2D$visibili$linee
100
AcDbLine
 10
-24.72992946021359
 20
13.35748062552467
 30
0.0
 11
-24.7023332820538
 21
13.2322883857939
 31
0.0
  0
LINE
  5
3E3
330
1F
100
AcDbEntity
  8
Crea2D$visibili$linee
100
AcDbLine
 10
-24.7023332820538
 20
13.2322883857939
 30
0.0
 11
-24.67909874646915
 21
13.1062137955943
 31
0.0
  0
LINE
  5
3E4
330
1F
100
AcDbEntity
  8
Crea2D$visibili$linee
100
AcDbLine
 10
-24.67909874646915
 20
13.1062137955943
 30
0.0
 11
-24.66025384926534
 21
12.97940876498742
 31
0.0
  0
LINE
  5
3E5
330
1F
100
AcDbEntity
  8
Crea2D$visibili$linee
100
AcDbLine
 10
-24.66025384926534
 20
12.97940876498742
 30
0.0
 11
-24.64582129707572
 21
12.85202608415863
 31
0.0
  0
LINE
  5
3E6
330
1F
100
AcDbEntity
  8
Crea2D$visibili$linee
100
AcDbLine
 10
-24.64582129707572
 20
12.85202608415863
 30
0.0
 11
-24.63581848000157
 21
12.72421923931684
 31
0.0
  0
LINE
  5
3E7
330
1F
100
AcDbEntity
  8
Crea2D$visibili$linee
100
AcDbLine
 10
-24.63581848000157
 20
12.72421923931684
 30
0.0
 11
-24.63025745065837
 21
12.59614222775553
 31
0.0
  0
LINE
  5
3E8
330
1F
100
AcDbEntity
  8
Crea2D$visibili$linee
100
AcDbLine
 10
-24.63025745065837
 20
12.59614222775553
 30
0.0
 11
-24.62914490965333
 21
12.46794937229803
 31
0.0
  0
LINE
  5
3E9
330
1F
100
AcDbEntity
  8
Crea2D$visibili$linee
100
AcDbLine
 10
-24.62914490965333
 20
12.46794937229803
 30
0.0
 11
-24.63248219751173
 21
12.33979513535058
 31
0.0
  0
LINE
  5
3EA
330
1F
100
AcDbEntity
  8
Crea2D$visibili$linee
100
AcDbLine
 10
-24.63248219751173
 20
12.33979513535058
 30
0.0
 11
-24.64026529306162
 21
12.2118339327871
 31
0.0
  0
LINE
  5
3EB
330
1F
100
AcDbEntity
  8
Crea2D$visibili$linee
100
AcDbLine
 10
-24.64026529306162
 20
12.2118339327871
 30
0.0
 11
-24.65248481827906
 21
12.08421994789009
 31
0.0
  0
LINE
  5
3EC
330
1F
100
AcDbEntity
  8
Crea2D$visibili$linee
100
AcDbLine
 10
-24.65248481827906
 20
12.08421994789009
 30
0.0
 11
-24.66912604958793
 21
11.95710694557184
 31
0.0
  0
LINE
  5
3ED
330
1F
100
AcDbEntity
  8
Crea2D$visibili$linee
100
AcDbLine
 10
-24.66912604958793
 20
11.95710694557184
 30
0.0
 11
-24.69016893560063
 21
11.83064808709965
 31
0.0
  0
LINE
  5
3EE
330
1F
100
AcDbEntity
  8
Crea2D$visibili$linee
100
AcDbLine
 10
-24.69016893560063
 20
11.83064808709965
 30
0.0
 11
-24.7155881212785
 21
11.70499574554842
 31
0.0
  0
LINE
  5
3EF
330
1F
100
AcDbEntity
  8
Crea2D$visibili$linee
100
AcDbLine
 10
-24.7155881212785
 20
11.70499574554842
 30
0.0
 11
-24.74535297848263
 21
11.58030132220298
 31
0.0
  0
LINE
  5
3F0
330
1F
100
AcDbEntity
  8
Crea2D$visibili$linee
100
AcDbLine
 10
-24.74535297848263
 20
11.58030132220298
 30
0.0
 11
-24.77942764287839
 21
11.45671506413134
 31
0.0
  0
LINE
  5
3F1
330
1F
100
AcDbEntity
  8
Crea2D$visibili$linee
100
AcDbLine
 10
-24.77942764287839
 20
11.45671506413134
 30
0.0
 11
-24.81777105714917
 21
11.33438588314867
 31
0.0
  0
LINE
  5
3F2
330
1F
100
AcDbEntity
  8
Crea2D$visibili$linee
100
AcDbLine
 10
-24.81777105714917
 20
11.33438588314867
 30
0.0
 11
-24.86033702046726
 21
11.21346117639014
 31
0.0
  0
LINE
  5
3F3
330
1F
100
AcDbEntity
  8
Crea2D$visibili$linee
100
AcDbLine
 10
-24.86033702046726
 20
11.21346117639014
 30
0.0
 11
-24.9070742441622
 21
11.09408664870888
 31
0.0
  0
LINE
  5
3F4
330
1F
100
AcDbEntity
  8
Crea2D$visibili$linee
100
AcDbLine
 10
-24.9070742441622
 20
11.09408664870888
 30
0.0
 11
-24.95792641351967
 21
10.97640613711299
 31
0.0
  0
LINE
  5
3F5
330
1F
100
AcDbEntity
  8
Crea2D$visibili$linee
100
AcDbLine
 10
-24.95792641351967
 20
10.97640613711299
 30
0.0
 11
-25.01283225563636
 21
10.86056143745309
 31
0.0
  0
LINE
  5
3F6
330
1F
100
AcDbEntity
  8
Crea2D$visibili$linee
100
AcDbLine
 10
-25.01283225563636
 20
10.86056143745309
 30
0.0
 11
-25.07172561324898
 21
10.74669213356945
 31
0.0
  0
LINE
  5
3F7
330
1F
100
AcDbEntity
  8
Crea2D$visibili$linee
100
AcDbLine
 10
-25.07172561324898
 20
10.74669213356945
 30
0.0
 11
-25.13453552444866
 21
10.63493542910425
 31
0.0
  0
LINE
  5
3F8
330
1F
100
AcDbEntity
  8
Crea2D$visibili$linee
100
AcDbLine
 10
-25.13453552444866
 20
10.63493542910425
 30
0.0
 11
-25.2011863081845
 21
10.52542598218194
 31
0.0
  0
LINE
  5
3F9
330
1F
100
AcDbEntity
  8
Crea2D$visibili$linee
100
AcDbLine
 10
-25.2011863081845
 20
10.52542598218194
 30
0.0
 11
-25.27159765545337
 21
10.41829574315665
 31
0.0
  0
LINE
  5
3FA
330
1F
100
AcDbEntity
  8
Crea2D$visibili$linee
100
AcDbLine
 10
-25.27159765545337
 20
10.41829574315665
 30
0.0
 11
-25.34568472606595
 21
10.3136737956223
 31
0.0
  0
LINE
  5
3FB
330
1F
100
AcDbEntity
  8
Crea2D$visibili$linee
100
AcDbLine
 10
-25.34568472606595
 20
10.3136737956223
 30
0.0
 11
-25.42335825087262
 21
10.21168620087695
 31
0.0
  0
LINE
  5
3FC
330
1F
100
AcDbEntity
  8
Crea2D$visibili$linee
100
AcDbLine
 10
-25.42335825087262
 20
10.21168620087695
 30
0.0
 11
-25.50452463932576
 21
10.11245584602871
 31
0.0
  0
LINE
  5
3FD
330
1F
100
AcDbEntity
  8
Crea2D$visibili$linee
100
AcDbLine
 10
-25.50452463932576
 20
10.11245584602871
 30
0.0
 11
-25.58908609224913
 21
10.01610229592639
 31
0.0
  0
LINE
  5
3FE
330
1F
100
AcDbEntity
  8
Crea2D$visibili$linee
100
AcDbLine
 10
-25.58908609224913
 20
10.01610229592639
 30
0.0
 11
-25.67694071967824
 21
9.92274164909312
 31
0.0
  0
LINE
  5
3FF
330
1F
100
AcDbEntity
  8
Crea2D$visibili$linee
100
AcDbLine
 10
-25.67694071967824
 20
9.92274164909312
 30
0.0
 11
-25.76798266362979
 21
9.832486397836722
 31
0.0
  0
LINE
  5
400
330
1F
100
AcDbEntity
  8
Crea2D$visibili$linee
100
AcDbLine
 10
-25.76798266362979
 20
9.832486397836722
 30
0.0
 11
-25.86210222565235
 21
9.745445292705213
 31
0.0
  0
LINE
  5
401
330
1F
100
AcDbEntity
  8
Crea2D$visibili$linee
100
AcDbLine
 10
-25.86210222565235
 20
9.745445292705213
 30
0.0
 11
-25.95918599900441
 21
9.661723211450871
 31
0.0
  0
LINE
  5
402
330
1F
100
AcDbEntity
  8
Crea2D$visibili$linee
100
AcDbLine
 10
-25.95918599900441
 20
9.661723211450871
 30
0.0
 11
-26.05911700530068
 21
9.581421032660704
 31
0.0
  0
LINE
  5
403
330
1F
100
AcDbEntity
  8
Crea2D$visibili$linee
100
AcDbLine
 10
-26.05911700530068
 20
9.581421032660704
 30
0.0
 11
-26.16177483546195
 21
9.504635514205634
 31
0.0
  0
LINE
  5
404
330
1F
100
AcDbEntity
  8
Crea2D$visibili$linee
100
AcDbLine
 10
-26.16177483546195
 20
9.504635514205634
 30
0.0
 11
-26.26703579479862
 21
9.431459176654774
 31
0.0
  0
LINE
  5
405
330
1F
100
AcDbEntity
  8
Crea2D$visibili$linee
100
AcDbLine
 10
-26.26703579479862
 20
9.431459176654774
 30
0.0
 11
-26.37477305205319
 21
9.361980191795353
 31
0.0
  0
LINE
  5
406
330
1F
100
AcDbEntity
  8
Crea2D$visibili$linee
100
AcDbLine
 10
-26.37477305205319
 20
9.361980191795353
 30
0.0
 11
-26.48485679222205
 21
9.29628227639259
 31
0.0
  0
LINE
  5
407
330
1F
100
AcDbEntity
  8
Crea2D$visibili$linee
100
AcDbLine
 10
-26.48485679222205
 20
9.29628227639259
 30
0.0
 11
-26.59715437297243
 21
9.234444591317508
 31
0.0
  0
LINE
  5
408
330
1F
100
AcDbEntity
  8
Crea2D$visibili$linee
100
AcDbLine
 10
-26.59715437297243
 20
9.234444591317508
 30
0.0
 11
-26.71153048446609
 21
9.176541646164244
 31
0.0
  0
LINE
  5
409
330
1F
100
AcDbEntity
  8
Crea2D$visibili$linee
100
AcDbLine
 10
-26.71153048446609
 20
9.176541646164244
 30
0.0
 11
-26.82784731239715
 21
9.122643209471796
 31
0.0
  0
LINE
  5
40A
330
1F
100
AcDbEntity
  8
Crea2D$visibili$linee
100
AcDbLine
 10
-26.82784731239715
 20
9.122643209471796
 30
0.0
 11
-26.94596470404757
 21
9.072814224658367
 31
0.0
  0
LINE
  5
40B
330
1F
100
AcDbEntity
  8
Crea2D$visibili$linee
100
AcDbLine
 10
-26.94596470404757
 20
9.072814224658367
 30
0.0
 11
-27.06574033716024
 21
9.027114731769614
 31
0.0
  0
LINE
  5
40C
330
1F
100
AcDbEntity
  8
Crea2D$visibili$linee
100
AcDbLine
 10
-27.06574033716024
 20
9.027114731769614
 30
0.0
 11
-27.18702989142631
 21
8.985599795135046
 31
0.0
  0
LINE
  5
40D
330
1F
100
AcDbEntity
  8
Crea2D$visibili$linee
100
AcDbLine
 10
-27.18702989142631
 20
8.985599795135046
 30
0.0
 11
-27.3096872223798
 21
8.948319437019822
 31
0.0
  0
LINE
  5
40E
330
1F
100
AcDbEntity
  8
Crea2D$visibili$linee
100
AcDbLine
 10
-27.3096872223798
 20
8.948319437019822
 30
0.0
 11
-27.43356453749038
 21
8.915318577351795
 31
0.0
  0
LINE
  5
40F
330
1F
100
AcDbEntity
  8
Crea2D$visibili$linee
100
AcDbLine
 10
-27.43356453749038
 20
8.915318577351795
 30
0.0
 11
-27.55851257424181
 21
8.886636979596518
 31
0.0
  0
LINE
  5
410
330
1F
100
AcDbEntity
  8
Crea2D$visibili$linee
100
AcDbLine
 10
-27.55851257424181
 20
8.886636979596518
 30
0.0
 11
-27.6843807799817
 21
8.862309202845349
 31
0.0
  0
LINE
  5
411
330
1F
100
AcDbEntity
  8
Crea2D$visibili$linee
100
AcDbLine
 10
-27.6843807799817
 20
8.862309202845349
 30
0.0
 11
-27.81101749332567
 21
8.842364560174445
 31
0.0
  0
LINE
  5
412
330
1F
100
AcDbEntity
  8
Crea2D$visibili$linee
100
AcDbLine
 10
-27.81101749332567
 20
8.842364560174445
 30
0.0
 11
-27.93827012689755
 21
8.82682708332479
 31
0.0
  0
LINE
  5
413
330
1F
100
AcDbEntity
  8
Crea2D$visibili$linee
100
AcDbLine
 10
-27.93827012689755
 20
8.82682708332479
 30
0.0
 11
-28.06598535118527
 21
8.815715493745809
 31
0.0
  0
LINE
  5
414
330
1F
100
AcDbEntity
  8
Crea2D$visibili$linee
100
AcDbLine
 10
-28.06598535118527
 20
8.815715493745809
 30
0.0
 11
-28.19400927929095
 21
8.8090431800375
 31
0.0
  0
LINE
  5
415
330
1F
100
AcDbEntity
  8
Crea2D$visibili$linee
100
AcDbLine
 10
-28.19400927929095
 20
8.8090431800375
 30
0.0
 11
-28.32218765235271
 21
8.806818181818186
 31
0.0
  0
LINE
  5
416
330
1F
100
AcDbEntity
  8
Crea2D$visibili$linee
100
AcDbLine
 10
-39.82218765235362
 20
20.0
 30
0.0
 11
-16.82218765235362
 21
20.0
 31
0.0
  0
LINE
  5
417
330
1F
100
AcDbEntity
  8
Crea2D$visibili$linee
100
AcDbLine
 10
-39.82218765235362
 20
5.0
 30
0.0
 11
-39.82218765235362
 21
20.0
 31
0.0
  0
LINE
  5
418
330
1F
100
AcDbEntity
  8
Crea2D$visibili$linee
100
AcDbLine
 10
-16.82218765235362
 20
5.0
 30
0.0
 11
-39.82218765235362
 21
5.0
 31
0.0
  0
LINE
  5
419
330
1F
100
AcDbEntity
  8
Crea2D$visibili$linee
100
AcDbLine
 10
-16.82218765235362
 20
20.0
 30
0.0
 11
-16.82218765235362
 21
5.0
 31
0.0
  0
LINE
  5
41A
330
1F
100
AcDbEntity
  8
Crea2D$visibili$linee
100
AcDbLine
 10
-7.322187652353619
 20
10.75
 30
0.0
 11
-7.382924481435187
 21
10.75105430684851
 31
0.0
  0
LINE
  5
41B
330
1F
100
AcDbEntity
  8
Crea2D$visibili$linee
100
AcDbLine
 10
-7.382924481435187
 20
10.75105430684851
 30
0.0
 11
-7.443588127368347
 21
10.75421595703644
 31
0.0
  0
LINE
  5
41C
330
1F
100
AcDbEntity
  8
Crea2D$visibili$linee
100
AcDbLine
 10
-7.443588127368347
 20
10.75421595703644
 30
0.0
 11
-7.504105495184681
 21
10.75948114102153
 31
0.0
  0
LINE
  5
41D
330
1F
100
AcDbEntity
  8
Crea2D$visibili$linee
100
AcDbLine
 10
-7.504105495184681
 20
10.75948114102153
 30
0.0
 11
-7.564403666169514
 21
10.7668435146672
 31
0.0
  0
LINE
  5
41E
330
1F
100
AcDbEntity
  8
Crea2D$visibili$linee
100
AcDbLine
 10
-7.564403666169514
 20
10.7668435146672
 30
0.0
 11
-7.624409985723276
 21
10.77629420688662
 31
0.0
  0
LINE
  5
41F
330
1F
100
AcDbEntity
  8
Crea2D$visibili$linee
100
AcDbLine
 10
-7.624409985723276
 20
10.77629420688662
 30
0.0
 11
-7.684052150904641
 21
10.78782183033178
 31
0.0
  0
LINE
  5
420
330
1F
100
AcDbEntity
  8
Crea2D$visibili$linee
100
AcDbLine
 10
-7.684052150904641
 20
10.78782183033178
 30
0.0
 11
-7.74325829754994
 21
10.80141249511426
 31
0.0
  0
LINE
  5
421
330
1F
100
AcDbEntity
  8
Crea2D$visibili$linee
100
AcDbLine
 10
-7.74325829754994
 20
10.80141249511426
 30
0.0
 11
-7.801957086863878
 21
10.81704982554155
 31
0.0
  0
LINE
  5
422
330
1F
100
AcDbEntity
  8
Crea2D$visibili$linee
100
AcDbLine
 10
-7.801957086863878
 20
10.81704982554155
 30
0.0
 11
-7.860077791377229
 21
10.83471497984844
 31
0.0
  0
LINE
  5
423
330
1F
100
AcDbEntity
  8
Crea2D$visibili$linee
100
AcDbLine
 10
-7.860077791377229
 20
10.83471497984844
 30
0.0
 11
-7.917550380167925
 21
10.85438667289988
 31
0.0
  0
LINE
  5
424
330
1F
100
AcDbEntity
  8
Crea2D$visibili$linee
100
AcDbLine
 10
-7.917550380167925
 20
10.85438667289988
 30
0.0
 11
-7.974305603242864
 21
10.87604120183792
 31
0.0
  0
LINE
  5
425
330
1F
100
AcDbEntity
  8
Crea2D$visibili$linee
100
AcDbLine
 10
-7.974305603242864
 20
10.87604120183792
 30
0.0
 11
-8.030275074978758
 21
10.8996524746418
 31
0.0
  0
LINE
  5
426
330
1F
100
AcDbEntity
  8
Crea2D$visibili$linee
100
AcDbLine
 10
-8.030275074978758
 20
10.8996524746418
 30
0.0
 11
-8.085391356521483
 21
10.92519204156682
 31
0.0
  0
LINE
  5
427
330
1F
100
AcDbEntity
  8
Crea2D$visibili$linee
100
AcDbLine
 10
-8.085391356521483
 20
10.92519204156682
 30
0.0
 11
-8.139588037044644
 21
10.95262912942405
 31
0.0
  0
LINE
  5
428
330
1F
100
AcDbEntity
  8
Crea2D$visibili$linee
100
AcDbLine
 10
-8.139588037044644
 20
10.95262912942405
 30
0.0
 11
-8.192799813769449
 21
10.98193067865961
 31
0.0
  0
LINE
  5
429
330
1F
100
AcDbEntity
  8
Crea2D$visibili$linee
100
AcDbLine
 10
-8.192799813769449
 20
10.98193067865961
 30
0.0
 11
-8.244962570649471
 21
11.0130613831889
 31
0.0
  0
LINE
  5
42A
330
1F
100
AcDbEntity
  8
Crea2D$visibili$linee
100
AcDbLine
 10
-8.244962570649471
 20
11.0130613831889
 30
0.0
 11
-8.296013455625493
 21
11.04598373293766
 31
0.0
  0
LINE
  5
42B
330
1F
100
AcDbEntity
  8
Crea2D$visibili$linee
100
AcDbLine
 10
-8.296013455625493
 20
11.04598373293766
 30
0.0
 11
-8.34589095635734
 21
11.08065805903867
 31
0.0
  0
LINE
  5
42C
330
1F
100
AcDbEntity
  8
Crea2D$visibili$linee
100
AcDbLine
 10
-8.34589095635734
 20
11.08065805903867
 30
0.0
 11
-8.394534974341459
 21
11.11704258162967
 31
0.0
  0
LINE
  5
42D
330
1F
100
AcDbEntity
  8
Crea2D$visibili$linee
100
AcDbLine
 10
-8.394534974341459
 20
11.11704258162967
 30
0.0
 11
-8.441886897324934
 21
11.15509346019484
 31
0.0
  0
LINE
  5
42E
330
1F
100
AcDbEntity
  8
Crea2D$visibili$linee
100
AcDbLine
 10
-8.441886897324934
 20
11.15509346019484
 30
0.0
 11
-8.487889669928691
 21
11.1947648463892
 31
0.0
  0
LINE
  5
42F
330
1F
100
AcDbEntity
  8
Crea2D$visibili$linee
100
AcDbLine
 10
-8.487889669928691
 20
11.1947648463892
 30
0.0
 11
-8.532487862394779
 21
11.23600893928227
 31
0.0
  0
LINE
  5
430
330
1F
100
AcDbEntity
  8
Crea2D$visibili$linee
100
AcDbLine
 10
-8.532487862394779
 20
11.23600893928227
 30
0.0
 11
-8.575627737374913
 21
11.27877604295452
 31
0.0
  0
LINE
  5
431
330
1F
100
AcDbEntity
  8
Crea2D$visibili$linee
100
AcDbLine
 10
-8.575627737374913
 20
11.27877604295452
 30
0.0
 11
-8.617257314679793
 21
11.32301462637704
 31
0.0
  0
LINE
  5
432
330
1F
100
AcDbEntity
  8
Crea2D$visibili$linee
100
AcDbLine
 10
-8.617257314679793
 20
11.32301462637704
 30
0.0
 11
-8.65732643391119
 21
11.36867138550244
 31
0.0
  0
LINE
  5
433
330
1F
100
AcDbEntity
  8
Crea2D$visibili$linee
100
AcDbLine
 10
-8.65732643391119
 20
11.36867138550244
 30
0.0
 11
-8.695786814901309
 21
11.41569130749205
 31
0.0
  0
LINE
  5
434
330
1F
100
AcDbEntity
  8
Crea2D$visibili$linee
100
AcDbLine
 10
-8.695786814901309
 20
11.41569130749205
 30
0.0
 11
-8.732592115886635
 21
11.46401773700215
 31
0.0
  0
LINE
  5
435
330
1F
100
AcDbEntity
  8
Crea2D$visibili$linee
100
AcDbLine
 10
-8.732592115886635
 20
11.46401773700215
 30
0.0
 11
-8.767697989346151
 21
11.51359244444918
 31
0.0
  0
LINE
  5
436
330
1F
100
AcDbEntity
  8
Crea2D$visibili$linee
100
AcDbLine
 10
-8.767697989346151
 20
11.51359244444918
 30
0.0
 11
-8.801062135436644
 21
11.56435569617192
 31
0.0
  0
LINE
  5
437
330
1F
100
AcDbEntity
  8
Crea2D$visibili$linee
100
AcDbLine
 10
-8.801062135436644
 20
11.56435569617192
 30
0.0
 11
-8.83264435296072
 21
11.61624632640587
 31
0.0
  0
LINE
  5
438
330
1F
100
AcDbEntity
  8
Crea2D$visibili$linee
100
AcDbLine
 10
-8.83264435296072
 20
11.61624632640587
 30
0.0
 11
-8.862406587806123
 21
11.66920181098322
 31
0.0
  0
LINE
  5
439
330
1F
100
AcDbEntity
  8
Crea2D$visibili$linee
100
AcDbLine
 10
-8.862406587806123
 20
11.66920181098322
 30
0.0
 11
-8.890312978797966
 21
11.72315834266961
 31
0.0
  0
LINE
  5
43A
330
1F
100
AcDbEntity
  8
Crea2D$visibili$linee
100
AcDbLine
 10
-8.890312978797966
 20
11.72315834266961
 30
0.0
 11
-8.916329900908658
 21
11.77805090804691
 31
0.0
  0
LINE
  5
43B
330
1F
100
AcDbEntity
  8
Crea2D$visibili$linee
100
AcDbLine
 10
-8.916329900908658
 20
11.77805090804691
 30
0.0
 11
-8.940426005773449
 21
11.83381336584926
 31
0.0
  0
LINE
  5
43C
330
1F
100
AcDbEntity
  8
Crea2D$visibili$linee
100
AcDbLine
 10
-8.940426005773449
 20
11.83381336584926
 30
0.0
 11
-8.96257225946276
 21
11.89037852665822
 31
0.0
  0
LINE
  5
43D
330
1F
100
AcDbEntity
  8
Crea2D$visibili$linee
100
AcDbLine
 10
-8.96257225946276
 20
11.89037852665822
 30
0.0
 11
-8.982741977465806
 21
11.94767823386072
 31
0.0
  0
LINE
  5
43E
330
1F
100
AcDbEntity
  8
Crea2D$visibili$linee
100
AcDbLine
 10
-8.982741977465806
 20
11.94767823386072
 30
0.0
 11
-9.000910856843367
 21
12.00564344577251
 31
0.0
  0
LINE
  5
43F
330
1F
100
AcDbEntity
  8
Crea2D$visibili$linee
100
AcDbLine
 10
-9.000910856843367
 20
12.00564344577251
 30
0.0
 11
-9.017057005510913
 21
12.06420431882798
 31
0.0
  0
LINE
  5
440
330
1F
100
AcDbEntity
  8
Crea2D$visibili$linee
100
AcDbLine
 10
-9.017057005510913
 20
12.06420431882798
 30
0.0
 11
-9.031160968616887
 21
12.12329029173628
 31
0.0
  0
LINE
  5
441
330
1F
100
AcDbEntity
  8
Crea2D$visibili$linee
100
AcDbLine
 10
-9.031160968616887
 20
12.12329029173628
 30
0.0
 11
-9.043205751984263
 21
12.18283017050209
 31
0.0
  0
LINE
  5
442
330
1F
100
AcDbEntity
  8
Crea2D$visibili$linee
100
AcDbLine
 10
-9.043205751984263
 20
12.18283017050209
 30
0.0
 11
-9.053176842587223
 21
12.24275221420891
 31
0.0
  0
LINE
  5
443
330
1F
100
AcDbEntity
  8
Crea2D$visibili$linee
100
AcDbLine
 10
-9.053176842587223
 20
12.24275221420891
 30
0.0
 11
-9.061062226038211
 21
12.30298422146125
 31
0.0
  0
LINE
  5
444
330
1F
100
AcDbEntity
  8
Crea2D$visibili$linee
100
AcDbLine
 10
-9.061062226038211
 20
12.30298422146125
 30
0.0
 11
-9.066852401064343
 21
12.36345361738167
 31
0.0
  0
LINE
  5
445
330
1F
100
AcDbEntity
  8
Crea2D$visibili$linee
100
AcDbLine
 10
-9.066852401064343
 20
12.36345361738167
 30
0.0
 11
-9.070540390955692
 21
12.42408754105791
 31
0.0
  0
LINE
  5
446
330
1F
100
AcDbEntity
  8
Crea2D$visibili$linee
100
AcDbLine
 10
-9.070540390955692
 20
12.42408754105791
 30
0.0
 11
-9.072121751971689
 21
12.48481293333455
 31
0.0
  0
LINE
  5
447
330
1F
100
AcDbEntity
  8
Crea2D$visibili$linee
100
AcDbLine
 10
-9.072121751971689
 20
12.48481293333455
 30
0.0
 11
-9.071594578695474
 21
12.54555662484364
 31
0.0
  0
LINE
  5
448
330
1F
100
AcDbEntity
  8
Crea2D$visibili$linee
100
AcDbLine
 10
-9.071594578695474
 20
12.54555662484364
 30
0.0
 11
-9.06895950632979
 21
12.60624542416808
 31
0.0
  0
LINE
  5
449
330
1F
100
AcDbEntity
  8
Crea2D$visibili$linee
100
AcDbLine
 10
-9.06895950632979
 20
12.60624542416808
 30
0.0
 11
-9.064219709931593
 21
12.66680620603157
 31
0.0
  0
LINE
  5
44A
330
1F
100
AcDbEntity
  8
Crea2D$visibili$linee
100
AcDbLine
 10
-9.064219709931593
 20
12.66680620603157
 30
0.0
 11
-9.057380900586379
 21
12.7271659994089
 31
0.0
  0
LINE
  5
44B
330
1F
100
AcDbEntity
  8
Crea2D$visibili$linee
100
AcDbLine
 10
-9.057380900586379
 20
12.7271659994089
 30
0.0
 11
-9.048451318526746
 21
12.78725207545032
 31
0.0
  0
LINE
  5
44C
330
1F
100
AcDbEntity
  8
Crea2D$visibili$linee
100
AcDbLine
 10
-9.048451318526746
 20
12.78725207545032
 30
0.0
 11
-9.037441723203576
 21
12.84699203511414
 31
0.0
  0
LINE
  5
44D
330
1F
100
AcDbEntity
  8
Crea2D$visibili$linee
100
AcDbLine
 10
-9.037441723203576
 20
12.84699203511414
 30
0.0
 11
-9.024365380321725
 21
12.90631389640195
 31
0.0
  0
LINE
  5
44E
330
1F
100
AcDbEntity
  8
Crea2D$visibili$linee
100
AcDbLine
 10
-9.024365380321725
 20
12.90631389640195
 30
0.0
 11
-9.009238045855882
 21
12.96514618109134
 31
0.0
  0
LINE
  5
44F
330
1F
100
AcDbEntity
  8
Crea2D$visibili$linee
100
AcDbLine
 10
-9.009238045855882
 20
12.96514618109134
 30
0.0
 11
-8.992077947065851
 21
13.02341800086154
 31
0.0
  0
LINE
  5
450
330
1F
100
AcDbEntity
  8
Crea2D$visibili$linee
100
AcDbLine
 10
-8.992077947065851
 20
13.02341800086154
 30
0.0
 11
-8.972905760534118
 21
13.08105914270838
 31
0.0
  0
LINE
  5
451
330
1F
100
AcDbEntity
  8
Crea2D$visibili$linee
100
AcDbLine
 10
-8.972905760534118
 20
13.08105914270838
 30
0.0
 11
-8.95174458725218
 21
13.13800015354544
 31
0.0
  0
LINE
  5
452
330
1F
100
AcDbEntity
  8
Crea2D$visibili$linee
100
AcDbLine
 10
-8.95174458725218
 20
13.13800015354544
 30
0.0
 11
-8.928619924785655
 21
13.19417242388965
 31
0.0
  0
LINE
  5
453
330
1F
100
AcDbEntity
  8
Crea2D$visibili$linee
100
AcDbLine
 10
-8.928619924785655
 20
13.19417242388965
 30
0.0
 11
-8.903559636551696
 21
13.24950827053037
 31
0.0
  0
LINE
  5
454
330
1F
100
AcDbEntity
  8
Crea2D$visibili$linee
100
AcDbLine
 10
-8.903559636551696
 20
13.24950827053037
 30
0.0
 11
-8.87659391824574
 21
13.30394101808236
 31
0.0
  0
LINE
  5
455
330
1F
100
AcDbEntity
  8
Crea2D$visibili$linee
100
AcDbLine
 10
-8.87659391824574
 20
13.30394101808236
 30
0.0
 11
-8.847755261458059
 21
13.35740507932444
 31
0.0
  0
LINE
  5
456
330
1F
100
AcDbEntity
  8
Crea2D$visibili$linee
100
AcDbLine
 10
-8.847755261458059
 20
13.35740507932444
 30
0.0
 11
-8.817078414523916
 21
13.40983603422699
 31
0.0
  0
LINE
  5
457
330
1F
100
AcDbEntity
  8
Crea2D$visibili$linee
100
AcDbLine
 10
-8.817078414523916
 20
13.40983603422699
 30
0.0
 11
-8.78460034065452
 21
13.46117070757307
 31
0.0
  0
LINE
  5
458
330
1F
100
AcDbEntity
  8
Crea2D$visibili$linee
100
AcDbLine
 10
-8.78460034065452
 20
13.46117070757307
 30
0.0
 11
-8.750360173399256
 21
13.51134724507962
 31
0.0
  0
LINE
  5
459
330
1F
100
AcDbEntity
  8
Crea2D$visibili$linee
100
AcDbLine
 10
-8.750360173399256
 20
13.51134724507962
 30
0.0
 11
-8.714399169492788
 21
13.56030518792706
 31
0.0
  0
LINE
  5
45A
330
1F
100
AcDbEntity
  8
Crea2D$visibili$linee
100
AcDbLine
 10
-8.714399169492788
 20
13.56030518792706
 30
0.0
 11
-8.676760659143912
 21
13.60798554560747
 31
0.0
  0
LINE
  5
45B
330
1F
100
AcDbEntity
  8
Crea2D$visibili$linee
100
AcDbLine
 10
-8.676760659143912
 20
13.60798554560747
 30
0.0
 11
-8.637489993826033
 21
13.65433086700355
 31
0.0
  0
LINE
  5
45C
330
1F
100
AcDbEntity
  8
Crea2D$visibili$linee
100
AcDbLine
 10
-8.637489993826033
 20
13.65433086700355
 30
0.0
 11
-8.596634491632169
 21
13.69928530961273
 31
0.0
  0
LINE
  5
45D
330
1F
100
AcDbEntity
  8
Crea2D$visibili$linee
100
AcDbLine
 10
-8.596634491632169
 20
13.69928530961273
 30
0.0
 11
-8.554243380260336
 21
13.74279470683305
 31
0.0
  0
LINE
  5
45E
330
1F
100
AcDbEntity
  8
Crea2D$visibili$linee
100
AcDbLine
 10
-8.554243380260336
 20
13.74279470683305
 30
0.0
 11
-8.510367737698002
 21
13.78480663322968
 31
0.0
  0
LINE
  5
45F
330
1F
100
AcDbEntity
  8
Crea2D$visibili$linee
100
AcDbLine
 10
-8.510367737698002
 20
13.78480663322968
 30
0.0
 11
-8.465060430677093
 21
13.82527046770354
 31
0.0
  0
LINE
  5
460
330
1F
100
AcDbEntity
  8
Crea2D$visibili$linee
100
AcDbLine
 10
-8.465060430677093
 20
13.82527046770354
 30
0.0
 11
-8.418376050973705
 21
13.86413745448569
 31
0.0
  0
LINE
  5
461
330
1F
100
AcDbEntity
  8
Crea2D$visibili$linee
100
AcDbLine
 10
-8.418376050973705
 20
13.86413745448569
 30
0.0
 11
-8.370370849629249
 21
13.90136076188433
 31
0.0
  0
LINE
  5
462
330
1F
100
AcDbEntity
  8
Crea2D$visibili$linee
100
AcDbLine
 10
-8.370370849629249
 20
13.90136076188433
 30
0.0
 11
-8.321102669172349
 21
13.93689553871324
 31
0.0
  0
LINE
  5
463
330
1F
100
AcDbEntity
  8
Crea2D$visibili$linee
100
AcDbLine
 10
-8.321102669172349
 20
13.93689553871324
 30
0.0
 11
-8.270630873923083
 21
13.97069896833408
 31
0.0
  0
LINE
  5
464
330
1F
100
AcDbEntity
  8
Crea2D$visibili$linee
100
AcDbLine
 10
-8.270630873923083
 20
13.97069896833408
 30
0.0
 11
-8.219016278463609
 21
14.002730320247
 31
0.0
  0
LINE
  5
465
330
1F
100
AcDbEntity
  8
Crea2D$visibili$linee
100
AcDbLine
 10
-8.219016278463609
 20
14.002730320247
 30
0.0
 11
-8.166321074361331
 21
14.03295099916779
 31
0.0
  0
LINE
  5
466
330
1F
100
AcDbEntity
  8
Crea2D$visibili$linee
100
AcDbLine
 10
-8.166321074361331
 20
14.03295099916779
 30
0.0
 11
-8.112608755232898
 21
14.06132459153217
 31
0.0
  0
LINE
  5
467
330
1F
100
AcDbEntity
  8
Crea2D$visibili$linee
100
AcDbLine
 10
-8.112608755232898
 20
14.06132459153217
 30
0.0
 11
-8.057944040239345
 21
14.08781690937127
 31
0.0
  0
LINE
  5
468
330
1F
100
AcDbEntity
  8
Crea2D$visibili$linee
100
AcDbLine
 10
-8.057944040239345
 20
14.08781690937127
 30
0.0
 11
-8.002392796104546
 21
14.11239603150552
 31
0.0
  0
LINE
  5
469
330
1F
100
AcDbEntity
  8
Crea2D$visibili$linee
100
AcDbLine
 10
-8.002392796104546
 20
14.11239603150552
 30
0.0
 11
-7.946021957750943
 21
14.13503234200716
 31
0.0
  0
LINE
  5
46A
330
1F
100
AcDbEntity
  8
Crea2D$visibili$linee
100
AcDbLine
 10
-7.946021957750943
 20
14.13503234200716
 30
0.0
 11
-7.888899447648174
 21
14.15569856588511
 31
0.0
  0
LINE
  5
46B
330
1F
100
AcDbEntity
  8
Crea2D$visibili$linee
100
AcDbLine
 10
-7.888899447648174
 20
14.15569856588511
 30
0.0
 11
-7.831094093971787
 21
14.17436980194923
 31
0.0
  0
LINE
  5
46C
330
1F
100
AcDbEntity
  8
Crea2D$visibili$linee
100
AcDbLine
 10
-7.831094093971787
 20
14.17436980194923
 30
0.0
 11
-7.772675547670653
 21
14.19102355281433
 31
0.0
  0
LINE
  5
46D
330
1F
100
AcDbEntity
  8
Crea2D$visibili$linee
100
AcDbLine
 10
-7.772675547670653
 20
14.19102355281433
 30
0.0
 11
-7.713714198542997
 21
14.20563975200773
 31
0.0
  0
LINE
  5
46E
330
1F
100
AcDbEntity
  8
Crea2D$visibili$linee
100
AcDbLine
 10
-7.713714198542997
 20
14.20563975200773
 30
0.0
 11
-7.654281090422169
 21
14.21820078814782
 31
0.0
  0
LINE
  5
46F
330
1F
100
AcDbEntity
  8
Crea2D$visibili$linee
100
AcDbLine
 10
-7.654281090422169
 20
14.21820078814782
 30
0.0
 11
-7.594447835574367
 21
14.22869152616439
 31
0.0
  0
LINE
  5
470
330
1F
100
AcDbEntity
  8
Crea2D$visibili$linee
100
AcDbLine
 10
-7.594447835574367
 20
14.22869152616439
 30
0.0
 11
-7.534286528411424
 21
14.23709932553524
 31
0.0
  0
LINE
  5
471
330
1F
100
AcDbEntity
  8
Crea2D$visibili$linee
100
AcDbLine
 10
-7.534286528411424
 20
14.23709932553524
 30
0.0
 11
-7.473869658622662
 21
14.24341405551698
 31
0.0
  0
LINE
  5
472
330
1F
100
AcDbEntity
  8
Crea2D$visibili$linee
100
AcDbLine
 10
-7.473869658622662
 20
14.24341405551698
 30
0.0
 11
-7.413270023830464
 21
14.24762810735183
 31
0.0
  0
LINE
  5
473
330
1F
100
AcDbEntity
  8
Crea2D$visibili$linee
100
AcDbLine
 10
-7.413270023830464
 20
14.24762810735183
 30
0.0
 11
-7.352560641874807
 21
14.24973640343553
 31
0.0
  0
LINE
  5
474
330
1F
100
AcDbEntity
  8
Crea2D$visibili$linee
100
AcDbLine
 10
-7.352560641874807
 20
14.24973640343553
 30
0.0
 11
-7.29181466283245
 21
14.24973640343553
 31
0.0
  0
LINE
  5
475
330
1F
100
AcDbEntity
  8
Crea2D$visibili$linee
100
AcDbLine
 10
-7.29181466283245
 20
14.24973640343553
 30
0.0
 11
-7.231105280876792
 21
14.24762810735183
 31
0.0
  0
LINE
  5
476
330
1F
100
AcDbEntity
  8
Crea2D$visibili$linee
100
AcDbLine
 10
-7.231105280876792
 20
14.24762810735183
 30
0.0
 11
-7.170505646084594
 21
14.24341405551698
 31
0.0
  0
LINE
  5
477
330
1F
100
AcDbEntity
  8
Crea2D$visibili$linee
100
AcDbLine
 10
-7.170505646084594
 20
14.24341405551698
 30
0.0
 11
-7.110088776295833
 21
14.23709932553524
 31
0.0
  0
LINE
  5
478
330
1F
100
AcDbEntity
  8
Crea2D$visibili$linee
100
AcDbLine
 10
-7.110088776295833
 20
14.23709932553524
 30
0.0
 11
-7.04992746913289
 21
14.22869152616439
 31
0.0
  0
LINE
  5
479
330
1F
100
AcDbEntity
  8
Crea2D$visibili$linee
100
AcDbLine
 10
-7.04992746913289
 20
14.22869152616439
 30
0.0
 11
-6.990094214285087
 21
14.21820078814782
 31
0.0
  0
LINE
  5
47A
330
1F
100
AcDbEntity
  8
Crea2D$visibili$linee
100
AcDbLine
 10
-6.990094214285087
 20
14.21820078814782
 30
0.0
 11
-6.93066110616426
 21
14.20563975200773
 31
0.0
  0
LINE
  5
47B
330
1F
100
AcDbEntity
  8
Crea2D$visibili$linee
100
AcDbLine
 10
-6.93066110616426
 20
14.20563975200773
 30
0.0
 11
-6.871699757036604
 21
14.19102355281433
 31
0.0
  0
LINE
  5
47C
330
1F
100
AcDbEntity
  8
Crea2D$visibili$linee
100
AcDbLine
 10
-6.871699757036604
 20
14.19102355281433
 30
0.0
 11
-6.813281210735471
 21
14.17436980194923
 31
0.0
  0
LINE
  5
47D
330
1F
100
AcDbEntity
  8
Crea2D$visibili$linee
100
AcDbLine
 10
-6.813281210735471
 20
14.17436980194923
 30
0.0
 11
-6.755475857059083
 21
14.15569856588511
 31
0.0
  0
LINE
  5
47E
330
1F
100
AcDbEntity
  8
Crea2D$visibili$linee
100
AcDbLine
 10
-6.755475857059083
 20
14.15569856588511
 30
0.0
 11
-6.698353346956313
 21
14.13503234200716
 31
0.0
  0
LINE
  5
47F
330
1F
100
AcDbEntity
  8
Crea2D$visibili$linee
100
AcDbLine
 10
-6.698353346956313
 20
14.13503234200716
 30
0.0
 11
-6.64198250860271
 21
14.11239603150552
 31
0.0
  0
LINE
  5
480
330
1F
100
AcDbEntity
  8
Crea2D$visibili$linee
100
AcDbLine
 10
-6.64198250860271
 20
14.11239603150552
 30
0.0
 11
-6.586431264467912
 21
14.08781690937127
 31
0.0
  0
LINE
  5
481
330
1F
100
AcDbEntity
  8
Crea2D$visibili$linee
100
AcDbLine
 10
-6.586431264467912
 20
14.08781690937127
 30
0.0
 11
-6.531766549474358
 21
14.06132459153217
 31
0.0
  0
LINE
  5
482
330
1F
100
AcDbEntity
  8
Crea2D$visibili$linee
100
AcDbLine
 10
-6.531766549474358
 20
14.06132459153217
 30
0.0
 11
-6.478054230345923
 21
14.03295099916779
 31
0.0
  0
LINE
  5
483
330
1F
100
AcDbEntity
  8
Crea2D$visibili$linee
100
AcDbLine
 10
-6.478054230345923
 20
14.03295099916779
 30
0.0
 11
-6.425359026243645
 21
14.002730320247
 31
0.0
  0
LINE
  5
484
330
1F
100
AcDbEntity
  8
Crea2D$visibili$linee
100
AcDbLine
 10
-6.425359026243645
 20
14.002730320247
 30
0.0
 11
-6.373744430784173
 21
13.97069896833408
 31
0.0
  0
LINE
  5
485
330
1F
100
AcDbEntity
  8
Crea2D$visibili$linee
100
AcDbLine
 10
-6.373744430784173
 20
13.97069896833408
 30
0.0
 11
-6.323272635534905
 21
13.93689553871325
 31
0.0
  0
LINE
  5
486
330
1F
100
AcDbEntity
  8
Crea2D$visibili$linee
100
AcDbLine
 10
-6.323272635534905
 20
13.93689553871325
 30
0.0
 11
-6.274004455078006
 21
13.90136076188433
 31
0.0
  0
LINE
  5
487
330
1F
100
AcDbEntity
  8
Crea2D$visibili$linee
100
AcDbLine
 10
-6.274004455078006
 20
13.90136076188433
 30
0.0
 11
-6.225999253733551
 21
13.8641374544857
 31
0.0
  0
LINE
  5
488
330
1F
100
AcDbEntity
  8
Crea2D$visibili$linee
100
AcDbLine
 10
-6.225999253733551
 20
13.8641374544857
 30
0.0
 11
-6.179314874030161
 21
13.82527046770355
 31
0.0
  0
LINE
  5
489
330
1F
100
AcDbEntity
  8
Crea2D$visibili$linee
100
AcDbLine
 10
-6.179314874030161
 20
13.82527046770355
 30
0.0
 11
-6.134007567009253
 21
13.78480663322969
 31
0.0
  0
LINE
  5
48A
330
1F
100
AcDbEntity
  8
Crea2D$visibili$linee
100
AcDbLine
 10
-6.134007567009253
 20
13.78480663322969
 30
0.0
 11
-6.090131924446918
 21
13.74279470683305
 31
0.0
  0
LINE
  5
48B
330
1F
100
AcDbEntity
  8
Crea2D$visibili$linee
100
AcDbLine
 10
-6.090131924446918
 20
13.74279470683305
 30
0.0
 11
-6.047740813075083
 21
13.69928530961274
 31
0.0
  0
LINE
  5
48C
330
1F
100
AcDbEntity
  8
Crea2D$visibili$linee
100
AcDbLine
 10
-6.047740813075083
 20
13.69928530961274
 30
0.0
 11
-6.006885310881221
 21
13.65433086700356
 31
0.0
  0
LINE
  5
48D
330
1F
100
AcDbEntity
  8
Crea2D$visibili$linee
100
AcDbLine
 10
-6.006885310881221
 20
13.65433086700356
 30
0.0
 11
-5.967614645563342
 21
13.60798554560748
 31
0.0
  0
LINE
  5
48E
330
1F
100
AcDbEntity
  8
Crea2D$visibili$linee
100
AcDbLine
 10
-5.967614645563342
 20
13.60798554560748
 30
0.0
 11
-5.929976135214466
 21
13.56030518792707
 31
0.0
  0
LINE
  5
48F
330
1F
100
AcDbEntity
  8
Crea2D$visibili$linee
100
AcDbLine
 10
-5.929976135214466
 20
13.56030518792707
 30
0.0
 11
-5.894015131307996
 21
13.51134724507963
 31
0.0
  0
LINE
  5
490
330
1F
100
AcDbEntity
  8
Crea2D$visibili$linee
100
AcDbLine
 10
-5.894015131307996
 20
13.51134724507963
 30
0.0
 11
-5.859774964052733
 21
13.46117070757308
 31
0.0
  0
LINE
  5
491
330
1F
100
AcDbEntity
  8
Crea2D$visibili$linee
100
AcDbLine
 10
-5.859774964052733
 20
13.46117070757308
 30
0.0
 11
-5.827296890183338
 21
13.409836034227
 31
0.0
  0
LINE
  5
492
330
1F
100
AcDbEntity
  8
Crea2D$visibili$linee
100
AcDbLine
 10
-5.827296890183338
 20
13.409836034227
 30
0.0
 11
-5.796620043249191
 21
13.35740507932445
 31
0.0
  0
LINE
  5
493
330
1F
100
AcDbEntity
  8
Crea2D$visibili$linee
100
AcDbLine
 10
-5.796620043249191
 20
13.35740507932445
 30
0.0
 11
-5.767781386461511
 21
13.30394101808237
 31
0.0
  0
LINE
  5
494
330
1F
100
AcDbEntity
  8
Crea2D$visibili$linee
100
AcDbLine
 10
-5.767781386461511
 20
13.30394101808237
 30
0.0
 11
-5.740815668155556
 21
13.24950827053038
 31
0.0
  0
LINE
  5
495
330
1F
100
AcDbEntity
  8
Crea2D$visibili$linee
100
AcDbLine
 10
-5.740815668155556
 20
13.24950827053038
 30
0.0
 11
-5.715755379921596
 21
13.19417242388966
 31
0.0
  0
LINE
  5
496
330
1F
100
AcDbEntity
  8
Crea2D$visibili$linee
100
AcDbLine
 10
-5.715755379921596
 20
13.19417242388966
 30
0.0
 11
-5.69263071745507
 21
13.13800015354545
 31
0.0
  0
LINE
  5
497
330
1F
100
AcDbEntity
  8
Crea2D$visibili$linee
100
AcDbLine
 10
-5.69263071745507
 20
13.13800015354545
 30
0.0
 11
-5.671469544173133
 21
13.08105914270839
 31
0.0
  0
LINE
  5
498
330
1F
100
AcDbEntity
  8
Crea2D$visibili$linee
100
AcDbLine
 10
-5.671469544173133
 20
13.08105914270839
 30
0.0
 11
-5.652297357641399
 21
13.02341800086155
 31
0.0
  0
LINE
  5
499
330
1F
100
AcDbEntity
  8
Crea2D$visibili$linee
100
AcDbLine
 10
-5.652297357641399
 20
13.02341800086155
 30
0.0
 11
-5.635137258851367
 21
12.96514618109135
 31
0.0
  0
LINE
  5
49A
330
1F
100
AcDbEntity
  8
Crea2D$visibili$linee
100
AcDbLine
 10
-5.635137258851367
 20
12.96514618109135
 30
0.0
 11
-5.620009924385525
 21
12.90631389640196
 31
0.0
  0
LINE
  5
49B
330
1F
100
AcDbEntity
  8
Crea2D$visibili$linee
100
AcDbLine
 10
-5.620009924385525
 20
12.90631389640196
 30
0.0
 11
-5.606933581503673
 21
12.84699203511415
 31
0.0
  0
LINE
  5
49C
330
1F
100
AcDbEntity
  8
Crea2D$visibili$linee
100
AcDbLine
 10
-5.606933581503673
 20
12.84699203511415
 30
0.0
 11
-5.595923986180504
 21
12.78725207545033
 31
0.0
  0
LINE
  5
49D
330
1F
100
AcDbEntity
  8
Crea2D$visibili$linee
100
AcDbLine
 10
-5.595923986180504
 20
12.78725207545033
 30
0.0
 11
-5.58699440412087
 21
12.72716599940892
 31
0.0
  0
LINE
  5
49E
330
1F
100
AcDbEntity
  8
Crea2D$visibili$linee
100
AcDbLine
 10
-5.58699440412087
 20
12.72716599940892
 30
0.0
 11
-5.580155594775654
 21
12.66680620603158
 31
0.0
  0
LINE
  5
49F
330
1F
100
AcDbEntity
  8
Crea2D$visibili$linee
100
AcDbLine
 10
-5.580155594775654
 20
12.66680620603158
 30
0.0
 11
-5.575415798377457
 21
12.60624542416808
 31
0.0
  0
LINE
  5
4A0
330
1F
100
AcDbEntity
  8
Crea2D$visibili$linee
100
AcDbLine
 10
-5.575415798377457
 20
12.60624542416808
 30
0.0
 11
-5.572780726011773
 21
12.54555662484365
 31
0.0
  0
LINE
  5
4A1
330
1F
100
AcDbEntity
  8
Crea2D$visibili$linee
100
AcDbLine
 10
-5.572780726011773
 20
12.54555662484365
 30
0.0
 11
-5.572253552735559
 21
12.48481293333456
 31
0.0
  0
LINE
  5
4A2
330
1F
100
AcDbEntity
  8
Crea2D$visibili$linee
100
AcDbLine
 10
-5.572253552735559
 20
12.48481293333456
 30
0.0
 11
-5.573834913751555
 21
12.42408754105792
 31
0.0
  0
LINE
  5
4A3
330
1F
100
AcDbEntity
  8
Crea2D$visibili$linee
100
AcDbLine
 10
-5.573834913751555
 20
12.42408754105792
 30
0.0
 11
-5.577522903642904
 21
12.36345361738168
 31
0.0
  0
LINE
  5
4A4
330
1F
100
AcDbEntity
  8
Crea2D$visibili$linee
100
AcDbLine
 10
-5.577522903642904
 20
12.36345361738168
 30
0.0
 11
-5.583313078669034
 21
12.30298422146125
 31
0.0
  0
LINE
  5
4A5
330
1F
100
AcDbEntity
  8
Crea2D$visibili$linee
100
AcDbLine
 10
-5.583313078669034
 20
12.30298422146125
 30
0.0
 11
-5.591198462120022
 21
12.24275221420892
 31
0.0
  0
LINE
  5
4A6
330
1F
100
AcDbEntity
  8
Crea2D$visibili$linee
100
AcDbLine
 10
-5.591198462120022
 20
12.24275221420892
 30
0.0
 11
-5.601169552722982
 21
12.1828301705021
 31
0.0
  0
LINE
  5
4A7
330
1F
100
AcDbEntity
  8
Crea2D$visibili$linee
100
AcDbLine
 10
-5.601169552722982
 20
12.1828301705021
 30
0.0
 11
-5.613214336090358
 21
12.12329029173629
 31
0.0
  0
LINE
  5
4A8
330
1F
100
AcDbEntity
  8
Crea2D$visibili$linee
100
AcDbLine
 10
-5.613214336090358
 20
12.12329029173629
 30
0.0
 11
-5.627318299196332
 21
12.06420431882799
 31
0.0
  0
LINE
  5
4A9
330
1F
100
AcDbEntity
  8
Crea2D$visibili$linee
100
AcDbLine
 10
-5.627318299196332
 20
12.06420431882799
 30
0.0
 11
-5.643464447863879
 21
12.00564344577251
 31
0.0
  0
LINE
  5
4AA
330
1F
100
AcDbEntity
  8
Crea2D$visibili$linee
100
AcDbLine
 10
-5.643464447863879
 20
12.00564344577251
 30
0.0
 11
-5.661633327241437
 21
11.94767823386073
 31
0.0
  0
LINE
  5
4AB
330
1F
100
AcDbEntity
  8
Crea2D$visibili$linee
100
AcDbLine
 10
-5.661633327241437
 20
11.94767823386073
 30
0.0
 11
-5.681803045244484
 21
11.89037852665823
 31
0.0
  0
LINE
  5
4AC
330
1F
100
AcDbEntity
  8
Crea2D$visibili$linee
100
AcDbLine
 10
-5.681803045244484
 20
11.89037852665823
 30
0.0
 11
-5.703949298933794
 21
11.83381336584927
 31
0.0
  0
LINE
  5
4AD
330
1F
100
AcDbEntity
  8
Crea2D$visibili$linee
100
AcDbLine
 10
-5.703949298933794
 20
11.83381336584927
 30
0.0
 11
-5.728045403798585
 21
11.77805090804691
 31
0.0
  0
LINE
  5
4AE
330
1F
100
AcDbEntity
  8
Crea2D$visibili$linee
100
AcDbLine
 10
-5.728045403798585
 20
11.77805090804691
 30
0.0
 11
-5.754062325909277
 21
11.72315834266962
 31
0.0
  0
LINE
  5
4AF
330
1F
100
AcDbEntity
  8
Crea2D$visibili$linee
100
AcDbLine
 10
-5.754062325909277
 20
11.72315834266962
 30
0.0
 11
-5.78196871690112
 21
11.66920181098322
 31
0.0
  0
LINE
  5
4B0
330
1F
100
AcDbEntity
  8
Crea2D$visibili$linee
100
AcDbLine
 10
-5.78196871690112
 20
11.66920181098322
 30
0.0
 11
-5.81173095174652
 21
11.61624632640588
 31
0.0
  0
LINE
  5
4B1
330
1F
100
AcDbEntity
  8
Crea2D$visibili$linee
100
AcDbLine
 10
-5.81173095174652
 20
11.61624632640588
 30
0.0
 11
-5.843313169270598
 21
11.56435569617193
 31
0.0
  0
LINE
  5
4B2
330
1F
100
AcDbEntity
  8
Crea2D$visibili$linee
100
AcDbLine
 10
-5.843313169270598
 20
11.56435569617193
 30
0.0
 11
-5.87667731536109
 21
11.51359244444918
 31
0.0
  0
LINE
  5
4B3
330
1F
100
AcDbEntity
  8
Crea2D$visibili$linee
100
AcDbLine
 10
-5.87667731536109
 20
11.51359244444918
 30
0.0
 11
-5.911783188820606
 21
11.46401773700215
 31
0.0
  0
LINE
  5
4B4
330
1F
100
AcDbEntity
  8
Crea2D$visibili$linee
100
AcDbLine
 10
-5.911783188820606
 20
11.46401773700215
 30
0.0
 11
-5.948588489805931
 21
11.41569130749206
 31
0.0
  0
LINE
  5
4B5
330
1F
100
AcDbEntity
  8
Crea2D$visibili$linee
100
AcDbLine
 10
-5.948588489805931
 20
11.41569130749206
 30
0.0
 11
-5.98704887079605
 21
11.36867138550244
 31
0.0
  0
LINE
  5
4B6
330
1F
100
AcDbEntity
  8
Crea2D$visibili$linee
100
AcDbLine
 10
-5.98704887079605
 20
11.36867138550244
 30
0.0
 11
-6.027117990027448
 21
11.32301462637705
 31
0.0
  0
LINE
  5
4B7
330
1F
100
AcDbEntity
  8
Crea2D$visibili$linee
100
AcDbLine
 10
-6.027117990027448
 20
11.32301462637705
 30
0.0
 11
-6.068747567332328
 21
11.27877604295453
 31
0.0
  0
LINE
  5
4B8
330
1F
100
AcDbEntity
  8
Crea2D$visibili$linee
100
AcDbLine
 10
-6.068747567332328
 20
11.27877604295453
 30
0.0
 11
-6.11188744231246
 21
11.23600893928228
 31
0.0
  0
LINE
  5
4B9
330
1F
100
AcDbEntity
  8
Crea2D$visibili$linee
100
AcDbLine
 10
-6.11188744231246
 20
11.23600893928228
 30
0.0
 11
-6.156485634778548
 21
11.1947648463892
 31
0.0
  0
LINE
  5
4BA
330
1F
100
AcDbEntity
  8
Crea2D$visibili$linee
100
AcDbLine
 10
-6.156485634778548
 20
11.1947648463892
 30
0.0
 11
-6.202488407382305
 21
11.15509346019485
 31
0.0
  0
LINE
  5
4BB
330
1F
100
AcDbEntity
  8
Crea2D$visibili$linee
100
AcDbLine
 10
-6.202488407382305
 20
11.15509346019485
 30
0.0
 11
-6.249840330365779
 21
11.11704258162968
 31
0.0
  0
LINE
  5
4BC
330
1F
100
AcDbEntity
  8
Crea2D$visibili$linee
100
AcDbLine
 10
-6.249840330365779
 20
11.11704258162968
 30
0.0
 11
-6.2984843483499
 21
11.08065805903867
 31
0.0
  0
LINE
  5
4BD
330
1F
100
AcDbEntity
  8
Crea2D$visibili$linee
100
AcDbLine
 10
-6.2984843483499
 20
11.08065805903867
 30
0.0
 11
-6.348361849081745
 21
11.04598373293766
 31
0.0
  0
LINE
  5
4BE
330
1F
100
AcDbEntity
  8
Crea2D$visibili$linee
100
AcDbLine
 10
-6.348361849081745
 20
11.04598373293766
 30
0.0
 11
-6.399412734057769
 21
11.01306138318891
 31
0.0
  0
LINE
  5
4BF
330
1F
100
AcDbEntity
  8
Crea2D$visibili$linee
100
AcDbLine
 10
-6.399412734057769
 20
11.01306138318891
 30
0.0
 11
-6.45157549093779
 21
10.98193067865961
 31
0.0
  0
LINE
  5
4C0
330
1F
100
AcDbEntity
  8
Crea2D$visibili$linee
100
AcDbLine
 10
-6.45157549093779
 20
10.98193067865961
 30
0.0
 11
-6.504787267662594
 21
10.95262912942405
 31
0.0
  0
LINE
  5
4C1
330
1F
100
AcDbEntity
  8
Crea2D$visibili$linee
100
AcDbLine
 10
-6.504787267662594
 20
10.95262912942405
 30
0.0
 11
-6.558983948185755
 21
10.92519204156683
 31
0.0
  0
LINE
  5
4C2
330
1F
100
AcDbEntity
  8
Crea2D$visibili$linee
100
AcDbLine
 10
-6.558983948185755
 20
10.92519204156683
 30
0.0
 11
-6.614100229728477
 21
10.89965247464181
 31
0.0
  0
LINE
  5
4C3
330
1F
100
AcDbEntity
  8
Crea2D$visibili$linee
100
AcDbLine
 10
-6.614100229728477
 20
10.89965247464181
 30
0.0
 11
-6.670069701464374
 21
10.87604120183792
 31
0.0
  0
LINE
  5
4C4
330
1F
100
AcDbEntity
  8
Crea2D$visibili$linee
100
AcDbLine
 10
-6.670069701464374
 20
10.87604120183792
 30
0.0
 11
-6.726824924539312
 21
10.85438667289989
 31
0.0
  0
LINE
  5
4C5
330
1F
100
AcDbEntity
  8
Crea2D$visibili$linee
100
AcDbLine
 10
-6.726824924539312
 20
10.85438667289989
 30
0.0
 11
-6.784297513330009
 21
10.83471497984844
 31
0.0
  0
LINE
  5
4C6
330
1F
100
AcDbEntity
  8
Crea2D$visibili$linee
100
AcDbLine
 10
-6.784297513330009
 20
10.83471497984844
 30
0.0
 11
-6.842418217843359
 21
10.81704982554156
 31
0.0
  0
LINE
  5
4C7
330
1F
100
AcDbEntity
  8
Crea2D$visibili$linee
100
AcDbLine
 10
-6.842418217843359
 20
10.81704982554156
 30
0.0
 11
-6.901117007157298
 21
10.80141249511426
 31
0.0
  0
LINE
  5
4C8
330
1F
100
AcDbEntity
  8
Crea2D$visibili$linee
100
AcDbLine
 10
-6.901117007157298
 20
10.80141249511426
 30
0.0
 11
-6.960323153802596
 21
10.78782183033178
 31
0.0
  0
LINE
  5
4C9
330
1F
100
AcDbEntity
  8
Crea2D$visibili$linee
100
AcDbLine
 10
-6.960323153802596
 20
10.78782183033178
 30
0.0
 11
-7.019965318983961
 21
10.77629420688663
 31
0.0
  0
LINE
  5
4CA
330
1F
100
AcDbEntity
  8
Crea2D$visibili$linee
100
AcDbLine
 10
-7.019965318983961
 20
10.77629420688663
 30
0.0
 11
-7.079971638537724
 21
10.7668435146672
 31
0.0
  0
LINE
  5
4CB
330
1F
100
AcDbEntity
  8
Crea2D$visibili$linee
100
AcDbLine
 10
-7.079971638537724
 20
10.7668435146672
 30
0.0
 11
-7.140269809522556
 21
10.75948114102153
 31
0.0
  0
LINE
  5
4CC
330
1F
100
AcDbEntity
  8
Crea2D$visibili$linee
100
AcDbLine
 10
-7.140269809522556
 20
10.75948114102153
 30
0.0
 11
-7.20078717733889
 21
10.75421595703644
 31
0.0
  0
LINE
  5
4CD
330
1F
100
AcDbEntity
  8
Crea2D$visibili$linee
100
AcDbLine
 10
-7.20078717733889
 20
10.75421595703644
 30
0.0
 11
-7.261450823272049
 21
10.75105430684851
 31
0.0
  0
LINE
  5
4CE
330
1F
100
AcDbEntity
  8
Crea2D$visibili$linee
100
AcDbLine
 10
-7.261450823272049
 20
10.75105430684851
 30
0.0
 11
-7.322187652353619
 21
10.75
 31
0.0
  0
LINE
  5
4CF
330
1F
100
AcDbEntity
  8
Crea2D$visibili$linee
100
AcDbLine
 10
-44.32218765235361
 20
3.0
 30
0.0
 11
-44.32218765235361
 21
22.00000000000003
 31
0.0
  0
LINE
  5
4D0
330
1F
100
AcDbEntity
  8
Crea2D$visibili$linee
100
AcDbLine
 10
-44.32218765235361
 20
22.0
 30
0.0
 11
-12.32218765235362
 21
22.0
 31
0.0
  0
LINE
  5
4D1
330
1F
100
AcDbEntity
  8
Crea2D$visibili$linee
100
AcDbLine
 10
-12.32218765235362
 20
3.0
 30
0.0
 11
-12.32218765235362
 21
22.00000000000003
 31
0.0
  0
LINE
  5
4D2
330
1F
100
AcDbEntity
  8
Crea2D$visibili$linee
100
AcDbLine
 10
-12.32218765235362
 20
2.999999999999943
 30
0.0
 11
-44.32218765235361
 21
2.999999999999886
 31
0.0
  0
LINE
  5
4D3
330
1F
100
AcDbEntity
  8
Crea2D$visibili$linee
100
AcDbLine
 10
-47.32218765235361
 20
25.0
 30
0.0
 11
-2.322187652353619
 21
25.0
 31
0.0
  0
LINE
  5
4D4
330
1F
100
AcDbEntity
  8
Crea2D$visibili$linee
100
AcDbLine
 10
-47.32218765235361
 20
0.0
 30
0.0
 11
-47.32218765235361
 21
25.0
 31
0.0
  0
LINE
  5
4D5
330
1F
100
AcDbEntity
  8
Crea2D$visibili$linee
100
AcDbLine
 10
-2.322187652353619
 20
0.0
 30
0.0
 11
-47.32218765235361
 21
0.0
 31
0.0
  0
LINE
  5
4D6
330
1F
100
AcDbEntity
  8
Crea2D$visibili$linee
100
AcDbLine
 10
-2.322187652353619
 20
25.0
 30
0.0
 11
-2.322187652353619
 21
0.0
 31
0.0
  0
DIMENSION
  5
4DA
330
1F
100
AcDbEntity
  8
Predefinito
100
AcDbDimension
280
     0
  2
*D1
 10
2.494527610623151
 20
-0.0000000000000003
 30
0.0
 11
1.734027610623152
 21
12.5
 31
0.0
 70
    32
  1
<>
 71
     5
 42
25.0
 73
     0
 74
     0
 75
     0
  3
Default
100
AcDbAlignedDimension
 13
-2.322187652353619
 23
25.0
 33
0.0
 14
-2.322187652353619
 24
0.0
 34
0.0
 50
90.0
100
AcDbRotatedDimension
  0
DIMENSION
  5
4E8
330
1F
100
AcDbEntity
  8
Predefinito
100
AcDbDimension
280
     0
  2
*D2
 10
-2.322187652353619
 20
-4.000671286411166
 30
0.0
 11
-24.82218765235362
 21
-3.240171286411166
 31
0.0
 70
    32
  1
<>
 71
     5
 42
45.0
 73
     0
 74
     0
 75
     0
  3
Default
100
AcDbAlignedDimension
 13
-47.32218765235361
 23
0.0
 33
0.0
 14
-2.322187652353619
 24
0.0
 34
0.0
100
AcDbRotatedDimension
  0
DIMENSION
  5
4F5
330
1F
100
AcDbEntity
  8
Predefinito
100
AcDbDimension
280
     0
  2
*D3
 10
2.494527610623151
 20
53.45084971874737
 30
0.0
 11
1.73402761062315
 21
46.95084971874737
 31
0.0
 70
    32
  1
<>
 71
     5
 42
13.0
 73
     0
 74
     0
 75
     0
  3
Default
100
AcDbAlignedDimension
 13
-2.322187652353619
 23
40.45084971874737
 33
0.0
 14
-2.322187652353619
 24
53.45084971874737
 34
0.0
 50
90.0
100
AcDbRotatedDimension
  0
DIMENSION
  5
502
330
1F
100
AcDbEntity
  8
Predefinito
100
AcDbDimension
280
     0
  2
*D4
 10
58.12866206639376
 20
36.51370198215584
 30
0.0
 11
45.62866206639376
 21
37.27420198215585
 31
0.0
 70
    32
  1
<>
 71
     5
 42
25.0
 73
     0
 74
     0
 75
     0
  3
Default
100
AcDbAlignedDimension
 13
33.12866206639376
 23
40.45084971874739
 33
0.0
 14
58.12866206639376
 24
40.45084971874739
 34
0.0
100
AcDbRotatedDimension
  0
ENDSEC
  0
SECTION
  2
OBJECTS
  0
DICTIONARY
  5
C
330
0
100
AcDbDictionary
281
     1
  3
ACAD_CIP_PREVIOUS_PRODUCT_INFO
350
55F
  3
ACAD_COLOR
350
555
  3
ACAD_DETAILVIEWSTYLE
350
552
  3
ACAD_GROUP
350
D
  3
ACAD_LAYOUT
350
1A
  3
ACAD_MATERIAL
350
43
  3
ACAD_MLEADERSTYLE
350
551
  3
ACAD_MLINESTYLE
350
17
  3
ACAD_PLOTSETTINGS
350
19
  3
ACAD_PLOTSTYLENAME
350
E
  3
ACAD_SCALELIST
350
47
  3
ACAD_SECTIONVIEWSTYLE
350
553
  3
ACAD_TABLESTYLE
350
550
  3
ACAD_VISUALSTYLE
350
2A
  3
ACDB_RECOMPOSE_DATA
350
574
  3
AcDbVariableDictionary
350
517
  0
DICTIONARY
  5
515
330
8
100
AcDbDictionary
280
     1
281
     1
  0
SUN
  5
69
330
29
100
AcDbSun
 90
        1
290
     0
 63
     7
421
 16777215
 40
1.0
291
     1
 91
  2455826
 92
 54000000
292
     0
 70
     0
 71
   256
280
     1
  0
DICTIONARY
  5
560
330
10
100
AcDbDictionary
280
     1
281
     1
  3
ADSK_XREC_LAYER_RECONCILED
360
561
  0
DICTIONARY
  5
562
330
6A
100
AcDbDictionary
280
     1
281
     1
  3
ADSK_XREC_LAYER_RECONCILED
360
563
  0
DICTIONARY
  5
564
330
4D7
100
AcDbDictionary
280
     1
281
     1
  3
ADSK_XREC_LAYER_RECONCILED
360
565
  0
XRECORD
  5
55F
102
{ACAD_REACTORS
330
C
102
}
330
C
100
AcDbXrecord
280
     1
300
ACD
300
2017
300
ACD_F_S
  0
DICTIONARY
  5
555
102
{ACAD_REACTORS
330
C
102
}
330
C
100
AcDbDictionary
281
     1
  0
DICTIONARY
  5
552
102
{ACAD_REACTORS
330
C
102
}
330
C
100
AcDbDictionary
281
     1
  3
Imperial24
350
559
  0
DICTIONARY
  5
D
102
{ACAD_REACTORS
330
C
102
}
330
C
100
AcDbDictionary
281
     1
  0
DICTIONARY
  5
1A
102
{ACAD_REACTORS
330
C
102
}
330
C
100
AcDbDictionary
281
     1
  3
Layout1
350
1E
  3
Layout2
350
26
  3
Model
350
22
  0
DICTIONARY
  5
43
102
{ACAD_REACTORS
330
C
102
}
330
C
100
AcDbDictionary
281
     1
  3
ByBlock
350
45
  3
ByLayer
350
44
  3
Global
350
46
  0
DICTIONARY
  5
551
102
{ACAD_REACTORS
330
C
102
}
330
C
100
AcDbDictionary
281
     1
  3
Standard
350
557
  0
DICTIONARY
  5
17
102
{ACAD_REACTORS
330
C
102
}
330
C
100
AcDbDictionary
281
     1
  3
Standard
350
18
  0
DICTIONARY
  5
19
102
{ACAD_REACTORS
330
C
102
}
330
C
100
AcDbDictionary
281
     1
  0
ACDBDICTIONARYWDFLT
  5
E
102
{ACAD_REACTORS
330
C
102
}
330
C
100
AcDbDictionary
281
     1
  3
Normal
350
F
100
AcDbDictionaryWithDefault
340
F
  0
DICTIONARY
  5
47
102
{ACAD_REACTORS
330
C
102
}
330
C
100
AcDbDictionary
281
     1
  3
A0
350
48
  3
A1
350
49
  3
A2
350
4A
  3
A3
350
4B
  3
A4
350
4C
  3
A5
350
4D
  3
A6
350
4E
  3
A7
350
4F
  3
A8
350
50
  3
A9
350
51
  3
B0
350
52
  3
B1
350
53
  3
B2
350
54
  3
B3
350
55
  3
B4
350
56
  3
B5
350
57
  3
B6
350
58
  3
B7
350
59
  3
B8
350
5A
  3
B9
350
5B
  3
C0
350
5C
  3
C1
350
5D
  3
C2
350
5E
  3
C3
350
5F
  3
C4
350
60
  3
C5
350
61
  3
C6
350
62
  3
C7
350
63
  3
C8
350
64
  3
C9
350
65
  3
D0
350
66
  3
D1
350
67
  3
D2
350
68
  0
DICTIONARY
  5
553
102
{ACAD_REACTORS
330
C
102
}
330
C
100
AcDbDictionary
281
     1
  3
Imperial24
350
558
  0
DICTIONARY
  5
550
102
{ACAD_REACTORS
330
C
102
}
330
C
100
AcDbDictionary
281
     1
  3
Standard
350
556
  0
DICTIONARY
  5
2A
102
{ACAD_REACTORS
330
C
102
}
330
C
100
AcDbDictionary
281
     1
  3
2dWireframe
350
2F
  3
Basic
350
32
  3
Brighten
350
36
  3
ColorChange
350
3A
  3
Conceptual
350
34
  3
Dim
350
35
  3
EdgeColorOff
350
3D
  3
Facepattern
350
39
  3
Flat
350
2B
  3
FlatWithEdges
350
2C
  3
Gouraud
350
2D
  3
GouraudWithEdges
350
2E
  3
Hidden
350
31
  3
JitterOff
350
3B
  3
Linepattern
350
38
  3
OverhangOff
350
3C
  3
Realistic
350
33
  3
Shaded
350
42
  3
Shaded with edges
350
41
  3
Shades of Gray
350
3E
  3
Sketchy
350
3F
  3
Thicken
350
37
  3
Wireframe
350
30
  3
X-Ray
350
40
  0
XRECORD
  5
574
102
{ACAD_REACTORS
330
C
102
}
330
C
100
AcDbXrecord
280
     1
 90
        1
330
556
330
558
330
559
  0
DICTIONARY
  5
517
102
{ACAD_REACTORS
330
C
102
}
330
C
100
AcDbDictionary
281
     1
  3
CANNOSCALE
350
518
  3
CMLEADERSTYLE
350
567
  3
CTABLESTYLE
350
566
  3
CVIEWDETAILSTYLE
350
568
  3
CVIEWSECTIONSTYLE
350
569
  3
LAYEREVAL
350
56B
  3
LAYERNOTIFY
350
56C
  3
LIGHTINGUNITS
350
56A
  3
MSLTSCALE
350
519
  0
XRECORD
  5
561
102
{ACAD_REACTORS
330
560
102
}
330
560
100
AcDbXrecord
280
     1
290
     1
  0
XRECORD
  5
563
102
{ACAD_REACTORS
330
562
102
}
330
562
100
AcDbXrecord
280
     1
290
     1
  0
XRECORD
  5
565
102
{ACAD_REACTORS
330
564
102
}
330
564
100
AcDbXrecord
280
     1
290
     1
  0
ACDBDETAILVIEWSTYLE
  5
559
102
{ACAD_XDICTIONARY
360
572
102
}
102
{ACAD_REACTORS
330
552
102
}
330
552
100
AcDbModelDocViewStyle
 70
     0
  3
Imperial24
290
     0
100
AcDbDetailViewStyle
 70
     0
 71
     0
 90
        3
 71
     1
340
11
 62
   256
 40
0.24
340
0
 62
   256
 40
0.24
300

 40
0.36
280
     3
 71
     2
340
16
 90
       25
 62
   256
 71
     3
340
11
 62
   256
 40
0.24
 90
        1
 40
0.75
 90
        1
300
%<\AcVar ViewType \f "%tc1">% %<\AcVar ViewDetailId>%\PSCALE %<\AcVar ViewScale \f "%sn">%
 71
     4
340
16
 90
       25
 62
   256
340
16
 90
       25
 62
   256
280
     0
  0
LAYOUT
  5
1E
102
{ACAD_REACTORS
330
1A
102
}
330
1A
100
AcDbPlotSettings
  1

  2
none_device
  4

  6

 40
0.0
 41
0.0
 42
0.0
 43
0.0
 44
0.0
 45
0.0
 46
0.0
 47
0.0
 48
0.0
 49
0.0
140
0.0
141
0.0
142
1.0
143
1.0
 70
   688
 72
     0
 73
     0
 74
     5
  7

 75
    16
147
1.0
 76
     0
 77
     2
 78
   300
148
0.0
149
0.0
100
AcDbLayout
  1
Layout1
 70
     1
 71
     1
 10
0.0
 20
0.0
 11
12.0
 21
9.0
 12
0.0
 22
0.0
 32
0.0
 14
1.000000000000000E+20
 24
1.000000000000000E+20
 34
1.000000000000000E+20
 15
-1.000000000000000E+20
 25
-1.000000000000000E+20
 35
-1.000000000000000E+20
146
0.0
 13
0.0
 23
0.0
 33
0.0
 16
1.0
 26
0.0
 36
0.0
 17
0.0
 27
1.0
 37
0.0
 76
     0
330
1B
  0
LAYOUT
  5
26
102
{ACAD_REACTORS
330
1A
102
}
330
1A
100
AcDbPlotSettings
  1

  2
none_device
  4

  6

 40
0.0
 41
0.0
 42
0.0
 43
0.0
 44
0.0
 45
0.0
 46
0.0
 47
0.0
 48
0.0
 49
0.0
140
0.0
141
0.0
142
1.0
143
1.0
 70
   688
 72
     0
 73
     0
 74
     5
  7

 75
    16
147
1.0
 76
     0
 77
     2
 78
   300
148
0.0
149
0.0
100
AcDbLayout
  1
Layout2
 70
     1
 71
     2
 10
0.0
 20
0.0
 11
0.0
 21
0.0
 12
0.0
 22
0.0
 32
0.0
 14
0.0
 24
0.0
 34
0.0
 15
0.0
 25
0.0
 35
0.0
146
0.0
 13
0.0
 23
0.0
 33
0.0
 16
1.0
 26
0.0
 36
0.0
 17
0.0
 27
1.0
 37
0.0
 76
     0
330
23
  0
LAYOUT
  5
22
102
{ACAD_REACTORS
330
1A
102
}
330
1A
100
AcDbPlotSettings
  1

  2
none_device
  4
Letter_(8.50_x_11.00_Inches)
  6

 40
6.349999999999999
 41
6.349999999999999
 42
6.350005079999999
 43
6.350005079999999
 44
215.9
 45
279.4
 46
0.0
 47
0.0
 48
0.0
 49
0.0
140
0.0
141
0.0
142
1.0
143
1.0
 70
  1712
 72
     0
 73
     0
 74
     0
  7

 75
     0
147
1.0
 76
     0
 77
     2
 78
   300
148
0.0
149
0.0
100
AcDbLayout
  1
Model
 70
     1
 71
     0
 10
0.0
 20
0.0
 11
12.0
 21
9.0
 12
0.0
 22
0.0
 32
0.0
 14
-47.32218765235361
 24
-4.500671286411166
 34
0.0
 15
58.12866206639376
 25
53.4508497187474
 35
0.0
146
0.0
 13
0.0
 23
0.0
 33
0.0
 16
1.0
 26
0.0
 36
0.0
 17
0.0
 27
1.0
 37
0.0
 76
     0
330
1F
331
29
  0
MATERIAL
  5
45
102
{ACAD_REACTORS
330
43
102
}
330
43
100
AcDbMaterial
  1
ByBlock
 73
     1
 78
     1
172
     1
176
     1
270
     1
274
     1
  0
MATERIAL
  5
44
102
{ACAD_REACTORS
330
43
102
}
330
43
100
AcDbMaterial
  1
ByLayer
 73
     1
 78
     1
172
     1
176
     1
270
     1
274
     1
  0
MATERIAL
  5
46
102
{ACAD_REACTORS
330
43
102
}
330
43
100
AcDbMaterial
  1
Global
 73
     1
 78
     1
172
     1
176
     1
270
     1
274
     1
  0
MLEADERSTYLE
  5
557
102
{ACAD_REACTORS
330
551
102
}
330
551
100
AcDbMLeaderStyle
179
     2
170
     2
171
     1
172
     0
 90
        2
 40
0.0
 41
0.0
173
     1
 91
-1056964608
340
14
 92
       -2
290
     1
 42
0.09
291
     1
 43
0.36
  3
Standard
 44
0.18
300

342
11
174
     1
178
     6
175
     1
176
     0
 93
-1056964608
 45
0.18
292
     0
297
     0
 46
0.18
 94
-1056964608
 47
1.0
 49
1.0
140
1.0
293
     1
141
0.0
294
     1
177
     0
142
1.0
295
     1
296
     0
143
0.125
271
     0
272
     9
273
     9
298
     1
  0
MLINESTYLE
  5
18
102
{ACAD_REACTORS
330
17
102
}
330
17
100
AcDbMlineStyle
  2
STANDARD
 70
     0
  3

 62
   256
 51
90.0
 52
90.0
 71
     2
 49
0.5
 62
   256
  6
BYLAYER
 49
-0.5
 62
   256
  6
BYLAYER
  0
ACDBPLACEHOLDER
  5
F
102
{ACAD_REACTORS
330
E
102
}
330
E
  0
SCALE
  5
48
102
{ACAD_REACTORS
330
47
102
}
330
47
100
AcDbScale
 70
     0
300
1:1
140
1.0
141
1.0
290
     1
  0
SCALE
  5
49
102
{ACAD_REACTORS
330
47
102
}
330
47
100
AcDbScale
 70
     0
300
1:2
140
1.0
141
2.0
290
     0
  0
SCALE
  5
4A
102
{ACAD_REACTORS
330
47
102
}
330
47
100
AcDbScale
 70
     0
300
1:4
140
1.0
141
4.0
290
     0
  0
SCALE
  5
4B
102
{ACAD_REACTORS
330
47
102
}
330
47
100
AcDbScale
 70
     0
300
1:5
140
1.0
141
5.0
290
     0
  0
SCALE
  5
4C
102
{ACAD_REACTORS
330
47
102
}
330
47
100
AcDbScale
 70
     0
300
1:8
140
1.0
141
8.0
290
     0
  0
SCALE
  5
4D
102
{ACAD_REACTORS
330
47
102
}
330
47
100
AcDbScale
 70
     0
300
1:10
140
1.0
141
10.0
290
     0
  0
SCALE
  5
4E
102
{ACAD_REACTORS
330
47
102
}
330
47
100
AcDbScale
 70
     0
300
1:16
140
1.0
141
16.0
290
     0
  0
SCALE
  5
4F
102
{ACAD_REACTORS
330
47
102
}
330
47
100
AcDbScale
 70
     0
300
1:20
140
1.0
141
20.0
290
     0
  0
SCALE
  5
50
102
{ACAD_REACTORS
330
47
102
}
330
47
100
AcDbScale
 70
     0
300
1:30
140
1.0
141
30.0
290
     0
  0
SCALE
  5
51
102
{ACAD_REACTORS
330
47
102
}
330
47
100
AcDbScale
 70
     0
300
1:40
140
1.0
141
40.0
290
     0
  0
SCALE
  5
52
102
{ACAD_REACTORS
330
47
102
}
330
47
100
AcDbScale
 70
     0
300
1:50
140
1.0
141
50.0
290
     0
  0
SCALE
  5
53
102
{ACAD_REACTORS
330
47
102
}
330
47
100
AcDbScale
 70
     0
300
1:100
140
1.0
141
100.0
290
     0
  0
SCALE
  5
54
102
{ACAD_REACTORS
330
47
102
}
330
47
100
AcDbScale
 70
     0
300
2:1
140
2.0
141
1.0
290
     0
  0
SCALE
  5
55
102
{ACAD_REACTORS
330
47
102
}
330
47
100
AcDbScale
 70
     0
300
4:1
140
4.0
141
1.0
290
     0
  0
SCALE
  5
56
102
{ACAD_REACTORS
330
47
102
}
330
47
100
AcDbScale
 70
     0
300
8:1
140
8.0
141
1.0
290
     0
  0
SCALE
  5
57
102
{ACAD_REACTORS
330
47
102
}
330
47
100
AcDbScale
 70
     0
300
10:1
140
10.0
141
1.0
290
     0
  0
SCALE
  5
58
102
{ACAD_REACTORS
330
47
102
}
330
47
100
AcDbScale
 70
     0
300
100:1
140
100.0
141
1.0
290
     0
  0
SCALE
  5
59
102
{ACAD_REACTORS
330
47
102
}
330
47
100
AcDbScale
 70
     0
300
1/128" = 1'-0"
140
0.0078125
141
12.0
290
     0
  0
SCALE
  5
5A
102
{ACAD_REACTORS
330
47
102
}
330
47
100
AcDbScale
 70
     0
300
1/64" = 1'-0"
140
0.015625
141
12.0
290
     0
  0
SCALE
  5
5B
102
{ACAD_REACTORS
330
47
102
}
330
47
100
AcDbScale
 70
     0
300
1/32" = 1'-0"
140
0.03125
141
12.0
290
     0
  0
SCALE
  5
5C
102
{ACAD_REACTORS
330
47
102
}
330
47
100
AcDbScale
 70
     0
300
1/16" = 1'-0"
140
0.0625
141
12.0
290
     0
  0
SCALE
  5
5D
102
{ACAD_REACTORS
330
47
102
}
330
47
100
AcDbScale
 70
     0
300
3/32" = 1'-0"
140
0.09375
141
12.0
290
     0
  0
SCALE
  5
5E
102
{ACAD_REACTORS
330
47
102
}
330
47
100
AcDbScale
 70
     0
300
1/8" = 1'-0"
140
0.125
141
12.0
290
     0
  0
SCALE
  5
5F
102
{ACAD_REACTORS
330
47
102
}
330
47
100
AcDbScale
 70
     0
300
3/16" = 1'-0"
140
0.1875
141
12.0
290
     0
  0
SCALE
  5
60
102
{ACAD_REACTORS
330
47
102
}
330
47
100
AcDbScale
 70
     0
300
1/4" = 1'-0"
140
0.25
141
12.0
290
     0
  0
SCALE
  5
61
102
{ACAD_REACTORS
330
47
102
}
330
47
100
AcDbScale
 70
     0
300
3/8" = 1'-0"
140
0.375
141
12.0
290
     0
  0
SCALE
  5
62
102
{ACAD_REACTORS
330
47
102
}
330
47
100
AcDbScale
 70
     0
300
1/2" = 1'-0"
140
0.5
141
12.0
290
     0
  0
SCALE
  5
63
102
{ACAD_REACTORS
330
47
102
}
330
47
100
AcDbScale
 70
     0
300
3/4" = 1'-0"
140
0.75
141
12.0
290
     0
  0
SCALE
  5
64
102
{ACAD_REACTORS
330
47
102
}
330
47
100
AcDbScale
 70
     0
300
1" = 1'-0"
140
1.0
141
12.0
290
     0
  0
SCALE
  5
65
102
{ACAD_REACTORS
330
47
102
}
330
47
100
AcDbScale
 70
     0
300
1-1/2" = 1'-0"
140
1.5
141
12.0
290
     0
  0
SCALE
  5
66
102
{ACAD_REACTORS
330
47
102
}
330
47
100
AcDbScale
 70
     0
300
3" = 1'-0"
140
3.0
141
12.0
290
     0
  0
SCALE
  5
67
102
{ACAD_REACTORS
330
47
102
}
330
47
100
AcDbScale
 70
     0
300
6" = 1'-0"
140
6.0
141
12.0
290
     0
  0
SCALE
  5
68
102
{ACAD_REACTORS
330
47
102
}
330
47
100
AcDbScale
 70
     0
300
1'-0" = 1'-0"
140
12.0
141
12.0
290
     0
  0
ACDBSECTIONVIEWSTYLE
  5
558
102
{ACAD_XDICTIONARY
360
570
102
}
102
{ACAD_REACTORS
330
553
102
}
330
553
100
AcDbModelDocViewStyle
 70
     0
  3
Imperial24
290
     0
100
AcDbSectionViewStyle
 70
     0
 71
     0
 90
       78
 71
     1
340
11
 62
   256
 40
0.24
340
0
340
0
 62
   256
 40
0.24
300
I, O, Q, S, X, Z
 40
0.48
 90
        3
 40
0.18
 90
        1
 71
     2
340
16
 90
       25
 62
   256
340
16
 90
       50
 62
   256
 40
0.24
 40
0.0
 40
0.24
 71
     3
340
11
 62
   256
 40
0.24
 90
        1
 40
0.75
 90
        1
300
%<\AcVar ViewType \f "%tc1">% %<\AcVar ViewSectionStartId>%-%<\AcVar ViewSectionEndId>%\PSCALE %<\AcVar ViewScale \f "%sn">%
 71
     4
 62
   256
 62
   257
300
ANSI31
 40
1.0
 90
        0
290
     0
290
     0
 90
        6
 40
0.0
 40
1.570796326794896
 40
0.2617993877991494
 40
1.308996938995747
 40
-0.2617993877991494
 40
1.832595714594046
  0
TABLESTYLE
  5
556
102
{ACAD_XDICTIONARY
360
56E
102
}
102
{ACAD_REACTORS
330
550
102
}
330
550
100
AcDbTableStyle
280
     0
  3
Standard
 70
     0
 71
     0
 40
0.06
 41
0.06
280
     0
281
     0
  7
Standard
140
0.18
170
     2
 62
     0
 63
     7
283
     0
 90
      512
 91
        0
  1

274
    -2
284
     1
 64
     0
275
    -2
285
     1
 65
     0
276
    -2
286
     1
 66
     0
277
    -2
287
     1
 67
     0
278
    -2
288
     1
 68
     0
279
    -2
289
     1
 69
     0
  7
Standard
140
0.25
170
     5
 62
     0
 63
     7
283
     0
 90
      512
 91
        0
  1

274
    -2
284
     1
 64
     0
275
    -2
285
     1
 65
     0
276
    -2
286
     1
 66
     0
277
    -2
287
     1
 67
     0
278
    -2
288
     1
 68
     0
279
    -2
289
     1
 69
     0
  7
Standard
140
0.18
170
     5
 62
     0
 63
     7
283
     0
 90
      512
 91
        0
  1

274
    -2
284
     1
 64
     0
275
    -2
285
     1
 65
     0
276
    -2
286
     1
 66
     0
277
    -2
287
     1
 67
     0
278
    -2
288
     1
 68
     0
279
    -2
289
     1
 69
     0
  0
VISUALSTYLE
  5
2F
102
{ACAD_REACTORS
330
2A
102
}
330
2A
100
AcDbVisualStyle
  2
2dWireframe
 70
     4
177
     3
291
     0
 70
    58
 90
        0
176
     1
 90
        2
176
     1
 90
        0
176
     1
 90
        0
176
     1
 40
0.6
176
     1
 40
30.0
176
     1
 62
     7
420
 16777215
176
     1
 90
        1
176
     1
 90
        4
176
     1
 62
     7
176
     1
 62
   257
176
     1
 90
        1
176
     1
 90
        1
176
     1
 40
1.0
176
     1
 90
        0
176
     1
 62
   257
176
     1
 40
1.0
176
     1
 90
        1
176
     1
 90
        6
176
     1
 90
        2
176
     1
 62
     7
176
     1
 90
        5
176
     1
 90
        0
176
     1
 90
        0
176
     1
290
     0
176
     1
 90
        1
176
     1
 40
0.0
176
     1
 90
        0
176
     1
290
     1
176
     1
290
     1
176
     1
290
     0
176
     1
290
     0
176
     1
290
     0
176
     1
290
     0
176
     1
290
     0
176
     1
290
     0
176
     1
290
     0
176
     1
 90
       50
176
     1
 40
0.0
176
     1
 40
1.0
176
     1
 90
        0
176
     1
 62
    18
420
        0
176
     1
 90
       50
176
     1
 90
        3
176
     1
 62
     5
420
      255
176
     1
290
     0
176
     1
 90
       50
176
     1
 90
       50
176
     1
 90
       50
176
     1
290
     0
176
     1
 90
       50
176
     1
 62
   256
176
     0
 40
1.0
176
     0
 90
        2
176
     1
  1
strokes_ogs.tif
176
     1
290
     0
176
     1
 40
1.0
176
     1
 40
1.0
176
     1
  0
VISUALSTYLE
  5
32
102
{ACAD_REACTORS
330
2A
102
}
330
2A
100
AcDbVisualStyle
  2
Basic
 70
     7
177
     3
291
     1
 70
    58
 90
        1
176
     1
 90
        0
176
     1
 90
        1
176
     1
 90
        0
176
     1
 40
0.6
176
     1
 40
30.0
176
     1
 62
     7
420
 16777215
176
     1
 90
        0
176
     1
 90
        4
176
     1
 62
     7
176
     1
 62
   257
176
     1
 90
        1
176
     1
 90
        1
176
     1
 40
1.0
176
     1
 90
        8
176
     1
 62
     7
176
     1
 40
1.0
176
     1
 90
        1
176
     1
 90
        6
176
     1
 90
        2
176
     1
 62
     7
176
     1
 90
        5
176
     1
 90
        0
176
     1
 90
        0
176
     1
290
     0
176
     1
 90
        1
176
     1
 40
0.0
176
     1
 90
        0
176
     1
290
     0
176
     1
290
     1
176
     1
290
     1
176
     1
290
     0
176
     1
290
     0
176
     1
290
     0
176
     1
290
     0
176
     1
290
     0
176
     1
290
     0
176
     1
 90
       50
176
     1
 40
0.0
176
     1
 40
1.0
176
     1
 90
        0
176
     1
 62
    18
420
        0
176
     1
 90
       50
176
     1
 90
        3
176
     1
 62
     5
420
      255
176
     1
290
     0
176
     1
 90
       50
176
     1
 90
       50
176
     1
 90
       50
176
     1
290
     0
176
     1
 90
       50
176
     1
 62
   256
176
     0
 40
1.0
176
     0
 90
        2
176
     1
  1
strokes_ogs.tif
176
     1
290
     0
176
     1
 40
1.0
176
     1
 40
1.0
176
     1
  0
VISUALSTYLE
  5
36
102
{ACAD_REACTORS
330
2A
102
}
330
2A
100
AcDbVisualStyle
  2
Brighten
 70
    12
177
     3
291
     1
 70
    58
 90
        2
176
     1
 90
        2
176
     1
 90
        0
176
     1
 90
        0
176
     1
 40
0.6
176
     1
 40
30.0
176
     1
 62
     7
420
 16777215
176
     1
 90
        1
176
     1
 90
        4
176
     1
 62
     7
176
     1
 62
   257
176
     1
 90
        1
176
     1
 90
        1
176
     1
 40
1.0
176
     1
 90
        8
176
     1
 62
     7
176
     1
 40
1.0
176
     1
 90
        1
176
     1
 90
        6
176
     1
 90
        2
176
     1
 62
     7
176
     1
 90
        5
176
     1
 90
        0
176
     1
 90
        0
176
     1
290
     0
176
     1
 90
        1
176
     1
 40
50.0
176
     1
 90
        0
176
     1
290
     0
176
     1
290
     1
176
     1
290
     1
176
     1
290
     0
176
     1
290
     0
176
     1
290
     0
176
     1
290
     0
176
     1
290
     0
176
     1
290
     0
176
     1
 90
       50
176
     1
 40
0.0
176
     1
 40
1.0
176
     1
 90
        0
176
     1
 62
    18
420
        0
176
     1
 90
       50
176
     1
 90
        3
176
     1
 62
     5
420
      255
176
     1
290
     0
176
     1
 90
       50
176
     1
 90
       50
176
     1
 90
       50
176
     1
290
     0
176
     1
 90
       50
176
     1
 62
   256
176
     0
 40
1.0
176
     0
 90
        2
176
     1
  1
strokes_ogs.tif
176
     1
290
     0
176
     1
 40
1.0
176
     1
 40
1.0
176
     1
  0
VISUALSTYLE
  5
3A
102
{ACAD_REACTORS
330
2A
102
}
330
2A
100
AcDbVisualStyle
  2
ColorChange
 70
    16
177
     3
291
     1
 70
    58
 90
        2
176
     1
 90
        2
176
     1
 90
        3
176
     1
 90
        0
176
     1
 40
0.6
176
     1
 40
30.0
176
     1
 62
     8
420
  8421504
176
     1
 90
        1
176
     1
 90
        4
176
     1
 62
     7
176
     1
 62
   257
176
     1
 90
        1
176
     1
 90
        1
176
     1
 40
1.0
176
     1
 90
        8
176
     1
 62
     8
420
  8421504
176
     1
 40
1.0
176
     1
 90
        1
176
     1
 90
        6
176
     1
 90
        2
176
     1
 62
     7
176
     1
 90
        5
176
     1
 90
        0
176
     1
 90
        0
176
     1
290
     0
176
     1
 90
        1
176
     1
 40
0.0
176
     1
 90
        0
176
     1
290
     0
176
     1
290
     1
176
     1
290
     1
176
     1
290
     0
176
     1
290
     0
176
     1
290
     0
176
     1
290
     0
176
     1
290
     0
176
     1
290
     0
176
     1
 90
       50
176
     1
 40
0.0
176
     1
 40
1.0
176
     1
 90
        0
176
     1
 62
    18
420
        0
176
     1
 90
       50
176
     1
 90
        3
176
     1
 62
     5
420
      255
176
     1
290
     0
176
     1
 90
       50
176
     1
 90
       50
176
     1
 90
       50
176
     1
290
     0
176
     1
 90
       50
176
     1
 62
   256
176
     0
 40
1.0
176
     0
 90
        2
176
     1
  1
strokes_ogs.tif
176
     1
290
     0
176
     1
 40
1.0
176
     1
 40
1.0
176
     1
  0
VISUALSTYLE
  5
34
102
{ACAD_REACTORS
330
2A
102
}
330
2A
100
AcDbVisualStyle
  2
Conceptual
 70
     9
177
     3
291
     0
 70
    58
 90
        3
176
     1
 90
        2
176
     1
 90
        0
176
     1
 90
        0
176
     1
 40
0.6
176
     1
 40
30.0
176
     1
 62
     7
420
 16777215
176
     1
 90
        2
176
     1
 90
        2
176
     1
 62
     7
176
     1
 62
   257
176
     1
 90
        1
176
     1
 90
        1
176
     1
 40
179.0
176
     1
 90
        8
176
     1
 62
     7
176
     1
 40
1.0
176
     1
 90
        1
176
     1
 90
        6
176
     1
 90
        2
176
     1
 62
     7
176
     1
 90
        3
176
     1
 90
        0
176
     1
 90
        0
176
     1
290
     0
176
     1
 90
        1
176
     1
 40
0.0
176
     1
 90
        0
176
     1
290
     0
176
     1
290
     1
176
     1
290
     1
176
     1
290
     0
176
     1
290
     0
176
     1
290
     0
176
     1
290
     0
176
     1
290
     0
176
     1
290
     0
176
     1
 90
       50
176
     1
 40
0.0
176
     1
 40
1.0
176
     1
 90
        0
176
     1
 62
    18
420
        0
176
     1
 90
       50
176
     1
 90
        3
176
     1
 62
     5
420
      255
176
     1
290
     0
176
     1
 90
       50
176
     1
 90
       50
176
     1
 90
       50
176
     1
290
     0
176
     1
 90
       50
176
     1
 62
   256
176
     0
 40
1.0
176
     0
 90
        2
176
     1
  1
strokes_ogs.tif
176
     1
290
     0
176
     1
 40
1.0
176
     1
 40
1.0
176
     1
  0
VISUALSTYLE
  5
35
102
{ACAD_REACTORS
330
2A
102
}
330
2A
100
AcDbVisualStyle
  2
Dim
 70
    11
177
     3
291
     1
 70
    58
 90
        2
176
     1
 90
        2
176
     1
 90
        0
176
     1
 90
        0
176
     1
 40
0.6
176
     1
 40
30.0
176
     1
 62
     7
420
 16777215
176
     1
 90
        1
176
     1
 90
        4
176
     1
 62
     7
176
     1
 62
   257
176
     1
 90
        1
176
     1
 90
        1
176
     1
 40
1.0
176
     1
 90
        8
176
     1
 62
     7
176
     1
 40
1.0
176
     1
 90
        1
176
     1
 90
        6
176
     1
 90
        2
176
     1
 62
     7
176
     1
 90
        5
176
     1
 90
        0
176
     1
 90
        0
176
     1
290
     0
176
     1
 90
        1
176
     1
 40
-50.0
176
     1
 90
        0
176
     1
290
     0
176
     1
290
     1
176
     1
290
     1
176
     1
290
     0
176
     1
290
     0
176
     1
290
     0
176
     1
290
     0
176
     1
290
     0
176
     1
290
     0
176
     1
 90
       50
176
     1
 40
0.0
176
     1
 40
1.0
176
     1
 90
        0
176
     1
 62
    18
420
        0
176
     1
 90
       50
176
     1
 90
        3
176
     1
 62
     5
420
      255
176
     1
290
     0
176
     1
 90
       50
176
     1
 90
       50
176
     1
 90
       50
176
     1
290
     0
176
     1
 90
       50
176
     1
 62
   256
176
     0
 40
1.0
176
     0
 90
        2
176
     1
  1
strokes_ogs.tif
176
     1
290
     0
176
     1
 40
1.0
176
     1
 40
1.0
176
     1
  0
VISUALSTYLE
  5
3D
102
{ACAD_REACTORS
330
2A
102
}
330
2A
100
AcDbVisualStyle
  2
EdgeColorOff
 70
    22
177
     3
291
     1
 70
    58
 90
        2
176
     0
 90
        2
176
     0
 90
        0
176
     0
 90
        0
176
     0
 40
0.6
176
     0
 40
30.0
176
     0
 62
     7
420
 16777215
176
     0
 90
        1
176
     0
 90
        4
176
     0
 62
     7
176
     0
 62
   257
176
     0
 90
        1
176
     0
 90
        1
176
     0
 40
1.0
176
     0
 90
        8
176
     2
 62
     7
176
     0
 40
1.0
176
     0
 90
        1
176
     0
 90
        6
176
     0
 90
        2
176
     0
 62
     7
176
     0
 90
        5
176
     0
 90
        0
176
     0
 90
        0
176
     0
290
     0
176
     0
 90
        1
176
     0
 40
0.0
176
     0
 90
        0
176
     0
290
     0
176
     0
290
     1
176
     0
290
     1
176
     0
290
     0
176
     0
290
     0
176
     0
290
     0
176
     0
290
     0
176
     0
290
     0
176
     0
290
     0
176
     0
 90
       50
176
     0
 40
0.0
176
     0
 40
1.0
176
     0
 90
        0
176
     0
 62
    18
420
        0
176
     0
 90
       50
176
     0
 90
        3
176
     0
 62
     5
420
      255
176
     0
290
     0
176
     0
 90
       50
176
     0
 90
       50
176
     0
 90
       50
176
     0
290
     0
176
     0
 90
       50
176
     0
 62
   256
176
     0
 40
1.0
176
     0
 90
        2
176
     0
  1
strokes_ogs.tif
176
     0
290
     0
176
     0
 40
1.0
176
     0
 40
1.0
176
     0
  0
VISUALSTYLE
  5
39
102
{ACAD_REACTORS
330
2A
102
}
330
2A
100
AcDbVisualStyle
  2
Facepattern
 70
    15
177
     3
291
     1
 70
    58
 90
        2
176
     1
 90
        2
176
     1
 90
        0
176
     1
 90
        0
176
     1
 40
0.6
176
     1
 40
30.0
176
     1
 62
     7
420
 16777215
176
     1
 90
        1
176
     1
 90
        4
176
     1
 62
     7
176
     1
 62
   257
176
     1
 90
        1
176
     1
 90
        1
176
     1
 40
1.0
176
     1
 90
        8
176
     1
 62
     7
176
     1
 40
1.0
176
     1
 90
        1
176
     1
 90
        6
176
     1
 90
        2
176
     1
 62
     7
176
     1
 90
        5
176
     1
 90
        0
176
     1
 90
        0
176
     1
290
     0
176
     1
 90
        1
176
     1
 40
0.0
176
     1
 90
        0
176
     1
290
     0
176
     1
290
     1
176
     1
290
     1
176
     1
290
     0
176
     1
290
     0
176
     1
290
     0
176
     1
290
     0
176
     1
290
     0
176
     1
290
     0
176
     1
 90
       50
176
     1
 40
0.0
176
     1
 40
1.0
176
     1
 90
        0
176
     1
 62
    18
420
        0
176
     1
 90
       50
176
     1
 90
        3
176
     1
 62
     5
420
      255
176
     1
290
     0
176
     1
 90
       50
176
     1
 90
       50
176
     1
 90
       50
176
     1
290
     0
176
     1
 90
       50
176
     1
 62
   256
176
     0
 40
1.0
176
     0
 90
        2
176
     1
  1
strokes_ogs.tif
176
     1
290
     0
176
     1
 40
1.0
176
     1
 40
1.0
176
     1
  0
VISUALSTYLE
  5
2B
102
{ACAD_REACTORS
330
2A
102
}
330
2A
100
AcDbVisualStyle
  2
Flat
 70
     0
177
     3
291
     1
 70
    58
 90
        2
176
     1
 90
        1
176
     1
 90
        1
176
     1
 90
        2
176
     1
 40
0.6
176
     1
 40
30.0
176
     1
 62
     7
420
 16777215
176
     1
 90
        0
176
     1
 90
        0
176
     1
 62
     7
176
     1
 62
   257
176
     1
 90
        1
176
     1
 90
        1
176
     1
 40
1.0
176
     1
 90
        8
176
     1
 62
     7
176
     1
 40
1.0
176
     1
 90
        1
176
     1
 90
        6
176
     1
 90
        2
176
     1
 62
     7
176
     1
 90
        5
176
     1
 90
        0
176
     1
 90
        0
176
     1
290
     0
176
     1
 90
       13
176
     1
 40
0.0
176
     1
 90
        0
176
     1
290
     0
176
     1
290
     1
176
     1
290
     1
176
     1
290
     0
176
     1
290
     0
176
     1
290
     0
176
     1
290
     0
176
     1
290
     0
176
     1
290
     0
176
     1
 90
       50
176
     1
 40
0.0
176
     1
 40
1.0
176
     1
 90
        0
176
     1
 62
    18
420
        0
176
     1
 90
       50
176
     1
 90
        3
176
     1
 62
     5
420
      255
176
     1
290
     0
176
     1
 90
       50
176
     1
 90
       50
176
     1
 90
       50
176
     1
290
     0
176
     1
 90
       50
176
     1
 62
   256
176
     0
 40
1.0
176
     0
 90
        2
176
     1
  1
strokes_ogs.tif
176
     1
290
     0
176
     1
 40
1.0
176
     1
 40
1.0
176
     1
  0
VISUALSTYLE
  5
2C
102
{ACAD_REACTORS
330
2A
102
}
330
2A
100
AcDbVisualStyle
  2
FlatWithEdges
 70
     1
177
     3
291
     1
 70
    58
 90
        2
176
     1
 90
        1
176
     1
 90
        1
176
     1
 90
        2
176
     1
 40
0.6
176
     1
 40
30.0
176
     1
 62
     7
420
 16777215
176
     1
 90
        1
176
     1
 90
        0
176
     1
 62
     7
176
     1
 62
   257
176
     1
 90
        1
176
     1
 90
        1
176
     1
 40
1.0
176
     1
 90
        0
176
     1
 62
   257
176
     1
 40
1.0
176
     1
 90
        1
176
     1
 90
        6
176
     1
 90
        2
176
     1
 62
     7
176
     1
 90
        5
176
     1
 90
        0
176
     1
 90
        0
176
     1
290
     0
176
     1
 90
       13
176
     1
 40
0.0
176
     1
 90
        0
176
     1
290
     0
176
     1
290
     1
176
     1
290
     1
176
     1
290
     0
176
     1
290
     0
176
     1
290
     0
176
     1
290
     0
176
     1
290
     0
176
     1
290
     0
176
     1
 90
       50
176
     1
 40
0.0
176
     1
 40
1.0
176
     1
 90
        0
176
     1
 62
    18
420
        0
176
     1
 90
       50
176
     1
 90
        3
176
     1
 62
     5
420
      255
176
     1
290
     0
176
     1
 90
       50
176
     1
 90
       50
176
     1
 90
       50
176
     1
290
     0
176
     1
 90
       50
176
     1
 62
   256
176
     0
 40
1.0
176
     0
 90
        2
176
     1
  1
strokes_ogs.tif
176
     1
290
     0
176
     1
 40
1.0
176
     1
 40
1.0
176
     1
  0
VISUALSTYLE
  5
2D
102
{ACAD_REACTORS
330
2A
102
}
330
2A
100
AcDbVisualStyle
  2
Gouraud
 70
     2
177
     3
291
     1
 70
    58
 90
        2
176
     1
 90
        2
176
     1
 90
        1
176
     1
 90
        2
176
     1
 40
0.6
176
     1
 40
30.0
176
     1
 62
     7
420
 16777215
176
     1
 90
        0
176
     1
 90
        0
176
     1
 62
     7
176
     1
 62
   257
176
     1
 90
        1
176
     1
 90
        1
176
     1
 40
1.0
176
     1
 90
        0
176
     1
 62
     7
176
     1
 40
1.0
176
     1
 90
        1
176
     1
 90
        6
176
     1
 90
        2
176
     1
 62
     7
176
     1
 90
        5
176
     1
 90
        0
176
     1
 90
        0
176
     1
290
     0
176
     1
 90
       13
176
     1
 40
0.0
176
     1
 90
        0
176
     1
290
     0
176
     1
290
     1
176
     1
290
     1
176
     1
290
     0
176
     1
290
     0
176
     1
290
     0
176
     1
290
     0
176
     1
290
     0
176
     1
290
     0
176
     1
 90
       50
176
     1
 40
0.0
176
     1
 40
1.0
176
     1
 90
        0
176
     1
 62
    18
420
        0
176
     1
 90
       50
176
     1
 90
        3
176
     1
 62
     5
420
      255
176
     1
290
     0
176
     1
 90
       50
176
     1
 90
       50
176
     1
 90
       50
176
     1
290
     0
176
     1
 90
       50
176
     1
 62
   256
176
     0
 40
1.0
176
     0
 90
        2
176
     1
  1
strokes_ogs.tif
176
     1
290
     0
176
     1
 40
1.0
176
     1
 40
1.0
176
     1
  0
VISUALSTYLE
  5
2E
102
{ACAD_REACTORS
330
2A
102
}
330
2A
100
AcDbVisualStyle
  2
GouraudWithEdges
 70
     3
177
     3
291
     1
 70
    58
 90
        2
176
     1
 90
        2
176
     1
 90
        1
176
     1
 90
        2
176
     1
 40
0.6
176
     1
 40
30.0
176
     1
 62
     7
420
 16777215
176
     1
 90
        1
176
     1
 90
        0
176
     1
 62
     7
176
     1
 62
   257
176
     1
 90
        1
176
     1
 90
        1
176
     1
 40
1.0
176
     1
 90
        0
176
     1
 62
   257
176
     1
 40
1.0
176
     1
 90
        1
176
     1
 90
        6
176
     1
 90
        2
176
     1
 62
     7
176
     1
 90
        5
176
     1
 90
        0
176
     1
 90
        0
176
     1
290
     0
176
     1
 90
       13
176
     1
 40
0.0
176
     1
 90
        0
176
     1
290
     0
176
     1
290
     1
176
     1
290
     1
176
     1
290
     0
176
     1
290
     0
176
     1
290
     0
176
     1
290
     0
176
     1
290
     0
176
     1
290
     0
176
     1
 90
       50
176
     1
 40
0.0
176
     1
 40
1.0
176
     1
 90
        0
176
     1
 62
    18
420
        0
176
     1
 90
       50
176
     1
 90
        3
176
     1
 62
     5
420
      255
176
     1
290
     0
176
     1
 90
       50
176
     1
 90
       50
176
     1
 90
       50
176
     1
290
     0
176
     1
 90
       50
176
     1
 62
   256
176
     0
 40
1.0
176
     0
 90
        2
176
     1
  1
strokes_ogs.tif
176
     1
290
     0
176
     1
 40
1.0
176
     1
 40
1.0
176
     1
  0
VISUALSTYLE
  5
31
102
{ACAD_REACTORS
330
2A
102
}
330
2A
100
AcDbVisualStyle
  2
Hidden
 70
     6
177
     3
291
     0
 70
    58
 90
        1
176
     1
 90
        2
176
     1
 90
        2
176
     1
 90
        0
176
     1
 40
0.6
176
     1
 40
30.0
176
     1
 62
     7
420
 16777215
176
     1
 90
        2
176
     1
 90
        2
176
     1
 62
     7
176
     1
 62
   257
176
     1
 90
        2
176
     1
 90
        1
176
     1
 40
40.0
176
     1
 90
        0
176
     1
 62
   257
176
     1
 40
1.0
176
     1
 90
        1
176
     1
 90
        6
176
     1
 90
        2
176
     1
 62
     7
176
     1
 90
        3
176
     1
 90
        0
176
     1
 90
        0
176
     1
290
     0
176
     1
 90
        1
176
     1
 40
0.0
176
     1
 90
        0
176
     1
290
     0
176
     1
290
     1
176
     1
290
     1
176
     1
290
     0
176
     1
290
     0
176
     1
290
     0
176
     1
290
     0
176
     1
290
     0
176
     1
290
     0
176
     1
 90
       50
176
     1
 40
0.0
176
     1
 40
1.0
176
     1
 90
        0
176
     1
 62
    18
420
        0
176
     1
 90
       50
176
     1
 90
        3
176
     1
 62
     5
420
      255
176
     1
290
     0
176
     1
 90
       50
176
     1
 90
       50
176
     1
 90
       50
176
     1
290
     0
176
     1
 90
       50
176
     1
 62
   256
176
     0
 40
1.0
176
     0
 90
        2
176
     1
  1
strokes_ogs.tif
176
     1
290
     0
176
     1
 40
1.0
176
     1
 40
1.0
176
     1
  0
VISUALSTYLE
  5
3B
102
{ACAD_REACTORS
330
2A
102
}
330
2A
100
AcDbVisualStyle
  2
JitterOff
 70
    20
177
     3
291
     1
 70
    58
 90
        2
176
     0
 90
        2
176
     0
 90
        0
176
     0
 90
        0
176
     0
 40
0.6
176
     0
 40
30.0
176
     0
 62
     7
420
 16777215
176
     0
 90
        1
176
     0
 90
        4
176
     0
 62
     7
176
     0
 62
   257
176
     0
 90
        1
176
     0
 90
        1
176
     0
 40
1.0
176
     0
 90
       10
176
     2
 62
     7
176
     0
 40
1.0
176
     0
 90
        1
176
     0
 90
        6
176
     0
 90
        2
176
     0
 62
     7
176
     0
 90
        5
176
     0
 90
        0
176
     0
 90
        0
176
     0
290
     0
176
     0
 90
        1
176
     0
 40
0.0
176
     0
 90
        0
176
     0
290
     0
176
     0
290
     1
176
     0
290
     1
176
     0
290
     0
176
     0
290
     0
176
     0
290
     0
176
     0
290
     0
176
     0
290
     0
176
     0
290
     0
176
     0
 90
       50
176
     0
 40
0.0
176
     0
 40
1.0
176
     0
 90
        0
176
     0
 62
    18
420
        0
176
     0
 90
       50
176
     0
 90
        3
176
     0
 62
     5
420
      255
176
     0
290
     0
176
     0
 90
       50
176
     0
 90
       50
176
     0
 90
       50
176
     0
290
     0
176
     0
 90
       50
176
     0
 62
   256
176
     0
 40
1.0
176
     0
 90
        2
176
     0
  1
strokes_ogs.tif
176
     0
290
     0
176
     0
 40
1.0
176
     0
 40
1.0
176
     0
  0
VISUALSTYLE
  5
38
102
{ACAD_REACTORS
330
2A
102
}
330
2A
100
AcDbVisualStyle
  2
Linepattern
 70
    14
177
     3
291
     1
 70
    58
 90
        2
176
     1
 90
        2
176
     1
 90
        0
176
     1
 90
        0
176
     1
 40
0.6
176
     1
 40
30.0
176
     1
 62
     7
420
 16777215
176
     1
 90
        1
176
     1
 90
        4
176
     1
 62
     7
176
     1
 62
   257
176
     1
 90
        7
176
     1
 90
        7
176
     1
 40
1.0
176
     1
 90
        8
176
     1
 62
     7
176
     1
 40
1.0
176
     1
 90
        1
176
     1
 90
        6
176
     1
 90
        2
176
     1
 62
     7
176
     1
 90
        5
176
     1
 90
        0
176
     1
 90
        0
176
     1
290
     0
176
     1
 90
        1
176
     1
 40
0.0
176
     1
 90
        0
176
     1
290
     0
176
     1
290
     1
176
     1
290
     1
176
     1
290
     0
176
     1
290
     0
176
     1
290
     0
176
     1
290
     0
176
     1
290
     0
176
     1
290
     0
176
     1
 90
       50
176
     1
 40
0.0
176
     1
 40
1.0
176
     1
 90
        0
176
     1
 62
    18
420
        0
176
     1
 90
       50
176
     1
 90
        3
176
     1
 62
     5
420
      255
176
     1
290
     0
176
     1
 90
       50
176
     1
 90
       50
176
     1
 90
       50
176
     1
290
     0
176
     1
 90
       50
176
     1
 62
   256
176
     0
 40
1.0
176
     0
 90
        2
176
     1
  1
strokes_ogs.tif
176
     1
290
     0
176
     1
 40
1.0
176
     1
 40
1.0
176
     1
  0
VISUALSTYLE
  5
3C
102
{ACAD_REACTORS
330
2A
102
}
330
2A
100
AcDbVisualStyle
  2
OverhangOff
 70
    21
177
     3
291
     1
 70
    58
 90
        2
176
     0
 90
        2
176
     0
 90
        0
176
     0
 90
        0
176
     0
 40
0.6
176
     0
 40
30.0
176
     0
 62
     7
420
 16777215
176
     0
 90
        1
176
     0
 90
        4
176
     0
 62
     7
176
     0
 62
   257
176
     0
 90
        1
176
     0
 90
        1
176
     0
 40
1.0
176
     0
 90
        9
176
     2
 62
     7
176
     0
 40
1.0
176
     0
 90
        1
176
     0
 90
        6
176
     0
 90
        2
176
     0
 62
     7
176
     0
 90
        5
176
     0
 90
        0
176
     0
 90
        0
176
     0
290
     0
176
     0
 90
        1
176
     0
 40
0.0
176
     0
 90
        0
176
     0
290
     0
176
     0
290
     1
176
     0
290
     1
176
     0
290
     0
176
     0
290
     0
176
     0
290
     0
176
     0
290
     0
176
     0
290
     0
176
     0
290
     0
176
     0
 90
       50
176
     0
 40
0.0
176
     0
 40
1.0
176
     0
 90
        0
176
     0
 62
    18
420
        0
176
     0
 90
       50
176
     0
 90
        3
176
     0
 62
     5
420
      255
176
     0
290
     0
176
     0
 90
       50
176
     0
 90
       50
176
     0
 90
       50
176
     0
290
     0
176
     0
 90
       50
176
     0
 62
   256
176
     0
 40
1.0
176
     0
 90
        2
176
     0
  1
strokes_ogs.tif
176
     0
290
     0
176
     0
 40
1.0
176
     0
 40
1.0
176
     0
  0
VISUALSTYLE
  5
33
102
{ACAD_REACTORS
330
2A
102
}
330
2A
100
AcDbVisualStyle
  2
Realistic
 70
     8
177
     3
291
     0
 70
    58
 90
        2
176
     1
 90
        3
176
     1
 90
        0
176
     1
 90
        2
176
     1
 40
0.6
176
     1
 40
30.0
176
     1
 62
     7
420
 16777215
176
     1
 90
        0
176
     1
 90
        0
176
     1
 62
     7
176
     1
 62
   257
176
     1
 90
        1
176
     1
 90
        1
176
     1
 40
1.0
176
     1
 90
        8
176
     1
 62
   257
176
     1
 40
1.0
176
     1
 90
        1
176
     1
 90
        6
176
     1
 90
        2
176
     1
 62
     7
176
     1
 90
        3
176
     1
 90
        0
176
     1
 90
        0
176
     1
290
     0
176
     1
 90
       13
176
     1
 40
0.0
176
     1
 90
        0
176
     1
290
     0
176
     1
290
     1
176
     1
290
     1
176
     1
290
     0
176
     1
290
     0
176
     1
290
     0
176
     1
290
     0
176
     1
290
     0
176
     1
290
     0
176
     1
 90
       50
176
     1
 40
0.0
176
     1
 40
1.0
176
     1
 90
        0
176
     1
 62
    18
420
        0
176
     1
 90
       50
176
     1
 90
        3
176
     1
 62
     5
420
      255
176
     1
290
     0
176
     1
 90
       50
176
     1
 90
       50
176
     1
 90
       50
176
     1
290
     0
176
     1
 90
       50
176
     1
 62
   256
176
     0
 40
1.0
176
     0
 90
        2
176
     1
  1
strokes_ogs.tif
176
     1
290
     0
176
     1
 40
1.0
176
     1
 40
1.0
176
     1
  0
VISUALSTYLE
  5
42
102
{ACAD_REACTORS
330
2A
102
}
330
2A
100
AcDbVisualStyle
  2
Shaded
 70
    27
177
     3
291
     0
 70
    58
 90
        2
176
     1
 90
        2
176
     1
 90
        1
176
     1
 90
        2
176
     1
 40
0.6
176
     1
 40
30.0
176
     1
 62
     7
420
 16777215
176
     1
 90
        0
176
     1
 90
        4
176
     1
 62
     7
176
     1
 62
   257
176
     1
 90
        1
176
     1
 90
        1
176
     1
 40
1.0
176
     1
 90
        8
176
     1
 62
   257
176
     1
 40
1.0
176
     1
 90
        1
176
     1
 90
        6
176
     1
 90
        2
176
     1
 62
     8
420
  7895160
176
     1
 90
        3
176
     1
 90
        0
176
     1
 90
        0
176
     1
290
     0
176
     1
 90
        5
176
     1
 40
0.0
176
     1
 90
        0
176
     1
290
     0
176
     1
290
     1
176
     1
290
     1
176
     1
290
     0
176
     1
290
     0
176
     1
290
     0
176
     1
290
     0
176
     1
290
     0
176
     1
290
     0
176
     1
 90
       50
176
     1
 40
0.0
176
     1
 40
1.0
176
     1
 90
        0
176
     1
 62
    18
420
        0
176
     1
 90
       50
176
     1
 90
        3
176
     1
 62
     5
420
      255
176
     1
290
     0
176
     1
 90
       50
176
     1
 90
       50
176
     1
 90
       50
176
     1
290
     0
176
     1
 90
       50
176
     1
 62
   256
176
     0
 40
1.0
176
     0
 90
        2
176
     1
  1
strokes_ogs.tif
176
     1
290
     0
176
     1
 40
1.0
176
     1
 40
1.0
176
     1
  0
VISUALSTYLE
  5
41
102
{ACAD_REACTORS
330
2A
102
}
330
2A
100
AcDbVisualStyle
  2
Shaded with edges
 70
    26
177
     3
291
     0
 70
    58
 90
        2
176
     1
 90
        2
176
     1
 90
        1
176
     1
 90
        2
176
     1
 40
0.6
176
     1
 40
30.0
176
     1
 62
     7
420
 16777215
176
     1
 90
        1
176
     1
 90
        2
176
     1
 62
     7
176
     1
 62
   257
176
     1
 90
        2
176
     1
 90
        1
176
     1
 40
1.0
176
     1
 90
        8
176
     1
 62
   257
176
     1
 40
1.0
176
     1
 90
        1
176
     1
 90
        6
176
     1
 90
        2
176
     1
 62
     7
176
     1
 90
        3
176
     1
 90
        0
176
     1
 90
        0
176
     1
290
     0
176
     1
 90
        5
176
     1
 40
0.0
176
     1
 90
        0
176
     1
290
     0
176
     1
290
     1
176
     1
290
     1
176
     1
290
     0
176
     1
290
     0
176
     1
290
     0
176
     1
290
     0
176
     1
290
     0
176
     1
290
     0
176
     1
 90
       50
176
     1
 40
0.0
176
     1
 40
1.0
176
     1
 90
        0
176
     1
 62
    18
420
        0
176
     1
 90
       50
176
     1
 90
        3
176
     1
 62
     5
420
      255
176
     1
290
     0
176
     1
 90
       50
176
     1
 90
       50
176
     1
 90
       50
176
     1
290
     0
176
     1
 90
       50
176
     1
 62
   256
176
     0
 40
1.0
176
     0
 90
        2
176
     1
  1
strokes_ogs.tif
176
     1
290
     0
176
     1
 40
1.0
176
     1
 40
1.0
176
     1
  0
VISUALSTYLE
  5
3E
102
{ACAD_REACTORS
330
2A
102
}
330
2A
100
AcDbVisualStyle
  2
Shades of Gray
 70
    23
177
     3
291
     0
 70
    58
 90
        2
176
     1
 90
        2
176
     1
 90
        3
176
     1
 90
        0
176
     1
 40
0.6
176
     1
 40
30.0
176
     1
 62
     7
420
 16777215
176
     1
 90
        2
176
     1
 90
        2
176
     1
 62
     7
176
     1
 62
     7
176
     1
 90
        1
176
     1
 90
        1
176
     1
 40
40.0
176
     1
 90
        8
176
     1
 62
     7
176
     1
 40
1.0
176
     1
 90
        1
176
     1
 90
        6
176
     1
 90
        2
176
     1
 62
     7
176
     1
 90
        3
176
     1
 90
        0
176
     1
 90
        0
176
     1
290
     0
176
     1
 90
        1
176
     1
 40
0.0
176
     1
 90
        0
176
     1
290
     0
176
     1
290
     1
176
     1
290
     1
176
     1
290
     0
176
     1
290
     0
176
     1
290
     0
176
     1
290
     0
176
     1
290
     0
176
     1
290
     0
176
     1
 90
       50
176
     1
 40
0.0
176
     1
 40
1.0
176
     1
 90
        0
176
     1
 62
    18
420
        0
176
     1
 90
       50
176
     1
 90
        3
176
     1
 62
     5
420
      255
176
     1
290
     0
176
     1
 90
       50
176
     1
 90
       50
176
     1
 90
       50
176
     1
290
     0
176
     1
 90
       50
176
     1
 62
   256
176
     0
 40
1.0
176
     0
 90
        2
176
     1
  1
strokes_ogs.tif
176
     1
290
     0
176
     1
 40
1.0
176
     1
 40
1.0
176
     1
  0
VISUALSTYLE
  5
3F
102
{ACAD_REACTORS
330
2A
102
}
330
2A
100
AcDbVisualStyle
  2
Sketchy
 70
    24
177
     3
291
     0
 70
    58
 90
        1
176
     1
 90
        2
176
     1
 90
        2
176
     1
 90
        0
176
     1
 40
0.6
176
     1
 40
30.0
176
     1
 62
     7
420
 16777215
176
     1
 90
        2
176
     1
 90
        2
176
     1
 62
     7
176
     1
 62
     7
176
     1
 90
        1
176
     1
 90
        1
176
     1
 40
40.0
176
     1
 90
       11
176
     1
 62
     7
176
     1
 40
1.0
176
     1
 90
        1
176
     1
 90
        6
176
     1
 90
        2
176
     1
 62
     7
176
     1
 90
        6
176
     1
 90
        0
176
     1
 90
        0
176
     1
290
     0
176
     1
 90
        1
176
     1
 40
0.0
176
     1
 90
        0
176
     1
290
     0
176
     1
290
     1
176
     1
290
     1
176
     1
290
     0
176
     1
290
     0
176
     1
290
     0
176
     1
290
     0
176
     1
290
     0
176
     1
290
     0
176
     1
 90
       50
176
     1
 40
0.0
176
     1
 40
1.0
176
     1
 90
        0
176
     1
 62
    18
420
        0
176
     1
 90
       50
176
     1
 90
        3
176
     1
 62
     5
420
      255
176
     1
290
     0
176
     1
 90
       50
176
     1
 90
       50
176
     1
 90
       50
176
     1
290
     0
176
     1
 90
       50
176
     1
 62
   256
176
     0
 40
1.0
176
     0
 90
        2
176
     1
  1
strokes_ogs.tif
176
     1
290
     0
176
     1
 40
1.0
176
     1
 40
1.0
176
     1
  0
VISUALSTYLE
  5
37
102
{ACAD_REACTORS
330
2A
102
}
330
2A
100
AcDbVisualStyle
  2
Thicken
 70
    13
177
     3
291
     1
 70
    58
 90
        2
176
     1
 90
        2
176
     1
 90
        0
176
     1
 90
        0
176
     1
 40
0.6
176
     1
 40
30.0
176
     1
 62
     7
420
 16777215
176
     1
 90
        1
176
     1
 90
        4
176
     1
 62
     7
176
     1
 62
   257
176
     1
 90
        1
176
     1
 90
        1
176
     1
 40
1.0
176
     1
 90
       12
176
     1
 62
     7
176
     1
 40
1.0
176
     1
 90
        1
176
     1
 90
        6
176
     1
 90
        2
176
     1
 62
     7
176
     1
 90
        5
176
     1
 90
        0
176
     1
 90
        0
176
     1
290
     0
176
     1
 90
        1
176
     1
 40
0.0
176
     1
 90
        0
176
     1
290
     0
176
     1
290
     1
176
     1
290
     1
176
     1
290
     0
176
     1
290
     0
176
     1
290
     0
176
     1
290
     0
176
     1
290
     0
176
     1
290
     0
176
     1
 90
       50
176
     1
 40
0.0
176
     1
 40
1.0
176
     1
 90
        0
176
     1
 62
    18
420
        0
176
     1
 90
       50
176
     1
 90
        3
176
     1
 62
     5
420
      255
176
     1
290
     0
176
     1
 90
       50
176
     1
 90
       50
176
     1
 90
       50
176
     1
290
     0
176
     1
 90
       50
176
     1
 62
   256
176
     0
 40
1.0
176
     0
 90
        2
176
     1
  1
strokes_ogs.tif
176
     1
290
     0
176
     1
 40
1.0
176
     1
 40
1.0
176
     1
  0
VISUALSTYLE
  5
30
102
{ACAD_REACTORS
330
2A
102
}
330
2A
100
AcDbVisualStyle
  2
Wireframe
 70
     5
177
     3
291
     0
 70
    58
 90
        0
176
     1
 90
        2
176
     1
 90
        0
176
     1
 90
        0
176
     1
 40
0.6
176
     1
 40
30.0
176
     1
 62
     7
420
 16777215
176
     1
 90
        1
176
     1
 90
        4
176
     1
 62
     7
176
     1
 62
   257
176
     1
 90
        1
176
     1
 90
        1
176
     1
 40
1.0
176
     1
 90
        0
176
     1
 62
   257
176
     1
 40
1.0
176
     1
 90
        1
176
     1
 90
        6
176
     1
 90
        2
176
     1
 62
     7
176
     1
 90
        3
176
     1
 90
        0
176
     1
 90
        0
176
     1
290
     0
176
     1
 90
        1
176
     1
 40
0.0
176
     1
 90
        0
176
     1
290
     0
176
     1
290
     1
176
     1
290
     1
176
     1
290
     0
176
     1
290
     0
176
     1
290
     0
176
     1
290
     0
176
     1
290
     0
176
     1
290
     0
176
     1
 90
       50
176
     1
 40
0.0
176
     1
 40
1.0
176
     1
 90
        0
176
     1
 62
    18
420
        0
176
     1
 90
       50
176
     1
 90
        3
176
     1
 62
     5
420
      255
176
     1
290
     0
176
     1
 90
       50
176
     1
 90
       50
176
     1
 90
       50
176
     1
290
     0
176
     1
 90
       50
176
     1
 62
   256
176
     0
 40
1.0
176
     0
 90
        2
176
     1
  1
strokes_ogs.tif
176
     1
290
     0
176
     1
 40
1.0
176
     1
 40
1.0
176
     1
  0
VISUALSTYLE
  5
40
102
{ACAD_REACTORS
330
2A
102
}
330
2A
100
AcDbVisualStyle
  2
X-Ray
 70
    25
177
     3
291
     0
 70
    58
 90
        2
176
     1
 90
        2
176
     1
 90
        1
176
     1
 90
        1
176
     1
 40
0.5
176
     1
 40
30.0
176
     1
 62
     7
420
 16777215
176
     1
 90
        1
176
     1
 90
        0
176
     1
 62
     7
176
     1
 62
   257
176
     1
 90
        1
176
     1
 90
        1
176
     1
 40
1.0
176
     1
 90
        8
176
     1
 62
     7
176
     1
 40
1.0
176
     1
 90
        1
176
     1
 90
        6
176
     1
 90
        2
176
     1
 62
     7
176
     1
 90
        3
176
     1
 90
        0
176
     1
 90
        0
176
     1
290
     0
176
     1
 90
       13
176
     1
 40
0.0
176
     1
 90
        0
176
     1
290
     0
176
     1
290
     1
176
     1
290
     1
176
     1
290
     0
176
     1
290
     0
176
     1
290
     0
176
     1
290
     0
176
     1
290
     0
176
     1
290
     0
176
     1
 90
       50
176
     1
 40
0.0
176
     1
 40
1.0
176
     1
 90
        0
176
     1
 62
    18
420
        0
176
     1
 90
       50
176
     1
 90
        3
176
     1
 62
     5
420
      255
176
     1
290
     0
176
     1
 90
       50
176
     1
 90
       50
176
     1
 90
       50
176
     1
290
     0
176
     1
 90
       50
176
     1
 62
   256
176
     0
 40
1.0
176
     0
 90
        2
176
     1
  1
strokes_ogs.tif
176
     1
290
     0
176
     1
 40
1.0
176
     1
 40
1.0
176
     1
  0
DICTIONARYVAR
  5
518
102
{ACAD_REACTORS
330
517
102
}
330
517
100
DictionaryVariables
280
     0
  1
1:1
  0
DICTIONARYVAR
  5
567
102
{ACAD_REACTORS
330
517
102
}
330
517
100
DictionaryVariables
280
     0
  1
STANDARD
  0
DICTIONARYVAR
  5
566
102
{ACAD_REACTORS
330
517
102
}
330
517
100
DictionaryVariables
280
     0
  1
STANDARD
  0
DICTIONARYVAR
  5
568
102
{ACAD_REACTORS
330
517
102
}
330
517
100
DictionaryVariables
280
     0
  1
Imperial24
  0
DICTIONARYVAR
  5
569
102
{ACAD_REACTORS
330
517
102
}
330
517
100
DictionaryVariables
280
     0
  1
Imperial24
  0
DICTIONARYVAR
  5
56B
102
{ACAD_REACTORS
330
517
102
}
330
517
100
DictionaryVariables
280
     0
  1
1
  0
DICTIONARYVAR
  5
56C
102
{ACAD_REACTORS
330
517
102
}
330
517
100
DictionaryVariables
280
     0
  1
15
  0
DICTIONARYVAR
  5
56A
102
{ACAD_REACTORS
330
517
102
}
330
517
100
DictionaryVariables
280
     0
  1
0
  0
DICTIONARYVAR
  5
519
102
{ACAD_REACTORS
330
517
102
}
330
517
100
DictionaryVariables
280
     0
  1
1
  0
DICTIONARY
  5
572
330
559
100
AcDbDictionary
280
     1
281
     1
  3
ACAD_XREC_ROUNDTRIP
360
573
  0
DICTIONARY
  5
570
330
558
100
AcDbDictionary
280
     1
281
     1
  3
ACAD_XREC_ROUNDTRIP
360
571
  0
DICTIONARY
  5
56E
330
556
100
AcDbDictionary
280
     1
281
     1
  3
ACAD_ROUNDTRIP_2008_TABLESTYLE_CELLSTYLEMAP
360
56F
  0
XRECORD
  5
573
102
{ACAD_REACTORS
330
572
102
}
330
572
100
AcDbXrecord
280
     1
102
DISPLAYNAME
  1
Imperial24
102
FLAGS
 90
        0
  0
XRECORD
  5
571
102
{ACAD_REACTORS
330
570
102
}
330
570
100
AcDbXrecord
280
     1
102
DISPLAYNAME
  1
Imperial24
102
FLAGS
 90
        0
  0
CELLSTYLEMAP
  5
56F
102
{ACAD_REACTORS
330
56E
102
}
330
56E
100
AcDbCellStyleMap
 90
        3
300
CELLSTYLE
  1
TABLEFORMAT_BEGIN
 90
        5
170
     1
 91
        0
 92
    32768
 62
   257
 93
        1
300
CONTENTFORMAT
  1
CONTENTFORMAT_BEGIN
 90
        0
 91
        0
 92
      512
 93
        0
300

 40
0.0
140
1.0
 94
        5
 62
     0
340
11
144
0.25
309
CONTENTFORMAT_END
171
     0
 94
        0
309
TABLEFORMAT_END
  1
CELLSTYLE_BEGIN
 90
        1
 91
        1
300
_TITLE
309
CELLSTYLE_END
300
CELLSTYLE
  1
TABLEFORMAT_BEGIN
 90
        5
170
     1
 91
        0
 92
        0
 62
   257
 93
        1
300
CONTENTFORMAT
  1
CONTENTFORMAT_BEGIN
 90
        0
 91
        0
 92
      512
 93
        0
300

 40
0.0
140
1.0
 94
        5
 62
     0
340
11
144
0.18
309
CONTENTFORMAT_END
171
     0
 94
        0
309
TABLEFORMAT_END
  1
CELLSTYLE_BEGIN
 90
        2
 91
        1
300
_HEADER
309
CELLSTYLE_END
300
CELLSTYLE
  1
TABLEFORMAT_BEGIN
 90
        5
170
     1
 91
        0
 92
        0
 62
   257
 93
        1
300
CONTENTFORMAT
  1
CONTENTFORMAT_BEGIN
 90
        0
 91
        0
 92
      512
 93
        0
300

 40
0.0
140
1.0
 94
        2
 62
     0
340
11
144
0.18
309
CONTENTFORMAT_END
171
     0
 94
        0
309
TABLEFORMAT_END
  1
CELLSTYLE_BEGIN
 90
        3
 91
        2
300
_DATA
309
CELLSTYLE_END
  0
ENDSEC
  0
EOF
