  0
SECTION
  2
HEADER
  9
$ACADVER
  1
AC1027
  9
$ACADMAINTVER
 70
   125
  9
$DWGCODEPAGE
  3
ANSI_1252
  9
$LASTSAVEDBY
  1
fleminab
  9
$REQUIREDVERSIONS
160
                 0
  9
$INSBASE
 10
0.0
 20
0.0
 30
0.0
  9
$EXTMIN
 10
697.5836440351386
 20
160.8222826167889
 30
-0.0015258207003583
  9
$EXTMAX
 10
2073.577494538893
 20
1226.852316652192
 30
0.0000000349246037
  9
$LIMMIN
 10
0.0
 20
0.0
  9
$LIMMAX
 10
420.0
 20
297.0
  9
$ORTHOMODE
 70
     0
  9
$REGENMODE
 70
     1
  9
$FILLMODE
 70
     1
  9
$QTEXTMODE
 70
     0
  9
$MIRRTEXT
 70
     0
  9
$LTSCALE
 40
1.0
  9
$ATTMODE
 70
     1
  9
$TEXTSIZE
 40
2.5
  9
$TRACEWID
 40
1.0
  9
$TEXTSTYLE
  7
Standard
  9
$CLAYER
  8
0
  9
$CELTYPE
  6
ByLayer
  9
$CECOLOR
 62
   256
  9
$CELTSCALE
 40
1.0
  9
$DISPSILH
 70
     0
  9
$DIMSCALE
 40
1.0
  9
$DIMASZ
 40
2.5
  9
$DIMEXO
 40
0.625
  9
$DIMDLI
 40
3.75
  9
$DIMRND
 40
0.0
  9
$DIMDLE
 40
0.0
  9
$DIMEXE
 40
1.25
  9
$DIMTP
 40
0.0
  9
$DIMTM
 40
0.0
  9
$DIMTXT
 40
2.5
  9
$DIMCEN
 40
2.5
  9
$DIMTSZ
 40
0.0
  9
$DIMTOL
 70
     0
  9
$DIMLIM
 70
     0
  9
$DIMTIH
 70
     0
  9
$DIMTOH
 70
     0
  9
$DIMSE1
 70
     0
  9
$DIMSE2
 70
     0
  9
$DIMTAD
 70
     1
  9
$DIMZIN
 70
     8
  9
$DIMBLK
  1

  9
$DIMASO
 70
     1
  9
$DIMSHO
 70
     1
  9
$DIMPOST
  1

  9
$DIMAPOST
  1

  9
$DIMALT
 70
     0
  9
$DIMALTD
 70
     3
  9
$DIMALTF
 40
0.03937007874016
  9
$DIMLFAC
 40
1.0
  9
$DIMTOFL
 70
     1
  9
$DIMTVP
 40
0.0
  9
$DIMTIX
 70
     0
  9
$DIMSOXD
 70
     0
  9
$DIMSAH
 70
     0
  9
$DIMBLK1
  1

  9
$DIMBLK2
  1

  9
$DIMSTYLE
  2
ISO-25
  9
$DIMCLRD
 70
     0
  9
$DIMCLRE
 70
     0
  9
$DIMCLRT
 70
     0
  9
$DIMTFAC
 40
1.0
  9
$DIMGAP
 40
0.625
  9
$DIMJUST
 70
     0
  9
$DIMSD1
 70
     0
  9
$DIMSD2
 70
     0
  9
$DIMTOLJ
 70
     0
  9
$DIMTZIN
 70
     8
  9
$DIMALTZ
 70
     0
  9
$DIMALTTZ
 70
     0
  9
$DIMUPT
 70
     0
  9
$DIMDEC
 70
     2
  9
$DIMTDEC
 70
     2
  9
$DIMALTU
 70
     2
  9
$DIMALTTD
 70
     3
  9
$DIMTXSTY
  7
Standard
  9
$DIMAUNIT
 70
     0
  9
$DIMADEC
 70
     0
  9
$DIMALTRND
 40
0.0
  9
$DIMAZIN
 70
     0
  9
$DIMDSEP
 70
    44
  9
$DIMATFIT
 70
     3
  9
$DIMFRAC
 70
     0
  9
$DIMLDRBLK
  1

  9
$DIMLUNIT
 70
     2
  9
$DIMLWD
 70
    -2
  9
$DIMLWE
 70
    -2
  9
$DIMTMOVE
 70
     0
  9
$DIMFXL
 40
1.0
  9
$DIMFXLON
 70
     0
  9
$DIMJOGANG
 40
0.7853981633974483
  9
$DIMTFILL
 70
     0
  9
$DIMTFILLCLR
 70
     0
  9
$DIMARCSYM
 70
     0
  9
$DIMLTYPE
  6

  9
$DIMLTEX1
  6

  9
$DIMLTEX2
  6

  9
$DIMTXTDIRECTION
 70
     0
  9
$LUNITS
 70
     2
  9
$LUPREC
 70
     4
  9
$SKETCHINC
 40
1.0
  9
$FILLETRAD
 40
0.0
  9
$AUNITS
 70
     0
  9
$AUPREC
 70
     0
  9
$MENU
  1
.
  9
$ELEVATION
 40
0.0
  9
$PELEVATION
 40
0.0
  9
$THICKNESS
 40
0.0
  9
$LIMCHECK
 70
     0
  9
$CHAMFERA
 40
0.0
  9
$CHAMFERB
 40
0.0
  9
$CHAMFERC
 40
0.0
  9
$CHAMFERD
 40
0.0
  9
$SKPOLY
 70
     0
  9
$TDCREATE
 40
2457498.422534722
  9
$TDUCREATE
 40
2457498.005877095
  9
$TDUPDATE
 40
2458137.411493056
  9
$TDUUPDATE
 40
2458136.953159722
  9
$TDINDWG
 40
0.0009334144
  9
$TDUSRTIMER
 40
0.0009334144
  9
$USRTIMER
 70
     1
  9
$ANGBASE
 50
0.0
  9
$ANGDIR
 70
     0
  9
$PDMODE
 70
     0
  9
$PDSIZE
 40
0.0
  9
$PLINEWID
 40
0.0
  9
$SPLFRAME
 70
     0
  9
$SPLINETYPE
 70
     6
  9
$SPLINESEGS
 70
     8
  9
$HANDSEED
  5
4D5
  9
$SURFTAB1
 70
     6
  9
$SURFTAB2
 70
     6
  9
$SURFTYPE
 70
     6
  9
$SURFU
 70
     6
  9
$SURFV
 70
     6
  9
$UCSBASE
  2

  9
$UCSNAME
  2

  9
$UCSORG
 10
0.0
 20
0.0
 30
0.0
  9
$UCSXDIR
 10
1.0
 20
0.0
 30
0.0
  9
$UCSYDIR
 10
0.0
 20
1.0
 30
0.0
  9
$UCSORTHOREF
  2

  9
$UCSORTHOVIEW
 70
     0
  9
$UCSORGTOP
 10
0.0
 20
0.0
 30
0.0
  9
$UCSORGBOTTOM
 10
0.0
 20
0.0
 30
0.0
  9
$UCSORGLEFT
 10
0.0
 20
0.0
 30
0.0
  9
$UCSORGRIGHT
 10
0.0
 20
0.0
 30
0.0
  9
$UCSORGFRONT
 10
0.0
 20
0.0
 30
0.0
  9
$UCSORGBACK
 10
0.0
 20
0.0
 30
0.0
  9
$PUCSBASE
  2

  9
$PUCSNAME
  2

  9
$PUCSORG
 10
0.0
 20
0.0
 30
0.0
  9
$PUCSXDIR
 10
1.0
 20
0.0
 30
0.0
  9
$PUCSYDIR
 10
0.0
 20
1.0
 30
0.0
  9
$PUCSORTHOREF
  2

  9
$PUCSORTHOVIEW
 70
     0
  9
$PUCSORGTOP
 10
0.0
 20
0.0
 30
0.0
  9
$PUCSORGBOTTOM
 10
0.0
 20
0.0
 30
0.0
  9
$PUCSORGLEFT
 10
0.0
 20
0.0
 30
0.0
  9
$PUCSORGRIGHT
 10
0.0
 20
0.0
 30
0.0
  9
$PUCSORGFRONT
 10
0.0
 20
0.0
 30
0.0
  9
$PUCSORGBACK
 10
0.0
 20
0.0
 30
0.0
  9
$USERI1
 70
     0
  9
$USERI2
 70
     0
  9
$USERI3
 70
     0
  9
$USERI4
 70
     0
  9
$USERI5
 70
     0
  9
$USERR1
 40
0.0
  9
$USERR2
 40
0.0
  9
$USERR3
 40
0.0
  9
$USERR4
 40
0.0
  9
$USERR5
 40
0.0
  9
$WORLDVIEW
 70
     1
  9
$SHADEDGE
 70
     3
  9
$SHADEDIF
 70
    70
  9
$TILEMODE
 70
     1
  9
$MAXACTVP
 70
    64
  9
$PINSBASE
 10
0.0
 20
0.0
 30
0.0
  9
$PLIMCHECK
 70
     0
  9
$PEXTMIN
 10
0.0
 20
0.0
 30
0.0
  9
$PEXTMAX
 10
0.0
 20
0.0
 30
0.0
  9
$PLIMMIN
 10
0.0
 20
0.0
  9
$PLIMMAX
 10
12.0
 20
9.0
  9
$UNITMODE
 70
     0
  9
$VISRETAIN
 70
     1
  9
$PLINEGEN
 70
     0
  9
$PSLTSCALE
 70
     1
  9
$TREEDEPTH
 70
  3020
  9
$CMLSTYLE
  2
Standard
  9
$CMLJUST
 70
     0
  9
$CMLSCALE
 40
20.0
  9
$PROXYGRAPHICS
 70
     1
  9
$MEASUREMENT
 70
     1
  9
$CELWEIGHT
370
    -1
  9
$ENDCAPS
280
     0
  9
$JOINSTYLE
280
     0
  9
$LWDISPLAY
290
     0
  9
$INSUNITS
 70
     4
  9
$HYPERLINKBASE
  1

  9
$STYLESHEET
  1

  9
$XEDIT
290
     1
  9
$CEPSNTYPE
380
     0
  9
$PSTYLEMODE
290
     1
  9
$FINGERPRINTGUID
  2
{4F33EA0E-62ED-4769-A05E-3E85237EEC14}
  9
$VERSIONGUID
  2
{EBEB42D7-E71B-EA49-97BD-A2CF889A1081}
  9
$EXTNAMES
290
     1
  9
$PSVPSCALE
 40
0.0
  9
$OLESTARTUP
290
     0
  9
$SORTENTS
280
   127
  9
$INDEXCTL
280
     0
  9
$HIDETEXT
280
     1
  9
$XCLIPFRAME
280
     0
  9
$HALOGAP
280
     0
  9
$OBSCOLOR
 70
   257
  9
$OBSLTYPE
280
     0
  9
$INTERSECTIONDISPLAY
280
     0
  9
$INTERSECTIONCOLOR
 70
   257
  9
$DIMASSOC
280
     2
  9
$PROJECTNAME
  1

  9
$CAMERADISPLAY
290
     0
  9
$LENSLENGTH
 40
50.0
  9
$CAMERAHEIGHT
 40
0.0
  9
$STEPSPERSEC
 40
2.0
  9
$STEPSIZE
 40
6.0
  9
$3DDWFPREC
 40
2.0
  9
$PSOLWIDTH
 40
5.0
  9
$PSOLHEIGHT
 40
80.0
  9
$LOFTANG1
 40
1.570796326794896
  9
$LOFTANG2
 40
1.570796326794896
  9
$LOFTMAG1
 40
0.0
  9
$LOFTMAG2
 40
0.0
  9
$LOFTPARAM
 70
     7
  9
$LOFTNORMALS
280
     1
  9
$LATITUDE
 40
37.795
  9
$LONGITUDE
 40
-122.394
  9
$NORTHDIRECTION
 40
0.0
  9
$TIMEZONE
 70
 -8000
  9
$LIGHTGLYPHDISPLAY
280
     1
  9
$TILEMODELIGHTSYNCH
280
     1
  9
$CMATERIAL
347
ED
  9
$SOLIDHIST
280
     1
  9
$SHOWHIST
280
     1
  9
$DWFFRAME
280
     2
  9
$DGNFRAME
280
     0
  9
$REALWORLDSCALE
290
     1
  9
$INTERFERECOLOR
 62
     1
  9
$INTERFEREOBJVS
345
FA
  9
$INTERFEREVPVS
346
48C
  9
$CSHADOW
280
     0
  9
$SHADOWPLANELOCATION
 40
0.0
  0
ENDSEC
  0
SECTION
  2
CLASSES
  0
CLASS
  1
ACDBDICTIONARYWDFLT
  2
AcDbDictionaryWithDefault
  3
ObjectDBX Classes
 90
        0
 91
        1
280
     0
281
     0
  0
CLASS
  1
DICTIONARYVAR
  2
AcDbDictionaryVar
  3
ObjectDBX Classes
 90
        0
 91
       19
280
     0
281
     0
  0
CLASS
  1
TABLESTYLE
  2
AcDbTableStyle
  3
ObjectDBX Classes
 90
     4095
 91
        1
280
     0
281
     0
  0
CLASS
  1
MATERIAL
  2
AcDbMaterial
  3
ObjectDBX Classes
 90
     1153
 91
        3
280
     0
281
     0
  0
CLASS
  1
VISUALSTYLE
  2
AcDbVisualStyle
  3
ObjectDBX Classes
 90
     4095
 91
       26
280
     0
281
     0
  0
CLASS
  1
DIMASSOC
  2
AcDbDimAssoc
  3
"AcDbDimAssoc|Product Desc:     AcDim ARX App For Dimension|Company:          Autodesk, Inc.|WEB Address:      www.autodesk.com"
 90
        0
 91
       16
280
     0
281
     0
  0
CLASS
  1
SORTENTSTABLE
  2
AcDbSortentsTable
  3
ObjectDBX Classes
 90
        0
 91
        0
280
     0
281
     0
  0
CLASS
  1
SCALE
  2
AcDbScale
  3
ObjectDBX Classes
 90
     1153
 91
       17
280
     0
281
     0
  0
CLASS
  1
MLEADERSTYLE
  2
AcDbMLeaderStyle
  3
ACDB_MLEADERSTYLE_CLASS
 90
     4095
 91
        1
280
     0
281
     0
  0
CLASS
  1
ACDBSECTIONVIEWSTYLE
  2
AcDbSectionViewStyle
  3
ObjectDBX Classes
 90
     1025
 91
        1
280
     0
281
     0
  0
CLASS
  1
ACDBDETAILVIEWSTYLE
  2
AcDbDetailViewStyle
  3
ObjectDBX Classes
 90
     1025
 91
        1
280
     0
281
     0
  0
CLASS
  1
CELLSTYLEMAP
  2
AcDbCellStyleMap
  3
ObjectDBX Classes
 90
     1152
 91
        1
280
     0
281
     0
  0
ENDSEC
  0
SECTION
  2
TABLES
  0
TABLE
  2
VPORT
  5
8
330
0
100
AcDbSymbolTable
 70
     1
1001
ACAD
1000
DbSaveVer
1071
        5
  0
VPORT
  5
EB
330
8
100
AcDbSymbolTableRecord
100
AcDbViewportTableRecord
  2
*Active
 70
     0
 10
0.0
 20
0.0
 11
1.0
 21
1.0
 12
1385.580569287015
 22
693.8372996344903
 13
0.0
 23
0.0
 14
10.0
 24
10.0
 15
10.0
 25
10.0
 16
0.0
 26
0.0
 36
1.0
 17
0.0
 27
0.0
 37
0.0
 40
1073.662707310119
 41
2.292712066905615
 42
50.0
 43
0.0
 44
0.0
 50
0.0
 51
0.0
 71
     0
 72
  1000
 73
     1
 74
     3
 75
     0
 76
     0
 77
     0
 78
     0
281
     0
 65
     1
110
0.0
120
0.0
130
0.0
111
1.0
121
0.0
131
0.0
112
0.0
122
1.0
132
0.0
 79
     0
146
0.0
348
F6
 60
     2
 61
     5
292
     1
282
     1
141
0.0
142
0.0
 63
   250
421
  3355443
1001
ACAD_NAV_VCDISPLAY
1070
     3
  0
ENDTAB
  0
TABLE
  2
LTYPE
  5
5
330
0
100
AcDbSymbolTable
 70
     2
  0
LTYPE
  5
14
330
5
100
AcDbSymbolTableRecord
100
AcDbLinetypeTableRecord
  2
ByBlock
 70
     0
  3

 72
    65
 73
     0
 40
0.0
  0
LTYPE
  5
15
330
5
100
AcDbSymbolTableRecord
100
AcDbLinetypeTableRecord
  2
ByLayer
 70
     0
  3

 72
    65
 73
     0
 40
0.0
  0
LTYPE
  5
16
330
5
100
AcDbSymbolTableRecord
100
AcDbLinetypeTableRecord
  2
Continuous
 70
     0
  3
Solid line
 72
    65
 73
     0
 40
0.0
  0
LTYPE
  5
207
330
5
100
AcDbSymbolTableRecord
100
AcDbLinetypeTableRecord
  2
DIVIDE
 70
     0
  3
Divide ____ . . ____ . . ____ . . ____ . . ____
 72
    65
 73
     6
 40
31.75
 49
12.7
 74
     0
 49
-6.349999999999999
 74
     0
 49
0.0
 74
     0
 49
-6.349999999999999
 74
     0
 49
0.0
 74
     0
 49
-6.349999999999999
 74
     0
  0
ENDTAB
  0
TABLE
  2
LAYER
  5
2
102
{ACAD_XDICTIONARY
360
210
102
}
330
0
100
AcDbSymbolTable
 70
     2
  0
LAYER
  5
10
102
{ACAD_XDICTIONARY
360
4B6
102
}
330
2
100
AcDbSymbolTableRecord
100
AcDbLayerTableRecord
  2
0
 70
     0
 62
     7
  6
Continuous
370
    -3
390
F
347
EF
348
0
  0
LAYER
  5
208
330
2
100
AcDbSymbolTableRecord
100
AcDbLayerTableRecord
  2
Defpoints
 70
     0
 62
     7
  6
Continuous
290
     0
370
    -3
390
F
347
EF
348
0
  0
ENDTAB
  0
TABLE
  2
STYLE
  5
3
330
0
100
AcDbSymbolTable
 70
     2
  0
STYLE
  5
11
330
3
100
AcDbSymbolTableRecord
100
AcDbTextStyleTableRecord
  2
Standard
 70
     0
 40
0.0
 41
1.0
 50
0.0
 71
     0
 42
2.5
  3
txt
  4
gbcbig.shx
  0
STYLE
  5
209
330
3
100
AcDbSymbolTableRecord
100
AcDbTextStyleTableRecord
  2
ADESK2
 70
     0
 40
0.0
 41
1.0
 50
0.0
 71
     0
 42
0.065
  3

  4

1001
ACAD
1000
SimSun
1071
    34306
  0
ENDTAB
  0
TABLE
  2
VIEW
  5
6
330
0
100
AcDbSymbolTable
 70
     0
  0
ENDTAB
  0
TABLE
  2
UCS
  5
7
330
0
100
AcDbSymbolTable
 70
     0
  0
ENDTAB
  0
TABLE
  2
APPID
  5
9
330
0
100
AcDbSymbolTable
 70
     4
  0
APPID
  5
12
330
9
100
AcDbSymbolTableRecord
100
AcDbRegAppTableRecord
  2
ACAD
 70
     0
  0
APPID
  5
9E
330
9
100
AcDbSymbolTableRecord
100
AcDbRegAppTableRecord
  2
ACAD_PSEXT
 70
     0
  0
APPID
  5
4AE
330
9
100
AcDbSymbolTableRecord
100
AcDbRegAppTableRecord
  2
AcadStringInfo
 70
     0
  0
APPID
  5
4B8
330
9
100
AcDbSymbolTableRecord
100
AcDbRegAppTableRecord
  2
ACAD_NAV_VCDISPLAY
 70
     0
  0
ENDTAB
  0
TABLE
  2
DIMSTYLE
  5
A
330
0
100
AcDbSymbolTable
 70
     7
100
AcDbDimStyleTable
 71
     1
340
27
  0
DIMSTYLE
105
27
330
A
100
AcDbSymbolTableRecord
100
AcDbDimStyleTableRecord
  2
ISO-25
 70
     0
 41
2.5
 42
0.625
 43
3.75
 44
1.25
 73
     0
 74
     0
 77
     1
 78
     8
140
2.5
141
2.5
143
0.03937007874016
147
0.625
171
     3
172
     1
271
     2
272
     2
274
     3
278
    44
283
     0
284
     8
340
11
  0
DIMSTYLE
105
20A
102
{ACAD_REACTORS
330
2F5
330
2F8
330
355
330
358
330
35D
102
}
330
A
100
AcDbSymbolTableRecord
100
AcDbDimStyleTableRecord
  2
N3.5
 70
     0
 41
1.5
 42
0.5
 43
3.0
 44
0.5
 73
     0
 74
     0
 77
     1
 78
     8
 79
     2
140
3.0
141
0.0
147
0.5
172
     1
179
     3
271
     3
272
     3
288
     1
340
209
  0
DIMSTYLE
105
20B
102
{ACAD_REACTORS
330
2E6
330
2E9
102
}
330
A
100
AcDbSymbolTableRecord
100
AcDbDimStyleTableRecord
  2
N915iso
 70
     0
 41
20.0
 42
2.0
 43
10.0
 44
2.0
 73
     0
 77
     1
 78
     8
140
15.0
141
10.0
147
2.0
172
     1
179
     1
271
     2
272
     2
288
     1
340
11
  0
DIMSTYLE
105
20C
330
A
100
AcDbSymbolTableRecord
100
AcDbDimStyleTableRecord
  2
11
 70
     0
 41
8.0
 47
0.01
 48
0.01
 73
     0
 74
     0
 77
     1
 78
     8
140
16.0
271
     2
272
     2
284
     8
340
11
  0
DIMSTYLE
105
20D
330
A
100
AcDbSymbolTableRecord
100
AcDbDimStyleTableRecord
  2
N912_ISO
 70
     0
  3
mm
 41
10.0
 42
2.0
 43
10.0
 44
2.0
 73
     0
 77
     1
140
12.0
141
0.1
147
2.0
172
     1
179
     1
271
     1
272
     1
340
11
  0
DIMSTYLE
105
20E
102
{ACAD_REACTORS
330
2DE
330
2DF
330
2E0
330
2E3
330
2EE
330
337
330
33C
330
340
330
345
330
348
330
349
330
34C
102
}
330
A
100
AcDbSymbolTableRecord
100
AcDbDimStyleTableRecord
  2
N915
 70
     0
  4
mm
 41
20.0
 42
2.0
 43
10.0
 44
2.0
 73
     0
 74
     0
 77
     1
 78
     8
140
15.0
141
10.0
147
2.0
172
     1
179
     1
271
     2
272
     2
288
     1
340
11
  0
DIMSTYLE
105
20F
330
A
100
AcDbSymbolTableRecord
100
AcDbDimStyleTableRecord
  2
N9
 70
     0
  3
mm
 41
4.5
 42
1.5
 43
6.0
 44
1.5
 73
     0
 74
     0
140
9.0
141
7.0
147
1.5
172
     1
179
     2
271
     2
272
     2
288
     1
340
11
  0
ENDTAB
  0
TABLE
  2
BLOCK_RECORD
  5
1
330
0
100
AcDbSymbolTable
 70
    39
  0
BLOCK_RECORD
  5
1F
330
1
100
AcDbSymbolTableRecord
100
AcDbBlockTableRecord
  2
*Model_Space
340
22
 70
     0
280
     1
281
     0
  0
BLOCK_RECORD
  5
D2
330
1
100
AcDbSymbolTableRecord
100
AcDbBlockTableRecord
  2
*Paper_Space
340
D3
 70
     0
280
     1
281
     0
  0
BLOCK_RECORD
  5
D6
330
1
100
AcDbSymbolTableRecord
100
AcDbBlockTableRecord
  2
*Paper_Space0
340
D7
 70
     0
280
     1
281
     0
  0
BLOCK_RECORD
  5
360
330
1
100
AcDbSymbolTableRecord
100
AcDbBlockTableRecord
  2
*D20
340
0
 70
     0
280
     1
281
     0
  0
BLOCK_RECORD
  5
36C
330
1
100
AcDbSymbolTableRecord
100
AcDbBlockTableRecord
  2
*D21
340
0
 70
     0
280
     1
281
     0
  0
BLOCK_RECORD
  5
378
330
1
100
AcDbSymbolTableRecord
100
AcDbBlockTableRecord
  2
*D22
340
0
 70
     0
280
     1
281
     0
  0
BLOCK_RECORD
  5
398
330
1
100
AcDbSymbolTableRecord
100
AcDbBlockTableRecord
  2
*D23
340
0
 70
     0
280
     1
281
     0
  0
BLOCK_RECORD
  5
3A4
330
1
100
AcDbSymbolTableRecord
100
AcDbBlockTableRecord
  2
*D24
340
0
 70
     0
280
     1
281
     0
  0
BLOCK_RECORD
  5
3B0
330
1
100
AcDbSymbolTableRecord
100
AcDbBlockTableRecord
  2
*D25
340
0
 70
     0
280
     1
281
     0
  0
BLOCK_RECORD
  5
3BC
330
1
100
AcDbSymbolTableRecord
100
AcDbBlockTableRecord
  2
*D26
340
0
 70
     0
280
     1
281
     0
  0
BLOCK_RECORD
  5
3C8
330
1
100
AcDbSymbolTableRecord
100
AcDbBlockTableRecord
  2
*D27
340
0
 70
     0
280
     1
281
     0
  0
BLOCK_RECORD
  5
3D0
330
1
100
AcDbSymbolTableRecord
100
AcDbBlockTableRecord
  2
*D28
340
0
 70
     0
280
     1
281
     0
  0
BLOCK_RECORD
  5
3DC
330
1
100
AcDbSymbolTableRecord
100
AcDbBlockTableRecord
  2
*D29
340
0
 70
     0
280
     1
281
     0
  0
BLOCK_RECORD
  5
3E8
330
1
100
AcDbSymbolTableRecord
100
AcDbBlockTableRecord
  2
*D30
340
0
 70
     0
280
     1
281
     0
  0
BLOCK_RECORD
  5
3F6
330
1
100
AcDbSymbolTableRecord
100
AcDbBlockTableRecord
  2
*D31
340
0
 70
     0
280
     1
281
     0
  0
BLOCK_RECORD
  5
404
330
1
100
AcDbSymbolTableRecord
100
AcDbBlockTableRecord
  2
*D32
340
0
 70
     0
280
     1
281
     0
  0
BLOCK_RECORD
  5
412
330
1
100
AcDbSymbolTableRecord
100
AcDbBlockTableRecord
  2
*D33
340
0
 70
     0
280
     1
281
     0
  0
BLOCK_RECORD
  5
42B
330
1
100
AcDbSymbolTableRecord
100
AcDbBlockTableRecord
  2
*D34
340
0
 70
     0
280
     1
281
     0
  0
BLOCK_RECORD
  5
433
330
1
100
AcDbSymbolTableRecord
100
AcDbBlockTableRecord
  2
*D35
340
0
 70
     0
280
     1
281
     0
  0
BLOCK_RECORD
  5
43B
330
1
100
AcDbSymbolTableRecord
100
AcDbBlockTableRecord
  2
*D36
340
0
 70
     0
280
     1
281
     0
  0
BLOCK_RECORD
  5
447
330
1
100
AcDbSymbolTableRecord
100
AcDbBlockTableRecord
  2
*D37
340
0
 70
     0
280
     1
281
     0
  0
BLOCK_RECORD
  5
455
330
1
100
AcDbSymbolTableRecord
100
AcDbBlockTableRecord
  2
*D38
340
0
 70
     0
280
     1
281
     0
  0
ENDTAB
  0
ENDSEC
  0
SECTION
  2
BLOCKS
  0
BLOCK
  5
20
330
1F
100
AcDbEntity
  8
0
100
AcDbBlockBegin
  2
*Model_Space
 70
     0
 10
0.0
 20
0.0
 30
0.0
  3
*Model_Space
  1

  0
ENDBLK
  5
21
330
1F
100
AcDbEntity
  8
0
100
AcDbBlockEnd
  0
BLOCK
  5
D4
330
D2
100
AcDbEntity
 67
     1
  8
0
100
AcDbBlockBegin
  2
*Paper_Space
 70
     0
 10
0.0
 20
0.0
 30
0.0
  3
*Paper_Space
  1

  0
ENDBLK
  5
D5
330
D2
100
AcDbEntity
 67
     1
  8
0
100
AcDbBlockEnd
  0
BLOCK
  5
D8
330
D6
100
AcDbEntity
 67
     1
  8
0
100
AcDbBlockBegin
  2
*Paper_Space0
 70
     0
 10
0.0
 20
0.0
 30
0.0
  3
*Paper_Space0
  1

  0
ENDBLK
  5
D9
330
D6
100
AcDbEntity
 67
     1
  8
0
100
AcDbBlockEnd
  0
BLOCK
  5
36A
330
360
100
AcDbEntity
  8
0
100
AcDbBlockBegin
  2
*D20
 70
     1
 10
0.0
 20
0.0
 30
0.0
  3
*D20
  1

  0
LINE
  5
386
330
360
100
AcDbEntity
  8
0
 62
     0
440
 16777216
370
    -2
100
AcDbLine
 10
1953.991590589779
 20
720.8275606464808
 30
0.0
 11
1953.991590589779
 21
626.0616490743045
 31
0.0
  0
LINE
  5
387
330
360
100
AcDbEntity
  8
0
 62
     0
440
 16777216
370
    -2
100
AcDbLine
 10
745.9915905897787
 20
720.8275606464808
 30
0.0
 11
745.9915905897787
 21
626.0616490743045
 31
0.0
  0
LINE
  5
388
330
360
100
AcDbEntity
  8
0
 62
     0
440
 16777216
370
    -2
100
AcDbLine
 10
1933.991590589778
 20
628.0616490743045
 30
0.0
 11
765.9915905897787
 21
628.0616490743045
 31
0.0
  0
SOLID
  5
389
330
360
100
AcDbEntity
  8
0
 62
     0
440
 16777216
100
AcDbTrace
 10
1933.991590589778
 20
631.3949824076379
 30
0.0
 11
1933.991590589778
 21
624.7283157409712
 31
0.0
 12
1953.991590589779
 22
628.0616490743045
 32
0.0
 13
1953.991590589779
 23
628.0616490743045
 33
0.0
  0
SOLID
  5
38A
330
360
100
AcDbEntity
  8
0
 62
     0
440
 16777216
100
AcDbTrace
 10
765.9915905897787
 20
631.3949824076379
 30
0.0
 11
765.9915905897787
 21
624.7283157409712
 31
0.0
 12
745.9915905897787
 22
628.0616490743045
 32
0.0
 13
745.9915905897787
 23
628.0616490743045
 33
0.0
  0
MTEXT
  5
38B
330
360
100
AcDbEntity
  8
0
 62
     0
440
 16777216
100
AcDbMText
 10
1530.770638616434
 20
637.5616490743046
 30
0.0
 40
15.0
 41
0.0
 46
0.0
 71
     5
 72
     1
  1
\A1;1208
 73
     1
 44
1.0
  0
POINT
  5
38C
330
360
100
AcDbEntity
  8
Defpoints
 62
     0
440
 16777216
100
AcDbPoint
 10
1953.991590589779
 20
722.8275606464808
 30
0.0
  0
POINT
  5
38D
330
360
100
AcDbEntity
  8
Defpoints
 62
     0
440
 16777216
100
AcDbPoint
 10
745.9915905897787
 20
722.8275606464808
 30
0.0
  0
POINT
  5
38E
330
360
100
AcDbEntity
  8
Defpoints
 62
     0
440
 16777216
100
AcDbPoint
 10
745.9915905897787
 20
628.0616490743045
 30
0.0
  0
ENDBLK
  5
36B
330
360
100
AcDbEntity
  8
0
100
AcDbBlockEnd
  0
BLOCK
  5
376
330
36C
100
AcDbEntity
  8
0
100
AcDbBlockBegin
  2
*D21
 70
     1
 10
0.0
 20
0.0
 30
0.0
  3
*D21
  1

  0
LINE
  5
38F
330
36C
100
AcDbEntity
  8
0
 62
     0
440
 16777216
370
    -2
100
AcDbLine
 10
1904.991590589778
 20
1146.827560646481
 30
0.0
 11
2003.114553184219
 21
1146.827560646481
 31
0.0
  0
LINE
  5
390
330
36C
100
AcDbEntity
  8
0
 62
     0
440
 16777216
370
    -2
100
AcDbLine
 10
1904.991590589778
 20
748.8275606464808
 30
0.0
 11
2003.114553184219
 21
748.8275606464808
 31
0.0
  0
LINE
  5
391
330
36C
100
AcDbEntity
  8
0
 62
     0
440
 16777216
370
    -2
100
AcDbLine
 10
2001.114553184219
 20
1126.827560646481
 30
0.0
 11
2001.114553184219
 21
768.8275606464808
 31
0.0
  0
SOLID
  5
392
330
36C
100
AcDbEntity
  8
0
 62
     0
440
 16777216
100
AcDbTrace
 10
1997.781219850885
 20
1126.827560646481
 30
0.0
 11
2004.447886517552
 21
1126.827560646481
 31
0.0
 12
2001.114553184219
 22
1146.827560646481
 32
0.0
 13
2001.114553184219
 23
1146.827560646481
 33
0.0
  0
SOLID
  5
393
330
36C
100
AcDbEntity
  8
0
 62
     0
440
 16777216
100
AcDbTrace
 10
1997.781219850885
 20
768.8275606464808
 30
0.0
 11
2004.447886517552
 21
768.8275606464808
 31
0.0
 12
2001.114553184219
 22
748.8275606464808
 32
0.0
 13
2001.114553184219
 23
748.8275606464808
 33
0.0
  0
MTEXT
  5
394
330
36C
100
AcDbEntity
  8
0
 62
     0
440
 16777216
100
AcDbMText
 10
1991.614553184218
 20
935.3275606464809
 30
0.0
 40
15.0
 41
0.0
 46
0.0
 71
     5
 72
     1
  1
\A1;398
 11
0.0000000000000001
 21
1.0
 31
0.0
 73
     1
 44
1.0
  0
POINT
  5
395
330
36C
100
AcDbEntity
  8
Defpoints
 62
     0
440
 16777216
100
AcDbPoint
 10
1902.991590589779
 20
1146.827560646481
 30
0.0
  0
POINT
  5
396
330
36C
100
AcDbEntity
  8
Defpoints
 62
     0
440
 16777216
100
AcDbPoint
 10
1902.991590589779
 20
748.8275606464808
 30
0.0
  0
POINT
  5
397
330
36C
100
AcDbEntity
  8
Defpoints
 62
     0
440
 16777216
100
AcDbPoint
 10
2001.114553184219
 20
748.8275606464808
 30
0.0
  0
ENDBLK
  5
377
330
36C
100
AcDbEntity
  8
0
100
AcDbBlockEnd
  0
BLOCK
  5
384
330
378
100
AcDbEntity
  8
0
100
AcDbBlockBegin
  2
*D22
 70
     1
 10
0.0
 20
0.0
 30
0.0
  3
*D22
  1

  0
LINE
  5
420
330
378
100
AcDbEntity
  8
0
 62
     0
440
 16777216
370
    -2
100
AcDbLine
 10
1531.449646294778
 20
398.4359037105892
 30
0.0
 11
1531.449646294778
 21
162.231826171957
 31
0.0
  0
LINE
  5
421
330
378
100
AcDbEntity
  8
0
 62
     0
440
 16777216
370
    -2
100
AcDbLine
 10
1527.737337587669
 20
238.4253780532049
 30
0.0
 11
1527.737337587669
 21
162.231826171957
 31
0.0
  0
LINE
  5
422
330
378
100
AcDbEntity
  8
0
 62
     0
440
 16777216
370
    -2
100
AcDbLine
 10
1551.449646294778
 20
164.231826171957
 30
0.0
 11
1571.449646294778
 21
164.231826171957
 31
0.0
  0
LINE
  5
423
330
378
100
AcDbEntity
  8
0
 62
     0
440
 16777216
370
    -2
100
AcDbLine
 10
1507.737337587669
 20
164.231826171957
 30
0.0
 11
1406.176645476865
 21
164.231826171957
 31
0.0
  0
LINE
  5
424
330
378
100
AcDbEntity
  8
0
 62
     0
440
 16777216
370
    -2
100
AcDbLine
 10
1531.449646294778
 20
164.231826171957
 30
0.0
 11
1527.737337587669
 21
164.231826171957
 31
0.0
  0
SOLID
  5
425
330
378
100
AcDbEntity
  8
0
 62
     0
440
 16777216
100
AcDbTrace
 10
1551.449646294778
 20
167.5651595052903
 30
0.0
 11
1551.449646294778
 21
160.8984928386236
 31
0.0
 12
1531.449646294778
 22
164.231826171957
 32
0.0
 13
1531.449646294778
 23
164.231826171957
 33
0.0
  0
SOLID
  5
426
330
378
100
AcDbEntity
  8
0
 62
     0
440
 16777216
100
AcDbTrace
 10
1507.737337587669
 20
167.5651595052903
 30
0.0
 11
1507.737337587669
 21
160.8984928386236
 31
0.0
 12
1527.737337587669
 22
164.231826171957
 32
0.0
 13
1527.737337587669
 23
164.231826171957
 33
0.0
  0
MTEXT
  5
427
330
378
100
AcDbEntity
  8
0
 62
     0
440
 16777216
100
AcDbMText
 10
1413.176645476865
 20
173.731826171957
 30
0.0
 40
15.0
 41
0.0
 46
0.0
 71
     5
 72
     1
  1
\A1;5
 73
     1
 44
1.0
  0
POINT
  5
428
330
378
100
AcDbEntity
  8
Defpoints
 62
     0
440
 16777216
100
AcDbPoint
 10
1531.449646294778
 20
400.4359037105891
 30
0.0
  0
POINT
  5
429
330
378
100
AcDbEntity
  8
Defpoints
 62
     0
440
 16777216
100
AcDbPoint
 10
1527.737337587669
 20
240.4253780532049
 30
0.0
  0
POINT
  5
42A
330
378
100
AcDbEntity
  8
Defpoints
 62
     0
440
 16777216
100
AcDbPoint
 10
1527.737337587669
 20
164.231826171957
 30
0.0
  0
ENDBLK
  5
385
330
378
100
AcDbEntity
  8
0
100
AcDbBlockEnd
  0
BLOCK
  5
3A2
330
398
100
AcDbEntity
  8
0
100
AcDbBlockBegin
  2
*D23
 70
     1
 10
0.0
 20
0.0
 30
0.0
  3
*D23
  1

  0
LINE
  5
399
330
398
100
AcDbEntity
  8
0
 62
     0
440
 16777216
370
    -2
100
AcDbLine
 10
1154.991590589778
 20
761.8275606464772
 30
0.0
 11
1154.991590589778
 21
669.5716119896019
 31
0.0
  0
LINE
  5
39A
330
398
100
AcDbEntity
  8
0
 62
     0
440
 16777216
370
    -2
100
AcDbLine
 10
1512.991590589779
 20
771.8275606464808
 30
0.0
 11
1512.991590589779
 21
669.5716119896019
 31
0.0
  0
LINE
  5
39B
330
398
100
AcDbEntity
  8
0
 62
     0
440
 16777216
370
    -2
100
AcDbLine
 10
1174.991590589779
 20
671.5716119896019
 30
0.0
 11
1492.991590589778
 21
671.5716119896019
 31
0.0
  0
SOLID
  5
39C
330
398
100
AcDbEntity
  8
0
 62
     0
440
 16777216
100
AcDbTrace
 10
1174.991590589779
 20
674.9049453229353
 30
0.0
 11
1174.991590589779
 21
668.2382786562685
 31
0.0
 12
1154.991590589778
 22
671.5716119896019
 32
0.0
 13
1154.991590589778
 23
671.5716119896019
 33
0.0
  0
SOLID
  5
39D
330
398
100
AcDbEntity
  8
0
 62
     0
440
 16777216
100
AcDbTrace
 10
1492.991590589778
 20
674.9049453229353
 30
0.0
 11
1492.991590589778
 21
668.2382786562685
 31
0.0
 12
1512.991590589779
 22
671.5716119896019
 32
0.0
 13
1512.991590589779
 23
671.5716119896019
 33
0.0
  0
MTEXT
  5
39E
330
398
100
AcDbEntity
  8
0
 62
     0
440
 16777216
100
AcDbMText
 10
1398.976587520533
 20
681.0716119896019
 30
0.0
 40
15.0
 41
0.0
 46
0.0
 71
     5
 72
     1
  1
\A1;358
 73
     1
 44
1.0
  0
POINT
  5
39F
330
398
100
AcDbEntity
  8
Defpoints
 62
     0
440
 16777216
100
AcDbPoint
 10
1154.991590589778
 20
763.8275606464771
 30
0.0
  0
POINT
  5
3A0
330
398
100
AcDbEntity
  8
Defpoints
 62
     0
440
 16777216
100
AcDbPoint
 10
1512.991590589779
 20
773.8275606464808
 30
0.0
  0
POINT
  5
3A1
330
398
100
AcDbEntity
  8
Defpoints
 62
     0
440
 16777216
100
AcDbPoint
 10
1512.991590589779
 20
671.5716119896019
 30
0.0
  0
ENDBLK
  5
3A3
330
398
100
AcDbEntity
  8
0
100
AcDbBlockEnd
  0
BLOCK
  5
3AE
330
3A4
100
AcDbEntity
  8
0
100
AcDbBlockBegin
  2
*D24
 70
     1
 10
0.0
 20
0.0
 30
0.0
  3
*D24
  1

  0
LINE
  5
3A5
330
3A4
100
AcDbEntity
  8
0
 62
     0
440
 16777216
370
    -2
100
AcDbLine
 10
1129.991590589771
 20
761.8275606464808
 30
0.0
 11
1129.991590589771
 21
670.4059435054436
 31
0.0
  0
LINE
  5
3A6
330
3A4
100
AcDbEntity
  8
0
 62
     0
440
 16777216
370
    -2
100
AcDbLine
 10
771.9915905897715
 20
761.8275606464808
 30
0.0
 11
771.9915905897715
 21
670.4059435054436
 31
0.0
  0
LINE
  5
3A7
330
3A4
100
AcDbEntity
  8
0
 62
     0
440
 16777216
370
    -2
100
AcDbLine
 10
1109.991590589771
 20
672.4059435054437
 30
0.0
 11
791.9915905897714
 21
672.4059435054437
 31
0.0
  0
SOLID
  5
3A8
330
3A4
100
AcDbEntity
  8
0
 62
     0
440
 16777216
100
AcDbTrace
 10
1109.991590589771
 20
675.739276838777
 30
0.0
 11
1109.991590589771
 21
669.0726101721103
 31
0.0
 12
1129.991590589771
 22
672.4059435054437
 32
0.0
 13
1129.991590589771
 23
672.4059435054437
 33
0.0
  0
SOLID
  5
3A9
330
3A4
100
AcDbEntity
  8
0
 62
     0
440
 16777216
100
AcDbTrace
 10
791.9915905897714
 20
675.739276838777
 30
0.0
 11
791.9915905897714
 21
669.0726101721103
 31
0.0
 12
771.9915905897715
 22
672.4059435054437
 32
0.0
 13
771.9915905897715
 23
672.4059435054437
 33
0.0
  0
MTEXT
  5
3AA
330
3A4
100
AcDbEntity
  8
0
 62
     0
440
 16777216
100
AcDbMText
 10
933.8683530239714
 20
681.9059435054437
 30
0.0
 40
15.0
 41
0.0
 46
0.0
 71
     5
 72
     1
  1
\A1;358
 73
     1
 44
1.0
  0
POINT
  5
3AB
330
3A4
100
AcDbEntity
  8
Defpoints
 62
     0
440
 16777216
100
AcDbPoint
 10
1129.991590589771
 20
763.8275606464808
 30
0.0
  0
POINT
  5
3AC
330
3A4
100
AcDbEntity
  8
Defpoints
 62
     0
440
 16777216
100
AcDbPoint
 10
771.9915905897715
 20
763.8275606464808
 30
0.0
  0
POINT
  5
3AD
330
3A4
100
AcDbEntity
  8
Defpoints
 62
     0
440
 16777216
100
AcDbPoint
 10
771.9915905897715
 20
672.4059435054437
 30
0.0
  0
ENDBLK
  5
3AF
330
3A4
100
AcDbEntity
  8
0
100
AcDbBlockEnd
  0
BLOCK
  5
3BA
330
3B0
100
AcDbEntity
  8
0
100
AcDbBlockBegin
  2
*D25
 70
     1
 10
0.0
 20
0.0
 30
0.0
  3
*D25
  1

  0
LINE
  5
46F
330
3B0
100
AcDbEntity
  8
0
 62
     0
440
 16777216
370
    -2
100
AcDbLine
 10
1097.436369662468
 20
1007.315504129227
 30
0.0
 11
1057.936369662468
 21
1007.315504129227
 31
0.0
  0
LINE
  5
470
330
3B0
100
AcDbEntity
  8
0
 62
     0
440
 16777216
370
    -2
100
AcDbLine
 10
1057.936369662468
 20
1007.315504129227
 30
0.0
 11
1015.737286206184
 21
1003.571679303662
 31
0.0
  0
LINE
  5
471
330
3B0
100
AcDbEntity
  8
0
 62
     0
440
 16777216
370
    -2
100
AcDbLine
 10
886.2458949733829
 20
992.0834419893003
 30
0.0
 11
866.3241424760276
 21
990.3160208640136
 31
0.0
  0
MTEXT
  5
472
330
3B0
100
AcDbEntity
  8
0
 62
     0
440
 16777216
100
AcDbMText
 10
1078.686369662468
 20
1016.815504129227
 30
0.0
 40
15.0
 41
0.0
 46
0.0
 71
     5
 72
     1
  1
\A1;\U+220590
 73
     1
 44
1.0
  0
LINE
  5
473
330
3B0
100
AcDbEntity
  8
0
 62
     0
440
 16777216
370
    -2
100
AcDbLine
 10
906.1676474707384
 20
993.8508631145868
 30
0.0
 11
995.8155337088287
 21
1001.804258178375
 31
0.0
  0
SOLID
  5
474
330
3B0
100
AcDbEntity
  8
0
 62
     0
440
 16777216
100
AcDbTrace
 10
885.9513247858352
 20
995.4037340721928
 30
0.0
 11
886.5404651609306
 21
988.7631499064076
 31
0.0
 12
906.1676474707384
 22
993.8508631145868
 32
0.0
 13
906.1676474707384
 23
993.8508631145868
 33
0.0
  0
SOLID
  5
475
330
3B0
100
AcDbEntity
  8
0
 62
     0
440
 16777216
100
AcDbTrace
 10
1015.442716018636
 20
1006.891971386555
 30
0.0
 11
1016.031856393732
 21
1000.251387220769
 31
0.0
 12
995.8155337088287
 22
1001.804258178375
 32
0.0
 13
995.8155337088287
 23
1001.804258178375
 33
0.0
  0
POINT
  5
476
330
3B0
100
AcDbEntity
  8
Defpoints
 62
     0
440
 16777216
100
AcDbPoint
 10
995.8155337088287
 20
1001.804258178375
 30
0.0
  0
POINT
  5
477
330
3B0
100
AcDbEntity
  8
Defpoints
 62
     0
440
 16777216
100
AcDbPoint
 10
906.1676474707384
 20
993.8508631145868
 30
0.0
  0
ENDBLK
  5
3BB
330
3B0
100
AcDbEntity
  8
0
100
AcDbBlockEnd
  0
BLOCK
  5
3C6
330
3BC
100
AcDbEntity
  8
0
100
AcDbBlockBegin
  2
*D26
 70
     1
 10
0.0
 20
0.0
 30
0.0
  3
*D26
  1

  0
LINE
  5
478
330
3BC
100
AcDbEntity
  8
0
 62
     0
440
 16777216
370
    -2
100
AcDbLine
 10
1475.608974463941
 20
1024.228247606439
 30
0.0
 11
1431.809258554855
 21
1024.228247606439
 31
0.0
  0
LINE
  5
479
330
3BC
100
AcDbEntity
  8
0
 62
     0
440
 16777216
370
    -2
100
AcDbLine
 10
1431.809258554855
 20
1024.228247606439
 30
0.0
 11
1396.74610860795
 21
1014.764811554081
 31
0.0
  0
LINE
  5
47A
330
3BC
100
AcDbEntity
  8
0
 62
     0
440
 16777216
370
    -2
100
AcDbLine
 10
1271.237072571577
 20
980.8903097388727
 30
0.0
 11
1251.927990104447
 21
975.6788479211495
 31
0.0
  0
MTEXT
  5
47B
330
3BC
100
AcDbEntity
  8
0
 62
     0
440
 16777216
100
AcDbMText
 10
1456.858974463941
 20
1033.728247606439
 30
0.0
 40
15.0
 41
0.0
 46
0.0
 71
     5
 72
     1
  1
\A1;\U+220590
 73
     1
 44
1.0
  0
LINE
  5
47C
330
3BC
100
AcDbEntity
  8
0
 62
     0
440
 16777216
370
    -2
100
AcDbLine
 10
1290.546155038706
 20
986.1017715565957
 30
0.0
 11
1377.43702614082
 21
1009.553349736357
 31
0.0
  0
SOLID
  5
47D
330
3BC
100
AcDbEntity
  8
0
 62
     0
440
 16777216
100
AcDbTrace
 10
1270.368495601956
 20
984.1084901500609
 30
0.0
 11
1272.105649541197
 21
977.6721293276841
 31
0.0
 12
1290.546155038706
 22
986.1017715565957
 32
0.0
 13
1290.546155038706
 23
986.1017715565957
 33
0.0
  0
SOLID
  5
47E
330
3BC
100
AcDbEntity
  8
0
 62
     0
440
 16777216
100
AcDbTrace
 10
1395.87753163833
 20
1017.982991965269
 30
0.0
 11
1397.614685577571
 21
1011.546631142892
 31
0.0
 12
1377.43702614082
 22
1009.553349736357
 32
0.0
 13
1377.43702614082
 23
1009.553349736357
 33
0.0
  0
POINT
  5
47F
330
3BC
100
AcDbEntity
  8
Defpoints
 62
     0
440
 16777216
100
AcDbPoint
 10
1377.43702614082
 20
1009.553349736357
 30
0.0
  0
POINT
  5
480
330
3BC
100
AcDbEntity
  8
Defpoints
 62
     0
440
 16777216
100
AcDbPoint
 10
1290.546155038706
 20
986.1017715565957
 30
0.0
  0
ENDBLK
  5
3C7
330
3BC
100
AcDbEntity
  8
0
100
AcDbBlockEnd
  0
BLOCK
  5
3CE
330
3C8
100
AcDbEntity
  8
0
100
AcDbBlockBegin
  2
*D27
 70
     1
 10
0.0
 20
0.0
 30
0.0
  3
*D27
  1

  0
LINE
  5
46A
330
3C8
100
AcDbEntity
  8
0
 62
     0
440
 16777216
370
    -2
100
AcDbLine
 10
834.2308182871501
 20
1042.151844455115
 30
0.0
 11
789.3219250528172
 21
1127.403813220352
 31
0.0
  0
MTEXT
  5
46B
330
3C8
100
AcDbEntity
  8
0
 62
     0
440
 16777216
100
AcDbMText
 10
833.5476339909348
 20
1063.832094896874
 30
0.0
 40
15.0
 41
0.0
 46
0.0
 71
     5
 72
     1
  1
\A1;R15
 11
0.4660668926098018
 21
-0.8847494852290356
 31
0.0
 73
     1
 44
1.0
  0
SOLID
  5
46C
330
3C8
100
AcDbEntity
  8
0
 62
     0
440
 16777216
100
AcDbTrace
 10
792.2710900035806
 20
1128.957369529051
 30
0.0
 11
786.3727601020539
 21
1125.850256911652
 31
0.0
 12
780.0005872006212
 22
1145.098802924932
 32
0.0
 13
780.0005872006212
 23
1145.098802924932
 33
0.0
  0
POINT
  5
46D
330
3C8
100
AcDbEntity
  8
Defpoints
 62
     0
440
 16777216
100
AcDbPoint
 10
780.0005872006212
 20
1145.098802924932
 30
0.0
  0
POINT
  5
46E
330
3C8
100
AcDbEntity
  8
Defpoints
 62
     0
440
 16777216
100
AcDbPoint
 10
786.9915905897786
 20
1131.827560646477
 30
0.0
  0
ENDBLK
  5
3CF
330
3C8
100
AcDbEntity
  8
0
100
AcDbBlockEnd
  0
BLOCK
  5
3DA
330
3D0
100
AcDbEntity
  8
0
100
AcDbBlockBegin
  2
*D28
 70
     1
 10
0.0
 20
0.0
 30
0.0
  3
*D28
  1

  0
LINE
  5
3D1
330
3D0
100
AcDbEntity
  8
0
 62
     0
440
 16777216
370
    -2
100
AcDbLine
 10
1954.491590589779
 20
1226.827560646481
 30
0.0
 11
2002.599145539868
 21
1226.827560646481
 31
0.0
  0
LINE
  5
3D2
330
3D0
100
AcDbEntity
  8
0
 62
     0
440
 16777216
370
    -2
100
AcDbLine
 10
1877.861285603145
 20
1146.827560646481
 30
0.0
 11
2002.599145539868
 21
1146.827560646481
 31
0.0
  0
LINE
  5
3D3
330
3D0
100
AcDbEntity
  8
0
 62
     0
440
 16777216
370
    -2
100
AcDbLine
 10
2002.099145539868
 20
1216.827560646481
 30
0.0
 11
2002.099145539868
 21
1156.827560646481
 31
0.0
  0
SOLID
  5
3D4
330
3D0
100
AcDbEntity
  8
0
 62
     0
440
 16777216
100
AcDbTrace
 10
2000.432478873202
 20
1216.827560646481
 30
0.0
 11
2003.765812206535
 21
1216.827560646481
 31
0.0
 12
2002.099145539868
 22
1226.827560646481
 32
0.0
 13
2002.099145539868
 23
1226.827560646481
 33
0.0
  0
SOLID
  5
3D5
330
3D0
100
AcDbEntity
  8
0
 62
     0
440
 16777216
100
AcDbTrace
 10
2000.432478873202
 20
1156.827560646481
 30
0.0
 11
2003.765812206535
 21
1156.827560646481
 31
0.0
 12
2002.099145539868
 22
1146.827560646481
 32
0.0
 13
2002.099145539868
 23
1146.827560646481
 33
0.0
  0
MTEXT
  5
3D6
330
3D0
100
AcDbEntity
  8
0
 62
     0
440
 16777216
100
AcDbMText
 10
1991.599145539868
 20
1188.814811543626
 30
0.0
 40
20.0
 41
0.0
 46
0.0
 71
     5
 72
     1
  1
\A1;80
  7
ADESK2
 11
0.0000000000000001
 21
1.0
 31
0.0
 73
     1
 44
1.0
  0
POINT
  5
3D7
330
3D0
100
AcDbEntity
  8
Defpoints
 62
     0
440
 16777216
100
AcDbPoint
 10
1953.991590589779
 20
1226.827560646481
 30
0.0
  0
POINT
  5
3D8
330
3D0
100
AcDbEntity
  8
Defpoints
 62
     0
440
 16777216
100
AcDbPoint
 10
1877.361285603146
 20
1146.827560646481
 30
0.0
  0
POINT
  5
3D9
330
3D0
100
AcDbEntity
  8
Defpoints
 62
     0
440
 16777216
100
AcDbPoint
 10
2002.099145539868
 20
1146.827560646481
 30
0.0
  0
ENDBLK
  5
3DB
330
3D0
100
AcDbEntity
  8
0
100
AcDbBlockEnd
  0
BLOCK
  5
3E6
330
3DC
100
AcDbEntity
  8
0
100
AcDbBlockBegin
  2
*D29
 70
     1
 10
0.0
 20
0.0
 30
0.0
  3
*D29
  1

  0
LINE
  5
461
330
3DC
100
AcDbEntity
  8
0
 62
     0
440
 16777216
370
    -2
100
AcDbLine
 10
1927.611239985162
 20
1226.827560646481
 30
0.0
 11
2070.514211079113
 21
1226.827560646481
 31
0.0
  0
LINE
  5
462
330
3DC
100
AcDbEntity
  8
0
 62
     0
440
 16777216
370
    -2
100
AcDbLine
 10
1927.611239985162
 20
722.8275606464826
 30
0.0
 11
2070.514211079112
 21
722.8275606464826
 31
0.0
  0
LINE
  5
463
330
3DC
100
AcDbEntity
  8
0
 62
     0
440
 16777216
370
    -2
100
AcDbLine
 10
2070.014211079113
 20
1216.827560646481
 30
0.0
 11
2070.014211079112
 21
732.8275606464826
 31
0.0
  0
SOLID
  5
464
330
3DC
100
AcDbEntity
  8
0
 62
     0
440
 16777216
100
AcDbTrace
 10
2068.347544412446
 20
1216.827560646481
 30
0.0
 11
2071.680877745779
 21
1216.827560646481
 31
0.0
 12
2070.014211079113
 22
1226.827560646481
 32
0.0
 13
2070.014211079113
 23
1226.827560646481
 33
0.0
  0
SOLID
  5
465
330
3DC
100
AcDbEntity
  8
0
 62
     0
440
 16777216
100
AcDbTrace
 10
2068.347544412446
 20
732.8275606464826
 30
0.0
 11
2071.680877745778
 21
732.8275606464826
 31
0.0
 12
2070.014211079112
 22
722.8275606464826
 32
0.0
 13
2070.014211079112
 23
722.8275606464826
 33
0.0
  0
MTEXT
  5
466
330
3DC
100
AcDbEntity
  8
0
 62
     0
440
 16777216
100
AcDbMText
 10
2059.514211079112
 20
955.2561870099831
 30
0.0
 40
20.0
 41
0.0
 46
0.0
 71
     5
 72
     1
  1
\A1;504
  7
ADESK2
 11
0.0000000000000001
 21
1.0
 31
0.0
 73
     1
 44
1.0
  0
POINT
  5
467
330
3DC
100
AcDbEntity
  8
Defpoints
 62
     0
440
 16777216
100
AcDbPoint
 10
1927.111239985162
 20
1226.827560646481
 30
0.0
  0
POINT
  5
468
330
3DC
100
AcDbEntity
  8
Defpoints
 62
     0
440
 16777216
100
AcDbPoint
 10
1927.111239985162
 20
722.8275606464826
 30
0.0
  0
POINT
  5
469
330
3DC
100
AcDbEntity
  8
Defpoints
 62
     0
440
 16777216
100
AcDbPoint
 10
2070.014211079112
 20
722.8275606464826
 30
0.0
  0
ENDBLK
  5
3E7
330
3DC
100
AcDbEntity
  8
0
100
AcDbBlockEnd
  0
BLOCK
  5
3F4
330
3E8
100
AcDbEntity
  8
0
100
AcDbBlockBegin
  2
*D30
 70
     1
 10
0.0
 20
0.0
 30
0.0
  3
*D30
  1

  0
LINE
  5
3E9
330
3E8
100
AcDbEntity
  8
0
 62
     0
440
 16777216
370
    -2
100
AcDbLine
 10
1533.449646294778
 20
400.4359037105891
 30
0.0
 11
1960.548584439405
 21
400.435903710589
 31
0.0
  0
LINE
  5
3EA
330
3E8
100
AcDbEntity
  8
0
 62
     0
440
 16777216
370
    -2
100
AcDbLine
 10
1969.795228703325
 20
425.4359037105964
 30
0.0
 11
1956.548584439405
 21
425.4359037105964
 31
0.0
  0
LINE
  5
3EB
330
3E8
100
AcDbEntity
  8
0
 62
     0
440
 16777216
370
    -2
100
AcDbLine
 10
1958.548584439405
 20
445.4359037105964
 30
0.0
 11
1958.548584439405
 21
465.4359037105964
 31
0.0
  0
LINE
  5
3EC
330
3E8
100
AcDbEntity
  8
0
 62
     0
440
 16777216
370
    -2
100
AcDbLine
 10
1958.548584439405
 20
380.4359037105891
 30
0.0
 11
1958.548584439405
 21
316.4359037105888
 31
0.0
  0
LINE
  5
3ED
330
3E8
100
AcDbEntity
  8
0
 62
     0
440
 16777216
370
    -2
100
AcDbLine
 10
1958.548584439405
 20
425.4359037105964
 30
0.0
 11
1958.548584439405
 21
400.435903710589
 31
0.0
  0
SOLID
  5
3EE
330
3E8
100
AcDbEntity
  8
0
 62
     0
440
 16777216
100
AcDbTrace
 10
1955.215251106072
 20
445.4359037105964
 30
0.0
 11
1961.881917772738
 21
445.4359037105964
 31
0.0
 12
1958.548584439405
 22
425.4359037105964
 32
0.0
 13
1958.548584439405
 23
425.4359037105964
 33
0.0
  0
SOLID
  5
3EF
330
3E8
100
AcDbEntity
  8
0
 62
     0
440
 16777216
100
AcDbTrace
 10
1955.215251106072
 20
380.4359037105891
 30
0.0
 11
1961.881917772738
 21
380.4359037105891
 31
0.0
 12
1958.548584439405
 22
400.435903710589
 32
0.0
 13
1958.548584439405
 23
400.435903710589
 33
0.0
  0
MTEXT
  5
3F0
330
3E8
100
AcDbEntity
  8
0
 62
     0
440
 16777216
100
AcDbMText
 10
1949.048584439405
 20
330.9359037105892
 30
0.0
 40
15.0
 41
0.0
 46
0.0
 71
     5
 72
     1
  1
\A1;25
 11
0.0000000000000001
 21
1.0
 31
0.0
 73
     1
 44
1.0
  0
POINT
  5
3F1
330
3E8
100
AcDbEntity
  8
Defpoints
 62
     0
440
 16777216
100
AcDbPoint
 10
1531.449646294778
 20
400.4359037105891
 30
0.0
  0
POINT
  5
3F2
330
3E8
100
AcDbEntity
  8
Defpoints
 62
     0
440
 16777216
100
AcDbPoint
 10
1971.795228703325
 20
425.4359037105964
 30
0.0
  0
POINT
  5
3F3
330
3E8
100
AcDbEntity
  8
Defpoints
 62
     0
440
 16777216
100
AcDbPoint
 10
1958.548584439405
 20
425.4359037105964
 30
0.0
  0
ENDBLK
  5
3F5
330
3E8
100
AcDbEntity
  8
0
100
AcDbBlockEnd
  0
BLOCK
  5
402
330
3F6
100
AcDbEntity
  8
0
100
AcDbBlockBegin
  2
*D31
 70
     1
 10
0.0
 20
0.0
 30
0.0
  3
*D31
  1

  0
LINE
  5
3F7
330
3F6
100
AcDbEntity
  8
0
 62
     0
440
 16777216
370
    -2
100
AcDbLine
 10
793.6672122792579
 20
240.5267565267927
 30
0.0
 11
776.5164459860525
 21
240.5267565267927
 31
0.0
  0
LINE
  5
3F8
330
3F6
100
AcDbEntity
  8
0
 62
     0
440
 16777216
370
    -2
100
AcDbLine
 10
918.3249748840816
 20
225.4359037105964
 30
0.0
 11
776.5164459860525
 21
225.4359037105965
 31
0.0
  0
LINE
  5
3F9
330
3F6
100
AcDbEntity
  8
0
 62
     0
440
 16777216
370
    -2
100
AcDbLine
 10
778.5164459860525
 20
205.4359037105965
 30
0.0
 11
778.5164459860525
 21
185.4359037105965
 31
0.0
  0
LINE
  5
3FA
330
3F6
100
AcDbEntity
  8
0
 62
     0
440
 16777216
370
    -2
100
AcDbLine
 10
778.5164459860526
 20
260.5267565267927
 30
0.0
 11
778.5164459860526
 21
307.7142565267999
 31
0.0
  0
LINE
  5
3FB
330
3F6
100
AcDbEntity
  8
0
 62
     0
440
 16777216
370
    -2
100
AcDbLine
 10
778.5164459860525
 20
225.4359037105965
 30
0.0
 11
778.5164459860525
 21
240.5267565267927
 31
0.0
  0
SOLID
  5
3FC
330
3F6
100
AcDbEntity
  8
0
 62
     0
440
 16777216
100
AcDbTrace
 10
775.1831126527191
 20
205.4359037105965
 30
0.0
 11
781.8497793193858
 21
205.4359037105965
 31
0.0
 12
778.5164459860525
 22
225.4359037105965
 32
0.0
 13
778.5164459860525
 23
225.4359037105965
 33
0.0
  0
SOLID
  5
3FD
330
3F6
100
AcDbEntity
  8
0
 62
     0
440
 16777216
100
AcDbTrace
 10
775.1831126527193
 20
260.5267565267927
 30
0.0
 11
781.849779319386
 21
260.5267565267927
 31
0.0
 12
778.5164459860525
 22
240.5267565267927
 32
0.0
 13
778.5164459860525
 23
240.5267565267927
 33
0.0
  0
MTEXT
  5
3FE
330
3F6
100
AcDbEntity
  8
0
 62
     0
440
 16777216
100
AcDbMText
 10
769.0164459860525
 20
295.7142565268
 30
0.0
 40
15.0
 41
0.0
 46
0.0
 71
     5
 72
     1
  1
\A1;15
 11
0.0000000000000001
 21
1.0
 31
0.0
 73
     1
 44
1.0
  0
POINT
  5
3FF
330
3F6
100
AcDbEntity
  8
Defpoints
 62
     0
440
 16777216
100
AcDbPoint
 10
795.6672122792578
 20
240.5267565267927
 30
0.0
  0
POINT
  5
400
330
3F6
100
AcDbEntity
  8
Defpoints
 62
     0
440
 16777216
100
AcDbPoint
 10
920.3249748840816
 20
225.4359037105964
 30
0.0
  0
POINT
  5
401
330
3F6
100
AcDbEntity
  8
Defpoints
 62
     0
440
 16777216
100
AcDbPoint
 10
778.5164459860525
 20
225.4359037105965
 30
0.0
  0
ENDBLK
  5
403
330
3F6
100
AcDbEntity
  8
0
100
AcDbBlockEnd
  0
BLOCK
  5
410
330
404
100
AcDbEntity
  8
0
100
AcDbBlockBegin
  2
*D32
 70
     1
 10
0.0
 20
0.0
 30
0.0
  3
*D32
  1

  0
LINE
  5
405
330
404
100
AcDbEntity
  8
0
 62
     0
440
 16777216
370
    -2
100
AcDbLine
 10
790.5937788927031
 20
423.4359037105964
 30
0.0
 11
790.5937788927031
 21
173.1214190431269
 31
0.0
  0
LINE
  5
406
330
404
100
AcDbEntity
  8
0
 62
     0
440
 16777216
370
    -2
100
AcDbLine
 10
795.6672122792578
 20
238.5267565267927
 30
0.0
 11
795.6672122792578
 21
173.1214190431269
 31
0.0
  0
LINE
  5
407
330
404
100
AcDbEntity
  8
0
 62
     0
440
 16777216
370
    -2
100
AcDbLine
 10
770.593778892703
 20
175.1214190431269
 30
0.0
 11
750.593778892703
 21
175.1214190431269
 31
0.0
  0
LINE
  5
408
330
404
100
AcDbEntity
  8
0
 62
     0
440
 16777216
370
    -2
100
AcDbLine
 10
815.667212279258
 20
175.1214190431269
 30
0.0
 11
865.9172122792579
 21
175.1214190431269
 31
0.0
  0
LINE
  5
409
330
404
100
AcDbEntity
  8
0
 62
     0
440
 16777216
370
    -2
100
AcDbLine
 10
790.5937788927031
 20
175.1214190431269
 30
0.0
 11
795.6672122792578
 21
175.1214190431269
 31
0.0
  0
SOLID
  5
40A
330
404
100
AcDbEntity
  8
0
 62
     0
440
 16777216
100
AcDbTrace
 10
770.593778892703
 20
178.4547523764603
 30
0.0
 11
770.593778892703
 21
171.7880857097936
 31
0.0
 12
790.5937788927031
 22
175.1214190431269
 32
0.0
 13
790.5937788927031
 23
175.1214190431269
 33
0.0
  0
SOLID
  5
40B
330
404
100
AcDbEntity
  8
0
 62
     0
440
 16777216
100
AcDbTrace
 10
815.667212279258
 20
178.4547523764603
 30
0.0
 11
815.667212279258
 21
171.7880857097936
 31
0.0
 12
795.6672122792578
 22
175.1214190431269
 32
0.0
 13
795.6672122792578
 23
175.1214190431269
 33
0.0
  0
MTEXT
  5
40C
330
404
100
AcDbEntity
  8
0
 62
     0
440
 16777216
100
AcDbMText
 10
858.9172122792579
 20
184.6214190431269
 30
0.0
 40
15.0
 41
0.0
 46
0.0
 71
     5
 72
     1
  1
\A1;5
 73
     1
 44
1.0
  0
POINT
  5
40D
330
404
100
AcDbEntity
  8
Defpoints
 62
     0
440
 16777216
100
AcDbPoint
 10
790.5937788927031
 20
425.4359037105964
 30
0.0
  0
POINT
  5
40E
330
404
100
AcDbEntity
  8
Defpoints
 62
     0
440
 16777216
100
AcDbPoint
 10
795.6672122792578
 20
240.5267565267927
 30
0.0
  0
POINT
  5
40F
330
404
100
AcDbEntity
  8
Defpoints
 62
     0
440
 16777216
100
AcDbPoint
 10
795.6672122792578
 20
175.1214190431269
 30
0.0
  0
ENDBLK
  5
411
330
404
100
AcDbEntity
  8
0
100
AcDbBlockEnd
  0
BLOCK
  5
41E
330
412
100
AcDbEntity
  8
0
100
AcDbBlockBegin
  2
*D33
 70
     1
 10
0.0
 20
0.0
 30
0.0
  3
*D33
  1

  0
LINE
  5
413
330
412
100
AcDbEntity
  8
0
 62
     0
440
 16777216
370
    -2
100
AcDbLine
 10
1529.737337587669
 20
240.4253780532049
 30
0.0
 11
1556.775600098734
 21
240.4253780532049
 31
0.0
  0
LINE
  5
414
330
412
100
AcDbEntity
  8
0
 62
     0
440
 16777216
370
    -2
100
AcDbLine
 10
1405.795228703325
 20
225.4359037105964
 30
0.0
 11
1556.775600098734
 21
225.4359037105964
 31
0.0
  0
LINE
  5
415
330
412
100
AcDbEntity
  8
0
 62
     0
440
 16777216
370
    -2
100
AcDbLine
 10
1554.775600098734
 20
205.4359037105964
 30
0.0
 11
1554.775600098734
 21
185.4359037105964
 31
0.0
  0
LINE
  5
416
330
412
100
AcDbEntity
  8
0
 62
     0
440
 16777216
370
    -2
100
AcDbLine
 10
1554.775600098734
 20
260.4253780532049
 30
0.0
 11
1554.775600098734
 21
307.612878053212
 31
0.0
  0
LINE
  5
417
330
412
100
AcDbEntity
  8
0
 62
     0
440
 16777216
370
    -2
100
AcDbLine
 10
1554.775600098734
 20
225.4359037105964
 30
0.0
 11
1554.775600098734
 21
240.4253780532049
 31
0.0
  0
SOLID
  5
418
330
412
100
AcDbEntity
  8
0
 62
     0
440
 16777216
100
AcDbTrace
 10
1551.442266765401
 20
205.4359037105964
 30
0.0
 11
1558.108933432068
 21
205.4359037105964
 31
0.0
 12
1554.775600098734
 22
225.4359037105964
 32
0.0
 13
1554.775600098734
 23
225.4359037105964
 33
0.0
  0
SOLID
  5
419
330
412
100
AcDbEntity
  8
0
 62
     0
440
 16777216
100
AcDbTrace
 10
1551.442266765401
 20
260.4253780532049
 30
0.0
 11
1558.108933432068
 21
260.4253780532049
 31
0.0
 12
1554.775600098734
 22
240.4253780532049
 32
0.0
 13
1554.775600098734
 23
240.4253780532049
 33
0.0
  0
MTEXT
  5
41A
330
412
100
AcDbEntity
  8
0
 62
     0
440
 16777216
100
AcDbMText
 10
1545.275600098735
 20
295.6128780532122
 30
0.0
 40
15.0
 41
0.0
 46
0.0
 71
     5
 72
     1
  1
\A1;15
 11
0.0000000000000001
 21
1.0
 31
0.0
 73
     1
 44
1.0
  0
POINT
  5
41B
330
412
100
AcDbEntity
  8
Defpoints
 62
     0
440
 16777216
100
AcDbPoint
 10
1527.737337587669
 20
240.4253780532049
 30
0.0
  0
POINT
  5
41C
330
412
100
AcDbEntity
  8
Defpoints
 62
     0
440
 16777216
100
AcDbPoint
 10
1403.795228703325
 20
225.4359037105964
 30
0.0
  0
POINT
  5
41D
330
412
100
AcDbEntity
  8
Defpoints
 62
     0
440
 16777216
100
AcDbPoint
 10
1554.775600098734
 20
225.4359037105964
 30
0.0
  0
ENDBLK
  5
41F
330
412
100
AcDbEntity
  8
0
100
AcDbBlockEnd
  0
BLOCK
  5
431
330
42B
100
AcDbEntity
  8
0
100
AcDbBlockBegin
  2
*D34
 70
     1
 10
0.0
 20
0.0
 30
0.0
  3
*D34
  1

  0
LINE
  5
486
330
42B
100
AcDbEntity
  8
0
 62
     0
440
 16777216
370
    -2
100
AcDbLine
 10
1267.149677044573
 20
287.5778242211372
 30
0.0
 11
1200.15675959292
 21
256.1461680236943
 31
0.0
  0
MTEXT
  5
487
330
42B
100
AcDbEntity
  8
0
 62
     0
440
 16777216
100
AcDbMText
 10
1245.460992933989
 20
287.89560016628
 30
0.0
 40
15.0
 41
0.0
 46
0.0
 71
     5
 72
     1
  1
\A1;R15
 11
0.905309695292752
 21
0.4247521107763261
 31
0.0
 73
     1
 44
1.0
  0
SOLID
  5
488
330
42B
100
AcDbEntity
  8
0
 62
     0
440
 16777216
100
AcDbTrace
 10
1198.740919223666
 20
259.1638670080034
 30
0.0
 11
1201.572599962175
 21
253.1284690393851
 31
0.0
 12
1182.050565687065
 22
247.6511258081678
 32
0.0
 13
1182.050565687065
 23
247.6511258081678
 33
0.0
  0
POINT
  5
489
330
42B
100
AcDbEntity
  8
Defpoints
 62
     0
440
 16777216
100
AcDbPoint
 10
1182.050565687065
 20
247.6511258081678
 30
0.0
  0
POINT
  5
48A
330
42B
100
AcDbEntity
  8
Defpoints
 62
     0
440
 16777216
100
AcDbPoint
 10
1195.630211116432
 20
254.0224074698012
 30
0.0
  0
ENDBLK
  5
432
330
42B
100
AcDbEntity
  8
0
100
AcDbBlockEnd
  0
BLOCK
  5
439
330
433
100
AcDbEntity
  8
0
100
AcDbBlockBegin
  2
*D35
 70
     1
 10
0.0
 20
0.0
 30
0.0
  3
*D35
  1

  0
LINE
  5
481
330
433
100
AcDbEntity
  8
0
 62
     0
440
 16777216
370
    -2
100
AcDbLine
 10
1055.951212032083
 20
282.6366504231215
 30
0.0
 11
1125.432110070457
 21
257.1728563660506
 31
0.0
  0
MTEXT
  5
482
330
433
100
AcDbEntity
  8
0
 62
     0
440
 16777216
100
AcDbMText
 10
1077.529368184658
 20
284.8464416021981
 30
0.0
 40
15.0
 41
0.0
 46
0.0
 71
     5
 72
     1
  1
\A1;R15
 11
0.9389310545726347
 21
-0.3441053250955584
 31
0.0
 73
     1
 44
1.0
  0
SOLID
  5
483
330
433
100
AcDbEntity
  8
0
 62
     0
440
 16777216
100
AcDbTrace
 10
1126.579127820776
 20
260.3026265479593
 30
0.0
 11
1124.285092320139
 21
254.0430861841418
 31
0.0
 12
1144.21073116191
 22
250.2907498641395
 32
0.0
 13
1144.21073116191
 23
250.2907498641395
 33
0.0
  0
POINT
  5
484
330
433
100
AcDbEntity
  8
Defpoints
 62
     0
440
 16777216
100
AcDbPoint
 10
1144.21073116191
 20
250.2907498641395
 30
0.0
  0
POINT
  5
485
330
433
100
AcDbEntity
  8
Defpoints
 62
     0
440
 16777216
100
AcDbPoint
 10
1130.126765343323
 20
255.4523297405717
 30
0.0
  0
ENDBLK
  5
43A
330
433
100
AcDbEntity
  8
0
100
AcDbBlockEnd
  0
BLOCK
  5
445
330
43B
100
AcDbEntity
  8
0
100
AcDbBlockBegin
  2
*D36
 70
     1
 10
0.0
 20
0.0
 30
0.0
  3
*D36
  1

  0
LINE
  5
43C
330
43B
100
AcDbEntity
  8
0
 62
     0
440
 16777216
370
    -2
100
AcDbLine
 10
1977.995228703329
 20
425.4359037105964
 30
0.0
 11
2042.321323454038
 21
425.4359037105964
 31
0.0
  0
LINE
  5
43D
330
43B
100
AcDbEntity
  8
0
 62
     0
440
 16777216
370
    -2
100
AcDbLine
 10
1404.295228703325
 20
225.4359037105964
 30
0.0
 11
2042.321323454038
 21
225.4359037105963
 31
0.0
  0
LINE
  5
43E
330
43B
100
AcDbEntity
  8
0
 62
     0
440
 16777216
370
    -2
100
AcDbLine
 10
2041.821323454037
 20
415.4359037105964
 30
0.0
 11
2041.821323454037
 21
235.4359037105963
 31
0.0
  0
SOLID
  5
43F
330
43B
100
AcDbEntity
  8
0
 62
     0
440
 16777216
100
AcDbTrace
 10
2040.15465678737
 20
415.4359037105964
 30
0.0
 11
2043.487990120704
 21
415.4359037105964
 31
0.0
 12
2041.821323454037
 22
425.4359037105964
 32
0.0
 13
2041.821323454037
 23
425.4359037105964
 33
0.0
  0
SOLID
  5
440
330
43B
100
AcDbEntity
  8
0
 62
     0
440
 16777216
100
AcDbTrace
 10
2040.15465678737
 20
235.4359037105963
 30
0.0
 11
2043.487990120704
 21
235.4359037105963
 31
0.0
 12
2041.821323454037
 22
225.4359037105963
 32
0.0
 13
2041.821323454037
 23
225.4359037105963
 33
0.0
  0
MTEXT
  5
441
330
43B
100
AcDbEntity
  8
0
 62
     0
440
 16777216
100
AcDbMText
 10
2031.321323454037
 20
295.6873634673898
 30
0.0
 40
20.0
 41
0.0
 46
0.0
 71
     5
 72
     1
  1
\A1;200
  7
ADESK2
 11
0.0000000000000001
 21
1.0
 31
0.0
 73
     1
 44
1.0
  0
POINT
  5
442
330
43B
100
AcDbEntity
  8
Defpoints
 62
     0
440
 16777216
100
AcDbPoint
 10
1977.495228703329
 20
425.4359037105964
 30
0.0
  0
POINT
  5
443
330
43B
100
AcDbEntity
  8
Defpoints
 62
     0
440
 16777216
100
AcDbPoint
 10
1403.795228703325
 20
225.4359037105964
 30
0.0
  0
POINT
  5
444
330
43B
100
AcDbEntity
  8
Defpoints
 62
     0
440
 16777216
100
AcDbPoint
 10
2041.821323454037
 20
225.4359037105963
 30
0.0
  0
ENDBLK
  5
446
330
43B
100
AcDbEntity
  8
0
100
AcDbBlockEnd
  0
BLOCK
  5
453
330
447
100
AcDbEntity
  8
0
100
AcDbBlockBegin
  2
*D37
 70
     1
 10
0.0
 20
0.0
 30
0.0
  3
*D37
  1

  0
LINE
  5
448
330
447
100
AcDbEntity
  8
0
 62
     0
440
 16777216
370
    -2
100
AcDbLine
 10
1950.295228703325
 20
413.1167401125126
 30
0.0
 11
2025.603528110201
 21
413.1167401125126
 31
0.0
  0
LINE
  5
449
330
447
100
AcDbEntity
  8
0
 62
     0
440
 16777216
370
    -2
100
AcDbLine
 10
1977.995228703329
 20
425.4359037105964
 30
0.0
 11
2025.603528110201
 21
425.4359037105964
 31
0.0
  0
LINE
  5
44A
330
447
100
AcDbEntity
  8
0
 62
     0
440
 16777216
370
    -2
100
AcDbLine
 10
2025.103528110201
 20
435.4359037105964
 30
0.0
 11
2025.103528110201
 21
445.4359037105964
 31
0.0
  0
LINE
  5
44B
330
447
100
AcDbEntity
  8
0
 62
     0
440
 16777216
370
    -2
100
AcDbLine
 10
2025.103528110201
 20
403.1167401125125
 30
0.0
 11
2025.103528110201
 21
311.5611845569571
 31
0.0
  0
LINE
  5
44C
330
447
100
AcDbEntity
  8
0
 62
     0
440
 16777216
370
    -2
100
AcDbLine
 10
2025.103528110201
 20
425.4359037105964
 30
0.0
 11
2025.103528110201
 21
413.1167401125126
 31
0.0
  0
SOLID
  5
44D
330
447
100
AcDbEntity
  8
0
 62
     0
440
 16777216
100
AcDbTrace
 10
2023.436861443534
 20
435.4359037105964
 30
0.0
 11
2026.770194776867
 21
435.4359037105964
 31
0.0
 12
2025.103528110201
 22
425.4359037105964
 32
0.0
 13
2025.103528110201
 23
425.4359037105964
 33
0.0
  0
SOLID
  5
44E
330
447
100
AcDbEntity
  8
0
 62
     0
440
 16777216
100
AcDbTrace
 10
2023.436861443534
 20
403.1167401125125
 30
0.0
 11
2026.770194776867
 21
403.1167401125125
 31
0.0
 12
2025.103528110201
 22
413.1167401125126
 32
0.0
 13
2025.103528110201
 23
413.1167401125126
 33
0.0
  0
MTEXT
  5
44F
330
447
100
AcDbEntity
  8
0
 62
     0
440
 16777216
100
AcDbMText
 10
2014.603528110201
 20
352.3389623347352
 30
0.0
 40
20.0
 41
0.0
 46
0.0
 71
     5
 72
     1
  1
\A1;12.319
  7
ADESK2
 11
0.0000000000000001
 21
1.0
 31
0.0
 73
     1
 44
1.0
  0
POINT
  5
450
330
447
100
AcDbEntity
  8
Defpoints
 62
     0
440
 16777216
100
AcDbPoint
 10
1949.795228703325
 20
413.1167401125126
 30
0.0
  0
POINT
  5
451
330
447
100
AcDbEntity
  8
Defpoints
 62
     0
440
 16777216
100
AcDbPoint
 10
1977.495228703329
 20
425.4359037105964
 30
0.0
  0
POINT
  5
452
330
447
100
AcDbEntity
  8
Defpoints
 62
     0
440
 16777216
100
AcDbPoint
 10
2025.103528110201
 20
425.4359037105964
 30
0.0
  0
ENDBLK
  5
454
330
447
100
AcDbEntity
  8
0
100
AcDbBlockEnd
  0
BLOCK
  5
45F
330
455
100
AcDbEntity
  8
0
100
AcDbBlockBegin
  2
*D38
 70
     1
 10
0.0
 20
0.0
 30
0.0
  3
*D38
  1

  0
LINE
  5
456
330
455
100
AcDbEntity
  8
0
 62
     0
440
 16777216
370
    -2
100
AcDbLine
 10
924.8249748840818
 20
225.4359037105964
 30
0.0
 11
722.262423711195
 21
225.4359037105965
 31
0.0
  0
LINE
  5
457
330
455
100
AcDbEntity
  8
0
 62
     0
440
 16777216
370
    -2
100
AcDbLine
 10
762.8618833623322
 20
425.4359037105946
 30
0.0
 11
722.2624237111951
 21
425.4359037105946
 31
0.0
  0
LINE
  5
458
330
455
100
AcDbEntity
  8
0
 62
     0
440
 16777216
370
    -2
100
AcDbLine
 10
722.762423711195
 20
235.4359037105965
 30
0.0
 11
722.7624237111951
 21
415.4359037105946
 31
0.0
  0
SOLID
  5
459
330
455
100
AcDbEntity
  8
0
 62
     0
440
 16777216
100
AcDbTrace
 10
721.0957570445283
 20
235.4359037105965
 30
0.0
 11
724.4290903778615
 21
235.4359037105965
 31
0.0
 12
722.762423711195
 22
225.4359037105965
 32
0.0
 13
722.762423711195
 23
225.4359037105965
 33
0.0
  0
SOLID
  5
45A
330
455
100
AcDbEntity
  8
0
 62
     0
440
 16777216
100
AcDbTrace
 10
721.0957570445284
 20
415.4359037105946
 30
0.0
 11
724.4290903778617
 21
415.4359037105946
 31
0.0
 12
722.7624237111951
 22
425.4359037105946
 32
0.0
 13
722.7624237111951
 23
425.4359037105946
 33
0.0
  0
MTEXT
  5
45B
330
455
100
AcDbEntity
  8
0
 62
     0
440
 16777216
100
AcDbMText
 10
712.2624237111949
 20
319.253049493454
 30
0.0
 40
20.0
 41
0.0
 46
0.0
 71
     5
 72
     1
  1
\A1;200
  7
ADESK2
 11
0.0000000000000001
 21
1.0
 31
0.0
 73
     1
 44
1.0
  0
POINT
  5
45C
330
455
100
AcDbEntity
  8
Defpoints
 62
     0
440
 16777216
100
AcDbPoint
 10
925.3249748840817
 20
225.4359037105964
 30
0.0
  0
POINT
  5
45D
330
455
100
AcDbEntity
  8
Defpoints
 62
     0
440
 16777216
100
AcDbPoint
 10
763.3618833623322
 20
425.4359037105946
 30
0.0
  0
POINT
  5
45E
330
455
100
AcDbEntity
  8
Defpoints
 62
     0
440
 16777216
100
AcDbPoint
 10
722.7624237111951
 20
425.4359037105946
 30
0.0
  0
ENDBLK
  5
460
330
455
100
AcDbEntity
  8
0
100
AcDbBlockEnd
  0
ENDSEC
  0
SECTION
  2
ENTITIES
  0
LINE
  5
2BD
102
{ACAD_REACTORS
330
2FA
102
}
330
1F
100
AcDbEntity
  8
0
100
AcDbLine
 10
745.9915905897787
 20
722.8275606464808
 30
0.0
 11
1953.991590589779
 21
722.8275606464808
 31
0.0
  0
LINE
  5
2BE
330
1F
100
AcDbEntity
  8
0
100
AcDbLine
 10
1487.991590589779
 20
748.8275606464808
 30
0.0
 11
1912.991590589779
 21
748.8275606464808
 31
0.0
  0
LINE
  5
2BF
330
1F
100
AcDbEntity
  8
0
100
AcDbLine
 10
1114.991590589771
 20
748.8275606464736
 30
0.0
 11
1497.991590589778
 21
748.8275606464845
 31
0.0
  0
LINE
  5
2C0
330
1F
100
AcDbEntity
  8
0
100
AcDbLine
 10
786.9915905897714
 20
748.8275606464808
 30
0.0
 11
1114.991590589771
 21
748.8275606464808
 31
0.0
  0
ARC
  5
2C1
330
1F
100
AcDbEntity
  8
0
100
AcDbCircle
 10
786.9915905897714
 20
763.8275606464808
 30
0.0
 40
15.0
100
AcDbArc
 50
180.0
 51
270.0
  0
LINE
  5
2C2
330
1F
100
AcDbEntity
  8
0
100
AcDbLine
 10
1953.991590589779
 20
722.8275606464808
 30
0.0
 11
1953.991590589779
 21
1226.827560646481
 31
0.0
  0
LINE
  5
2C3
330
1F
100
AcDbEntity
  8
0
100
AcDbLine
 10
1927.991590589779
 20
763.8275606464808
 30
0.0
 11
1927.991590589779
 21
1131.827560646481
 31
0.0
  0
ARC
  5
2C4
330
1F
100
AcDbEntity
  8
0
100
AcDbCircle
 10
1912.991590589779
 20
763.8275606464808
 30
0.0
 40
15.0
100
AcDbArc
 50
270.0
 51
0.0
  0
LINE
  5
2C5
102
{ACAD_REACTORS
330
2F7
102
}
330
1F
100
AcDbEntity
  8
0
100
AcDbLine
 10
1912.991590589779
 20
1146.827560646481
 30
0.0
 11
1487.991590589779
 21
1146.827560646481
 31
0.0
  0
LINE
  5
2C6
102
{ACAD_REACTORS
330
2F7
330
2FA
102
}
330
1F
100
AcDbEntity
  8
0
100
AcDbLine
 10
1953.991590589779
 20
1226.827560646481
 30
0.0
 11
745.9915905897787
 21
1226.827560646481
 31
0.0
  0
ARC
  5
2C7
330
1F
100
AcDbEntity
  8
0
100
AcDbCircle
 10
1912.991590589779
 20
1131.827560646481
 30
0.0
 40
15.0
100
AcDbArc
 50
0.0
 51
90.0
  0
LINE
  5
2C8
330
1F
100
AcDbEntity
  8
0
100
AcDbLine
 10
1497.991590589778
 20
1146.827560646488
 30
0.0
 11
1104.991590589778
 21
1146.827560646484
 31
0.0
  0
ARC
  5
2C9
330
1F
100
AcDbEntity
  8
0
100
AcDbCircle
 10
1497.991590589778
 20
1131.827560646488
 30
0.0
 40
15.0
100
AcDbArc
 50
0.0
 51
90.0
  0
LINE
  5
2CA
330
1F
100
AcDbEntity
  8
0
100
AcDbLine
 10
745.9915905897787
 20
1226.827560646481
 30
0.0
 11
745.9915905897787
 21
722.8275606464808
 31
0.0
  0
LINE
  5
2CB
102
{ACAD_REACTORS
330
2E5
102
}
330
1F
100
AcDbEntity
  8
0
100
AcDbLine
 10
771.9915905897787
 20
1131.827560646477
 30
0.0
 11
771.9915905897715
 21
763.8275606464808
 31
0.0
  0
ARC
  5
2CC
102
{ACAD_REACTORS
330
2F0
102
}
330
1F
100
AcDbEntity
  8
0
100
AcDbCircle
 10
786.9915905897787
 20
1131.827560646477
 30
0.0
 40
15.0
100
AcDbArc
 50
90.0
 51
180.0
  0
LINE
  5
2CD
102
{ACAD_REACTORS
330
2E5
102
}
330
1F
100
AcDbEntity
  8
0
100
AcDbLine
 10
1129.991590589779
 20
1131.827560646488
 30
0.0
 11
1129.991590589771
 21
763.8275606464808
 31
0.0
  0
ARC
  5
2CE
330
1F
100
AcDbEntity
  8
0
100
AcDbCircle
 10
1114.991590589771
 20
763.8275606464808
 30
0.0
 40
15.0
100
AcDbArc
 50
270.0
 51
0.0
  0
LINE
  5
2CF
102
{ACAD_REACTORS
330
2E2
102
}
330
1F
100
AcDbEntity
  8
0
100
AcDbLine
 10
1154.991590589778
 20
1131.827560646488
 30
0.0
 11
1154.991590589778
 21
763.8275606464771
 31
0.0
  0
LINE
  5
2D0
330
1F
100
AcDbEntity
  8
0
100
AcDbLine
 10
1512.991590589779
 20
1131.827560646488
 30
0.0
 11
1512.991590589779
 21
763.8275606464844
 31
0.0
  0
ARC
  5
2D1
330
1F
100
AcDbEntity
  8
0
100
AcDbCircle
 10
1497.991590589778
 20
763.8275606464844
 30
0.0
 40
15.0
100
AcDbArc
 50
270.0
 51
0.0
  0
CIRCLE
  5
2D2
102
{ACAD_REACTORS
330
2E8
102
}
330
1F
100
AcDbEntity
  8
0
100
AcDbCircle
 10
950.9915905897788
 20
997.8275606464809
 30
0.0
 40
45.0
  0
CIRCLE
  5
2D3
330
1F
100
AcDbEntity
  8
0
100
AcDbCircle
 10
950.9915905897788
 20
997.8275606464809
 30
0.0
 40
55.0
  0
LINE
  5
2D4
330
1F
100
AcDbEntity
  8
0
100
AcDbLine
 10
1114.991590589778
 20
1131.827560646488
 30
0.0
 11
993.8306044816117
 21
1032.321312091855
 31
0.0
  0
LINE
  5
2D5
330
1F
100
AcDbEntity
  8
0
100
AcDbLine
 10
908.1525766979384
 20
1032.321312091851
 30
0.0
 11
786.9915905897787
 21
1131.827560646477
 31
0.0
  0
LINE
  5
2D6
330
1F
100
AcDbEntity
  8
0
100
AcDbLine
 10
982.1506758485693
 20
952.5052548155141
 30
0.0
 11
1114.991590589771
 21
763.8275606464808
 31
0.0
  0
LINE
  5
2D7
330
1F
100
AcDbEntity
  8
0
100
AcDbLine
 10
919.8325053309881
 20
952.5052548155141
 30
0.0
 11
786.9915905897714
 21
763.8275606464808
 31
0.0
  0
LINE
  5
2D8
330
1F
100
AcDbEntity
  8
0
100
AcDbLine
 10
1114.991590589778
 20
1146.827560646488
 30
0.0
 11
786.9915905897787
 21
1146.827560646477
 31
0.0
  0
ARC
  5
2D9
330
1F
100
AcDbEntity
  8
0
100
AcDbCircle
 10
1114.991590589778
 20
1131.827560646488
 30
0.0
 40
15.0
100
AcDbArc
 50
0.0
 51
90.0
  0
LINE
  5
2DA
330
1F
100
AcDbEntity
  8
0
100
AcDbLine
 10
1912.991590589779
 20
763.8275606464808
 30
0.0
 11
1512.991590589779
 21
922.8275606464844
 31
0.0
  0
LINE
  5
2DB
330
1F
100
AcDbEntity
  8
0
100
AcDbLine
 10
1512.991590589779
 20
972.8275606464844
 30
0.0
 11
1912.991590589779
 21
1131.827560646481
 31
0.0
  0
CIRCLE
  5
2DC
102
{ACAD_REACTORS
330
2EB
102
}
330
1F
100
AcDbEntity
  8
0
100
AcDbCircle
 10
1333.991590589779
 20
997.8275606464809
 30
0.0
 40
45.0
  0
CIRCLE
  5
2DD
330
1F
100
AcDbEntity
  8
0
100
AcDbCircle
 10
1333.991590589779
 20
997.8275606464809
 30
0.0
 40
55.0
  0
DIMENSION
  5
2DE
330
1F
100
AcDbEntity
  8
0
100
AcDbDimension
280
     0
  2
*D20
 10
745.9915905897787
 20
628.0616490743045
 30
0.0
 11
1530.770638616434
 21
628.0616490743045
 31
0.0
 70
   160
 71
     5
 42
1208.0
 73
     0
 74
     0
 75
     0
  3
N915
100
AcDbAlignedDimension
 13
1953.991590589779
 23
722.8275606464808
 33
0.0
 14
745.9915905897787
 24
722.8275606464808
 34
0.0
100
AcDbRotatedDimension
  0
DIMENSION
  5
2DF
330
1F
100
AcDbEntity
  8
0
100
AcDbDimension
280
     0
  2
*D21
 10
2001.114553184219
 20
748.8275606464808
 30
0.0
 11
2001.114553184219
 21
935.3275606464809
 31
0.0
 70
   160
 71
     5
 42
398.0
 73
     0
 74
     0
 75
     0
  3
N915
100
AcDbAlignedDimension
 13
1902.991590589779
 23
1146.827560646481
 33
0.0
 14
1902.991590589779
 24
748.8275606464808
 34
0.0
 50
90.0
100
AcDbRotatedDimension
  0
DIMENSION
  5
2E0
102
{ACAD_XDICTIONARY
360
2E1
102
}
102
{ACAD_REACTORS
330
2E2
102
}
330
1F
100
AcDbEntity
  8
0
100
AcDbDimension
280
     0
  2
*D23
 10
1512.991590589779
 20
671.5716119896019
 30
0.0
 11
1398.976587520533
 21
671.5716119896019
 31
0.0
 70
   160
 71
     5
 42
358.0
 73
     0
 74
     0
 75
     0
  3
N915
100
AcDbAlignedDimension
 13
1154.991590589778
 23
763.8275606464771
 33
0.0
 14
1512.991590589779
 24
773.8275606464808
 34
0.0
100
AcDbRotatedDimension
  0
DIMENSION
  5
2E3
102
{ACAD_XDICTIONARY
360
2E4
102
}
102
{ACAD_REACTORS
330
2E5
102
}
330
1F
100
AcDbEntity
  8
0
100
AcDbDimension
280
     0
  2
*D24
 10
771.9915905897715
 20
672.4059435054437
 30
0.0
 11
933.8683530239714
 21
672.4059435054437
 31
0.0
 70
   160
 71
     5
 42
358.0
 73
     0
 74
     0
 75
     0
  3
N915
100
AcDbAlignedDimension
 13
1129.991590589771
 23
763.8275606464808
 33
0.0
 14
771.9915905897715
 24
763.8275606464808
 34
0.0
100
AcDbRotatedDimension
  0
DIMENSION
  5
2E6
102
{ACAD_XDICTIONARY
360
2E7
102
}
102
{ACAD_REACTORS
330
2E8
102
}
330
1F
100
AcDbEntity
  8
0
100
AcDbDimension
280
     0
  2
*D25
 10
906.1676474707384
 20
993.8508631145868
 30
0.0
 11
1057.936369662468
 21
1007.315504129227
 31
0.0
 70
   163
 71
     5
 42
89.99999999999033
 73
     0
 74
     0
 75
     0
  3
N915iso
100
AcDbDiametricDimension
 15
995.8155337088287
 25
1001.804258178375
 35
0.0
 40
0.0
1001
ACAD
1000
DSTYLE
1002
{
1070
   271
1070
     1
1002
}
  0
DIMENSION
  5
2E9
102
{ACAD_XDICTIONARY
360
2EA
102
}
102
{ACAD_REACTORS
330
2EB
102
}
330
1F
100
AcDbEntity
  8
0
100
AcDbDimension
280
     0
  2
*D26
 10
1290.546155038706
 20
986.1017715565957
 30
0.0
 11
1456.858974463941
 21
1024.228247606439
 31
0.0
 70
   163
 71
     5
 42
90.0000000000316
 73
     0
 74
     0
 75
     0
  3
N915iso
100
AcDbDiametricDimension
 15
1377.43702614082
 25
1009.553349736357
 35
0.0
 40
0.0
1001
ACAD
1000
DSTYLE
1002
{
1070
   271
1070
     1
1002
}
  0
ARC
  5
2EC
330
1F
100
AcDbEntity
  8
0
100
AcDbCircle
 10
1169.991590589779
 20
1131.827560646488
 30
0.0
 40
15.0
100
AcDbArc
 50
90.0
 51
180.0
  0
ARC
  5
2ED
330
1F
100
AcDbEntity
  8
0
100
AcDbCircle
 10
1169.991590589779
 20
763.8275606464771
 30
0.0
 40
15.0
100
AcDbArc
 50
180.0
 51
270.0
  0
DIMENSION
  5
2EE
102
{ACAD_XDICTIONARY
360
2EF
102
}
102
{ACAD_REACTORS
330
2F0
102
}
330
1F
100
AcDbEntity
  8
0
100
AcDbDimension
280
     0
  2
*D27
 10
786.9915905897786
 20
1131.827560646477
 30
0.0
 11
825.1425138812589
 21
1059.404459417081
 31
0.0
 70
   164
 71
     5
 42
15.00000000002228
 73
     0
 74
     0
 75
     0
  3
N915
100
AcDbRadialDimension
 15
780.0005872006212
 25
1145.098802924932
 35
0.0
 40
0.0
1001
ACAD
1000
DSTYLE
1002
{
1070
   279
1070
     1
1002
}
  0
LINE
  5
2F1
330
1F
100
AcDbEntity
  8
0
100
AcDbLine
 10
1376.582374224496
 20
1032.627347274857
 30
0.0
 11
1497.991590589778
 21
1131.827560646488
 31
0.0
  0
LINE
  5
2F2
330
1F
100
AcDbEntity
  8
0
100
AcDbLine
 10
1169.991590589779
 20
1131.827560646488
 30
0.0
 11
1291.400806955054
 21
1032.627347274846
 31
0.0
  0
LINE
  5
2F3
330
1F
100
AcDbEntity
  8
0
100
AcDbLine
 10
1302.425330969933
 20
952.7878975303716
 30
0.0
 11
1169.991590589779
 21
763.8275606464771
 31
0.0
  0
LINE
  5
2F4
330
1F
100
AcDbEntity
  8
0
100
AcDbLine
 10
1365.557850209624
 20
952.7878975303716
 30
0.0
 11
1497.991590589778
 21
763.8275606464844
 31
0.0
  0
DIMENSION
  5
2F5
102
{ACAD_XDICTIONARY
360
2F6
102
}
102
{ACAD_REACTORS
330
2F7
102
}
330
1F
100
AcDbEntity
  8
0
100
AcDbDimension
280
     0
  2
*D28
 10
2002.099145539868
 20
1146.827560646481
 30
0.0
 11
2002.099145539868
 21
1188.814811543626
 31
0.0
 70
   160
 71
     5
 42
80.0
 73
     0
 74
     0
 75
     0
  3
N3.5
100
AcDbAlignedDimension
 13
1953.991590589779
 23
1226.827560646481
 33
0.0
 14
1877.361285603146
 24
1146.827560646481
 34
0.0
 50
90.0
100
AcDbRotatedDimension
1001
ACAD
1000
DSTYLE
1002
{
1070
    41
1040
10.0
1070
    49
1040
1.25
1070
    50
1040
1.570796326794896
1070
   140
1040
20.0
1002
}
  0
DIMENSION
  5
2F8
102
{ACAD_XDICTIONARY
360
2F9
102
}
102
{ACAD_REACTORS
330
2FA
102
}
330
1F
100
AcDbEntity
  8
0
100
AcDbDimension
280
     0
  2
*D29
 10
2070.014211079112
 20
722.8275606464826
 30
0.0
 11
2070.014211079112
 21
955.2561870099831
 31
0.0
 70
   160
 71
     5
 42
503.9999999999982
 73
     0
 74
     0
 75
     0
  3
N3.5
100
AcDbAlignedDimension
 13
1927.111239985162
 23
1226.827560646481
 33
0.0
 14
1927.111239985162
 24
722.8275606464826
 34
0.0
 50
90.0
100
AcDbRotatedDimension
1001
ACAD
1000
DSTYLE
1002
{
1070
    41
1040
10.0
1070
    49
1040
1.25
1070
    50
1040
1.570796326794896
1070
   140
1040
20.0
1002
}
  0
LINE
  5
2FC
330
1F
100
AcDbEntity
  8
0
100
AcDbLine
 10
1949.795228703325
 20
413.4049316953528
 30
0.0
 11
1949.795228703325
 21
423.7359037105957
 31
0.0
  0
ARC
  5
2FD
330
1F
100
AcDbEntity
  8
0
100
AcDbCircle
 10
1949.295228703325
 20
413.4049316953528
 30
0.0
 40
0.5
100
AcDbArc
 50
272.5420575967906
 51
0.0
  0
LINE
  5
2FE
330
1F
100
AcDbEntity
  8
0
100
AcDbLine
 10
1950.995228703329
 20
413.4049316953564
 30
0.0
 11
1950.995228703329
 21
423.735903710592
 31
0.0
  0
ARC
  5
2FF
330
1F
100
AcDbEntity
  8
0
100
AcDbCircle
 10
1949.295228703332
 20
413.4049316953564
 30
0.0
 40
1.7
100
AcDbArc
 50
272.5420575967906
 51
0.0
  0
ARC
  5
300
330
1F
100
AcDbEntity
  8
0
100
AcDbCircle
 10
1951.495228703329
 20
423.735903710592
 30
0.0
 40
0.5
100
AcDbArc
 50
90.0
 51
180.0
  0
ARC
  5
301
330
1F
100
AcDbEntity
  8
0
100
AcDbCircle
 10
1951.495228703322
 20
423.7359037105957
 30
0.0
 40
1.7
100
AcDbArc
 50
90.0
 51
180.0
  0
LINE
  5
302
330
1F
100
AcDbEntity
  8
0
100
AcDbLine
 10
1026.087743388881
 20
231.6268545347698
 30
0.0
 11
1020.795228703325
 21
226.6359037105972
 31
0.0
  0
LINE
  5
303
330
1F
100
AcDbEntity
  8
0
100
AcDbLine
 10
1026.606150841667
 20
230.466307001981
 30
0.0
 11
1021.27179988694
 21
225.4359037105964
 31
0.0
  0
LINE
  5
304
330
1F
100
AcDbEntity
  8
0
100
AcDbLine
 10
1020.795228703325
 20
226.6359037105972
 30
0.0
 11
920.7952287033249
 21
226.6359037105935
 31
0.0
  0
LINE
  5
305
330
1F
100
AcDbEntity
  8
0
100
AcDbLine
 10
1021.27179988694
 20
225.4359037105964
 30
0.0
 11
920.3249748840816
 21
225.4359037105964
 31
0.0
  0
LINE
  5
306
330
1F
100
AcDbEntity
  8
0
100
AcDbLine
 10
920.7952287033249
 20
226.6359037105972
 30
0.0
 11
915.3953906459637
 21
231.6359037106008
 31
0.0
  0
LINE
  5
307
330
1F
100
AcDbEntity
  8
0
100
AcDbLine
 10
920.3249748840816
 20
225.4359037105964
 30
0.0
 11
914.8830850744333
 21
230.4748416859943
 31
0.0
  0
LINE
  5
308
330
1F
100
AcDbEntity
  8
0
100
AcDbLine
 10
796.4693347372659
 20
255.0409316629807
 30
0.0
 11
791.8609707870191
 21
423.0034466139654
 31
0.0
  0
ARC
  5
309
330
1F
100
AcDbEntity
  8
0
100
AcDbCircle
 10
811.4636920633266
 20
255.4523297405753
 30
0.0
 40
15.0
100
AcDbArc
 50
181.5716219781576
 51
265.1803963510615
  0
ARC
  5
30A
330
1F
100
AcDbEntity
  8
0
100
AcDbCircle
 10
811.4636920633266
 20
255.4523297405753
 30
0.0
 40
16.2
100
AcDbArc
 50
181.5716219781576
 51
265.1803963510615
  0
LINE
  5
30B
330
1F
100
AcDbEntity
  8
0
100
AcDbLine
 10
795.2714237883256
 20
254.9518818309002
 30
0.0
 11
790.6614088231645
 21
422.9710260203496
 31
0.0
  0
LINE
  5
30C
330
1F
100
AcDbEntity
  8
0
100
AcDbLine
 10
763.3618833623322
 20
425.4359037105946
 30
0.0
 11
1977.495228703329
 21
425.4359037105964
 31
0.0
  0
LINE
  5
30D
330
1F
100
AcDbEntity
  8
0
100
AcDbLine
 10
1154.855509175663
 20
424.2359037105956
 30
0.0
 11
1170.947530956043
 21
424.2359037105956
 31
0.0
  0
ARC
  5
30E
330
1F
100
AcDbEntity
  8
0
100
AcDbCircle
 10
789.3618833623322
 20
422.9359037105964
 30
0.0
 40
2.5
100
AcDbArc
 50
1.548157699005509
 51
90.0
  0
ARC
  5
30F
330
1F
100
AcDbEntity
  8
0
100
AcDbCircle
 10
789.3618833623322
 20
422.9359037105964
 30
0.0
 40
1.3
100
AcDbArc
 50
1.548157699005509
 51
90.0
  0
LINE
  5
310
330
1F
100
AcDbEntity
  8
0
100
AcDbLine
 10
1308.795228703325
 20
226.6359037105972
 30
0.0
 11
1308.795228703325
 21
225.4359037105964
 31
0.0
  0
LINE
  5
311
330
1F
100
AcDbEntity
  8
0
100
AcDbLine
 10
1398.795228703325
 20
226.6359037106008
 30
0.0
 11
1398.795228703325
 21
225.4359037105964
 31
0.0
  0
LINE
  5
312
330
1F
100
AcDbEntity
  8
0
100
AcDbLine
 10
1532.56790682092
 20
398.086357076208
 30
0.0
 11
1528.194810642125
 21
253.462389948068
 31
0.0
  0
ARC
  5
313
330
1F
100
AcDbEntity
  8
0
100
AcDbCircle
 10
1512.004775224202
 20
254.0305036396162
 30
0.0
 40
16.2
100
AcDbArc
 50
280.304846468935
 51
357.9902967673044
  0
LINE
  5
314
330
1F
100
AcDbEntity
  8
0
100
AcDbLine
 10
1531.368696310607
 20
398.1284198395838
 30
0.0
 11
1526.996713950407
 21
253.5048157371052
 31
0.0
  0
ARC
  5
315
330
1F
100
AcDbEntity
  8
0
100
AcDbCircle
 10
1512.00593577398
 20
254.0307146486698
 30
0.0
 40
15.0
100
AcDbArc
 50
280.304846468935
 51
357.9908023673599
  0
LINE
  5
316
330
1F
100
AcDbEntity
  8
0
100
AcDbLine
 10
1514.902719323042
 20
238.0918110959969
 30
0.0
 11
1408.795228703325
 21
230.4359037105964
 31
0.0
  0
LINE
  5
317
330
1F
100
AcDbEntity
  8
0
100
AcDbLine
 10
1514.689217346974
 20
239.27266599717
 30
0.0
 11
1408.211760796846
 21
231.5494920789638
 31
0.0
  0
LINE
  5
318
330
1F
100
AcDbEntity
  8
0
100
AcDbLine
 10
1408.795228703318
 20
230.4359037105964
 30
0.0
 11
1403.795228703325
 21
225.4359037105964
 31
0.0
  0
LINE
  5
319
330
1F
100
AcDbEntity
  8
0
100
AcDbLine
 10
1408.211760796846
 20
231.5494920789638
 30
0.0
 11
1403.298172428475
 21
226.6359037106008
 31
0.0
  0
LINE
  5
31A
330
1F
100
AcDbEntity
  8
0
100
AcDbLine
 10
1403.795228703325
 20
225.4359037105964
 30
0.0
 11
1303.795228703332
 21
225.4359037105964
 31
0.0
  0
LINE
  5
31B
330
1F
100
AcDbEntity
  8
0
100
AcDbLine
 10
1403.298172428475
 20
226.6359037106008
 30
0.0
 11
1304.292284978181
 21
226.6359037105935
 31
0.0
  0
LINE
  5
31C
330
1F
100
AcDbEntity
  8
0
100
AcDbLine
 10
1308.795228703332
 20
226.6359037106008
 30
0.0
 11
1308.795228703332
 21
225.4359037105964
 31
0.0
  0
LINE
  5
31D
330
1F
100
AcDbEntity
  8
0
100
AcDbLine
 10
1192.732127857044
 20
238.0837402281063
 30
0.0
 11
1298.795228703332
 21
230.4359037105964
 31
0.0
  0
LINE
  5
31E
330
1F
100
AcDbEntity
  8
0
100
AcDbLine
 10
1192.946929543431
 20
239.2643588183014
 30
0.0
 11
1299.378696609811
 21
231.5494920789638
 31
0.0
  0
LINE
  5
31F
330
1F
100
AcDbEntity
  8
0
100
AcDbLine
 10
1298.795228703332
 20
230.4359037105964
 30
0.0
 11
1303.795228703332
 21
225.4359037105964
 31
0.0
  0
LINE
  5
320
330
1F
100
AcDbEntity
  8
0
100
AcDbLine
 10
1299.378696609818
 20
231.5494920789638
 30
0.0
 11
1304.292284978181
 21
226.6359037106008
 31
0.0
  0
LINE
  5
321
330
1F
100
AcDbEntity
  8
0
100
AcDbLine
 10
915.395390645971
 20
231.6359037105935
 30
0.0
 11
810.2034102630632
 21
240.5053671801102
 31
0.0
  0
LINE
  5
322
330
1F
100
AcDbEntity
  8
0
100
AcDbLine
 10
914.8830850744333
 20
230.4748416859943
 30
0.0
 11
810.1025877190467
 21
239.3096101752776
 31
0.0
  0
LINE
  5
323
330
1F
100
AcDbEntity
  8
0
100
AcDbLine
 10
1145.121122669391
 20
255.0409316629771
 30
0.0
 11
1149.657354338566
 21
420.3744182933073
 31
0.0
  0
ARC
  5
324
102
{ACAD_REACTORS
330
34E
102
}
330
1F
100
AcDbEntity
  8
0
100
AcDbCircle
 10
1130.126765343323
 20
255.4523297405717
 30
0.0
 40
15.0
100
AcDbArc
 50
274.8196036489385
 51
358.4283780218424
  0
ARC
  5
325
330
1F
100
AcDbEntity
  8
0
100
AcDbCircle
 10
1130.126765343323
 20
255.4523297405717
 30
0.0
 40
16.2
100
AcDbArc
 50
274.8196036489385
 51
358.4283780218424
  0
LINE
  5
326
330
1F
100
AcDbEntity
  8
0
100
AcDbLine
 10
1146.319033618353
 20
254.9518818317224
 30
0.0
 11
1150.85701395219
 21
420.3456121780869
 31
0.0
  0
LINE
  5
327
330
1F
100
AcDbEntity
  8
0
100
AcDbLine
 10
1026.087743388888
 20
231.6268545347698
 30
0.0
 11
1131.387047143586
 21
240.5053671801065
 31
0.0
  0
LINE
  5
328
330
1F
100
AcDbEntity
  8
0
100
AcDbLine
 10
1026.606150841674
 20
230.4663070019883
 30
0.0
 11
1131.487869687603
 21
239.3096101752776
 31
0.0
  0
LINE
  5
329
102
{ACAD_REACTORS
330
35F
102
}
330
1F
100
AcDbEntity
  8
0
100
AcDbLine
 10
925.3249748840817
 20
226.6359037105935
 30
0.0
 11
925.3249748840817
 21
225.4359037105964
 31
0.0
  0
LINE
  5
32A
330
1F
100
AcDbEntity
  8
0
100
AcDbLine
 10
1016.27179988694
 20
226.6359037105972
 30
0.0
 11
1016.27179988694
 21
225.4359037105964
 31
0.0
  0
LINE
  5
32B
330
1F
100
AcDbEntity
  8
0
100
AcDbLine
 10
1179.437647622813
 20
253.5270599649479
 30
0.0
 11
1174.945660421005
 21
420.3582179838735
 31
0.0
  0
ARC
  5
32C
330
1F
100
AcDbEntity
  8
0
100
AcDbCircle
 10
1195.630071955885
 20
254.0224327717256
 30
0.0
 40
16.2
100
AcDbArc
 50
181.7522960610434
 51
259.6951535310651
  0
LINE
  5
32D
330
1F
100
AcDbEntity
  8
0
100
AcDbLine
 10
1180.637233557011
 20
253.5634696715747
 30
0.0
 11
1176.147530847315
 21
420.2369671149967
 31
0.0
  0
ARC
  5
32E
102
{ACAD_REACTORS
330
34B
102
}
330
1F
100
AcDbEntity
  8
0
100
AcDbCircle
 10
1195.630211116432
 20
254.0224074698012
 30
0.0
 40
15.0
100
AcDbArc
 50
181.7532868762206
 51
259.6951535310651
  0
LINE
  5
32F
330
1F
100
AcDbEntity
  8
0
  6
DIVIDE
 62
     2
 48
0.01
100
AcDbLine
 10
1949.608925398591
 20
412.921934138561
 30
0.0
 11
1949.795228703325
 21
412.9266373823552
 31
0.0
  0
LINE
  5
330
102
{ACAD_REACTORS
330
35A
102
}
330
1F
100
AcDbEntity
  8
0
  6
DIVIDE
 62
     2
 48
0.01
100
AcDbLine
 10
1949.795228703325
 20
412.9266373823552
 30
0.0
 11
1949.795228703325
 21
413.1167401125126
 31
0.0
  0
LINE
  5
331
330
1F
100
AcDbEntity
  8
0
100
AcDbLine
 10
1533.756277538908
 20
400.5383098557427
 30
0.0
 11
1949.317405063549
 21
412.905423728403
 31
0.0
  0
ARC
  5
332
330
1F
100
AcDbEntity
  8
0
100
AcDbCircle
 10
1533.867159340013
 20
398.0407700209903
 30
0.0
 40
2.5
100
AcDbArc
 50
92.54205759720788
 51
177.9908023673599
  0
LINE
  5
333
330
1F
100
AcDbEntity
  8
0
100
AcDbLine
 10
1533.809448657389
 20
399.3394884199729
 30
0.0
 11
1949.370628328084
 21
411.7066046077229
 31
0.0
  0
ARC
  5
334
330
1F
100
AcDbEntity
  8
0
100
AcDbCircle
 10
1533.86710719396
 20
398.040767705897
 30
0.0
 40
1.3
100
AcDbArc
 50
92.54205759720788
 51
177.9902967673043
  0
LINE
  5
335
330
1F
100
AcDbEntity
  8
0
  6
DIVIDE
 62
     2
 48
0.01
100
AcDbLine
 10
1531.418075800996
 20
399.5359850008967
 30
0.0
 11
1531.449646294778
 21
400.4359037105891
 31
0.0
  0
LINE
  5
336
102
{ACAD_REACTORS
330
339
102
}
330
1F
100
AcDbEntity
  8
0
  6
DIVIDE
 62
     2
 48
0.01
100
AcDbLine
 10
1531.449646294778
 20
400.4359037105891
 30
0.0
 11
1532.349232479987
 21
400.475842107247
 31
0.0
  0
DIMENSION
  5
337
102
{ACAD_XDICTIONARY
360
338
102
}
102
{ACAD_REACTORS
330
339
102
}
330
1F
100
AcDbEntity
  8
0
100
AcDbDimension
280
     0
  2
*D30
 10
1958.548584439405
 20
425.4359037105964
 30
0.0
 11
1958.548584439405
 21
330.9359037105892
 31
0.0
 70
   160
 71
     5
 42
25.00000000000739
 73
     0
 74
     0
 75
     0
  3
N915
100
AcDbAlignedDimension
 13
1531.449646294778
 23
400.4359037105891
 33
0.0
 14
1971.795228703325
 24
425.4359037105964
 34
0.0
 50
90.0
100
AcDbRotatedDimension
  0
LINE
  5
33A
330
1F
100
AcDbEntity
  8
0
  6
DIVIDE
 62
     2
 48
0.01
100
AcDbLine
 10
804.9460133269302
 20
239.7443966296519
 30
0.0
 11
795.6672122792578
 21
240.5267565267927
 31
0.0
  0
LINE
  5
33B
102
{ACAD_REACTORS
330
33E
102
}
330
1F
100
AcDbEntity
  8
0
  6
DIVIDE
 62
     2
 48
0.01
100
AcDbLine
 10
795.6672122792578
 20
240.5267565267927
 30
0.0
 11
795.4117596718197
 21
249.8371229280051
 31
0.0
  0
DIMENSION
  5
33C
102
{ACAD_XDICTIONARY
360
33D
102
}
102
{ACAD_REACTORS
330
33E
102
}
330
1F
100
AcDbEntity
  8
0
100
AcDbDimension
280
     0
  2
*D31
 10
778.5164459860525
 20
225.4359037105965
 30
0.0
 11
778.5164459860525
 21
295.7142565268
 31
0.0
 70
   160
 71
     5
 42
15.09085281619625
 73
     0
 74
     0
 75
     0
  3
N915
100
AcDbAlignedDimension
 13
795.6672122792578
 23
240.5267565267927
 33
0.0
 14
920.3249748840816
 24
225.4359037105964
 34
0.0
 50
90.0
100
AcDbRotatedDimension
1001
ACAD
1000
DSTYLE
1002
{
1070
   271
1070
     0
1002
}
  0
LINE
  5
33F
102
{ACAD_REACTORS
330
342
102
}
330
1F
100
AcDbEntity
  8
0
  6
DIVIDE
 62
     2
 48
0.01
100
AcDbLine
 10
790.5937788927031
 20
425.4359037105964
 30
0.0
 11
790.620154565614
 21
424.4746014114021
 31
0.0
  0
DIMENSION
  5
340
102
{ACAD_XDICTIONARY
360
341
102
}
102
{ACAD_REACTORS
330
342
102
}
330
1F
100
AcDbEntity
  8
0
100
AcDbDimension
280
     0
  2
*D32
 10
795.6672122792578
 20
175.1214190431269
 30
0.0
 11
858.9172122792579
 21
175.1214190431269
 31
0.0
 70
   160
 71
     5
 42
5.073433386554825
 73
     0
 74
     0
 75
     0
  3
N915
100
AcDbAlignedDimension
 13
790.5937788927031
 23
425.4359037105964
 33
0.0
 14
795.6672122792578
 24
240.5267565267927
 34
0.0
100
AcDbRotatedDimension
1001
ACAD
1000
DSTYLE
1002
{
1070
   271
1070
     0
1002
}
  0
LINE
  5
343
330
1F
100
AcDbEntity
  8
0
  6
DIVIDE
 62
     2
 48
0.01
100
AcDbLine
 10
1519.487567460483
 20
238.9254198480771
 30
0.0
 11
1527.737337587669
 21
240.4253780532049
 31
0.0
  0
LINE
  5
344
102
{ACAD_REACTORS
330
347
102
}
330
1F
100
AcDbEntity
  8
0
  6
DIVIDE
 62
     2
 48
0.01
100
AcDbLine
 10
1527.737337587669
 20
240.4253780532049
 30
0.0
 11
1528.032365105216
 21
248.833036652984
 31
0.0
  0
DIMENSION
  5
345
102
{ACAD_XDICTIONARY
360
346
102
}
102
{ACAD_REACTORS
330
347
102
}
330
1F
100
AcDbEntity
  8
0
100
AcDbDimension
280
     0
  2
*D33
 10
1554.775600098734
 20
225.4359037105964
 30
0.0
 11
1554.775600098734
 21
295.6128780532122
 31
0.0
 70
   160
 71
     5
 42
14.98947434260847
 73
     0
 74
     0
 75
     0
  3
N915
100
AcDbAlignedDimension
 13
1527.737337587669
 23
240.4253780532049
 33
0.0
 14
1403.795228703325
 24
225.4359037105964
 34
0.0
 50
90.0
100
AcDbRotatedDimension
1001
ACAD
1000
DSTYLE
1002
{
1070
   271
1070
     0
1002
}
  0
DIMENSION
  5
348
330
1F
100
AcDbEntity
  8
0
100
AcDbDimension
280
     0
  2
*D22
 10
1527.737337587669
 20
164.231826171957
 30
0.0
 11
1413.176645476865
 21
164.231826171957
 31
0.0
 70
   160
  1
5
 71
     5
 42
3.712308707108604
 73
     0
 74
     0
 75
     0
  3
N915
100
AcDbAlignedDimension
 13
1531.449646294778
 23
400.4359037105891
 33
0.0
 14
1527.737337587669
 24
240.4253780532049
 34
0.0
100
AcDbRotatedDimension
1001
ACAD
1000
DSTYLE
1002
{
1070
   271
1070
     0
1002
}
  0
DIMENSION
  5
349
102
{ACAD_XDICTIONARY
360
34A
102
}
102
{ACAD_REACTORS
330
34B
102
}
330
1F
100
AcDbEntity
  8
0
100
AcDbDimension
280
     0
  2
*D34
 10
1195.630211116432
 20
254.0224074698012
 30
0.0
 11
1249.496137986364
 21
279.2951580609989
 31
0.0
 70
   164
 71
     5
 42
14.99999999997294
 73
     0
 74
     0
 75
     0
  3
N915
100
AcDbRadialDimension
 15
1182.050565687065
 25
247.6511258081678
 35
0.0
 40
0.0
1001
ACAD
1000
DSTYLE
1002
{
1070
   279
1070
     1
1002
}
  0
DIMENSION
  5
34C
102
{ACAD_XDICTIONARY
360
34D
102
}
102
{ACAD_REACTORS
330
34E
102
}
330
1F
100
AcDbEntity
  8
0
100
AcDbDimension
280
     0
  2
*D35
 10
1130.126765343323
 20
255.4523297405717
 30
0.0
 11
1074.26036759625
 21
275.9265965837581
 31
0.0
 70
   164
 71
     5
 42
14.99999999999693
 73
     0
 74
     0
 75
     0
  3
N915
100
AcDbRadialDimension
 15
1144.21073116191
 25
250.2907498641395
 35
0.0
 40
0.0
  0
ARC
  5
34F
330
1F
100
AcDbEntity
  8
0
100
AcDbCircle
 10
1154.855509175663
 20
420.2359037105956
 30
0.0
 40
4.0
100
AcDbArc
 50
90.0
 51
178.4283448714481
  0
ARC
  5
350
330
1F
100
AcDbEntity
  8
0
100
AcDbCircle
 10
1154.855509175663
 20
420.2359037105956
 30
0.0
 40
5.2
100
AcDbArc
 50
90.0
 51
178.4736077468746
  0
ARC
  5
351
330
1F
100
AcDbEntity
  8
0
100
AcDbCircle
 10
1170.947530956043
 20
420.2359037105956
 30
0.0
 40
4.0
100
AcDbArc
 50
1.752296061043411
 51
90.0
  0
ARC
  5
352
330
1F
100
AcDbEntity
  8
0
100
AcDbCircle
 10
1170.947530956043
 20
420.2359037105956
 30
0.0
 40
5.2
100
AcDbArc
 50
0.0117170355650513
 51
90.0
  0
LINE
  5
353
330
1F
100
AcDbEntity
  8
0
100
AcDbLine
 10
1951.495228703329
 20
424.235903710592
 30
0.0
 11
1977.495228703329
 21
424.235903710592
 31
0.0
  0
LINE
  5
354
102
{ACAD_REACTORS
330
357
102
}
330
1F
100
AcDbEntity
  8
0
100
AcDbLine
 10
1977.495228703329
 20
424.235903710592
 30
0.0
 11
1977.495228703329
 21
425.4359037105964
 31
0.0
  0
DIMENSION
  5
355
102
{ACAD_XDICTIONARY
360
356
102
}
102
{ACAD_REACTORS
330
357
102
}
330
1F
100
AcDbEntity
  8
0
100
AcDbDimension
280
     0
  2
*D36
 10
2041.821323454037
 20
225.4359037105963
 30
0.0
 11
2041.821323454037
 21
295.6873634673898
 31
0.0
 70
   160
 71
     5
 42
200.0000000000001
 73
     0
 74
     0
 75
     0
  3
N3.5
100
AcDbAlignedDimension
 13
1977.495228703329
 23
425.4359037105964
 33
0.0
 14
1403.795228703325
 24
225.4359037105964
 34
0.0
 50
90.0
100
AcDbRotatedDimension
1001
ACAD
1000
DSTYLE
1002
{
1070
    41
1040
10.0
1070
    49
1040
1.25
1070
    50
1040
1.570796326794896
1070
   140
1040
20.0
1002
}
  0
DIMENSION
  5
358
102
{ACAD_XDICTIONARY
360
359
102
}
102
{ACAD_REACTORS
330
35A
102
}
330
1F
100
AcDbEntity
  8
0
100
AcDbDimension
280
     0
  2
*D37
 10
2025.103528110201
 20
425.4359037105964
 30
0.0
 11
2025.103528110201
 21
352.3389623347352
 31
0.0
 70
   160
 71
     5
 42
12.31916359808383
 73
     0
 74
     0
 75
     0
  3
N3.5
100
AcDbAlignedDimension
 13
1949.795228703325
 23
413.1167401125126
 33
0.0
 14
1977.495228703329
 24
425.4359037105964
 34
0.0
 50
90.0
100
AcDbRotatedDimension
1001
ACAD
1000
DSTYLE
1002
{
1070
    41
1040
10.0
1070
    49
1040
1.25
1070
    50
1040
1.570796326794896
1070
   140
1040
20.0
1002
}
  0
LINE
  5
35B
330
1F
100
AcDbEntity
  8
0
100
AcDbLine
 10
789.3618833623322
 20
424.2359037105956
 30
0.0
 11
763.3618833623322
 21
424.2359037105956
 31
0.0
  0
LINE
  5
35C
102
{ACAD_REACTORS
330
35F
102
}
330
1F
100
AcDbEntity
  8
0
100
AcDbLine
 10
763.3618833623322
 20
424.2359037105956
 30
0.0
 11
763.3618833623322
 21
425.4359037105946
 31
0.0
  0
DIMENSION
  5
35D
102
{ACAD_XDICTIONARY
360
35E
102
}
102
{ACAD_REACTORS
330
35F
102
}
330
1F
100
AcDbEntity
  8
0
100
AcDbDimension
280
     0
  2
*D38
 10
722.7624237111951
 20
425.4359037105946
 30
0.0
 11
722.762423711195
 21
319.253049493454
 31
0.0
 70
   160
 71
     5
 42
199.9999999999981
 73
     0
 74
     0
 75
     0
  3
N3.5
100
AcDbAlignedDimension
 13
925.3249748840817
 23
225.4359037105964
 33
0.0
 14
763.3618833623322
 24
425.4359037105946
 34
0.0
 50
90.0
100
AcDbRotatedDimension
1001
ACAD
1000
DSTYLE
1002
{
1070
    41
1040
10.0
1070
    49
1040
1.25
1070
    50
1040
1.570796326794896
1070
   140
1040
20.0
1002
}
  0
ENDSEC
  0
SECTION
  2
OBJECTS
  0
DICTIONARY
  5
C
330
0
100
AcDbDictionary
281
     1
  3
ACAD_CIP_PREVIOUS_PRODUCT_INFO
350
4B5
  3
ACAD_COLOR
350
6B
  3
ACAD_DETAILVIEWSTYLE
350
4AC
  3
ACAD_GROUP
350
D
  3
ACAD_LAYOUT
350
1A
  3
ACAD_MATERIAL
350
6A
  3
ACAD_MLEADERSTYLE
350
4A8
  3
ACAD_MLINESTYLE
350
17
  3
ACAD_PLOTSETTINGS
350
19
  3
ACAD_PLOTSTYLENAME
350
E
  3
ACAD_SCALELIST
350
496
  3
ACAD_SECTIONVIEWSTYLE
350
4AA
  3
ACAD_TABLESTYLE
350
7E
  3
ACAD_VISUALSTYLE
350
F0
  3
ACDB_RECOMPOSE_DATA
350
4D4
  3
AcDbVariableDictionary
350
5E
  0
DICTIONARY
  5
210
330
2
100
AcDbDictionary
280
     1
281
     1
  3
ACAD_LAYERSTATES
360
211
  0
DICTIONARY
  5
4B6
330
10
100
AcDbDictionary
280
     1
281
     1
  3
ADSK_XREC_LAYER_RECONCILED
360
4B7
  0
DICTIONARY
  5
2E1
330
2E0
100
AcDbDictionary
280
     1
281
     1
  3
ACAD_DIMASSOC
360
2E2
  0
DICTIONARY
  5
2E4
330
2E3
100
AcDbDictionary
280
     1
281
     1
  3
ACAD_DIMASSOC
360
2E5
  0
DICTIONARY
  5
2E7
330
2E6
100
AcDbDictionary
280
     1
281
     1
  3
ACAD_DIMASSOC
360
2E8
  0
DICTIONARY
  5
2EA
330
2E9
100
AcDbDictionary
280
     1
281
     1
  3
ACAD_DIMASSOC
360
2EB
  0
DICTIONARY
  5
2EF
330
2EE
100
AcDbDictionary
280
     1
281
     1
  3
ACAD_DIMASSOC
360
2F0
  0
DICTIONARY
  5
2F6
330
2F5
100
AcDbDictionary
280
     1
281
     1
  3
ACAD_DIMASSOC
360
2F7
  0
DICTIONARY
  5
2F9
330
2F8
100
AcDbDictionary
280
     1
281
     1
  3
ACAD_DIMASSOC
360
2FA
  0
DICTIONARY
  5
338
330
337
100
AcDbDictionary
280
     1
281
     1
  3
ACAD_DIMASSOC
360
339
  0
DICTIONARY
  5
33D
330
33C
100
AcDbDictionary
280
     1
281
     1
  3
ACAD_DIMASSOC
360
33E
  0
DICTIONARY
  5
341
330
340
100
AcDbDictionary
280
     1
281
     1
  3
ACAD_DIMASSOC
360
342
  0
DICTIONARY
  5
346
330
345
100
AcDbDictionary
280
     1
281
     1
  3
ACAD_DIMASSOC
360
347
  0
DICTIONARY
  5
34A
330
349
100
AcDbDictionary
280
     1
281
     1
  3
ACAD_DIMASSOC
360
34B
  0
DICTIONARY
  5
34D
330
34C
100
AcDbDictionary
280
     1
281
     1
  3
ACAD_DIMASSOC
360
34E
  0
DICTIONARY
  5
356
330
355
100
AcDbDictionary
280
     1
281
     1
  3
ACAD_DIMASSOC
360
357
  0
DICTIONARY
  5
359
330
358
100
AcDbDictionary
280
     1
281
     1
  3
ACAD_DIMASSOC
360
35A
  0
DICTIONARY
  5
35E
330
35D
100
AcDbDictionary
280
     1
281
     1
  3
ACAD_DIMASSOC
360
35F
  0
XRECORD
  5
4B5
102
{ACAD_REACTORS
330
C
102
}
330
C
100
AcDbXrecord
280
     1
300
ACD
300
2017
300
ACD_F_S
  0
DICTIONARY
  5
6B
102
{ACAD_REACTORS
330
C
102
}
330
C
100
AcDbDictionary
281
     1
  0
DICTIONARY
  5
4AC
102
{ACAD_REACTORS
330
C
102
}
330
C
100
AcDbDictionary
281
     1
  3
Metric50
350
4AD
  0
DICTIONARY
  5
D
102
{ACAD_REACTORS
330
C
102
}
330
C
100
AcDbDictionary
281
     1
  0
DICTIONARY
  5
1A
102
{ACAD_REACTORS
330
C
102
}
330
C
100
AcDbDictionary
281
     1
  3
Model
350
22
  3
布局1
350
D3
  3
布局2
350
D7
1001
AcadStringInfo
1000
MIFCodePage
1070
     5
  0
DICTIONARY
  5
6A
102
{ACAD_REACTORS
330
C
102
}
330
C
100
AcDbDictionary
281
     1
  3
ByBlock
350
EE
  3
ByLayer
350
ED
  3
Global
350
EF
  0
DICTIONARY
  5
4A8
102
{ACAD_REACTORS
330
C
102
}
330
C
100
AcDbDictionary
281
     1
  3
Standard
350
4A9
  0
DICTIONARY
  5
17
102
{ACAD_REACTORS
330
C
102
}
330
C
100
AcDbDictionary
281
     1
  3
Standard
350
18
  0
DICTIONARY
  5
19
102
{ACAD_REACTORS
330
C
102
}
330
C
100
AcDbDictionary
281
     1
  0
ACDBDICTIONARYWDFLT
  5
E
102
{ACAD_REACTORS
330
C
102
}
330
C
100
AcDbDictionary
281
     1
  3
Normal
350
F
100
AcDbDictionaryWithDefault
340
F
  0
DICTIONARY
  5
496
102
{ACAD_REACTORS
330
C
102
}
330
C
100
AcDbDictionary
281
     1
  3
A0
350
497
  3
A1
350
498
  3
A2
350
499
  3
A3
350
49A
  3
A4
350
49B
  3
A5
350
49C
  3
A6
350
49D
  3
A7
350
49E
  3
A8
350
49F
  3
A9
350
4A0
  3
B0
350
4A1
  3
B1
350
4A2
  3
B2
350
4A3
  3
B3
350
4A4
  3
B4
350
4A5
  3
B5
350
4A6
  3
B6
350
4A7
  0
DICTIONARY
  5
4AA
102
{ACAD_REACTORS
330
C
102
}
330
C
100
AcDbDictionary
281
     1
  3
Metric50
350
4AB
  0
DICTIONARY
  5
7E
102
{ACAD_REACTORS
330
C
102
}
330
C
100
AcDbDictionary
281
     1
  3
Standard
350
7F
  0
DICTIONARY
  5
F0
102
{ACAD_REACTORS
330
C
102
}
330
C
100
AcDbDictionary
281
     1
  3
2dWireframe
350
F6
  3
3D Hidden
350
F8
  3
3dWireframe
350
F7
  3
Basic
350
F5
  3
Brighten
350
FC
  3
ColorChange
350
100
  3
Conceptual
350
F9
  3
Dim
350
FB
  3
EdgeColorOff
350
495
  3
Facepattern
350
FF
  3
Flat
350
F1
  3
FlatWithEdges
350
F2
  3
Gouraud
350
F3
  3
GouraudWithEdges
350
F4
  3
Hidden
350
48D
  3
JitterOff
350
493
  3
Linepattern
350
FE
  3
OverhangOff
350
494
  3
Realistic
350
FA
  3
Shaded
350
492
  3
Shaded with edges
350
491
  3
Shades of Gray
350
48E
  3
Sketchy
350
48F
  3
Thicken
350
FD
  3
Wireframe
350
48C
  3
X-Ray
350
490
  0
XRECORD
  5
4D4
102
{ACAD_REACTORS
330
C
102
}
330
C
100
AcDbXrecord
280
     1
 90
        1
330
7F
330
4AB
330
4AD
  0
DICTIONARY
  5
5E
102
{ACAD_REACTORS
330
C
102
}
330
C
100
AcDbDictionary
281
     1
  3
CANNOSCALE
350
4CA
  3
CMLEADERSTYLE
350
4C6
  3
CTABLESTYLE
350
84
  3
CVIEWDETAILSTYLE
350
4C7
  3
CVIEWSECTIONSTYLE
350
4C8
  3
DIMASSOC
350
5F
  3
HIDETEXT
350
63
  3
LAYEREVAL
350
4CC
  3
LAYERNOTIFY
350
4CD
  3
LIGHTINGUNITS
350
4CB
  3
MSLTSCALE
350
4C9
  0
DICTIONARY
  5
211
102
{ACAD_REACTORS
330
210
102
}
330
210
100
AcDbDictionary
281
     1
  0
XRECORD
  5
4B7
102
{ACAD_REACTORS
330
4B6
102
}
330
4B6
100
AcDbXrecord
280
     1
290
     1
  0
DIMASSOC
  5
2E2
102
{ACAD_REACTORS
330
2E1
102
}
330
2E1
100
AcDbDimAssoc
330
2E0
 90
        1
 70
     0
 71
     0
  1
AcDbOsnapPointRef
 72
     1
331
2CF
 73
     2
 91
        0
 40
1.0
 10
0.0
 20
0.0
 30
2.000000000000000E+50
 75
     0
  0
DIMASSOC
  5
2E5
102
{ACAD_REACTORS
330
2E4
102
}
330
2E4
100
AcDbDimAssoc
330
2E3
 90
        3
 70
     0
 71
     0
  1
AcDbOsnapPointRef
 72
     1
331
2CD
 73
     2
 91
        0
 40
1.0
 10
0.0
 20
0.0
 30
2.000000000000000E+50
 75
     0
  1
AcDbOsnapPointRef
 72
     1
331
2CB
 73
     2
 91
        0
 40
1.0
 10
0.0
 20
0.0
 30
2.000000000000000E+50
 75
     0
  0
DIMASSOC
  5
2E8
102
{ACAD_REACTORS
330
2E7
102
}
330
2E7
100
AcDbDimAssoc
330
2E6
 90
        2
 70
     0
 71
     0
  1
AcDbOsnapPointRef
 72
     3
331
2D2
 73
     2
 91
        0
 40
0.0
 10
0.0
 20
0.0
 30
0.0
 75
     0
  0
DIMASSOC
  5
2EB
102
{ACAD_REACTORS
330
2EA
102
}
330
2EA
100
AcDbDimAssoc
330
2E9
 90
        2
 70
     0
 71
     0
  1
AcDbOsnapPointRef
 72
     3
331
2DC
 73
     2
 91
        0
 40
0.0
 10
0.0
 20
0.0
 30
0.0
 75
     0
  0
DIMASSOC
  5
2F0
102
{ACAD_REACTORS
330
2EF
102
}
330
2EF
100
AcDbDimAssoc
330
2EE
 90
        2
 70
     0
 71
     0
  1
AcDbOsnapPointRef
 72
     3
331
2CC
 73
     2
 91
        0
 40
0.0
 10
0.0
 20
0.0
 30
0.0
 75
     0
  0
DIMASSOC
  5
2F7
102
{ACAD_REACTORS
330
2F6
102
}
330
2F6
100
AcDbDimAssoc
330
2F5
 90
        3
 70
     0
 71
     0
  1
AcDbOsnapPointRef
 72
    13
331
2C6
 73
     2
 91
        0
 40
0.0
 10
0.0
 20
0.0
 30
2.000000000000000E+50
 75
     0
  1
AcDbOsnapPointRef
 72
    10
331
2C5
 73
     2
 91
        0
 40
0.0838360117332538
 10
0.0
 20
0.0
 30
0.0
 75
     0
  0
DIMASSOC
  5
2FA
102
{ACAD_REACTORS
330
2F9
102
}
330
2F9
100
AcDbDimAssoc
330
2F8
 90
        3
 70
     0
 71
     0
  1
AcDbOsnapPointRef
 72
    10
331
2C6
 73
     2
 91
        0
 40
0.0222519458647492
 10
0.0
 20
0.0
 30
0.0
 75
     0
  1
AcDbOsnapPointRef
 72
     8
331
2BD
 73
     2
 91
        0
 40
0.9777480541352508
 10
0.0
 20
0.0
 30
0.0
 75
     1
  1
AcDbOsnapPointRef
 72
    10
331
2C6
 73
     2
 91
        0
 40
0.0222519458647492
 10
0.0
 20
0.0
 30
0.0
 75
     0
  0
DIMASSOC
  5
339
102
{ACAD_REACTORS
330
338
102
}
330
338
100
AcDbDimAssoc
330
337
 90
        1
 70
     0
 71
     0
  1
AcDbOsnapPointRef
 72
    13
331
336
 73
     2
 91
        0
 40
0.0
 10
0.0
 20
0.0
 30
2.000000000000000E+50
 75
     0
  0
DIMASSOC
  5
33E
102
{ACAD_REACTORS
330
33D
102
}
330
33D
100
AcDbDimAssoc
330
33C
 90
        1
 70
     0
 71
     0
  1
AcDbOsnapPointRef
 72
    13
331
33B
 73
     2
 91
        0
 40
0.0
 10
0.0
 20
0.0
 30
2.000000000000000E+50
 75
     0
  0
DIMASSOC
  5
342
102
{ACAD_REACTORS
330
341
102
}
330
341
100
AcDbDimAssoc
330
340
 90
        1
 70
     0
 71
     0
  1
AcDbOsnapPointRef
 72
    13
331
33F
 73
     2
 91
        0
 40
0.0
 10
0.0
 20
0.0
 30
2.000000000000000E+50
 75
     0
  0
DIMASSOC
  5
347
102
{ACAD_REACTORS
330
346
102
}
330
346
100
AcDbDimAssoc
330
345
 90
        1
 70
     0
 71
     0
  1
AcDbOsnapPointRef
 72
    13
331
344
 73
     2
 91
        0
 40
0.0
 10
0.0
 20
0.0
 30
2.000000000000000E+50
 75
     0
  0
DIMASSOC
  5
34B
102
{ACAD_REACTORS
330
34A
102
}
330
34A
100
AcDbDimAssoc
330
349
 90
        2
 70
     0
 71
     0
  1
AcDbOsnapPointRef
 72
     3
331
32E
 73
     2
 91
        0
 40
0.0
 10
0.0
 20
0.0
 30
0.0
 75
     0
  0
DIMASSOC
  5
34E
102
{ACAD_REACTORS
330
34D
102
}
330
34D
100
AcDbDimAssoc
330
34C
 90
        2
 70
     0
 71
     0
  1
AcDbOsnapPointRef
 72
     3
331
324
 73
     2
 91
        0
 40
0.0
 10
0.0
 20
0.0
 30
0.0
 75
     0
  0
DIMASSOC
  5
357
102
{ACAD_REACTORS
330
356
102
}
330
356
100
AcDbDimAssoc
330
355
 90
        1
 70
     0
 71
     0
  1
AcDbOsnapPointRef
 72
     1
331
354
 73
     2
 91
        0
 40
1.0
 10
0.0
 20
0.0
 30
2.000000000000000E+50
 75
     0
  0
DIMASSOC
  5
35A
102
{ACAD_REACTORS
330
359
102
}
330
359
100
AcDbDimAssoc
330
358
 90
        1
 70
     0
 71
     0
  1
AcDbOsnapPointRef
 72
     1
331
330
 73
     2
 91
        0
 40
1.0
 10
0.0
 20
0.0
 30
2.000000000000000E+50
 75
     0
  0
DIMASSOC
  5
35F
102
{ACAD_REACTORS
330
35E
102
}
330
35E
100
AcDbDimAssoc
330
35D
 90
        3
 70
     0
 71
     0
  1
AcDbOsnapPointRef
 72
     1
331
329
 73
     2
 91
        0
 40
1.0
 10
0.0
 20
0.0
 30
2.000000000000000E+50
 75
     0
  1
AcDbOsnapPointRef
 72
     1
331
35C
 73
     2
 91
        0
 40
1.0
 10
0.0
 20
0.0
 30
2.000000000000000E+50
 75
     0
  0
ACDBDETAILVIEWSTYLE
  5
4AD
102
{ACAD_XDICTIONARY
360
4D2
102
}
102
{ACAD_REACTORS
330
4AC
102
}
330
4AC
100
AcDbModelDocViewStyle
 70
     0
  3
Metric50
290
     0
100
AcDbDetailViewStyle
 70
     0
 71
     0
 90
        3
 71
     1
340
11
 62
   256
 40
5.0
340
0
 62
   256
 40
5.0
300

 40
0.0
280
     1
 71
     2
340
16
 90
       25
 62
   256
 71
     3
340
11
 62
   256
 40
5.0
 90
        0
 40
15.0
 90
        1
300
%<\AcVar ViewDetailId>% (%<\AcVar ViewScale \f "%sn">%)
 71
     4
340
16
 90
       25
 62
   256
340
16
 90
       25
 62
   256
280
     0
  0
LAYOUT
  5
22
102
{ACAD_REACTORS
330
1A
102
}
330
1A
100
AcDbPlotSettings
  1

  2
none_device
  4
ISO_A4_(210.00_x_297.00_MM)
  6

 40
7.5
 41
20.0
 42
7.5
 43
20.0
 44
210.0
 45
297.0
 46
11.54999923706054
 47
-13.65000009536743
 48
0.0
 49
0.0
140
0.0
141
0.0
142
1.0
143
8.704084754739808
 70
 11952
 72
     1
 73
     0
 74
     0
  7

 75
     0
147
0.1148885871608098
 76
     0
 77
     2
 78
   300
148
0.0
149
0.0
100
AcDbLayout
  1
Model
 70
     1
 71
     0
 10
0.0
 20
0.0
 11
12.0
 21
9.0
 12
0.0
 22
0.0
 32
0.0
 14
0.0
 24
0.0
 34
0.0
 15
0.0
 25
0.0
 35
0.0
146
0.0
 13
0.0
 23
0.0
 33
0.0
 16
1.0
 26
0.0
 36
0.0
 17
0.0
 27
1.0
 37
0.0
 76
     0
330
1F
331
EB
1001
ACAD_PSEXT
1000
None
1000
None
1000
Not applicable
1000
The layout will not be plotted unless a new plotter configuration name is selected.
1070
     0
  0
LAYOUT
  5
D3
102
{ACAD_REACTORS
330
1A
102
}
330
1A
100
AcDbPlotSettings
  1

  2
C:\Documents and Settings\basas\Application Data\Autodesk\AutoCAD 2005\R16.1\enu\plotters\Default Windows System Printer.pc3
  4

  6

 40
0.0
 41
0.0
 42
0.0
 43
0.0
 44
0.0
 45
0.0
 46
0.0
 47
0.0
 48
0.0
 49
0.0
140
0.0
141
0.0
142
1.0
143
1.0
 70
   688
 72
     0
 73
     0
 74
     5
  7

 75
    16
147
1.0
 76
     0
 77
     2
 78
   300
148
0.0
149
0.0
100
AcDbLayout
  1
布局1
 70
     1
 71
     1
 10
0.0
 20
0.0
 11
12.0
 21
9.0
 12
0.0
 22
0.0
 32
0.0
 14
0.0
 24
0.0
 34
0.0
 15
0.0
 25
0.0
 35
0.0
146
0.0
 13
0.0
 23
0.0
 33
0.0
 16
1.0
 26
0.0
 36
0.0
 17
0.0
 27
1.0
 37
0.0
 76
     0
330
D2
1001
AcadStringInfo
1000
MIFCodePage
1070
     5
  0
LAYOUT
  5
D7
102
{ACAD_REACTORS
330
1A
102
}
330
1A
100
AcDbPlotSettings
  1

  2
C:\Documents and Settings\basas\Application Data\Autodesk\AutoCAD 2005\R16.1\enu\plotters\Default Windows System Printer.pc3
  4

  6

 40
0.0
 41
0.0
 42
0.0
 43
0.0
 44
0.0
 45
0.0
 46
0.0
 47
0.0
 48
0.0
 49
0.0
140
0.0
141
0.0
142
1.0
143
1.0
 70
   688
 72
     0
 73
     0
 74
     5
  7

 75
    16
147
1.0
 76
     0
 77
     2
 78
   300
148
0.0
149
0.0
100
AcDbLayout
  1
布局2
 70
     1
 71
     2
 10
0.0
 20
0.0
 11
12.0
 21
9.0
 12
0.0
 22
0.0
 32
0.0
 14
0.0
 24
0.0
 34
0.0
 15
0.0
 25
0.0
 35
0.0
146
0.0
 13
0.0
 23
0.0
 33
0.0
 16
1.0
 26
0.0
 36
0.0
 17
0.0
 27
1.0
 37
0.0
 76
     0
330
D6
1001
AcadStringInfo
1000
MIFCodePage
1070
     5
  0
MATERIAL
  5
EE
102
{ACAD_REACTORS
330
6A
102
}
330
6A
100
AcDbMaterial
  1
ByBlock
 73
     1
 78
     1
172
     1
176
     1
270
     1
274
     1
 94
       63
  0
MATERIAL
  5
ED
102
{ACAD_REACTORS
330
6A
102
}
330
6A
100
AcDbMaterial
  1
ByLayer
 73
     1
 78
     1
172
     1
176
     1
270
     1
274
     1
 94
       63
  0
MATERIAL
  5
EF
102
{ACAD_REACTORS
330
6A
102
}
330
6A
100
AcDbMaterial
  1
Global
 73
     1
 78
     1
172
     1
176
     1
270
     1
274
     1
 94
       63
  0
MLEADERSTYLE
  5
4A9
102
{ACAD_REACTORS
330
4A8
102
}
330
4A8
100
AcDbMLeaderStyle
179
     2
170
     2
171
     1
172
     0
 90
        2
 40
0.0
 41
0.0
173
     1
 91
-1056964608
340
14
 92
       -2
290
     1
 42
2.0
291
     1
 43
0.36
  3
Standard
 44
4.0
300

342
11
174
     1
178
     6
175
     1
176
     0
 93
-1056964608
 45
4.0
292
     0
297
     0
 46
4.0
 94
-1056964608
 47
1.0
 49
1.0
140
1.0
293
     1
141
0.0
294
     1
177
     0
142
1.0
295
     1
296
     0
143
0.125
271
     0
272
     9
273
     9
298
     1
  0
MLINESTYLE
  5
18
102
{ACAD_REACTORS
330
17
102
}
330
17
100
AcDbMlineStyle
  2
STANDARD
 70
     0
  3

 62
   256
 51
90.0
 52
90.0
 71
     2
 49
0.5
 62
   256
  6
BYLAYER
 49
-0.5
 62
   256
  6
BYLAYER
  0
ACDBPLACEHOLDER
  5
F
102
{ACAD_REACTORS
330
E
102
}
330
E
  0
SCALE
  5
497
102
{ACAD_REACTORS
330
496
102
}
330
496
100
AcDbScale
 70
     0
300
1:1
140
1.0
141
1.0
290
     1
  0
SCALE
  5
498
102
{ACAD_REACTORS
330
496
102
}
330
496
100
AcDbScale
 70
     0
300
1:2
140
1.0
141
2.0
290
     0
  0
SCALE
  5
499
102
{ACAD_REACTORS
330
496
102
}
330
496
100
AcDbScale
 70
     0
300
1:4
140
1.0
141
4.0
290
     0
  0
SCALE
  5
49A
102
{ACAD_REACTORS
330
496
102
}
330
496
100
AcDbScale
 70
     0
300
1:5
140
1.0
141
5.0
290
     0
  0
SCALE
  5
49B
102
{ACAD_REACTORS
330
496
102
}
330
496
100
AcDbScale
 70
     0
300
1:8
140
1.0
141
8.0
290
     0
  0
SCALE
  5
49C
102
{ACAD_REACTORS
330
496
102
}
330
496
100
AcDbScale
 70
     0
300
1:10
140
1.0
141
10.0
290
     0
  0
SCALE
  5
49D
102
{ACAD_REACTORS
330
496
102
}
330
496
100
AcDbScale
 70
     0
300
1:16
140
1.0
141
16.0
290
     0
  0
SCALE
  5
49E
102
{ACAD_REACTORS
330
496
102
}
330
496
100
AcDbScale
 70
     0
300
1:20
140
1.0
141
20.0
290
     0
  0
SCALE
  5
49F
102
{ACAD_REACTORS
330
496
102
}
330
496
100
AcDbScale
 70
     0
300
1:30
140
1.0
141
30.0
290
     0
  0
SCALE
  5
4A0
102
{ACAD_REACTORS
330
496
102
}
330
496
100
AcDbScale
 70
     0
300
1:40
140
1.0
141
40.0
290
     0
  0
SCALE
  5
4A1
102
{ACAD_REACTORS
330
496
102
}
330
496
100
AcDbScale
 70
     0
300
1:50
140
1.0
141
50.0
290
     0
  0
SCALE
  5
4A2
102
{ACAD_REACTORS
330
496
102
}
330
496
100
AcDbScale
 70
     0
300
1:100
140
1.0
141
100.0
290
     0
  0
SCALE
  5
4A3
102
{ACAD_REACTORS
330
496
102
}
330
496
100
AcDbScale
 70
     0
300
2:1
140
2.0
141
1.0
290
     0
  0
SCALE
  5
4A4
102
{ACAD_REACTORS
330
496
102
}
330
496
100
AcDbScale
 70
     0
300
4:1
140
4.0
141
1.0
290
     0
  0
SCALE
  5
4A5
102
{ACAD_REACTORS
330
496
102
}
330
496
100
AcDbScale
 70
     0
300
8:1
140
8.0
141
1.0
290
     0
  0
SCALE
  5
4A6
102
{ACAD_REACTORS
330
496
102
}
330
496
100
AcDbScale
 70
     0
300
10:1
140
10.0
141
1.0
290
     0
  0
SCALE
  5
4A7
102
{ACAD_REACTORS
330
496
102
}
330
496
100
AcDbScale
 70
     0
300
100:1
140
100.0
141
1.0
290
     0
  0
ACDBSECTIONVIEWSTYLE
  5
4AB
102
{ACAD_XDICTIONARY
360
4D0
102
}
102
{ACAD_REACTORS
330
4AA
102
}
330
4AA
100
AcDbModelDocViewStyle
 70
     0
  3
Metric50
290
     0
100
AcDbSectionViewStyle
 70
     0
 71
     0
 90
      102
 71
     1
340
11
 62
   256
 40
5.0
340
0
340
0
 62
   256
 40
5.0
300
I, O, Q, S, X, Z
 40
10.0
 90
        0
 40
2.5
 90
        0
 71
     2
340
16
 90
       25
 62
   256
340
16
 90
       50
 62
   256
 40
5.0
 40
2.5
 40
5.0
 71
     3
340
11
 62
   256
 40
5.0
 90
        0
 40
15.0
 90
        1
300
%<\AcVar ViewSectionStartId>%-%<\AcVar ViewSectionEndId>% (%<\AcVar ViewScale \f "%sn">%)
 71
     4
 62
   256
 62
   257
300
ANSI31
 40
1.0
 90
        0
290
     0
290
     0
 90
        6
 40
0.0
 40
1.570796326794896
 40
0.2617993877991494
 40
1.308996938995747
 40
-0.2617993877991494
 40
1.832595714594046
  0
TABLESTYLE
  5
7F
102
{ACAD_XDICTIONARY
360
4CE
102
}
102
{ACAD_REACTORS
330
7E
102
}
330
7E
100
AcDbTableStyle
280
     0
  3
Standard
 70
     0
 71
     0
 40
1.5
 41
1.5
280
     0
281
     0
  7
Standard
140
4.5
170
     2
 62
     0
 63
     7
283
     0
 90
      512
 91
        0
  1

274
    -2
284
     1
 64
     0
275
    -2
285
     1
 65
     0
276
    -2
286
     1
 66
     0
277
    -2
287
     1
 67
     0
278
    -2
288
     1
 68
     0
279
    -2
289
     1
 69
     0
  7
Standard
140
6.0
170
     5
 62
     0
 63
     7
283
     0
 90
      512
 91
        0
  1

274
    -2
284
     1
 64
     0
275
    -2
285
     1
 65
     0
276
    -2
286
     1
 66
     0
277
    -2
287
     1
 67
     0
278
    -2
288
     1
 68
     0
279
    -2
289
     1
 69
     0
  7
Standard
140
4.5
170
     5
 62
     0
 63
     7
283
     0
 90
      512
 91
        0
  1

274
    -2
284
     1
 64
     0
275
    -2
285
     1
 65
     0
276
    -2
286
     1
 66
     0
277
    -2
287
     1
 67
     0
278
    -2
288
     1
 68
     0
279
    -2
289
     1
 69
     0
  0
VISUALSTYLE
  5
F6
102
{ACAD_REACTORS
330
F0
102
}
330
F0
100
AcDbVisualStyle
  2
2dWireframe
 70
     4
177
     3
291
     0
 70
    58
 90
        0
176
     1
 90
        2
176
     1
 90
        1
176
     1
 90
        0
176
     1
 40
0.6
176
     1
 40
30.0
176
     1
 62
     7
420
 16777215
176
     1
 90
        1
176
     1
 90
        4
176
     1
 62
     7
176
     1
 62
   257
176
     1
 90
        1
176
     1
 90
        1
176
     1
 40
1.0
176
     1
 90
        0
176
     1
 62
   257
176
     1
 40
1.0
176
     1
 90
        1
176
     1
 90
        6
176
     1
 90
        2
176
     1
 62
     7
176
     1
 90
        5
176
     1
 90
        0
176
     1
 90
        0
176
     1
290
     0
176
     1
 90
        1
176
     1
 40
0.0
176
     1
 90
        0
176
     1
290
     1
176
     1
290
     1
176
     1
290
     0
176
     1
290
     0
176
     1
290
     0
176
     1
290
     0
176
     1
290
     0
176
     1
290
     0
176
     1
290
     0
176
     1
 90
       50
176
     1
 40
0.0
176
     1
 40
1.0
176
     1
 90
        0
176
     1
 62
    18
420
        0
176
     1
 90
       50
176
     1
 90
        3
176
     1
 62
     5
420
      255
176
     1
290
     0
176
     1
 90
       50
176
     1
 90
       50
176
     1
 90
       50
176
     1
290
     0
176
     1
 90
       50
176
     1
 62
   256
176
     0
 40
1.0
176
     0
 90
        2
176
     1
  1
strokes_ogs.tif
176
     1
290
     0
176
     1
 40
1.0
176
     1
 40
1.0
176
     1
  0
VISUALSTYLE
  5
F8
102
{ACAD_REACTORS
330
F0
102
}
330
F0
100
AcDbVisualStyle
  2
3D Hidden
 70
     6
177
     3
291
     0
 70
    58
 90
        1
176
     1
 90
        2
176
     1
 90
        2
176
     1
 90
        0
176
     1
 40
0.6
176
     1
 40
30.0
176
     1
 62
     7
420
 16777215
176
     1
 90
        2
176
     1
 90
        2
176
     1
 62
     7
176
     1
 62
   257
176
     1
 90
        2
176
     1
 90
        1
176
     1
 40
40.0
176
     1
 90
        0
176
     1
 62
   257
176
     1
 40
1.0
176
     1
 90
        1
176
     1
 90
        6
176
     1
 90
        2
176
     1
 62
     7
176
     1
 90
        3
176
     1
 90
        0
176
     1
 90
        0
176
     1
290
     0
176
     1
 90
        1
176
     1
 40
0.0
176
     1
 90
        0
176
     1
290
     0
176
     1
290
     1
176
     1
290
     1
176
     1
290
     0
176
     1
290
     0
176
     1
290
     0
176
     1
290
     0
176
     1
290
     0
176
     1
290
     0
176
     1
 90
       50
176
     1
 40
0.0
176
     1
 40
1.0
176
     1
 90
        0
176
     1
 62
    18
420
        0
176
     1
 90
       50
176
     1
 90
        3
176
     1
 62
     5
420
      255
176
     1
290
     0
176
     1
 90
       50
176
     1
 90
       50
176
     1
 90
       50
176
     1
290
     0
176
     1
 90
       50
176
     1
 62
   256
176
     0
 40
1.0
176
     0
 90
        2
176
     1
  1
strokes_ogs.tif
176
     1
290
     0
176
     1
 40
1.0
176
     1
 40
1.0
176
     1
  0
VISUALSTYLE
  5
F7
102
{ACAD_REACTORS
330
F0
102
}
330
F0
100
AcDbVisualStyle
  2
3dWireframe
 70
     5
177
     3
291
     0
 70
    58
 90
        0
176
     1
 90
        2
176
     1
 90
        1
176
     1
 90
        0
176
     1
 40
0.6
176
     1
 40
30.0
176
     1
 62
     7
420
 16777215
176
     1
 90
        1
176
     1
 90
        4
176
     1
 62
     7
176
     1
 62
   257
176
     1
 90
        1
176
     1
 90
        1
176
     1
 40
1.0
176
     1
 90
        0
176
     1
 62
   257
176
     1
 40
1.0
176
     1
 90
        1
176
     1
 90
        6
176
     1
 90
        2
176
     1
 62
     7
176
     1
 90
        5
176
     1
 90
        0
176
     1
 90
        0
176
     1
290
     0
176
     1
 90
        1
176
     1
 40
0.0
176
     1
 90
        0
176
     1
290
     0
176
     1
290
     1
176
     1
290
     1
176
     1
290
     0
176
     1
290
     0
176
     1
290
     0
176
     1
290
     0
176
     1
290
     0
176
     1
290
     0
176
     1
 90
       50
176
     1
 40
0.0
176
     1
 40
1.0
176
     1
 90
        0
176
     1
 62
    18
420
        0
176
     1
 90
       50
176
     1
 90
        3
176
     1
 62
     5
420
      255
176
     1
290
     0
176
     1
 90
       50
176
     1
 90
       50
176
     1
 90
       50
176
     1
290
     0
176
     1
 90
       50
176
     1
 62
   256
176
     0
 40
1.0
176
     0
 90
        2
176
     1
  1
strokes_ogs.tif
176
     1
290
     0
176
     1
 40
1.0
176
     1
 40
1.0
176
     1
  0
VISUALSTYLE
  5
F5
102
{ACAD_REACTORS
330
F0
102
}
330
F0
100
AcDbVisualStyle
  2
Basic
 70
     7
177
     3
291
     1
 70
    58
 90
        1
176
     1
 90
        0
176
     1
 90
        1
176
     1
 90
        0
176
     1
 40
0.6
176
     1
 40
30.0
176
     1
 62
     7
420
 16777215
176
     1
 90
        0
176
     1
 90
        4
176
     1
 62
     7
176
     1
 62
   257
176
     1
 90
        1
176
     1
 90
        1
176
     1
 40
1.0
176
     1
 90
        8
176
     1
 62
     7
176
     1
 40
1.0
176
     1
 90
        1
176
     1
 90
        6
176
     1
 90
        2
176
     1
 62
     7
176
     1
 90
        5
176
     1
 90
        0
176
     1
 90
        0
176
     1
290
     0
176
     1
 90
        1
176
     1
 40
0.0
176
     1
 90
        0
176
     1
290
     0
176
     1
290
     1
176
     1
290
     1
176
     1
290
     0
176
     1
290
     0
176
     1
290
     0
176
     1
290
     0
176
     1
290
     0
176
     1
290
     0
176
     1
 90
       50
176
     1
 40
0.0
176
     1
 40
1.0
176
     1
 90
        0
176
     1
 62
    18
420
        0
176
     1
 90
       50
176
     1
 90
        3
176
     1
 62
     5
420
      255
176
     1
290
     0
176
     1
 90
       50
176
     1
 90
       50
176
     1
 90
       50
176
     1
290
     0
176
     1
 90
       50
176
     1
 62
   256
176
     0
 40
1.0
176
     0
 90
        2
176
     1
  1
strokes_ogs.tif
176
     1
290
     0
176
     1
 40
1.0
176
     1
 40
1.0
176
     1
  0
VISUALSTYLE
  5
FC
102
{ACAD_REACTORS
330
F0
102
}
330
F0
100
AcDbVisualStyle
  2
Brighten
 70
    12
177
     3
291
     1
 70
    58
 90
        2
176
     1
 90
        2
176
     1
 90
        1
176
     1
 90
        0
176
     1
 40
0.6
176
     1
 40
30.0
176
     1
 62
     7
420
 16777215
176
     1
 90
        1
176
     1
 90
        4
176
     1
 62
     7
176
     1
 62
   257
176
     1
 90
        1
176
     1
 90
        1
176
     1
 40
1.0
176
     1
 90
        8
176
     1
 62
     7
176
     1
 40
1.0
176
     1
 90
        1
176
     1
 90
        6
176
     1
 90
        2
176
     1
 62
     7
176
     1
 90
        5
176
     1
 90
        0
176
     1
 90
        0
176
     1
290
     0
176
     1
 90
        1
176
     1
 40
50.0
176
     1
 90
        0
176
     1
290
     0
176
     1
290
     1
176
     1
290
     1
176
     1
290
     0
176
     1
290
     0
176
     1
290
     0
176
     1
290
     0
176
     1
290
     0
176
     1
290
     0
176
     1
 90
       50
176
     1
 40
0.0
176
     1
 40
1.0
176
     1
 90
        0
176
     1
 62
    18
420
        0
176
     1
 90
       50
176
     1
 90
        3
176
     1
 62
     5
420
      255
176
     1
290
     0
176
     1
 90
       50
176
     1
 90
       50
176
     1
 90
       50
176
     1
290
     0
176
     1
 90
       50
176
     1
 62
   256
176
     0
 40
1.0
176
     0
 90
        2
176
     1
  1
strokes_ogs.tif
176
     1
290
     0
176
     1
 40
1.0
176
     1
 40
1.0
176
     1
  0
VISUALSTYLE
  5
100
102
{ACAD_REACTORS
330
F0
102
}
330
F0
100
AcDbVisualStyle
  2
ColorChange
 70
    16
177
     3
291
     1
 70
    58
 90
        2
176
     1
 90
        2
176
     1
 90
        3
176
     1
 90
        0
176
     1
 40
0.6
176
     1
 40
30.0
176
     1
 62
     8
420
  8421504
176
     1
 90
        1
176
     1
 90
        4
176
     1
 62
     7
176
     1
 62
   257
176
     1
 90
        1
176
     1
 90
        1
176
     1
 40
1.0
176
     1
 90
        8
176
     1
 62
     8
420
  8421504
176
     1
 40
1.0
176
     1
 90
        1
176
     1
 90
        6
176
     1
 90
        2
176
     1
 62
     7
176
     1
 90
        5
176
     1
 90
        0
176
     1
 90
        0
176
     1
290
     0
176
     1
 90
        1
176
     1
 40
0.0
176
     1
 90
        0
176
     1
290
     0
176
     1
290
     1
176
     1
290
     1
176
     1
290
     0
176
     1
290
     0
176
     1
290
     0
176
     1
290
     0
176
     1
290
     0
176
     1
290
     0
176
     1
 90
       50
176
     1
 40
0.0
176
     1
 40
1.0
176
     1
 90
        0
176
     1
 62
    18
420
        0
176
     1
 90
       50
176
     1
 90
        3
176
     1
 62
     5
420
      255
176
     1
290
     0
176
     1
 90
       50
176
     1
 90
       50
176
     1
 90
       50
176
     1
290
     0
176
     1
 90
       50
176
     1
 62
   256
176
     0
 40
1.0
176
     0
 90
        2
176
     1
  1
strokes_ogs.tif
176
     1
290
     0
176
     1
 40
1.0
176
     1
 40
1.0
176
     1
  0
VISUALSTYLE
  5
F9
102
{ACAD_REACTORS
330
F0
102
}
330
F0
100
AcDbVisualStyle
  2
Conceptual
 70
     9
177
     3
291
     0
 70
    58
 90
        3
176
     1
 90
        2
176
     1
 90
        1
176
     1
 90
        0
176
     1
 40
0.6
176
     1
 40
30.0
176
     1
 62
     7
420
 16777215
176
     1
 90
        2
176
     1
 90
        2
176
     1
 62
     7
176
     1
 62
   257
176
     1
 90
        1
176
     1
 90
        1
176
     1
 40
40.0
176
     1
 90
        8
176
     1
 62
     7
176
     1
 40
1.0
176
     1
 90
        1
176
     1
 90
        6
176
     1
 90
        2
176
     1
 62
     7
176
     1
 90
        3
176
     1
 90
        0
176
     1
 90
        0
176
     1
290
     0
176
     1
 90
        1
176
     1
 40
0.0
176
     1
 90
        0
176
     1
290
     0
176
     1
290
     1
176
     1
290
     1
176
     1
290
     0
176
     1
290
     0
176
     1
290
     0
176
     1
290
     0
176
     1
290
     0
176
     1
290
     0
176
     1
 90
       50
176
     1
 40
0.0
176
     1
 40
1.0
176
     1
 90
        0
176
     1
 62
    18
420
        0
176
     1
 90
       50
176
     1
 90
        3
176
     1
 62
     5
420
      255
176
     1
290
     0
176
     1
 90
       50
176
     1
 90
       50
176
     1
 90
       50
176
     1
290
     0
176
     1
 90
       50
176
     1
 62
   256
176
     0
 40
1.0
176
     0
 90
        2
176
     1
  1
strokes_ogs.tif
176
     1
290
     0
176
     1
 40
1.0
176
     1
 40
1.0
176
     1
  0
VISUALSTYLE
  5
FB
102
{ACAD_REACTORS
330
F0
102
}
330
F0
100
AcDbVisualStyle
  2
Dim
 70
    11
177
     3
291
     1
 70
    58
 90
        2
176
     1
 90
        2
176
     1
 90
        1
176
     1
 90
        0
176
     1
 40
0.6
176
     1
 40
30.0
176
     1
 62
     7
420
 16777215
176
     1
 90
        1
176
     1
 90
        4
176
     1
 62
     7
176
     1
 62
   257
176
     1
 90
        1
176
     1
 90
        1
176
     1
 40
1.0
176
     1
 90
        8
176
     1
 62
     7
176
     1
 40
1.0
176
     1
 90
        1
176
     1
 90
        6
176
     1
 90
        2
176
     1
 62
     7
176
     1
 90
        5
176
     1
 90
        0
176
     1
 90
        0
176
     1
290
     0
176
     1
 90
        1
176
     1
 40
-50.0
176
     1
 90
        0
176
     1
290
     0
176
     1
290
     1
176
     1
290
     1
176
     1
290
     0
176
     1
290
     0
176
     1
290
     0
176
     1
290
     0
176
     1
290
     0
176
     1
290
     0
176
     1
 90
       50
176
     1
 40
0.0
176
     1
 40
1.0
176
     1
 90
        0
176
     1
 62
    18
420
        0
176
     1
 90
       50
176
     1
 90
        3
176
     1
 62
     5
420
      255
176
     1
290
     0
176
     1
 90
       50
176
     1
 90
       50
176
     1
 90
       50
176
     1
290
     0
176
     1
 90
       50
176
     1
 62
   256
176
     0
 40
1.0
176
     0
 90
        2
176
     1
  1
strokes_ogs.tif
176
     1
290
     0
176
     1
 40
1.0
176
     1
 40
1.0
176
     1
  0
VISUALSTYLE
  5
495
102
{ACAD_REACTORS
330
F0
102
}
330
F0
100
AcDbVisualStyle
  2
EdgeColorOff
 70
    22
177
     3
291
     1
 70
    58
 90
        2
176
     0
 90
        2
176
     0
 90
        0
176
     0
 90
        0
176
     0
 40
0.6
176
     0
 40
30.0
176
     0
 62
     7
420
 16777215
176
     0
 90
        1
176
     0
 90
        4
176
     0
 62
     7
176
     0
 62
   257
176
     0
 90
        1
176
     0
 90
        1
176
     0
 40
1.0
176
     0
 90
        8
176
     2
 62
     7
176
     0
 40
1.0
176
     0
 90
        1
176
     0
 90
        6
176
     0
 90
        2
176
     0
 62
     7
176
     0
 90
        5
176
     0
 90
        0
176
     0
 90
        0
176
     0
290
     0
176
     0
 90
        1
176
     0
 40
0.0
176
     0
 90
        0
176
     0
290
     0
176
     0
290
     1
176
     0
290
     1
176
     0
290
     0
176
     0
290
     0
176
     0
290
     0
176
     0
290
     0
176
     0
290
     0
176
     0
290
     0
176
     0
 90
       50
176
     0
 40
0.0
176
     0
 40
1.0
176
     0
 90
        0
176
     0
 62
    18
420
        0
176
     0
 90
       50
176
     0
 90
        3
176
     0
 62
     5
420
      255
176
     0
290
     0
176
     0
 90
       50
176
     0
 90
       50
176
     0
 90
       50
176
     0
290
     0
176
     0
 90
       50
176
     0
 62
   256
176
     0
 40
1.0
176
     0
 90
        2
176
     0
  1
strokes_ogs.tif
176
     0
290
     0
176
     0
 40
1.0
176
     0
 40
1.0
176
     0
  0
VISUALSTYLE
  5
FF
102
{ACAD_REACTORS
330
F0
102
}
330
F0
100
AcDbVisualStyle
  2
Facepattern
 70
    15
177
     3
291
     1
 70
    58
 90
        2
176
     1
 90
        2
176
     1
 90
        1
176
     1
 90
        0
176
     1
 40
0.6
176
     1
 40
30.0
176
     1
 62
     7
420
 16777215
176
     1
 90
        1
176
     1
 90
        4
176
     1
 62
     7
176
     1
 62
   257
176
     1
 90
        1
176
     1
 90
        1
176
     1
 40
1.0
176
     1
 90
        8
176
     1
 62
     7
176
     1
 40
1.0
176
     1
 90
        1
176
     1
 90
        6
176
     1
 90
        2
176
     1
 62
     7
176
     1
 90
        5
176
     1
 90
        0
176
     1
 90
        0
176
     1
290
     0
176
     1
 90
        1
176
     1
 40
0.0
176
     1
 90
        0
176
     1
290
     0
176
     1
290
     1
176
     1
290
     1
176
     1
290
     0
176
     1
290
     0
176
     1
290
     0
176
     1
290
     0
176
     1
290
     0
176
     1
290
     0
176
     1
 90
       50
176
     1
 40
0.0
176
     1
 40
1.0
176
     1
 90
        0
176
     1
 62
    18
420
        0
176
     1
 90
       50
176
     1
 90
        3
176
     1
 62
     5
420
      255
176
     1
290
     0
176
     1
 90
       50
176
     1
 90
       50
176
     1
 90
       50
176
     1
290
     0
176
     1
 90
       50
176
     1
 62
   256
176
     0
 40
1.0
176
     0
 90
        2
176
     1
  1
strokes_ogs.tif
176
     1
290
     0
176
     1
 40
1.0
176
     1
 40
1.0
176
     1
  0
VISUALSTYLE
  5
F1
102
{ACAD_REACTORS
330
F0
102
}
330
F0
100
AcDbVisualStyle
  2
Flat
 70
     0
177
     3
291
     1
 70
    58
 90
        2
176
     1
 90
        1
176
     1
 90
        1
176
     1
 90
        2
176
     1
 40
0.6
176
     1
 40
30.0
176
     1
 62
     7
420
 16777215
176
     1
 90
        0
176
     1
 90
        4
176
     1
 62
     7
176
     1
 62
   257
176
     1
 90
        1
176
     1
 90
        1
176
     1
 40
1.0
176
     1
 90
        8
176
     1
 62
     7
176
     1
 40
1.0
176
     1
 90
        1
176
     1
 90
        6
176
     1
 90
        2
176
     1
 62
     7
176
     1
 90
        5
176
     1
 90
        0
176
     1
 90
        0
176
     1
290
     0
176
     1
 90
        1
176
     1
 40
0.0
176
     1
 90
        0
176
     1
290
     0
176
     1
290
     1
176
     1
290
     1
176
     1
290
     0
176
     1
290
     0
176
     1
290
     0
176
     1
290
     0
176
     1
290
     0
176
     1
290
     0
176
     1
 90
       50
176
     1
 40
0.0
176
     1
 40
1.0
176
     1
 90
        0
176
     1
 62
    18
420
        0
176
     1
 90
       50
176
     1
 90
        3
176
     1
 62
     5
420
      255
176
     1
290
     0
176
     1
 90
       50
176
     1
 90
       50
176
     1
 90
       50
176
     1
290
     0
176
     1
 90
       50
176
     1
 62
   256
176
     0
 40
1.0
176
     0
 90
        2
176
     1
  1
strokes_ogs.tif
176
     1
290
     0
176
     1
 40
1.0
176
     1
 40
1.0
176
     1
  0
VISUALSTYLE
  5
F2
102
{ACAD_REACTORS
330
F0
102
}
330
F0
100
AcDbVisualStyle
  2
FlatWithEdges
 70
     1
177
     3
291
     1
 70
    58
 90
        2
176
     1
 90
        1
176
     1
 90
        1
176
     1
 90
        2
176
     1
 40
0.6
176
     1
 40
30.0
176
     1
 62
     7
420
 16777215
176
     1
 90
        1
176
     1
 90
        4
176
     1
 62
     7
176
     1
 62
   257
176
     1
 90
        1
176
     1
 90
        1
176
     1
 40
1.0
176
     1
 90
        0
176
     1
 62
   257
176
     1
 40
1.0
176
     1
 90
        1
176
     1
 90
        6
176
     1
 90
        2
176
     1
 62
     7
176
     1
 90
        5
176
     1
 90
        0
176
     1
 90
        0
176
     1
290
     0
176
     1
 90
        1
176
     1
 40
0.0
176
     1
 90
        0
176
     1
290
     0
176
     1
290
     1
176
     1
290
     1
176
     1
290
     0
176
     1
290
     0
176
     1
290
     0
176
     1
290
     0
176
     1
290
     0
176
     1
290
     0
176
     1
 90
       50
176
     1
 40
0.0
176
     1
 40
1.0
176
     1
 90
        0
176
     1
 62
    18
420
        0
176
     1
 90
       50
176
     1
 90
        3
176
     1
 62
     5
420
      255
176
     1
290
     0
176
     1
 90
       50
176
     1
 90
       50
176
     1
 90
       50
176
     1
290
     0
176
     1
 90
       50
176
     1
 62
   256
176
     0
 40
1.0
176
     0
 90
        2
176
     1
  1
strokes_ogs.tif
176
     1
290
     0
176
     1
 40
1.0
176
     1
 40
1.0
176
     1
  0
VISUALSTYLE
  5
F3
102
{ACAD_REACTORS
330
F0
102
}
330
F0
100
AcDbVisualStyle
  2
Gouraud
 70
     2
177
     3
291
     1
 70
    58
 90
        2
176
     1
 90
        2
176
     1
 90
        1
176
     1
 90
        2
176
     1
 40
0.6
176
     1
 40
30.0
176
     1
 62
     7
420
 16777215
176
     1
 90
        0
176
     1
 90
        4
176
     1
 62
     7
176
     1
 62
   257
176
     1
 90
        1
176
     1
 90
        1
176
     1
 40
1.0
176
     1
 90
        0
176
     1
 62
     7
176
     1
 40
1.0
176
     1
 90
        1
176
     1
 90
        6
176
     1
 90
        2
176
     1
 62
     7
176
     1
 90
        5
176
     1
 90
        0
176
     1
 90
        0
176
     1
290
     0
176
     1
 90
        1
176
     1
 40
0.0
176
     1
 90
        0
176
     1
290
     0
176
     1
290
     1
176
     1
290
     1
176
     1
290
     0
176
     1
290
     0
176
     1
290
     0
176
     1
290
     0
176
     1
290
     0
176
     1
290
     0
176
     1
 90
       50
176
     1
 40
0.0
176
     1
 40
1.0
176
     1
 90
        0
176
     1
 62
    18
420
        0
176
     1
 90
       50
176
     1
 90
        3
176
     1
 62
     5
420
      255
176
     1
290
     0
176
     1
 90
       50
176
     1
 90
       50
176
     1
 90
       50
176
     1
290
     0
176
     1
 90
       50
176
     1
 62
   256
176
     0
 40
1.0
176
     0
 90
        2
176
     1
  1
strokes_ogs.tif
176
     1
290
     0
176
     1
 40
1.0
176
     1
 40
1.0
176
     1
  0
VISUALSTYLE
  5
F4
102
{ACAD_REACTORS
330
F0
102
}
330
F0
100
AcDbVisualStyle
  2
GouraudWithEdges
 70
     3
177
     3
291
     1
 70
    58
 90
        2
176
     1
 90
        2
176
     1
 90
        1
176
     1
 90
        2
176
     1
 40
0.6
176
     1
 40
30.0
176
     1
 62
     7
420
 16777215
176
     1
 90
        1
176
     1
 90
        4
176
     1
 62
     7
176
     1
 62
   257
176
     1
 90
        1
176
     1
 90
        1
176
     1
 40
1.0
176
     1
 90
        0
176
     1
 62
   257
176
     1
 40
1.0
176
     1
 90
        1
176
     1
 90
        6
176
     1
 90
        2
176
     1
 62
     7
176
     1
 90
        5
176
     1
 90
        0
176
     1
 90
        0
176
     1
290
     0
176
     1
 90
        1
176
     1
 40
0.0
176
     1
 90
        0
176
     1
290
     0
176
     1
290
     1
176
     1
290
     1
176
     1
290
     0
176
     1
290
     0
176
     1
290
     0
176
     1
290
     0
176
     1
290
     0
176
     1
290
     0
176
     1
 90
       50
176
     1
 40
0.0
176
     1
 40
1.0
176
     1
 90
        0
176
     1
 62
    18
420
        0
176
     1
 90
       50
176
     1
 90
        3
176
     1
 62
     5
420
      255
176
     1
290
     0
176
     1
 90
       50
176
     1
 90
       50
176
     1
 90
       50
176
     1
290
     0
176
     1
 90
       50
176
     1
 62
   256
176
     0
 40
1.0
176
     0
 90
        2
176
     1
  1
strokes_ogs.tif
176
     1
290
     0
176
     1
 40
1.0
176
     1
 40
1.0
176
     1
  0
VISUALSTYLE
  5
48D
102
{ACAD_REACTORS
330
F0
102
}
330
F0
100
AcDbVisualStyle
  2
Hidden
 70
     6
177
     3
291
     0
 70
    58
 90
        1
176
     1
 90
        2
176
     1
 90
        2
176
     1
 90
        0
176
     1
 40
0.6
176
     1
 40
30.0
176
     1
 62
     7
420
 16777215
176
     1
 90
        2
176
     1
 90
        2
176
     1
 62
     7
176
     1
 62
   257
176
     1
 90
        2
176
     1
 90
        1
176
     1
 40
40.0
176
     1
 90
        0
176
     1
 62
   257
176
     1
 40
1.0
176
     1
 90
        1
176
     1
 90
        6
176
     1
 90
        2
176
     1
 62
     7
176
     1
 90
        3
176
     1
 90
        0
176
     1
 90
        0
176
     1
290
     0
176
     1
 90
        1
176
     1
 40
0.0
176
     1
 90
        0
176
     1
290
     0
176
     1
290
     1
176
     1
290
     1
176
     1
290
     0
176
     1
290
     0
176
     1
290
     0
176
     1
290
     0
176
     1
290
     0
176
     1
290
     0
176
     1
 90
       50
176
     1
 40
0.0
176
     1
 40
1.0
176
     1
 90
        0
176
     1
 62
    18
420
        0
176
     1
 90
       50
176
     1
 90
        3
176
     1
 62
     5
420
      255
176
     1
290
     0
176
     1
 90
       50
176
     1
 90
       50
176
     1
 90
       50
176
     1
290
     0
176
     1
 90
       50
176
     1
 62
   256
176
     0
 40
1.0
176
     0
 90
        2
176
     1
  1
strokes_ogs.tif
176
     1
290
     0
176
     1
 40
1.0
176
     1
 40
1.0
176
     1
  0
VISUALSTYLE
  5
493
102
{ACAD_REACTORS
330
F0
102
}
330
F0
100
AcDbVisualStyle
  2
JitterOff
 70
    20
177
     3
291
     1
 70
    58
 90
        2
176
     0
 90
        2
176
     0
 90
        0
176
     0
 90
        0
176
     0
 40
0.6
176
     0
 40
30.0
176
     0
 62
     7
420
 16777215
176
     0
 90
        1
176
     0
 90
        4
176
     0
 62
     7
176
     0
 62
   257
176
     0
 90
        1
176
     0
 90
        1
176
     0
 40
1.0
176
     0
 90
       10
176
     2
 62
     7
176
     0
 40
1.0
176
     0
 90
        1
176
     0
 90
        6
176
     0
 90
        2
176
     0
 62
     7
176
     0
 90
        5
176
     0
 90
        0
176
     0
 90
        0
176
     0
290
     0
176
     0
 90
        1
176
     0
 40
0.0
176
     0
 90
        0
176
     0
290
     0
176
     0
290
     1
176
     0
290
     1
176
     0
290
     0
176
     0
290
     0
176
     0
290
     0
176
     0
290
     0
176
     0
290
     0
176
     0
290
     0
176
     0
 90
       50
176
     0
 40
0.0
176
     0
 40
1.0
176
     0
 90
        0
176
     0
 62
    18
420
        0
176
     0
 90
       50
176
     0
 90
        3
176
     0
 62
     5
420
      255
176
     0
290
     0
176
     0
 90
       50
176
     0
 90
       50
176
     0
 90
       50
176
     0
290
     0
176
     0
 90
       50
176
     0
 62
   256
176
     0
 40
1.0
176
     0
 90
        2
176
     0
  1
strokes_ogs.tif
176
     0
290
     0
176
     0
 40
1.0
176
     0
 40
1.0
176
     0
  0
VISUALSTYLE
  5
FE
102
{ACAD_REACTORS
330
F0
102
}
330
F0
100
AcDbVisualStyle
  2
Linepattern
 70
    14
177
     3
291
     1
 70
    58
 90
        2
176
     1
 90
        2
176
     1
 90
        1
176
     1
 90
        0
176
     1
 40
0.6
176
     1
 40
30.0
176
     1
 62
     7
420
 16777215
176
     1
 90
        1
176
     1
 90
        4
176
     1
 62
     7
176
     1
 62
   257
176
     1
 90
        7
176
     1
 90
        7
176
     1
 40
1.0
176
     1
 90
        8
176
     1
 62
     7
176
     1
 40
1.0
176
     1
 90
        1
176
     1
 90
        6
176
     1
 90
        2
176
     1
 62
     7
176
     1
 90
        5
176
     1
 90
        0
176
     1
 90
        0
176
     1
290
     0
176
     1
 90
        1
176
     1
 40
0.0
176
     1
 90
        0
176
     1
290
     0
176
     1
290
     1
176
     1
290
     1
176
     1
290
     0
176
     1
290
     0
176
     1
290
     0
176
     1
290
     0
176
     1
290
     0
176
     1
290
     0
176
     1
 90
       50
176
     1
 40
0.0
176
     1
 40
1.0
176
     1
 90
        0
176
     1
 62
    18
420
        0
176
     1
 90
       50
176
     1
 90
        3
176
     1
 62
     5
420
      255
176
     1
290
     0
176
     1
 90
       50
176
     1
 90
       50
176
     1
 90
       50
176
     1
290
     0
176
     1
 90
       50
176
     1
 62
   256
176
     0
 40
1.0
176
     0
 90
        2
176
     1
  1
strokes_ogs.tif
176
     1
290
     0
176
     1
 40
1.0
176
     1
 40
1.0
176
     1
  0
VISUALSTYLE
  5
494
102
{ACAD_REACTORS
330
F0
102
}
330
F0
100
AcDbVisualStyle
  2
OverhangOff
 70
    21
177
     3
291
     1
 70
    58
 90
        2
176
     0
 90
        2
176
     0
 90
        0
176
     0
 90
        0
176
     0
 40
0.6
176
     0
 40
30.0
176
     0
 62
     7
420
 16777215
176
     0
 90
        1
176
     0
 90
        4
176
     0
 62
     7
176
     0
 62
   257
176
     0
 90
        1
176
     0
 90
        1
176
     0
 40
1.0
176
     0
 90
        9
176
     2
 62
     7
176
     0
 40
1.0
176
     0
 90
        1
176
     0
 90
        6
176
     0
 90
        2
176
     0
 62
     7
176
     0
 90
        5
176
     0
 90
        0
176
     0
 90
        0
176
     0
290
     0
176
     0
 90
        1
176
     0
 40
0.0
176
     0
 90
        0
176
     0
290
     0
176
     0
290
     1
176
     0
290
     1
176
     0
290
     0
176
     0
290
     0
176
     0
290
     0
176
     0
290
     0
176
     0
290
     0
176
     0
290
     0
176
     0
 90
       50
176
     0
 40
0.0
176
     0
 40
1.0
176
     0
 90
        0
176
     0
 62
    18
420
        0
176
     0
 90
       50
176
     0
 90
        3
176
     0
 62
     5
420
      255
176
     0
290
     0
176
     0
 90
       50
176
     0
 90
       50
176
     0
 90
       50
176
     0
290
     0
176
     0
 90
       50
176
     0
 62
   256
176
     0
 40
1.0
176
     0
 90
        2
176
     0
  1
strokes_ogs.tif
176
     0
290
     0
176
     0
 40
1.0
176
     0
 40
1.0
176
     0
  0
VISUALSTYLE
  5
FA
102
{ACAD_REACTORS
330
F0
102
}
330
F0
100
AcDbVisualStyle
  2
Realistic
 70
     8
177
     3
291
     0
 70
    58
 90
        2
176
     1
 90
        2
176
     1
 90
        1
176
     1
 90
        0
176
     1
 40
0.6
176
     1
 40
30.0
176
     1
 62
     7
420
 16777215
176
     1
 90
        1
176
     1
 90
        0
176
     1
 62
     7
176
     1
 62
   257
176
     1
 90
        1
176
     1
 90
        1
176
     1
 40
1.0
176
     1
 90
        8
176
     1
 62
     8
420
  7895160
176
     1
 40
1.0
176
     1
 90
        1
176
     1
 90
        6
176
     1
 90
        2
176
     1
 62
     7
176
     1
 90
        5
176
     1
 90
        0
176
     1
 90
        0
176
     1
290
     0
176
     1
 90
       13
176
     1
 40
0.0
176
     1
 90
        0
176
     1
290
     0
176
     1
290
     1
176
     1
290
     1
176
     1
290
     0
176
     1
290
     0
176
     1
290
     0
176
     1
290
     0
176
     1
290
     0
176
     1
290
     0
176
     1
 90
       50
176
     1
 40
0.0
176
     1
 40
1.0
176
     1
 90
        0
176
     1
 62
    18
420
        0
176
     1
 90
       50
176
     1
 90
        3
176
     1
 62
     5
420
      255
176
     1
290
     0
176
     1
 90
       50
176
     1
 90
       50
176
     1
 90
       50
176
     1
290
     0
176
     1
 90
       50
176
     1
 62
   256
176
     0
 40
1.0
176
     0
 90
        2
176
     1
  1
strokes_ogs.tif
176
     1
290
     0
176
     1
 40
1.0
176
     1
 40
1.0
176
     1
  0
VISUALSTYLE
  5
492
102
{ACAD_REACTORS
330
F0
102
}
330
F0
100
AcDbVisualStyle
  2
Shaded
 70
    27
177
     3
291
     0
 70
    58
 90
        2
176
     1
 90
        2
176
     1
 90
        1
176
     1
 90
        2
176
     1
 40
0.6
176
     1
 40
30.0
176
     1
 62
     7
420
 16777215
176
     1
 90
        0
176
     1
 90
        4
176
     1
 62
     7
176
     1
 62
   257
176
     1
 90
        1
176
     1
 90
        1
176
     1
 40
1.0
176
     1
 90
        8
176
     1
 62
   257
176
     1
 40
1.0
176
     1
 90
        1
176
     1
 90
        6
176
     1
 90
        2
176
     1
 62
     8
420
  7895160
176
     1
 90
        3
176
     1
 90
        0
176
     1
 90
        0
176
     1
290
     0
176
     1
 90
        5
176
     1
 40
0.0
176
     1
 90
        0
176
     1
290
     0
176
     1
290
     1
176
     1
290
     1
176
     1
290
     0
176
     1
290
     0
176
     1
290
     0
176
     1
290
     0
176
     1
290
     0
176
     1
290
     0
176
     1
 90
       50
176
     1
 40
0.0
176
     1
 40
1.0
176
     1
 90
        0
176
     1
 62
    18
420
        0
176
     1
 90
       50
176
     1
 90
        3
176
     1
 62
     5
420
      255
176
     1
290
     0
176
     1
 90
       50
176
     1
 90
       50
176
     1
 90
       50
176
     1
290
     0
176
     1
 90
       50
176
     1
 62
   256
176
     0
 40
1.0
176
     0
 90
        2
176
     1
  1
strokes_ogs.tif
176
     1
290
     0
176
     1
 40
1.0
176
     1
 40
1.0
176
     1
  0
VISUALSTYLE
  5
491
102
{ACAD_REACTORS
330
F0
102
}
330
F0
100
AcDbVisualStyle
  2
Shaded with edges
 70
    26
177
     3
291
     0
 70
    58
 90
        2
176
     1
 90
        2
176
     1
 90
        1
176
     1
 90
        2
176
     1
 40
0.6
176
     1
 40
30.0
176
     1
 62
     7
420
 16777215
176
     1
 90
        1
176
     1
 90
        2
176
     1
 62
     7
176
     1
 62
   257
176
     1
 90
        2
176
     1
 90
        1
176
     1
 40
1.0
176
     1
 90
        8
176
     1
 62
   257
176
     1
 40
1.0
176
     1
 90
        1
176
     1
 90
        6
176
     1
 90
        2
176
     1
 62
     7
176
     1
 90
        3
176
     1
 90
        0
176
     1
 90
        0
176
     1
290
     0
176
     1
 90
        5
176
     1
 40
0.0
176
     1
 90
        0
176
     1
290
     0
176
     1
290
     1
176
     1
290
     1
176
     1
290
     0
176
     1
290
     0
176
     1
290
     0
176
     1
290
     0
176
     1
290
     0
176
     1
290
     0
176
     1
 90
       50
176
     1
 40
0.0
176
     1
 40
1.0
176
     1
 90
        0
176
     1
 62
    18
420
        0
176
     1
 90
       50
176
     1
 90
        3
176
     1
 62
     5
420
      255
176
     1
290
     0
176
     1
 90
       50
176
     1
 90
       50
176
     1
 90
       50
176
     1
290
     0
176
     1
 90
       50
176
     1
 62
   256
176
     0
 40
1.0
176
     0
 90
        2
176
     1
  1
strokes_ogs.tif
176
     1
290
     0
176
     1
 40
1.0
176
     1
 40
1.0
176
     1
  0
VISUALSTYLE
  5
48E
102
{ACAD_REACTORS
330
F0
102
}
330
F0
100
AcDbVisualStyle
  2
Shades of Gray
 70
    23
177
     3
291
     0
 70
    58
 90
        2
176
     1
 90
        2
176
     1
 90
        3
176
     1
 90
        0
176
     1
 40
0.6
176
     1
 40
30.0
176
     1
 62
     7
420
 16777215
176
     1
 90
        2
176
     1
 90
        2
176
     1
 62
     7
176
     1
 62
     7
176
     1
 90
        1
176
     1
 90
        1
176
     1
 40
40.0
176
     1
 90
        8
176
     1
 62
     7
176
     1
 40
1.0
176
     1
 90
        1
176
     1
 90
        6
176
     1
 90
        2
176
     1
 62
     7
176
     1
 90
        3
176
     1
 90
        0
176
     1
 90
        0
176
     1
290
     0
176
     1
 90
        1
176
     1
 40
0.0
176
     1
 90
        0
176
     1
290
     0
176
     1
290
     1
176
     1
290
     1
176
     1
290
     0
176
     1
290
     0
176
     1
290
     0
176
     1
290
     0
176
     1
290
     0
176
     1
290
     0
176
     1
 90
       50
176
     1
 40
0.0
176
     1
 40
1.0
176
     1
 90
        0
176
     1
 62
    18
420
        0
176
     1
 90
       50
176
     1
 90
        3
176
     1
 62
     5
420
      255
176
     1
290
     0
176
     1
 90
       50
176
     1
 90
       50
176
     1
 90
       50
176
     1
290
     0
176
     1
 90
       50
176
     1
 62
   256
176
     0
 40
1.0
176
     0
 90
        2
176
     1
  1
strokes_ogs.tif
176
     1
290
     0
176
     1
 40
1.0
176
     1
 40
1.0
176
     1
  0
VISUALSTYLE
  5
48F
102
{ACAD_REACTORS
330
F0
102
}
330
F0
100
AcDbVisualStyle
  2
Sketchy
 70
    24
177
     3
291
     0
 70
    58
 90
        1
176
     1
 90
        2
176
     1
 90
        2
176
     1
 90
        0
176
     1
 40
0.6
176
     1
 40
30.0
176
     1
 62
     7
420
 16777215
176
     1
 90
        2
176
     1
 90
        2
176
     1
 62
     7
176
     1
 62
     7
176
     1
 90
        1
176
     1
 90
        1
176
     1
 40
40.0
176
     1
 90
       11
176
     1
 62
     7
176
     1
 40
1.0
176
     1
 90
        1
176
     1
 90
        6
176
     1
 90
        2
176
     1
 62
     7
176
     1
 90
        6
176
     1
 90
        0
176
     1
 90
        0
176
     1
290
     0
176
     1
 90
        1
176
     1
 40
0.0
176
     1
 90
        0
176
     1
290
     0
176
     1
290
     1
176
     1
290
     1
176
     1
290
     0
176
     1
290
     0
176
     1
290
     0
176
     1
290
     0
176
     1
290
     0
176
     1
290
     0
176
     1
 90
       50
176
     1
 40
0.0
176
     1
 40
1.0
176
     1
 90
        0
176
     1
 62
    18
420
        0
176
     1
 90
       50
176
     1
 90
        3
176
     1
 62
     5
420
      255
176
     1
290
     0
176
     1
 90
       50
176
     1
 90
       50
176
     1
 90
       50
176
     1
290
     0
176
     1
 90
       50
176
     1
 62
   256
176
     0
 40
1.0
176
     0
 90
        2
176
     1
  1
strokes_ogs.tif
176
     1
290
     0
176
     1
 40
1.0
176
     1
 40
1.0
176
     1
  0
VISUALSTYLE
  5
FD
102
{ACAD_REACTORS
330
F0
102
}
330
F0
100
AcDbVisualStyle
  2
Thicken
 70
    13
177
     3
291
     1
 70
    58
 90
        2
176
     1
 90
        2
176
     1
 90
        1
176
     1
 90
        0
176
     1
 40
0.6
176
     1
 40
30.0
176
     1
 62
     7
420
 16777215
176
     1
 90
        1
176
     1
 90
        4
176
     1
 62
     7
176
     1
 62
   257
176
     1
 90
        1
176
     1
 90
        1
176
     1
 40
1.0
176
     1
 90
       12
176
     1
 62
     7
176
     1
 40
1.0
176
     1
 90
        1
176
     1
 90
        6
176
     1
 90
        2
176
     1
 62
     7
176
     1
 90
        5
176
     1
 90
        0
176
     1
 90
        0
176
     1
290
     0
176
     1
 90
        1
176
     1
 40
0.0
176
     1
 90
        0
176
     1
290
     0
176
     1
290
     1
176
     1
290
     1
176
     1
290
     0
176
     1
290
     0
176
     1
290
     0
176
     1
290
     0
176
     1
290
     0
176
     1
290
     0
176
     1
 90
       50
176
     1
 40
0.0
176
     1
 40
1.0
176
     1
 90
        0
176
     1
 62
    18
420
        0
176
     1
 90
       50
176
     1
 90
        3
176
     1
 62
     5
420
      255
176
     1
290
     0
176
     1
 90
       50
176
     1
 90
       50
176
     1
 90
       50
176
     1
290
     0
176
     1
 90
       50
176
     1
 62
   256
176
     0
 40
1.0
176
     0
 90
        2
176
     1
  1
strokes_ogs.tif
176
     1
290
     0
176
     1
 40
1.0
176
     1
 40
1.0
176
     1
  0
VISUALSTYLE
  5
48C
102
{ACAD_REACTORS
330
F0
102
}
330
F0
100
AcDbVisualStyle
  2
Wireframe
 70
     5
177
     3
291
     0
 70
    58
 90
        0
176
     1
 90
        2
176
     1
 90
        0
176
     1
 90
        0
176
     1
 40
0.6
176
     1
 40
30.0
176
     1
 62
     7
420
 16777215
176
     1
 90
        1
176
     1
 90
        4
176
     1
 62
     7
176
     1
 62
   257
176
     1
 90
        1
176
     1
 90
        1
176
     1
 40
1.0
176
     1
 90
        0
176
     1
 62
   257
176
     1
 40
1.0
176
     1
 90
        1
176
     1
 90
        6
176
     1
 90
        2
176
     1
 62
     7
176
     1
 90
        3
176
     1
 90
        0
176
     1
 90
        0
176
     1
290
     0
176
     1
 90
        1
176
     1
 40
0.0
176
     1
 90
        0
176
     1
290
     0
176
     1
290
     1
176
     1
290
     1
176
     1
290
     0
176
     1
290
     0
176
     1
290
     0
176
     1
290
     0
176
     1
290
     0
176
     1
290
     0
176
     1
 90
       50
176
     1
 40
0.0
176
     1
 40
1.0
176
     1
 90
        0
176
     1
 62
    18
420
        0
176
     1
 90
       50
176
     1
 90
        3
176
     1
 62
     5
420
      255
176
     1
290
     0
176
     1
 90
       50
176
     1
 90
       50
176
     1
 90
       50
176
     1
290
     0
176
     1
 90
       50
176
     1
 62
   256
176
     0
 40
1.0
176
     0
 90
        2
176
     1
  1
strokes_ogs.tif
176
     1
290
     0
176
     1
 40
1.0
176
     1
 40
1.0
176
     1
  0
VISUALSTYLE
  5
490
102
{ACAD_REACTORS
330
F0
102
}
330
F0
100
AcDbVisualStyle
  2
X-Ray
 70
    25
177
     3
291
     0
 70
    58
 90
        2
176
     1
 90
        2
176
     1
 90
        1
176
     1
 90
        1
176
     1
 40
0.5
176
     1
 40
30.0
176
     1
 62
     7
420
 16777215
176
     1
 90
        1
176
     1
 90
        0
176
     1
 62
     7
176
     1
 62
   257
176
     1
 90
        1
176
     1
 90
        1
176
     1
 40
1.0
176
     1
 90
        8
176
     1
 62
     7
176
     1
 40
1.0
176
     1
 90
        1
176
     1
 90
        6
176
     1
 90
        2
176
     1
 62
     7
176
     1
 90
        3
176
     1
 90
        0
176
     1
 90
        0
176
     1
290
     0
176
     1
 90
       13
176
     1
 40
0.0
176
     1
 90
        0
176
     1
290
     0
176
     1
290
     1
176
     1
290
     1
176
     1
290
     0
176
     1
290
     0
176
     1
290
     0
176
     1
290
     0
176
     1
290
     0
176
     1
290
     0
176
     1
 90
       50
176
     1
 40
0.0
176
     1
 40
1.0
176
     1
 90
        0
176
     1
 62
    18
420
        0
176
     1
 90
       50
176
     1
 90
        3
176
     1
 62
     5
420
      255
176
     1
290
     0
176
     1
 90
       50
176
     1
 90
       50
176
     1
 90
       50
176
     1
290
     0
176
     1
 90
       50
176
     1
 62
   256
176
     0
 40
1.0
176
     0
 90
        2
176
     1
  1
strokes_ogs.tif
176
     1
290
     0
176
     1
 40
1.0
176
     1
 40
1.0
176
     1
  0
DICTIONARYVAR
  5
4CA
102
{ACAD_REACTORS
330
5E
102
}
330
5E
100
DictionaryVariables
280
     0
  1
1:1
  0
DICTIONARYVAR
  5
4C6
102
{ACAD_REACTORS
330
5E
102
}
330
5E
100
DictionaryVariables
280
     0
  1
STANDARD
  0
DICTIONARYVAR
  5
84
102
{ACAD_REACTORS
330
5E
102
}
330
5E
100
DictionaryVariables
280
     0
  1
STANDARD
  0
DICTIONARYVAR
  5
4C7
102
{ACAD_REACTORS
330
5E
102
}
330
5E
100
DictionaryVariables
280
     0
  1
Metric50
  0
DICTIONARYVAR
  5
4C8
102
{ACAD_REACTORS
330
5E
102
}
330
5E
100
DictionaryVariables
280
     0
  1
Metric50
  0
DICTIONARYVAR
  5
5F
102
{ACAD_REACTORS
330
5E
102
}
330
5E
100
DictionaryVariables
280
     0
  1
2
  0
DICTIONARYVAR
  5
63
102
{ACAD_REACTORS
330
5E
102
}
330
5E
100
DictionaryVariables
280
     0
  1
1
  0
DICTIONARYVAR
  5
4CC
102
{ACAD_REACTORS
330
5E
102
}
330
5E
100
DictionaryVariables
280
     0
  1
1
  0
DICTIONARYVAR
  5
4CD
102
{ACAD_REACTORS
330
5E
102
}
330
5E
100
DictionaryVariables
280
     0
  1
15
  0
DICTIONARYVAR
  5
4CB
102
{ACAD_REACTORS
330
5E
102
}
330
5E
100
DictionaryVariables
280
     0
  1
0
  0
DICTIONARYVAR
  5
4C9
102
{ACAD_REACTORS
330
5E
102
}
330
5E
100
DictionaryVariables
280
     0
  1
0
  0
DICTIONARY
  5
4D2
330
4AD
100
AcDbDictionary
280
     1
281
     1
  3
ACAD_XREC_ROUNDTRIP
360
4D3
  0
DICTIONARY
  5
4D0
330
4AB
100
AcDbDictionary
280
     1
281
     1
  3
ACAD_XREC_ROUNDTRIP
360
4D1
  0
DICTIONARY
  5
4CE
330
7F
100
AcDbDictionary
280
     1
281
     1
  3
ACAD_ROUNDTRIP_2008_TABLESTYLE_CELLSTYLEMAP
360
4CF
  0
XRECORD
  5
4D3
102
{ACAD_REACTORS
330
4D2
102
}
330
4D2
100
AcDbXrecord
280
     1
102
DISPLAYNAME
  1
Metric50
102
FLAGS
 90
        0
  0
XRECORD
  5
4D1
102
{ACAD_REACTORS
330
4D0
102
}
330
4D0
100
AcDbXrecord
280
     1
102
DISPLAYNAME
  1
Metric50
102
FLAGS
 90
        0
  0
CELLSTYLEMAP
  5
4CF
102
{ACAD_REACTORS
330
4CE
102
}
330
4CE
100
AcDbCellStyleMap
 90
        3
300
CELLSTYLE
  1
TABLEFORMAT_BEGIN
 90
        5
170
     1
 91
        0
 92
    32768
 62
   257
 93
        1
300
CONTENTFORMAT
  1
CONTENTFORMAT_BEGIN
 90
        0
 91
        0
 92
      512
 93
        0
300

 40
0.0
140
1.0
 94
        5
 62
     0
340
11
144
6.0
309
CONTENTFORMAT_END
171
     1
301
MARGIN
  1
CELLMARGIN_BEGIN
 40
1.5
 40
1.5
 40
1.5
 40
1.5
 40
0.18
 40
0.18
309
CELLMARGIN_END
 94
        6
 95
        1
302
GRIDFORMAT
  1
GRIDFORMAT_BEGIN
 90
        0
 91
        1
 62
     0
 92
       -2
340
0
 93
        0
 40
0.045
309
GRIDFORMAT_END
 95
        2
302
GRIDFORMAT
  1
GRIDFORMAT_BEGIN
 90
        0
 91
        1
 62
     0
 92
       -2
340
0
 93
        0
 40
0.045
309
GRIDFORMAT_END
 95
        4
302
GRIDFORMAT
  1
GRIDFORMAT_BEGIN
 90
        0
 91
        1
 62
     0
 92
       -2
340
0
 93
        0
 40
0.045
309
GRIDFORMAT_END
 95
        8
302
GRIDFORMAT
  1
GRIDFORMAT_BEGIN
 90
        0
 91
        1
 62
     0
 92
       -2
340
0
 93
        0
 40
0.045
309
GRIDFORMAT_END
 95
       16
302
GRIDFORMAT
  1
GRIDFORMAT_BEGIN
 90
        0
 91
        1
 62
     0
 92
       -2
340
0
 93
        0
 40
0.045
309
GRIDFORMAT_END
 95
       32
302
GRIDFORMAT
  1
GRIDFORMAT_BEGIN
 90
        0
 91
        1
 62
     0
 92
       -2
340
0
 93
        0
 40
0.045
309
GRIDFORMAT_END
309
TABLEFORMAT_END
  1
CELLSTYLE_BEGIN
 90
        1
 91
        1
300
_TITLE
309
CELLSTYLE_END
300
CELLSTYLE
  1
TABLEFORMAT_BEGIN
 90
        5
170
     1
 91
        0
 92
        0
 62
   257
 93
        1
300
CONTENTFORMAT
  1
CONTENTFORMAT_BEGIN
 90
        0
 91
        0
 92
      512
 93
        0
300

 40
0.0
140
1.0
 94
        5
 62
     0
340
11
144
4.5
309
CONTENTFORMAT_END
171
     1
301
MARGIN
  1
CELLMARGIN_BEGIN
 40
1.5
 40
1.5
 40
1.5
 40
1.5
 40
0.18
 40
0.18
309
CELLMARGIN_END
 94
        6
 95
        1
302
GRIDFORMAT
  1
GRIDFORMAT_BEGIN
 90
        0
 91
        1
 62
     0
 92
       -2
340
0
 93
        0
 40
0.045
309
GRIDFORMAT_END
 95
        2
302
GRIDFORMAT
  1
GRIDFORMAT_BEGIN
 90
        0
 91
        1
 62
     0
 92
       -2
340
0
 93
        0
 40
0.045
309
GRIDFORMAT_END
 95
        4
302
GRIDFORMAT
  1
GRIDFORMAT_BEGIN
 90
        0
 91
        1
 62
     0
 92
       -2
340
0
 93
        0
 40
0.045
309
GRIDFORMAT_END
 95
        8
302
GRIDFORMAT
  1
GRIDFORMAT_BEGIN
 90
        0
 91
        1
 62
     0
 92
       -2
340
0
 93
        0
 40
0.045
309
GRIDFORMAT_END
 95
       16
302
GRIDFORMAT
  1
GRIDFORMAT_BEGIN
 90
        0
 91
        1
 62
     0
 92
       -2
340
0
 93
        0
 40
0.045
309
GRIDFORMAT_END
 95
       32
302
GRIDFORMAT
  1
GRIDFORMAT_BEGIN
 90
        0
 91
        1
 62
     0
 92
       -2
340
0
 93
        0
 40
0.045
309
GRIDFORMAT_END
309
TABLEFORMAT_END
  1
CELLSTYLE_BEGIN
 90
        2
 91
        1
300
_HEADER
309
CELLSTYLE_END
300
CELLSTYLE
  1
TABLEFORMAT_BEGIN
 90
        5
170
     1
 91
        0
 92
        0
 62
   257
 93
        1
300
CONTENTFORMAT
  1
CONTENTFORMAT_BEGIN
 90
        0
 91
        0
 92
      512
 93
        0
300

 40
0.0
140
1.0
 94
        2
 62
     0
340
11
144
4.5
309
CONTENTFORMAT_END
171
     1
301
MARGIN
  1
CELLMARGIN_BEGIN
 40
1.5
 40
1.5
 40
1.5
 40
1.5
 40
0.18
 40
0.18
309
CELLMARGIN_END
 94
        6
 95
        1
302
GRIDFORMAT
  1
GRIDFORMAT_BEGIN
 90
        0
 91
        1
 62
     0
 92
       -2
340
0
 93
        0
 40
0.045
309
GRIDFORMAT_END
 95
        2
302
GRIDFORMAT
  1
GRIDFORMAT_BEGIN
 90
        0
 91
        1
 62
     0
 92
       -2
340
0
 93
        0
 40
0.045
309
GRIDFORMAT_END
 95
        4
302
GRIDFORMAT
  1
GRIDFORMAT_BEGIN
 90
        0
 91
        1
 62
     0
 92
       -2
340
0
 93
        0
 40
0.045
309
GRIDFORMAT_END
 95
        8
302
GRIDFORMAT
  1
GRIDFORMAT_BEGIN
 90
        0
 91
        1
 62
     0
 92
       -2
340
0
 93
        0
 40
0.045
309
GRIDFORMAT_END
 95
       16
302
GRIDFORMAT
  1
GRIDFORMAT_BEGIN
 90
        0
 91
        1
 62
     0
 92
       -2
340
0
 93
        0
 40
0.045
309
GRIDFORMAT_END
 95
       32
302
GRIDFORMAT
  1
GRIDFORMAT_BEGIN
 90
        0
 91
        1
 62
     0
 92
       -2
340
0
 93
        0
 40
0.045
309
GRIDFORMAT_END
309
TABLEFORMAT_END
  1
CELLSTYLE_BEGIN
 90
        3
 91
        2
300
_DATA
309
CELLSTYLE_END
  0
ENDSEC
  0
EOF
